osu file format v14

[General]
AudioFilename: audio.mp3
AudioLeadIn: 0
PreviewTime: 414
Countdown: 0
SampleSet: Soft
StackLeniency: 0.7
Mode: 0
LetterboxInBreaks: 0
WidescreenStoryboard: 1

[Editor]
Bookmarks: 15498,27498,39498,54498,88263,93513,105513,129513,135513
DistanceSpacing: 1
BeatDivisor: 8
GridSize: 16
TimelineZoom: 2.599999

[Metadata]
Title:OverThink
TitleUnicode:OverThink
Artist:Fan Ka
ArtistUnicode:饭卡
Creator:AirinCat
Version:Hard
Source:时光代理人
Tags:Shiguang Dailiren Link Click Shi Guang Dai Li Ren chinese hip-hop rap pop anime ending ed english Cheng Xiaoshi Lu Guang 程 小时 陆 光 time agents donghua dong hua
BeatmapID:3449593
BeatmapSetID:1684961

[Difficulty]
HPDrainRate:4
CircleSize:3.8
OverallDifficulty:6
ApproachRate:7.6
SliderMultiplier:1.4
SliderTickRate:1

[Events]
//Background and Video events
0,0,"link.jpg",0,0
//Break Periods
//Storyboard Layer 0 (Background)
//Storyboard Layer 1 (Fail)
//Storyboard Layer 2 (Pass)
//Storyboard Layer 3 (Foreground)
//Storyboard Layer 4 (Overlay)
//Storyboard Sound Samples

[TimingPoints]
508,375,4,2,1,40,1,0
508,-125,4,2,1,40,0,0
12133,-125,4,2,1,40,0,0
15508,-90.9090909090909,4,2,1,50,0,0
27508,-90.9090909090909,4,2,1,60,0,0
33508,-90.9090909090909,4,2,1,70,0,0
35758,-125,4,2,1,50,0,0
36508,-90.9090909090909,4,2,1,60,0,0
38758,-90.9090909090909,4,2,1,50,0,0
39508,-125,4,2,1,40,0,0
54508,-111.111111111111,4,2,1,70,0,0
54883,-90.9090909090909,4,2,1,70,0,1
56008,-250,4,2,1,70,0,0
56383,-90.9090909090909,4,2,1,70,0,1
65008,-250,4,2,1,70,0,0
65383,-90.9090909090909,4,2,1,70,0,1
66508,-250,4,2,1,70,0,0
66883,-90.9090909090909,4,2,1,70,0,1
67633,-250,4,2,1,70,0,0
68008,-250,4,2,1,70,0,0
68383,-90.9090909090909,4,2,1,70,0,1
76258,-100,4,2,1,70,0,1
76633,-76.9230769230769,4,2,1,40,0,0
81508,750,4,2,1,40,1,0
81508,-100,4,2,1,50,0,0
82258,-55.5555555555556,4,2,1,50,0,0
92008,714.285714285714,4,2,1,40,1,0
92722,857.142857142857,4,2,1,40,1,0
92722,-55.5555555555556,4,2,1,50,0,0
93150,705.882352941176,4,2,1,40,1,0
93150,-55.5555555555556,4,2,1,50,0,0
93502,750,4,2,1,40,1,0
93502,-55.5555555555556,4,2,1,50,0,0
103627,762.388818297332,4,2,1,40,1,0
103627,-71.4285714285714,4,2,1,60,0,0
104008,375,4,2,1,40,1,0
105508,-125,4,2,1,60,0,0
107008,-100,4,2,1,60,0,0
114133,-111.111111111111,4,2,1,60,0,0
114508,-100,4,2,1,60,0,0
122383,-111.111111111111,4,2,1,60,0,0
122758,-90.9090909090908,4,2,1,60,0,0
123508,-100,4,2,1,60,0,0
129414,-100,4,2,1,50,0,0
135508,-90.9090909090909,4,2,1,70,0,1
137758,-111.111111111111,4,2,1,70,0,0
138508,-90.9090909090909,4,2,1,70,0,1
141508,-250,4,2,1,70,0,0
141883,-90.9090909090909,4,2,1,70,0,1
143008,-250,4,2,1,70,0,0
143383,-90.9090909090909,4,2,1,70,0,1
144508,-250,4,2,1,70,0,0
144883,-90.9090909090909,4,2,1,70,0,1
152758,-125,4,2,1,70,0,1
153508,-111.111111111111,4,2,1,70,0,0
153883,-90.9090909090909,4,2,1,70,0,1
155008,-250,4,2,1,70,0,0
155383,-90.9090909090909,4,2,1,70,0,1
156508,-250,4,2,1,70,0,0
156883,-90.9090909090909,4,2,1,70,0,1
159508,-250,4,2,1,50,0,0

[Colours]
Combo1 : 222,205,203
Combo2 : 151,159,217
Combo3 : 129,214,228
Combo4 : 160,203,189

[HitObjects]
28,355,508,6,0,P|18:299|5:245,1,112,0|0,1:2|3:2,0:2:0:0:
48,174,1070,1,0,3:2:0:0:
122,211,1258,2,0,P|174:225|219:195,1,112,0|0,3:2|3:2,0:2:0:0:
270,121,1820,1,0,3:2:0:0:
270,121,2008,1,0,3:2:0:0:
512,261,2758,2,0,P|502:286|495:323,1,56,0|0,3:2|3:2,0:0:0:0:
415,364,3133,1,0,3:2:0:0:
415,364,3320,1,0,3:2:0:0:
361,286,3508,6,0,P|375:231|386:175,1,112,0|0,1:2|3:2,0:2:0:0:
460,133,4070,1,0,3:2:0:0:
413,66,4258,2,0,P|370:31|311:41,1,112,0|0,3:2|3:2,0:2:0:0:
247,82,4820,1,0,3:2:0:0:
247,82,5008,1,0,3:2:0:0:
21,21,5383,2,0,P|25:43|33:85,1,56,0|0,3:2|0:2,0:2:0:0:
108,131,5758,1,0,3:2:0:0:
49,199,5945,1,0,3:2:0:0:
130,231,6133,2,0,P|160:223|192:216,1,56,0|0,3:2|3:2,0:0:0:0:
244,142,6508,6,0,P|290:172|346:162,1,112,0|0,1:2|3:2,0:2:0:0:
413,104,7070,1,0,3:2:0:0:
460,179,7258,2,0,P|448:235|441:297,1,112,0|0,3:2|3:2,0:2:0:0:
470,367,7820,1,0,3:2:0:0:
470,367,8008,1,0,3:2:0:0:
231,230,8758,2,0,P|235:202|241:175,1,56,0|0,3:2|3:2,0:0:0:0:
315,127,9133,1,0,3:2:0:0:
315,127,9320,1,0,3:2:0:0:
251,60,9508,6,0,P|193:51|141:41,1,112,0|0,1:2|3:2,0:2:0:0:
66,0,10070,1,0,3:2:0:0:
60,86,10258,2,0,P|46:140|36:195,1,112,0|0,3:2|3:2,0:2:0:0:
93,267,10820,1,0,3:2:0:0:
93,267,11008,1,0,3:2:0:0:
268,210,11383,2,0,P|272:175|277:143,1,56,0|0,3:2|0:2,0:2:0:0:
341,91,11758,1,0,3:2:0:0:
422,101,11945,1,0,3:2:0:0:
461,180,12133,6,0,P|454:215|449:268,1,84,2|0,3:3|0:2,0:2:0:0:
449,263,12508,2,0,P|337:265|260:348,2,224,2|2|2,0:2|0:2|0:2,0:2:0:0:
249,213,14758,2,0,L|242:181,4,32,2|0|0|0|0,3:2|3:2|3:2|3:2|3:2,0:2:0:0:
209,293,15320,5,0,3:2:0:0:
209,293,15414,1,0,3:2:0:0:
209,293,15508,2,0,P|173:302|118:321,1,77.0000023498536,2|2,3:2|0:2,0:0:0:0:
135,314,15789,1,2,0:2:0:0:
135,314,15883,1,2,3:3:0:0:
55,288,16070,1,0,0:2:0:0:
93,207,16258,2,0,P|84:148|65:87,1,115.50000352478,10|2,0:2|0:2,0:2:0:0:
210,18,16820,5,2,3:2:0:0:
210,18,16914,1,2,3:2:0:0:
210,18,17008,2,0,P|198:54|191:92,1,77.0000023498536,2|0,3:2|3:2,0:0:0:0:
256,163,17383,1,2,3:2:0:0:
340,134,17570,1,2,0:2:0:0:
340,134,17664,1,2,0:2:0:0:
340,134,17758,2,0,P|351:97|358:59,2,77.0000023498536,10|0|0,0:2|3:2|3:2,0:2:0:0:
377,209,18320,1,2,3:2:0:0:
311,269,18508,6,0,L|300:323,3,38.5000011749268,2|2|2|2,3:2|0:2|0:2|0:2,0:0:0:0:
332,343,18883,2,0,P|369:349|406:360,1,77.0000023498536,2|0,3:3|3:2,0:2:0:0:
481,317,19258,2,0,P|509:268|494:214,1,115.50000352478,10|2,0:2|0:2,0:2:0:0:
400,92,19820,6,0,L|406:54,2,38.5000011749268,2|2|2,3:2|3:2|3:2,0:0:0:0:
338,158,20195,1,0,1:2:0:0:
338,158,20289,1,0,1:2:0:0:
338,158,20383,2,0,P|307:150|251:138,1,77.0000023498536,2|2,1:2|0:2,0:0:0:0:
182,82,20758,2,0,P|173:116|167:162,1,77.0000023498536,10|2,0:2|3:2,0:0:0:0:
122,234,21133,2,0,P|156:243|202:249,1,77.0000023498536,2|0,1:2|0:2,0:2:0:0:
265,320,21508,5,2,1:2:0:0:
265,320,21695,1,2,1:2:0:0:
180,354,21883,2,0,P|146:345|100:339,1,77.0000023498536,2|2,3:3|0:2,0:2:0:0:
104,339,22164,1,2,0:2:0:0:
104,339,22258,1,10,0:2:0:0:
30,378,22445,1,2,0:2:0:0:
0,296,22633,2,0,P|10:255|16:215,1,77.0000023498536,2|0,0:2|3:2,0:2:0:0:
73,154,23008,5,2,3:2:0:0:
73,154,23195,1,0,1:2:0:0:
135,213,23383,2,0,P|172:222|210:223,1,77.0000023498536,2|2,1:2|0:2,0:0:0:0:
273,162,23758,2,0,P|313:164|357:176,1,77.0000023498536,10|0,0:2|3:2,0:2:0:0:
416,239,24133,1,10,0:2:0:0:
490,193,24320,5,0,3:2:0:0:
490,193,24414,1,0,3:2:0:0:
490,193,24508,2,0,P|495:147|506:108,1,77.0000023498536,0|0,1:2|1:2,0:0:0:0:
440,54,24883,2,0,L|395:43,3,38.5000011749268,2|2|2|2,3:3|0:2|0:2|0:2,0:0:0:0:
357,61,25258,2,0,P|345:98|336:143,1,77.0000023498536,10|0,0:2|0:2,0:2:0:0:
256,186,25633,2,0,P|268:223|277:268,1,77.0000023498536,2|0,0:2|3:2,0:0:0:0:
236,346,26008,6,0,L|185:358,3,38.5000011749268,2|2|2|2,0:2|0:2|0:2|0:2,0:0:0:0:
153,343,26383,2,0,P|144:300|134:267,1,77.0000023498536,2|0,3:2|0:2,0:2:0:0:
58,227,26758,1,10,0:2:0:0:
58,227,26945,1,0,1:2:0:0:
84,145,27133,2,0,P|121:133|172:126,1,77.0000023498536,2|2,1:2|0:2,0:0:0:0:
220,52,27508,5,4,1:3:0:0:
220,52,27695,1,0,1:2:0:0:
294,91,27883,2,0,P|306:128|314:171,1,77.0000023498536,2|0,3:3|0:2,0:2:0:0:
253,237,28258,2,0,P|217:247|179:254,1,77.0000023498536,10|0,0:2|0:2,0:2:0:0:
209,349,28633,2,0,P|245:338|283:331,1,77.0000023498536,2|2,0:2|3:2,0:0:0:0:
364,276,29008,5,2,1:2:0:0:
437,317,29195,1,0,1:2:0:0:
492,253,29383,2,0,P|478:212|470:170,1,77.0000023498536,2|0,1:2|3:2,0:0:0:0:
404,117,29758,2,0,P|366:125|323:141,2,77.0000023498536,10|2|2,0:2|0:2|0:2,0:0:0:0:
416,36,30320,1,0,3:2:0:0:
326,1,30508,5,4,1:3:0:0:
326,1,30695,1,0,1:2:0:0:
259,74,30883,2,0,P|222:86|182:96,1,77.0000023498536,2|0,3:3|3:2,0:2:0:0:
105,144,31258,2,0,P|93:107|88:69,1,77.0000023498536,10|0,0:2|0:2,0:2:0:0:
0,88,31633,2,0,P|11:124|16:162,1,77.0000023498536,2|2,0:2|3:2,0:0:0:0:
85,251,32008,5,2,3:2:0:0:
85,251,32101,1,0,3:2:0:0:
85,251,32195,1,0,1:2:0:0:
169,279,32383,2,0,P|208:267|251:261,1,77.0000023498536,2|2,1:2|0:2,0:0:0:0:
333,271,32758,2,0,B|345:234|345:234|319:201,1,77.0000023498536,10|2,0:2|3:2,0:0:0:0:
263,143,33133,2,0,L|217:154,3,38.5000011749268,2|2|2|2,3:2|3:2|3:2|3:2,0:0:0:0:
175,146,33508,6,0,P|166:97|155:59,1,77.0000023498536,4|0,1:3|1:2,0:0:0:0:
221,10,33883,2,0,P|257:5|309:-3,1,77.0000023498536,2|0,3:3|0:2,0:2:0:0:
354,68,34258,2,0,B|438:87|401:126|481:147,1,154.000004699707,10|0,0:2|0:2,0:2:0:0:
512,226,34820,1,0,3:2:0:0:
456,290,35008,2,0,P|416:295|368:308,1,77.0000023498536,2|0,1:2|1:2,0:0:0:0:
329,219,35383,2,0,L|373:207,2,38.5000011749268,2|2|2,1:2|3:2|3:2,0:0:0:0:
271,302,35758,6,0,L|279:358,2,56,0|0|0,0:2|0:2|0:2,0:2:0:0:
192,252,36320,5,8,0:2:0:0:
192,252,36414,1,8,0:2:0:0:
192,252,36508,2,0,P|151:256|111:265,1,77.0000023498536,4|2,1:3|1:2,0:0:0:0:
33,218,36883,2,0,P|27:177|17:132,1,77.0000023498536,2|0,1:2|0:2,0:2:0:0:
73,64,37258,1,10,0:2:0:0:
73,64,37445,1,0,0:2:0:0:
151,98,37633,2,0,P|193:93|233:83,1,77.0000023498536,2|0,0:2|1:2,0:2:0:0:
298,29,38008,6,0,P|365:59|380:132,1,154.000004699707,2|2,3:2|1:2,0:0:0:0:
335,207,38570,1,2,0:2:0:0:
403,263,38758,2,0,L|450:250,7,44.0000013427735,10|0|0|0|0|0|0|0,0:2|3:2|3:2|3:2|3:2|3:2|3:2|1:2,0:2:0:0:
118,369,40070,5,0,3:2:0:0:
118,369,40258,2,0,L|106:312,1,56,0|0,3:2|0:2,0:2:0:0:
37,254,40633,2,0,L|2:263,2,32,0|0|0,3:2|3:2|3:2,0:0:0:0:
84,190,41008,2,0,P|73:131|64:77,3,112,2|2|2|2,3:2|3:2|3:3|3:2,0:2:0:0:
64,79,42508,5,0,3:2:0:0:
286,83,43070,1,0,3:2:0:0:
286,83,43258,2,0,P|292:112|299:143,1,56,0|0,3:2|0:2,0:2:0:0:
266,232,43633,2,0,L|229:242,2,37.3333333333333,0|0|0,3:2|3:2|3:2,0:0:0:0:
337,265,44008,2,0,P|349:319|364:383,3,112,2|2|2|2,3:2|3:2|3:3|3:2,0:2:0:0:
360,375,45508,5,0,3:2:0:0:
499,211,46117,1,0,3:2:0:0:
497,203,46258,2,0,P|465:211|430:220,1,56,0|0,3:2|0:2,0:2:0:0:
362,172,46633,2,0,P|353:140|344:105,1,56,0|0,3:2|0:2,0:2:0:0:
248,140,47008,1,2,3:2:0:0:
248,140,47383,2,0,P|256:171|265:207,1,56,0|0,3:2|3:2,0:0:0:0:
221,276,47758,2,0,P|161:289|105:316,1,112,2|0,3:3|3:2,0:0:0:0:
115,309,48508,5,0,3:2:0:0:
46,125,49070,1,0,3:2:0:0:
46,125,49258,2,0,P|75:117|107:107,1,56,0|0,3:2|0:2,0:2:0:0:
161,48,49633,2,0,P|193:54|225:60,1,56,0|0,3:2|0:2,0:2:0:0:
280,117,50008,2,0,P|266:175|256:234,3,112,0|0|0|0,3:2|0:2|0:2|0:2,0:2:0:0:
482,369,52258,6,0,P|487:338|495:309,3,56,2|2|2|2,0:3|0:3|0:3|0:3,0:0:0:0:
439,237,53008,1,2,3:2:0:0:
439,237,53383,1,0,3:2:0:0:
360,231,53570,1,0,3:2:0:0:
304,289,53758,1,0,3:2:0:0:
321,368,53945,1,0,3:2:0:0:
321,368,54320,1,0,1:2:0:0:
226,336,54508,5,4,1:3:0:0:
226,336,54883,2,0,L|151:354,1,77.0000023498536,2|2,1:2|0:2,0:2:0:0:
58,316,55258,2,0,P|49:275|43:237,1,77.0000023498536,10|2,2:2|0:2,0:0:0:0:
98,167,55633,1,2,0:2:0:0:
0,32,56008,1,4,1:3:0:0:
0,32,56383,6,0,P|40:24|81:12,1,77.0000023498536,2|2,0:2|0:2,0:2:0:0:
150,62,56758,2,0,P|187:69|224:79,1,77.0000023498536,10|2,0:2|0:2,0:0:0:0:
302,25,57133,1,2,1:2:0:0:
302,25,57320,1,2,1:2:0:0:
384,64,57508,6,0,P|424:126|399:195,1,154.000004699707,2|2,3:2|1:2,0:2:0:0:
334,254,58070,1,2,3:3:0:0:
392,321,58258,1,10,0:2:0:0:
316,365,58445,2,0,P|277:370|227:378,1,77.0000023498536,2|0,0:2|3:2,0:2:0:0:
239,375,58726,1,0,3:2:0:0:
239,375,58820,1,0,3:2:0:0:
143,337,59008,6,0,P|117:254|118:175,1,154.000004699707,4|2,1:3|0:2,0:2:0:0:
53,124,59570,1,2,0:2:0:0:
119,68,59758,2,0,B|203:69|187:100|264:112,1,154.000004699707,10|2,0:2|0:2,0:2:0:0:
344,67,60320,1,2,0:2:0:0:
392,140,60508,6,0,P|383:177|375:215,1,77.0000023498536,2|0,3:2|3:2,0:0:0:0:
404,303,60883,1,2,1:2:0:0:
491,305,61070,1,2,3:3:0:0:
497,223,61258,1,10,0:2:0:0:
298,291,61633,2,0,P|245:275|185:265,1,115.50000352478,2|0,0:2|0:0,0:0:0:0:
185,265,62008,6,0,P|177:300|172:346,1,77.0000023498536,4|2,1:3|3:2,0:0:0:0:
66,328,62383,2,0,P|70:289|78:252,1,77.0000023498536,2|2,0:2|3:2,0:0:0:0:
120,170,62758,1,10,0:2:0:0:
120,170,62945,1,0,3:2:0:0:
37,121,63133,1,2,1:2:0:0:
37,121,63320,1,0,1:2:0:0:
58,34,63508,5,2,3:2:0:0:
142,26,63695,1,2,0:2:0:0:
194,99,63883,2,0,P|228:109|271:120,1,77.0000023498536,2|2,1:2|3:3,0:2:0:0:
338,192,64258,2,0,P|386:135|372:62,1,154.000004699707,10|2,0:2|3:2,0:2:0:0:
95,217,65008,5,4,1:3:0:0:
95,217,65383,2,0,P|101:248|110:298,1,77.0000023498536,2|2,0:2|0:2,0:2:0:0:
192,350,65758,1,10,0:2:0:0:
192,350,65945,2,0,P|223:343|273:335,1,77.0000023498536,2|0,0:2|0:2,0:2:0:0:
467,195,66508,5,4,3:3:0:0:
467,195,66883,2,0,P|475:230|485:280,1,77.0000023498536,2|2,1:2|0:2,0:2:0:0:
385,292,67258,2,0,P|376:256|367:207,1,77.0000023498536,10|2,0:2|0:2,0:0:0:0:
404,134,67633,1,2,0:2:0:0:
201,50,68008,1,4,1:3:0:0:
201,50,68383,6,0,P|253:40|290:32,1,77.0000023498536,2|2,0:2|0:2,0:2:0:0:
296,129,68758,2,0,P|243:138|209:151,1,77.0000023498536,10|2,0:2|0:2,0:0:0:0:
129,122,69133,1,2,1:2:0:0:
129,122,69320,1,2,1:2:0:0:
66,193,69508,2,0,P|82:274|98:366,1,154.000004699707,2|2,3:2|1:2,0:2:0:0:
172,384,70070,1,2,3:3:0:0:
241,328,70258,1,10,0:2:0:0:
241,328,70445,1,2,0:2:0:0:
323,373,70633,2,0,L|364:360,3,38.5000011749268,0|0|0|0,3:2|3:2|3:2|3:2,0:0:0:0:
407,372,71008,6,0,P|458:317|449:243,1,154.000004699707,4|2,1:3|0:2,0:2:0:0:
494,163,71570,1,2,0:2:0:0:
426,110,71758,2,0,B|342:130|370:149|289:177,1,154.000004699707,10|2,0:2|0:2,0:2:0:0:
201,136,72320,1,2,0:2:0:0:
150,210,72508,6,0,P|158:247|164:304,1,77.0000023498536,2|0,3:2|3:2,0:0:0:0:
57,315,72883,2,0,P|48:277|43:221,1,77.0000023498536,2|0,1:2|3:2,0:0:0:0:
129,365,73258,2,0,P|193:315|267:331,1,154.000004699707,10|2,0:2|0:2,0:2:0:0:
337,362,73820,1,2,0:2:0:0:
411,309,74008,6,0,P|416:269|427:226,1,77.0000023498536,4|2,1:3|3:2,0:0:0:0:
349,171,74383,2,0,P|344:131|333:88,1,77.0000023498536,2|2,0:2|3:2,0:0:0:0:
405,27,74758,1,10,0:2:0:0:
405,27,74945,1,0,3:2:0:0:
486,59,75133,1,2,1:2:0:0:
486,59,75320,1,0,1:2:0:0:
507,143,75508,5,2,3:2:0:0:
437,200,75695,1,2,0:2:0:0:
366,158,75883,2,0,P|333:163|287:178,1,77.0000023498536,2|0,1:2|0:2,0:2:0:0:
199,155,76258,2,0,B|173:199|173:199|211:238,1,105,10|0,0:2|0:2,0:2:0:0:
210,237,76633,2,0,P|162:244|118:261,1,90.9999958343508,2|0,0:2|0:2,0:2:0:0:
256,192,79258,12,6,81508,1:3:0:0:
67,93,82258,6,0,B|22:138|22:138|56:190,1,125.999996154785,2|0,0:3|1:2,0:2:0:0:
285,222,83008,1,8,0:2:0:0:
285,222,83758,2,0,B|328:175|328:175|294:122,1,125.999996154785,2|0,0:3|0:2,0:2:0:0:
93,292,84508,5,6,1:3:0:0:
93,292,84883,2,0,L|104:358,1,62.9999980773926,2|2,0:3|0:3,0:2:0:0:
185,279,85258,2,0,L|195:345,1,62.9999980773926,2|2,0:3|0:3,0:2:0:0:
271,261,85633,2,0,L|283:334,1,62.9999980773926,2|2,1:3|0:3,0:2:0:0:
366,276,86008,5,8,0:2:0:0:
366,276,86758,2,0,B|406:227|406:227|461:256,1,125.999996154785,2|0,1:3|0:2,0:2:0:0:
417,57,87508,1,6,1:3:0:0:
417,57,88258,2,0,B|377:106|377:106|321:76,2,125.999996154785,2|0|8,0:3|1:2|0:2,0:2:0:0:
417,57,89758,1,2,0:3:0:0:
317,257,90508,5,6,1:3:0:0:
317,257,90883,2,0,L|326:309,1,47.2499985580445,2|2,0:3|0:3,0:2:0:0:
228,267,91258,2,0,L|237:317,1,47.2499985580445,2|2,0:3|0:3,0:2:0:0:
140,278,91633,2,0,L|152:344,1,62.9999980773926,2|2,1:3|0:3,0:2:0:0:
45,322,92008,5,8,0:2:0:0:
45,322,92722,2,0,B|5:275|5:275|43:222,1,125.999996154785,2|2,1:3|0:2,0:2:0:0:
51,33,93502,6,0,P|111:50|172:64,1,125.999996154785,2|0,1:2|0:2,0:2:0:0:
244,22,94064,1,2,0:2:0:0:
285,93,94252,2,0,P|277:122|271:158,1,62.9999980773926,2|0,0:2|0:2,0:2:0:0:
322,225,94627,1,2,1:2:0:0:
494,206,95002,2,0,P|502:174|510:137,1,62.9999980773926,10|0,0:2|0:2,0:2:0:0:
469,70,95377,2,0,P|439:62|393:57,1,62.9999980773926,2|2,0:2|0:2,0:0:0:0:
328,98,95752,1,2,0:2:0:0:
327,98,96127,6,0,P|269:115|214:87,2,125.999996154785,2|2|0,0:2|1:2|0:2,0:2:0:0:
403,148,97064,1,2,0:2:0:0:
403,148,97158,1,2,0:2:0:0:
403,148,97252,2,0,P|391:186|383:237,1,83.9999974365235,2|2,0:2|0:0,0:2:0:0:
334,255,97627,2,0,P|341:290|351:343,1,83.9999974365235,2|2,1:2|0:2,0:2:0:0:
313,369,98002,6,0,P|284:374|244:383,1,62.9999980773926,10|2,0:2|0:2,0:2:0:0:
164,356,98377,2,0,P|158:319|152:290,1,62.9999980773926,2|2,0:2|0:2,0:2:0:0:
85,243,98752,1,2,1:2:0:0:
85,243,99127,2,0,P|145:255|194:218,1,125.999996154785,2|0,0:2|1:2,0:0:0:0:
246,149,99689,5,2,0:2:0:0:
304,207,99877,2,0,P|339:197|378:187,1,62.9999980773926,2|2,0:2|0:2,0:0:0:0:
444,212,100252,2,0,P|475:159|455:102,1,125.999996154785,2|0,0:2|1:2,0:2:0:0:
399,42,100814,1,2,0:2:0:0:
333,97,101002,1,10,0:2:0:0:
333,97,101377,2,0,L|260:83,1,62.9999980773926,2|2,0:2|0:2,0:0:0:0:
206,129,101752,2,0,P|198:159|192:204,1,62.9999980773926,2|0,0:2|0:2,0:2:0:0:
124,236,102127,2,0,P|63:241|25:194,1,125.999996154785,2|0,0:2|1:2,0:2:0:0:
15,109,102689,5,2,0:2:0:0:
82,63,102877,2,0,P|119:71|155:81,1,62.9999980773926,2|2,0:2|0:2,0:0:0:0:
206,129,103252,2,0,L|267:116,1,62.9999980773926,2|0,0:2|0:2,0:2:0:0:
337,57,103627,2,0,P|381:71|445:86,1,97.9999970092774,2|2,1:2|0:2,0:2:0:0:
87,302,105508,6,0,P|79:267|70:237,1,56,4|0,3:3|0:2,0:2:0:0:
161,224,105883,2,0,P|168:258|178:289,1,56,0|0,3:2|0:2,0:2:0:0:
255,318,106258,1,0,3:2:0:0:
318,270,106445,1,0,3:2:0:0:
382,321,106633,1,0,3:2:0:0:
382,321,107008,6,0,P|420:312|461:302,1,70,4|0,3:3|3:2,0:0:0:0:
501,238,107383,2,0,P|490:201|478:164,1,70,2|2,1:2|0:3,0:2:0:0:
495,90,107758,2,0,P|451:142|382:139,1,140,10|0,0:2|0:2,0:2:0:0:
316,90,108320,6,0,P|286:96|236:110,1,70,2|4,0:2|1:3,0:2:0:0:
188,172,108695,1,2,0:2:0:0:
117,121,108883,1,2,0:2:0:0:
117,121,109070,2,0,P|107:82|101:49,1,70,2|8,0:2|0:2,0:2:0:0:
101,52,109351,1,0,3:2:0:0:
101,52,109445,1,2,3:2:0:0:
18,41,109633,5,0,1:2:0:0:
0,123,109820,2,0,P|10:169|26:276,1,140,2|2,1:2|0:2,0:2:0:0:
89,313,110383,2,0,P|124:304|160:298,1,70,2|2,1:2|0:2,0:0:0:0:
229,245,110758,2,0,B|307:251|292:276|358:293,1,140,10|2,0:2|0:2,0:0:0:0:
432,335,111320,1,2,0:2:0:0:
498,276,111508,5,4,1:3:0:0:
498,276,111883,2,0,L|482:198,1,70,2|0,0:2|0:2,0:2:0:0:
406,161,112258,2,0,P|372:167|322:182,1,70,10|0,0:2|0:2,0:2:0:0:
262,144,112633,2,0,P|251:110|246:76,1,70,2|2,3:2|3:2,0:2:0:0:
170,41,113008,2,0,L|135:52,3,35,2|0|0|0,3:2|3:2|3:2|3:2,0:2:0:0:
112,95,113383,2,0,L|66:86,4,35,2|2|2|2|10,1:3|3:3|3:3|3:3|3:2,0:0:0:0:
3,207,114133,2,0,P|12:236|20:273,1,62.9999980773926,2|2,0:2|0:2,0:2:0:0:
95,328,114508,6,0,L|171:306,1,70,4|0,1:3|0:2,0:2:0:0:
234,349,114883,1,2,0:2:0:0:
291,291,115070,1,2,0:2:0:0:
291,291,115164,1,2,0:2:0:0:
291,291,115258,2,0,L|268:210,1,70,10|2,0:2|0:2,0:0:0:0:
316,142,115633,1,2,1:2:0:0:
397,181,115820,1,2,1:2:0:0:
397,181,116195,5,2,0:2:0:0:
460,130,116383,2,0,P|461:91|468:59,1,70,2|2,1:2|0:3,0:0:0:0:
406,6,116758,2,0,B|331:13|347:39|275:53,1,140,10|0,0:2|0:2,0:2:0:0:
191,20,117320,5,8,0:2:0:0:
144,91,117508,2,0,P|154:148|167:250,1,140,4|0,1:3|0:2,0:2:0:0:
224,289,118070,1,2,0:2:0:0:
174,354,118258,2,0,P|140:359|98:368,1,70,10|2,0:2|0:2,0:0:0:0:
28,332,118633,2,0,P|20:294|13:247,1,70,2|0,0:2|0:2,0:2:0:0:
66,187,119008,5,2,3:2:0:0:
66,187,119383,1,2,1:2:0:0:
0,132,119570,1,2,0:2:0:0:
54,71,119758,2,0,P|86:61|129:48,1,70,10|0,0:2|0:0,0:0:0:0:
197,90,120133,2,0,P|255:101|298:113,1,105,2|0,0:2|0:0,0:2:0:0:
299,113,120508,6,0,P|290:146|278:193,1,70,4|0,1:3|0:2,0:2:0:0:
203,222,120883,2,0,P|212:255|220:289,1,70,2|0,0:2|3:2,0:0:0:0:
284,344,121258,2,0,P|318:335|362:328,1,70,10|0,0:2|3:2,0:0:0:0:
436,373,121633,1,2,1:2:0:0:
512,327,121820,1,0,1:2:0:0:
466,256,122008,2,0,P|472:221|481:187,1,70,2|0,3:2|3:2,0:2:0:0:
422,126,122383,1,2,1:2:0:0:
422,126,122758,2,0,B|379:119|354:145|354:145|336:190|296:196,1,154.000004699707,10|0,0:2|0:2,0:2:0:0:
296,195,123508,6,0,P|231:174|214:109,1,140,4|0,1:3|0:2,0:2:0:0:
160,46,124070,1,2,0:2:0:0:
86,98,124258,2,0,P|53:107|12:116,1,70,10|2,0:2|0:2,0:0:0:0:
37,204,124633,2,0,P|69:193|111:186,1,70,2|0,0:2|0:2,0:2:0:0:
182,237,125008,5,2,3:2:0:0:
182,237,125383,1,2,1:2:0:0:
122,295,125570,1,2,0:3:0:0:
172,362,125758,2,0,P|216:371|247:379,1,70,10|0,0:2|0:2,0:2:0:0:
315,343,126133,2,0,P|322:307|333:274,1,70,2|0,0:2|0:2,0:2:0:0:
278,195,126508,5,4,1:3:0:0:
278,195,126695,1,2,0:2:0:0:
350,158,126883,2,0,P|386:166|443:189,1,93.3333333333333,2|2,0:2|0:2,0:2:0:0:
486,164,127258,2,0,P|493:118|510:74,1,93.3333333333333,10|2,0:2|0:2,0:2:0:0:
485,39,127633,5,2,1:2:0:0:
408,70,127820,1,2,1:2:0:0:
179,0,128430,5,0,3:2:0:0:
179,0,128617,1,0,3:2:0:0:
69,267,129508,6,0,B|27:298|27:298|43:351,1,105,4|0,1:3|0:2,0:2:0:0:
42,348,129883,2,0,L|127:364,1,70,4|2,1:3|0:2,0:2:0:0:
415,203,131008,2,0,B|457:234|457:234|441:287,1,105,4|0,1:3|0:2,0:2:0:0:
441,284,131383,2,0,L|356:300,1,70,4|2,1:3|0:2,0:2:0:0:
117,158,132133,2,0,P|118:121|120:82,1,70,2|0,0:2|1:2,0:2:0:0:
211,79,132508,6,0,B|257:52|257:52|294:88,1,105,4|0,1:3|0:2,0:2:0:0:
294,88,132883,2,0,L|284:175,1,70,4|2,1:3|0:2,0:2:0:0:
499,250,134758,5,8,0:2:0:0:
424,215,134945,1,8,0:2:0:0:
376,283,135133,2,0,L|386:326,3,35,8|8|8|8,0:2|0:2|0:2|0:2,0:2:0:0:
350,347,135508,6,0,L|275:367,1,77.0000023498536,4|0,1:3|1:2,0:0:0:0:
199,312,135883,1,0,1:2:0:0:
140,370,136070,1,0,1:2:0:0:
66,325,136258,2,0,L|51:245,1,77.0000023498536,10|0,0:2|1:2,0:0:0:0:
118,186,136633,2,0,L|133:111,1,77.0000023498536,10|0,0:2|1:2,0:0:0:0:
84,39,137008,5,2,3:2:0:0:
84,39,137195,1,0,1:2:0:0:
164,0,137383,2,0,L|243:14,1,77.0000023498536,0|2,1:2|0:2,0:0:0:0:
313,73,137758,2,0,B|383:53|360:31|424:16,1,125.999996154785,10|0,0:2|0:2,0:2:0:0:
424,17,138508,6,0,P|435:51|451:101,1,77.0000023498536,4|0,1:3|0:2,0:2:0:0:
512,147,138883,2,0,P|500:178|489:224,1,77.0000023498536,2|0,0:2|0:2,0:2:0:0:
394,254,139258,1,10,0:2:0:0:
394,254,139445,1,0,3:2:0:0:
441,334,139633,1,2,1:2:0:0:
441,334,139820,1,0,1:2:0:0:
361,379,140008,5,2,3:2:0:0:
313,301,140195,1,2,0:2:0:0:
239,351,140383,2,0,P|208:356|157:374,1,77.0000023498536,2|0,1:2|0:2,0:2:0:0:
85,329,140758,2,0,P|57:260|100:200,1,154.000004699707,10|2,0:2|0:2,0:2:0:0:
298,23,141508,5,4,1:3:0:0:
298,23,141883,2,0,L|322:112,1,77.0000023498536,2|2,0:2|0:2,0:2:0:0:
222,125,142258,1,10,0:2:0:0:
222,125,142445,2,0,L|198:36,1,77.0000023498536,2|0,0:2|0:2,0:2:0:0:
438,212,143008,5,4,3:3:0:0:
438,212,143383,2,0,L|514:191,1,77.0000023498536,2|2,1:2|0:2,0:2:0:0:
481,107,143758,2,0,L|405:128,1,77.0000023498536,10|2,0:2|0:2,0:0:0:0:
340,194,144133,1,2,0:2:0:0:
228,29,144508,1,4,1:3:0:0:
228,29,144883,6,0,L|246:109,1,77.0000023498536,2|2,0:2|0:2,0:2:0:0:
193,176,145258,2,0,L|111:197,1,77.0000023498536,10|2,0:2|0:2,0:0:0:0:
58,132,145633,1,2,1:2:0:0:
58,132,145820,1,2,1:2:0:0:
31,212,146008,2,0,P|-6:277|25:344,1,154.000004699707,2|2,3:2|1:2,0:2:0:0:
110,377,146570,1,2,0:3:0:0:
165,313,146758,1,10,0:2:0:0:
165,313,146945,1,2,0:2:0:0:
249,354,147133,2,0,L|289:343,3,38.5000011749268,0|0|0|0,3:2|3:2|3:2|3:2,0:0:0:0:
315,305,147508,6,0,P|295:226|281:147,1,154.000004699707,4|2,1:3|0:2,0:2:0:0:
207,112,148070,1,2,0:2:0:0:
251,36,148258,2,0,P|322:18|376:68,1,154.000004699707,10|2,0:2|0:2,0:2:0:0:
465,60,148820,1,2,0:2:0:0:
507,134,149008,6,0,P|497:171|492:212,1,77.0000023498536,2|0,3:2|3:2,0:0:0:0:
411,244,149383,2,0,P|420:281|426:322,1,77.0000023498536,2|0,1:2|3:2,0:0:0:0:
512,336,149758,2,0,P|436:349|362:372,1,154.000004699707,10|2,0:2|0:2,0:2:0:0:
295,324,150320,1,2,0:2:0:0:
210,375,150508,6,0,P|202:337|192:294,1,77.0000023498536,4|2,1:3|3:2,0:0:0:0:
253,234,150883,2,0,P|258:195|265:158,1,77.0000023498536,2|2,0:2|3:2,0:0:0:0:
214,80,151258,1,10,0:2:0:0:
214,80,151445,1,0,3:2:0:0:
137,131,151633,1,2,1:2:0:0:
137,131,151820,1,0,1:2:0:0:
60,91,152008,1,2,3:2:0:0:
11,164,152195,1,2,0:2:0:0:
60,238,152383,2,0,P|100:243|146:254,1,77.0000023498536,2|0,1:2|0:2,0:2:0:0:
226,194,152758,6,0,P|229:160|235:131,3,56,2|2|2|2,0:3|0:3|0:3|0:3,0:0:0:0:
307,83,153508,1,4,1:3:0:0:
307,83,153883,2,0,L|397:95,1,77.0000023498536,2|2,0:2|0:2,0:2:0:0:
458,151,154258,1,10,0:2:0:0:
458,151,154445,2,0,L|450:231,1,77.0000023498536,2|0,0:2|0:2,0:2:0:0:
200,354,155008,5,4,3:3:0:0:
200,354,155383,2,0,L|213:265,1,77.0000023498536,2|2,1:2|0:2,0:2:0:0:
277,223,155758,2,0,P|319:230|360:239,1,77.0000023498536,10|2,0:2|0:2,0:0:0:0:
408,300,156133,1,2,0:2:0:0:
512,119,156508,1,4,1:3:0:0:
512,119,156883,6,0,P|469:111|429:103,1,77.0000023498536,2|2,0:2|0:2,0:2:0:0:
387,37,157258,2,0,P|347:42|295:52,1,77.0000023498536,10|2,0:2|0:2,0:0:0:0:
256,113,157633,1,2,1:2:0:0:
256,113,157820,1,2,1:2:0:0:
171,68,158008,2,0,P|98:80|69:148,1,154.000004699707,2|2,3:2|1:2,0:2:0:0:
15,222,158570,1,2,0:3:0:0:
87,285,158758,1,10,0:2:0:0:
87,285,158945,1,2,0:2:0:0:
163,228,159133,2,0,L|151:179,2,38.5000011749268,0|0|0,3:2|3:0|3:2,0:0:0:0:
246,256,159508,5,2,3:2:0:0:
