osu file format v14

[General]
AudioFilename: audio.mp3
AudioLeadIn: 0
PreviewTime: -1
Countdown: 1
SampleSet: Soft
StackLeniency: 0.7
Mode: 0
LetterboxInBreaks: 0
WidescreenStoryboard: 1

[Editor]
DistanceSpacing: 2.1
BeatDivisor: 4
GridSize: 4
TimelineZoom: 1

[Metadata]
Title:Op Me Monnie ( Prod. $HOOT2KILL )
TitleUnicode:Op Me Monnie ( Prod. $HOOT2KILL )
Artist:Famkelouise
ArtistUnicode:Famkelouise
Creator:Lorenzo
Version:Ongeloofelijk
Source:YouTube
Tags:famkelouise dutch anime opening bad music nederlands pop rock vlog vloggers vlogging enzoknol knolpower disstrack famkedebom i love famke louise famkefam sannie sonnie verradelijk ongeloofelijk slechte muziek
BeatmapID:1506219
BeatmapSetID:712089

[Difficulty]
HPDrainRate:4.2
CircleSize:4
OverallDifficulty:7.2
ApproachRate:9.4
SliderMultiplier:1.4
SliderTickRate:1

[Events]
//Background and Video events
0,0,"a19a7b9cd834988fed784033a4ada21fd2037233.jpg",0,0
Video,0,"opmemonnie.mp4"
//Break Periods
//Storyboard Layer 0 (Background)
//Storyboard Layer 1 (Fail)
//Storyboard Layer 2 (Pass)
//Storyboard Layer 3 (Foreground)
//Storyboard Sound Samples

[TimingPoints]
1778.10333380499,361.315187281705,4,2,1,100,1,0
23191,-50,4,2,1,100,0,1
34748,-66.6666666666667,4,2,1,100,0,0
43747,-50,4,2,1,100,0,0
44479,-66.6666666666667,4,2,1,100,0,0
50284,-133.333333333333,4,2,1,100,0,0
57145,-66.6666666666667,4,2,1,100,0,0
75215,-50,4,2,1,100,0,1
86777,-66.6666666666667,4,2,1,100,0,0
127244,-50,4,2,1,100,0,1

[HitObjects]
68,56,242,5,0,0:0:0:0:
102,58,332,1,0,0:0:0:0:
137,61,422,1,0,0:0:0:0:
172,63,512,1,0,0:0:0:0:
207,66,603,1,0,0:0:0:0:
242,68,693,1,0,0:0:0:0:
277,71,783,1,0,0:0:0:0:
252,192,1326,5,0,0:0:0:0:
424,328,1687,1,0,0:0:0:0:
389,322,1777,1,0,0:0:0:0:
355,316,1867,1,0,0:0:0:0:
320,310,1957,1,0,0:0:0:0:
286,304,2048,1,0,0:0:0:0:
251,298,2138,1,0,0:0:0:0:
217,292,2228,1,0,0:0:0:0:
256,176,2771,5,0,0:0:0:0:
56,48,3133,1,0,0:0:0:0:
90,48,3223,1,0,0:0:0:0:
125,49,3313,1,0,0:0:0:0:
160,49,3403,1,0,0:0:0:0:
195,50,3494,1,0,0:0:0:0:
230,51,3584,1,0,0:0:0:0:
265,51,3674,1,0,0:0:0:0:
252,188,4216,5,0,0:0:0:0:
52,348,4577,1,0,0:0:0:0:
59,307,4667,1,0,0:0:0:0:
66,267,4757,1,0,0:0:0:0:
74,227,4847,1,0,0:0:0:0:
81,187,4938,1,0,0:0:0:0:
88,147,5028,1,0,0:0:0:0:
96,107,5118,1,0,0:0:0:0:
128,68,6023,5,0,0:0:0:0:
388,68,6746,1,0,0:0:0:0:
384,336,7468,1,0,0:0:0:0:
384,324,7558,1,0,0:0:0:0:
384,312,7648,1,0,0:0:0:0:
384,301,7738,1,0,0:0:0:0:
56,48,8914,5,0,0:0:0:0:
256,192,9636,1,0,0:0:0:0:
440,336,10359,1,0,0:0:0:0:
440,331,10449,1,0,0:0:0:0:
440,326,10539,1,0,0:0:0:0:
440,321,10629,1,0,0:0:0:0:
440,316,10720,1,0,0:0:0:0:
440,311,10810,1,0,0:0:0:0:
440,306,10900,1,0,0:0:0:0:
440,301,10991,1,0,0:0:0:0:
140,32,11443,5,0,0:0:0:0:
174,37,11533,1,0,0:0:0:0:
209,43,11623,1,0,0:0:0:0:
84,200,11804,1,0,0:0:0:0:
304,96,11985,1,0,0:0:0:0:
304,128,12075,1,0,0:0:0:0:
304,164,12165,1,0,0:0:0:0:
440,244,12346,1,0,0:0:0:0:
228,296,12527,1,0,0:0:0:0:
64,92,12707,1,0,0:0:0:0:
92,92,12798,1,0,0:0:0:0:
112,92,12888,1,0,0:0:0:0:
320,104,13069,1,0,0:0:0:0:
56,272,13249,1,0,0:0:0:0:
85,253,13339,1,0,0:0:0:0:
115,234,13429,1,0,0:0:0:0:
145,216,13519,1,0,0:0:0:0:
174,197,13610,1,0,0:0:0:0:
444,84,13972,5,0,0:0:0:0:
426,114,14062,1,0,0:0:0:0:
408,144,14152,1,0,0:0:0:0:
390,174,14242,1,0,0:0:0:0:
372,204,14333,1,0,0:0:0:0:
88,280,14514,5,0,0:0:0:0:
304,280,14695,1,0,0:0:0:0:
124,60,14875,1,0,0:0:0:0:
152,64,14966,1,0,0:0:0:0:
172,68,15056,1,0,0:0:0:0:
348,128,15237,1,0,0:0:0:0:
72,280,15417,1,0,0:0:0:0:
104,284,15508,1,0,0:0:0:0:
128,288,15598,1,0,0:0:0:0:
264,296,15779,1,0,0:0:0:0:
452,236,15959,1,0,0:0:0:0:
192,108,16140,1,0,0:0:0:0:
128,216,16501,5,0,0:0:0:0:
152,176,16592,1,0,0:0:0:0:
176,136,16682,1,0,0:0:0:0:
208,104,16772,1,0,0:0:0:0:
248,80,16863,1,0,0:0:0:0:
288,104,16953,1,0,0:0:0:0:
312,148,17043,1,0,0:0:0:0:
324,192,17133,1,0,0:0:0:0:
328,232,17224,1,0,0:0:0:0:
400,200,17585,5,0,0:0:0:0:
365,200,17675,1,0,0:0:0:0:
330,200,17765,1,0,0:0:0:0:
295,200,17855,1,0,0:0:0:0:
260,200,17946,1,0,0:0:0:0:
88,76,18127,1,0,0:0:0:0:
248,48,18308,1,0,0:0:0:0:
276,68,18398,1,0,0:0:0:0:
312,88,18488,1,0,0:0:0:0:
188,164,18669,1,0,0:0:0:0:
312,228,18850,1,0,0:0:0:0:
332,236,18940,1,0,0:0:0:0:
348,240,19030,1,0,0:0:0:0:
60,40,19392,5,0,0:0:0:0:
76,84,19482,1,0,0:0:0:0:
96,108,19572,1,0,0:0:0:0:
116,144,19663,1,0,0:0:0:0:
148,176,19753,1,0,0:0:0:0:
184,200,19843,1,0,0:0:0:0:
224,200,19934,1,0,0:0:0:0:
272,180,20024,1,0,0:0:0:0:
300,148,20115,1,0,0:0:0:0:
88,172,20476,5,0,0:0:0:0:
96,169,20566,1,0,0:0:0:0:
104,166,20656,1,0,0:0:0:0:
112,163,20746,1,0,0:0:0:0:
120,160,20837,1,0,0:0:0:0:
129,157,20927,1,0,0:0:0:0:
137,154,21017,1,0,0:0:0:0:
145,151,21108,1,0,0:0:0:0:
153,148,21198,1,0,0:0:0:0:
162,145,21288,1,0,0:0:0:0:
170,142,21379,1,0,0:0:0:0:
178,139,21469,1,0,0:0:0:0:
186,136,21559,1,0,0:0:0:0:
194,133,21650,1,0,0:0:0:0:
203,130,21740,1,0,0:0:0:0:
211,127,21830,1,0,0:0:0:0:
219,124,21921,1,0,0:0:0:0:
392,264,22282,1,0,0:0:0:0:
392,264,22373,1,0,0:0:0:0:
392,264,22463,1,0,0:0:0:0:
392,264,22553,1,0,0:0:0:0:
392,264,22644,1,0,0:0:0:0:
392,264,22734,1,0,0:0:0:0:
392,264,22824,1,0,0:0:0:0:
392,264,22915,1,0,0:0:0:0:
392,264,23005,1,0,0:0:0:0:
316,60,23366,5,0,0:0:0:0:
246,60,23456,1,0,0:0:0:0:
176,60,23546,1,0,0:0:0:0:
168,180,23728,1,0,0:0:0:0:
252,268,23908,1,0,0:0:0:0:
216,280,23998,1,0,0:0:0:0:
192,288,24089,1,0,0:0:0:0:
160,288,24179,1,0,0:0:0:0:
136,280,24269,1,0,0:0:0:0:
116,276,24360,1,0,0:0:0:0:
96,256,24450,1,0,0:0:0:0:
248,324,24631,2,0,L|248:144,1,140
96,44,25173,5,0,0:0:0:0:
108,56,25263,1,0,0:0:0:0:
120,72,25353,1,0,0:0:0:0:
136,84,25444,1,0,0:0:0:0:
152,104,25534,1,0,0:0:0:0:
168,112,25624,1,0,0:0:0:0:
184,120,25715,1,0,0:0:0:0:
200,128,25805,1,0,0:0:0:0:
228,136,25895,1,0,0:0:0:0:
224,296,26257,5,0,0:0:0:0:
167,333,26347,1,0,0:0:0:0:
101,318,26437,1,0,0:0:0:0:
67,259,26527,1,0,0:0:0:0:
88,194,26618,1,0,0:0:0:0:
184,84,26799,1,0,0:0:0:0:
392,116,26979,1,0,0:0:0:0:
368,144,27070,1,0,0:0:0:0:
340,176,27160,1,0,0:0:0:0:
244,264,27341,1,0,0:0:0:0:
80,196,27521,1,0,0:0:0:0:
96,172,27612,1,0,0:0:0:0:
124,152,27702,1,0,0:0:0:0:
256,32,28063,5,0,0:0:0:0:
256,72,28154,1,0,0:0:0:0:
256,104,28244,1,0,0:0:0:0:
252,132,28334,1,0,0:0:0:0:
252,156,28425,1,0,0:0:0:0:
248,172,28515,1,0,0:0:0:0:
248,200,28605,1,0,0:0:0:0:
248,216,28696,1,0,0:0:0:0:
244,240,28786,1,0,0:0:0:0:
136,84,29147,5,0,0:0:0:0:
180,84,29237,1,0,0:0:0:0:
224,84,29327,1,0,0:0:0:0:
228,128,29417,1,0,0:0:0:0:
232,176,29508,1,0,0:0:0:0:
428,120,29689,1,0,0:0:0:0:
72,304,29870,1,0,0:0:0:0:
72,272,29960,1,0,0:0:0:0:
72,240,30051,1,0,0:0:0:0:
72,44,30231,1,0,0:0:0:0:
456,200,30412,1,0,0:0:0:0:
456,232,30502,1,0,0:0:0:0:
456,264,30592,1,0,0:0:0:0:
252,360,30954,5,0,0:0:0:0:
252,328,31044,1,0,0:0:0:0:
252,292,31134,1,0,0:0:0:0:
252,260,31225,1,0,0:0:0:0:
252,224,31315,1,0,0:0:0:0:
256,188,31405,1,0,0:0:0:0:
256,164,31496,1,0,0:0:0:0:
256,132,31586,1,0,0:0:0:0:
256,96,31676,1,0,0:0:0:0:
68,56,32038,5,0,0:0:0:0:
137,55,32128,1,0,0:0:0:0:
206,65,32218,1,0,0:0:0:0:
243,120,32308,1,0,0:0:0:0:
242,190,32399,1,0,0:0:0:0:
412,72,32580,1,0,0:0:0:0:
412,96,32670,1,0,0:0:0:0:
412,120,32760,1,0,0:0:0:0:
428,308,32941,1,0,0:0:0:0:
32,68,33122,1,0,0:0:0:0:
32,112,33212,1,0,0:0:0:0:
32,152,33302,1,0,0:0:0:0:
36,312,33483,1,0,0:0:0:0:
124,48,33844,5,0,0:0:0:0:
148,88,33935,1,0,0:0:0:0:
164,116,34025,1,0,0:0:0:0:
192,144,34115,1,0,0:0:0:0:
236,152,34206,1,0,0:0:0:0:
264,124,34296,1,0,0:0:0:0:
288,96,34386,1,0,0:0:0:0:
308,60,34477,1,0,0:0:0:0:
320,32,34567,1,0,0:0:0:0:
280,212,34928,5,0,0:0:0:0:
271,211,35018,1,0,0:0:0:0:
262,211,35108,1,0,0:0:0:0:
253,210,35198,1,0,0:0:0:0:
245,210,35289,1,0,0:0:0:0:
236,210,35379,1,0,0:0:0:0:
227,209,35469,1,0,0:0:0:0:
124,80,35651,1,0,0:0:0:0:
264,288,35831,1,0,0:0:0:0:
300,288,35922,1,0,0:0:0:0:
328,288,36012,1,0,0:0:0:0:
436,64,36193,1,0,0:0:0:0:
116,80,36735,5,0,0:0:0:0:
144,108,36825,1,0,0:0:0:0:
168,80,36916,1,0,0:0:0:0:
192,272,37096,1,0,0:0:0:0:
308,48,37457,1,0,0:0:0:0:
332,80,37548,1,0,0:0:0:0:
364,48,37638,1,0,0:0:0:0:
392,272,37819,1,0,0:0:0:0:
368,156,38180,1,0,0:0:0:0:
315,162,38270,1,0,0:0:0:0:
263,169,38360,1,0,0:0:0:0:
211,176,38450,1,0,0:0:0:0:
159,183,38541,1,0,0:0:0:0:
159,183,38903,1,0,0:0:0:0:
210,175,38993,1,0,0:0:0:0:
262,168,39083,1,0,0:0:0:0:
314,160,39173,1,0,0:0:0:0:
366,153,39264,1,0,0:0:0:0:
152,76,39987,5,0,0:0:0:0:
204,77,40077,1,0,0:0:0:0:
256,79,40167,1,0,0:0:0:0:
236,168,40348,1,0,0:0:0:0:
100,296,40529,1,0,0:0:0:0:
132,296,40619,1,0,0:0:0:0:
160,296,40709,1,0,0:0:0:0:
392,100,40890,1,0,0:0:0:0:
112,64,41071,1,0,0:0:0:0:
112,100,41161,1,0,0:0:0:0:
112,136,41251,1,0,0:0:0:0:
296,184,41432,1,0,0:0:0:0:
306,175,41522,1,0,0:0:0:0:
316,167,41612,1,0,0:0:0:0:
327,159,41702,1,0,0:0:0:0:
337,151,41793,1,0,0:0:0:0:
40,48,42516,5,0,0:0:0:0:
56,92,42606,1,0,0:0:0:0:
72,124,42697,1,0,0:0:0:0:
100,152,42787,1,0,0:0:0:0:
136,132,42877,1,0,0:0:0:0:
168,108,42968,1,0,0:0:0:0:
192,84,43058,1,0,0:0:0:0:
232,112,43148,1,0,0:0:0:0:
260,136,43239,1,0,0:0:0:0:
292,156,43329,1,0,0:0:0:0:
328,136,43419,1,0,0:0:0:0:
356,112,43510,1,0,0:0:0:0:
384,88,43600,1,0,0:0:0:0:
416,60,43690,1,0,0:0:0:0:
452,80,43780,1,0,0:0:0:0:
92,128,43961,2,0,L|416:104,1,280
88,340,44684,5,0,0:0:0:0:
88,304,44774,1,0,0:0:0:0:
88,272,44864,1,0,0:0:0:0:
88,244,44955,1,0,0:0:0:0:
88,212,45045,1,0,0:0:0:0:
448,60,45406,2,0,L|424:280,1,210.000008010865
72,188,46129,1,0,0:0:0:0:
120,192,46219,1,0,0:0:0:0:
160,192,46310,1,0,0:0:0:0:
204,196,46400,1,0,0:0:0:0:
232,196,46490,1,0,0:0:0:0:
260,196,46581,1,0,0:0:0:0:
292,196,46671,1,0,0:0:0:0:
320,196,46761,1,0,0:0:0:0:
344,192,46851,1,0,0:0:0:0:
224,32,47213,5,0,0:0:0:0:
190,72,47303,1,0,0:0:0:0:
156,112,47393,1,0,0:0:0:0:
122,152,47483,1,0,0:0:0:0:
96,200,47574,1,0,0:0:0:0:
80,228,47664,1,0,0:0:0:0:
76,248,47754,1,0,0:0:0:0:
76,272,47845,1,0,0:0:0:0:
76,300,47936,1,0,0:0:0:0:
324,80,48297,5,0,0:0:0:0:
324,116,48387,1,0,0:0:0:0:
324,152,48478,1,0,0:0:0:0:
324,188,48568,1,0,0:0:0:0:
324,228,48658,1,0,0:0:0:0:
324,264,48749,1,0,0:0:0:0:
324,304,48839,1,0,0:0:0:0:
256,304,48929,1,0,0:0:0:0:
256,264,49020,1,0,0:0:0:0:
256,216,49110,1,0,0:0:0:0:
256,180,49200,1,0,0:0:0:0:
256,140,49291,1,0,0:0:0:0:
256,104,49381,1,0,0:0:0:0:
256,64,49471,1,0,0:0:0:0:
256,32,49562,1,0,0:0:0:0:
184,36,49652,1,0,0:0:0:0:
184,76,49742,1,0,0:0:0:0:
184,112,49833,1,0,0:0:0:0:
184,152,49923,1,0,0:0:0:0:
184,200,50013,1,0,0:0:0:0:
184,252,50104,1,0,0:0:0:0:
104,76,50465,6,0,L|424:76,1,315.000012016297
144,216,51910,1,0,0:0:0:0:
168,252,52000,1,0,0:0:0:0:
184,276,52091,1,0,0:0:0:0:
372,196,52271,1,0,0:0:0:0:
392,232,52362,1,0,0:0:0:0:
412,260,52452,1,0,0:0:0:0:
72,328,52632,1,0,0:0:0:0:
108,336,52723,1,0,0:0:0:0:
140,348,52813,1,0,0:0:0:0:
256,44,52994,1,0,0:0:0:0:
288,72,53084,1,0,0:0:0:0:
316,92,53175,1,0,0:0:0:0:
344,280,53355,1,0,0:0:0:0:
304,272,53446,1,0,0:0:0:0:
264,256,53536,1,0,0:0:0:0:
376,84,53717,1,0,0:0:0:0:
348,120,53807,1,0,0:0:0:0:
328,148,53897,1,0,0:0:0:0:
200,288,54078,1,0,0:0:0:0:
176,260,54168,1,0,0:0:0:0:
152,228,54259,1,0,0:0:0:0:
88,64,54439,1,0,0:0:0:0:
108,100,54530,1,0,0:0:0:0:
128,128,54620,1,0,0:0:0:0:
312,88,54801,1,0,0:0:0:0:
316,132,54891,1,0,0:0:0:0:
316,164,54981,1,0,0:0:0:0:
408,296,55162,1,0,0:0:0:0:
408,256,55252,1,0,0:0:0:0:
408,216,55343,1,0,0:0:0:0:
112,232,55523,1,0,0:0:0:0:
156,232,55614,1,0,0:0:0:0:
192,232,55704,1,0,0:0:0:0:
236,72,55885,1,0,0:0:0:0:
240,108,55975,1,0,0:0:0:0:
240,152,56065,1,0,0:0:0:0:
412,80,56246,1,0,0:0:0:0:
412,128,56336,1,0,0:0:0:0:
412,168,56427,1,0,0:0:0:0:
280,264,56607,1,0,0:0:0:0:
324,264,56698,1,0,0:0:0:0:
376,264,56788,1,0,0:0:0:0:
88,84,57330,5,0,0:0:0:0:
96,128,57420,1,0,0:0:0:0:
104,168,57510,1,0,0:0:0:0:
112,212,57601,1,0,0:0:0:0:
176,208,57691,1,0,0:0:0:0:
168,164,57781,1,0,0:0:0:0:
160,116,57872,1,0,0:0:0:0:
156,80,57962,1,0,0:0:0:0:
204,80,58052,1,0,0:0:0:0:
216,116,58143,1,0,0:0:0:0:
228,156,58233,1,0,0:0:0:0:
236,204,58323,1,0,0:0:0:0:
288,200,58414,1,0,0:0:0:0:
284,160,58504,1,0,0:0:0:0:
272,120,58594,1,0,0:0:0:0:
424,84,60220,5,0,0:0:0:0:
416,128,60310,1,0,0:0:0:0:
408,168,60400,1,0,0:0:0:0:
400,212,60491,1,0,0:0:0:0:
336,208,60581,1,0,0:0:0:0:
344,164,60671,1,0,0:0:0:0:
352,116,60762,1,0,0:0:0:0:
356,80,60852,1,0,0:0:0:0:
308,80,60942,1,0,0:0:0:0:
296,116,61033,1,0,0:0:0:0:
284,156,61123,1,0,0:0:0:0:
276,204,61213,1,0,0:0:0:0:
224,200,61304,1,0,0:0:0:0:
228,160,61394,1,0,0:0:0:0:
240,120,61484,1,0,0:0:0:0:
92,52,63472,5,0,0:0:0:0:
92,104,63562,1,0,0:0:0:0:
92,157,63652,1,0,0:0:0:0:
92,209,63742,1,0,0:0:0:0:
92,262,63833,1,0,0:0:0:0:
220,44,64013,1,0,0:0:0:0:
316,288,64194,1,0,0:0:0:0:
356,288,64285,1,0,0:0:0:0:
392,288,64375,1,0,0:0:0:0:
432,52,64556,1,0,0:0:0:0:
204,244,64737,1,0,0:0:0:0:
156,48,64917,1,0,0:0:0:0:
196,64,65008,1,0,0:0:0:0:
236,88,65098,1,0,0:0:0:0:
40,304,65279,5,0,0:0:0:0:
46,251,65369,1,0,0:0:0:0:
52,199,65459,1,0,0:0:0:0:
58,147,65549,1,0,0:0:0:0:
65,95,65640,1,0,0:0:0:0:
65,95,66001,5,0,0:0:0:0:
58,147,66091,1,0,0:0:0:0:
51,199,66181,1,0,0:0:0:0:
44,251,66271,1,0,0:0:0:0:
38,303,66362,1,0,0:0:0:0:
256,32,66543,5,0,0:0:0:0:
256,84,66634,1,0,0:0:0:0:
256,124,66724,1,0,0:0:0:0:
252,336,66905,1,0,0:0:0:0:
252,292,66995,1,0,0:0:0:0:
252,248,67086,1,0,0:0:0:0:
348,188,67266,1,0,0:0:0:0:
400,188,67356,1,0,0:0:0:0:
444,188,67447,1,0,0:0:0:0:
164,188,67627,1,0,0:0:0:0:
112,188,67717,1,0,0:0:0:0:
68,188,67808,1,0,0:0:0:0:
256,196,67989,1,0,0:0:0:0:
256,196,68079,1,0,0:0:0:0:
252,196,68169,1,0,0:0:0:0:
88,56,68531,5,0,0:0:0:0:
108,88,68621,1,0,0:0:0:0:
128,112,68711,1,0,0:0:0:0:
160,148,68802,1,0,0:0:0:0:
188,172,68892,1,0,0:0:0:0:
212,196,68983,1,0,0:0:0:0:
204,240,69073,1,0,0:0:0:0:
172,276,69164,1,0,0:0:0:0:
148,312,69254,1,0,0:0:0:0:
112,340,69344,1,0,0:0:0:0:
400,200,69615,5,0,0:0:0:0:
347,199,69705,1,0,0:0:0:0:
295,198,69795,1,0,0:0:0:0:
242,197,69885,1,0,0:0:0:0:
190,196,69976,1,0,0:0:0:0:
48,184,70157,5,0,0:0:0:0:
180,308,70338,5,0,0:0:0:0:
220,308,70427,1,0,0:0:0:0:
252,304,70518,1,0,0:0:0:0:
284,300,70608,1,0,0:0:0:0:
304,288,70698,1,0,0:0:0:0:
332,272,70699,1,0,0:0:0:0:
360,252,70789,1,0,0:0:0:0:
384,240,70880,1,0,0:0:0:0:
408,224,70969,1,0,0:0:0:0:
432,200,71060,1,0,0:0:0:0:
256,48,71421,5,0,0:0:0:0:
256,72,71511,1,0,0:0:0:0:
256,96,71602,1,0,0:0:0:0:
256,120,71692,1,0,0:0:0:0:
256,140,71782,1,0,0:0:0:0:
256,168,71873,1,0,0:0:0:0:
256,196,71963,1,0,0:0:0:0:
256,220,72053,1,0,0:0:0:0:
256,248,72144,1,0,0:0:0:0:
104,292,72505,5,0,0:0:0:0:
106,239,72595,1,0,0:0:0:0:
109,187,72685,1,0,0:0:0:0:
260,280,72866,1,0,0:0:0:0:
136,72,73047,1,0,0:0:0:0:
176,84,73137,1,0,0:0:0:0:
212,104,73228,1,0,0:0:0:0:
344,192,73408,1,0,0:0:0:0:
176,240,73589,1,0,0:0:0:0:
208,256,73679,1,0,0:0:0:0:
244,284,73770,1,0,0:0:0:0:
472,40,73950,1,0,0:0:0:0:
457,90,74040,1,0,0:0:0:0:
442,140,74130,1,0,0:0:0:0:
428,191,74220,1,0,0:0:0:0:
413,241,74311,1,0,0:0:0:0:
464,332,74673,1,0,0:0:0:0:
464,332,75034,1,0,0:0:0:0:
116,80,75396,5,0,0:0:0:0:
168,96,75486,1,0,0:0:0:0:
216,128,75576,1,0,0:0:0:0:
248,172,75666,1,0,0:0:0:0:
256,224,75757,1,0,0:0:0:0:
60,308,75938,1,0,0:0:0:0:
312,64,76118,1,0,0:0:0:0:
360,92,76209,1,0,0:0:0:0:
404,120,76299,1,0,0:0:0:0:
84,132,76480,1,0,0:0:0:0:
376,320,76660,1,0,0:0:0:0:
320,316,76751,1,0,0:0:0:0:
260,316,76841,1,0,0:0:0:0:
216,164,77202,5,0,0:0:0:0:
240,184,77292,1,0,0:0:0:0:
240,184,77383,1,0,0:0:0:0:
240,184,77473,1,0,0:0:0:0:
240,184,77563,1,0,0:0:0:0:
240,184,77654,1,0,0:0:0:0:
240,184,77744,1,0,0:0:0:0:
240,184,77834,1,0,0:0:0:0:
244,188,77925,1,0,0:0:0:0:
448,96,78286,5,0,0:0:0:0:
415,150,78376,1,0,0:0:0:0:
383,204,78466,1,0,0:0:0:0:
351,258,78556,1,0,0:0:0:0:
318,312,78647,1,0,0:0:0:0:
128,276,78828,5,0,0:0:0:0:
124,36,79009,1,0,0:0:0:0:
124,36,79099,1,0,0:0:0:0:
124,36,79189,1,0,0:0:0:0:
128,276,79370,1,0,0:0:0:0:
120,28,79551,1,0,0:0:0:0:
120,28,79641,1,0,0:0:0:0:
120,28,79731,1,0,0:0:0:0:
256,24,80093,5,0,0:0:0:0:
256,68,80183,1,0,0:0:0:0:
256,104,80273,1,0,0:0:0:0:
256,140,80364,1,0,0:0:0:0:
256,184,80454,1,0,0:0:0:0:
252,319,81177,5,0,0:0:0:0:
253,256,81267,1,0,0:0:0:0:
254,193,81357,1,0,0:0:0:0:
255,130,81447,1,0,0:0:0:0:
256,68,81538,1,0,0:0:0:0:
120,96,81719,1,0,0:0:0:0:
464,268,81899,1,0,0:0:0:0:
424,256,81990,1,0,0:0:0:0:
396,248,82080,1,0,0:0:0:0:
156,168,82261,1,0,0:0:0:0:
388,244,82441,1,0,0:0:0:0:
412,256,82532,1,0,0:0:0:0:
456,272,82622,1,0,0:0:0:0:
256,192,82983,5,0,0:0:0:0:
216,192,83074,1,0,0:0:0:0:
224,152,83164,1,0,0:0:0:0:
260,160,83254,1,0,0:0:0:0:
256,192,83345,1,0,0:0:0:0:
224,188,83435,1,0,0:0:0:0:
228,156,83525,1,0,0:0:0:0:
256,160,83615,1,0,0:0:0:0:
256,192,83706,1,0,0:0:0:0:
452,56,84067,5,0,0:0:0:0:
388,84,84157,1,0,0:0:0:0:
322,108,84247,1,0,0:0:0:0:
267,150,84337,1,0,0:0:0:0:
204,175,84428,1,0,0:0:0:0:
36,328,84609,1,0,0:0:0:0:
412,336,84790,1,0,0:0:0:0:
372,340,84880,1,0,0:0:0:0:
336,340,84970,1,0,0:0:0:0:
176,48,85151,1,0,0:0:0:0:
403,83,85332,1,0,0:0:0:0:
424,128,85422,1,0,0:0:0:0:
448,160,85512,1,0,0:0:0:0:
224,160,85874,5,0,0:0:0:0:
248,184,85964,1,0,0:0:0:0:
248,184,86054,1,0,0:0:0:0:
248,184,86145,1,0,0:0:0:0:
248,184,86235,1,0,0:0:0:0:
248,184,86325,1,0,0:0:0:0:
248,184,86416,1,0,0:0:0:0:
248,184,86506,1,0,0:0:0:0:
248,184,86596,1,0,0:0:0:0:
252,188,86597,1,0,0:0:0:0:
400,88,86958,5,0,0:0:0:0:
384,132,87048,1,0,0:0:0:0:
369,177,87138,1,0,0:0:0:0:
353,221,87228,1,0,0:0:0:0:
338,266,87319,1,0,0:0:0:0:
96,284,87500,1,0,0:0:0:0:
160,56,87680,1,0,0:0:0:0:
180,88,87771,1,0,0:0:0:0:
200,116,87861,1,0,0:0:0:0:
48,332,88042,1,0,0:0:0:0:
400,36,88222,1,0,0:0:0:0:
396,72,88313,1,0,0:0:0:0:
388,116,88403,1,0,0:0:0:0:
460,344,88584,1,0,0:0:0:0:
128,220,88764,1,0,0:0:0:0:
140,188,88855,1,0,0:0:0:0:
132,148,88945,1,0,0:0:0:0:
260,48,89126,1,0,0:0:0:0:
257,95,89216,1,0,0:0:0:0:
255,142,89306,1,0,0:0:0:0:
252,189,89396,1,0,0:0:0:0:
250,236,89487,1,0,0:0:0:0:
424,60,89849,5,0,0:0:0:0:
424,72,89939,1,0,0:0:0:0:
424,92,90030,1,0,0:0:0:0:
328,104,90210,5,0,0:0:0:0:
328,88,90300,1,0,0:0:0:0:
328,64,90391,1,0,0:0:0:0:
224,56,90571,5,0,0:0:0:0:
224,76,90662,1,0,0:0:0:0:
224,96,90752,1,0,0:0:0:0:
104,156,90932,5,0,0:0:0:0:
144,176,91022,1,0,0:0:0:0:
188,196,91113,1,0,0:0:0:0:
220,200,91203,1,0,0:0:0:0:
256,204,91293,1,0,0:0:0:0:
288,216,91384,1,0,0:0:0:0:
312,224,91474,1,0,0:0:0:0:
340,232,91564,1,0,0:0:0:0:
380,244,91655,1,0,0:0:0:0:
412,264,91745,1,0,0:0:0:0:
408,296,91835,1,0,0:0:0:0:
384,320,91926,1,0,0:0:0:0:
348,328,92016,1,0,0:0:0:0:
320,332,92106,1,0,0:0:0:0:
284,328,92197,1,0,0:0:0:0:
252,320,92287,1,0,0:0:0:0:
224,304,92377,1,0,0:0:0:0:
200,88,92739,5,0,0:0:0:0:
212,96,92829,1,0,0:0:0:0:
228,112,92919,1,0,0:0:0:0:
248,128,93010,1,0,0:0:0:0:
264,144,93100,1,0,0:0:0:0:
272,156,93190,1,0,0:0:0:0:
280,168,93281,1,0,0:0:0:0:
276,184,93371,1,0,0:0:0:0:
264,200,93461,1,0,0:0:0:0:
248,204,93552,1,0,0:0:0:0:
236,204,93642,1,0,0:0:0:0:
224,200,93732,1,0,0:0:0:0:
212,192,93823,1,0,0:0:0:0:
204,180,93913,1,0,0:0:0:0:
196,168,94003,1,0,0:0:0:0:
192,156,94094,1,0,0:0:0:0:
196,136,94184,1,0,0:0:0:0:
208,132,94274,1,0,0:0:0:0:
224,132,94365,1,0,0:0:0:0:
236,132,94455,1,0,0:0:0:0:
248,132,94545,1,0,0:0:0:0:
268,136,94636,1,0,0:0:0:0:
280,144,94726,1,0,0:0:0:0:
280,152,94816,1,0,0:0:0:0:
280,168,94907,1,0,0:0:0:0:
280,176,94997,1,0,0:0:0:0:
280,180,95087,1,0,0:0:0:0:
272,188,95178,1,0,0:0:0:0:
264,192,95268,1,0,0:0:0:0:
244,200,95358,1,0,0:0:0:0:
212,208,95449,1,0,0:0:0:0:
192,200,95539,1,0,0:0:0:0:
180,188,95629,1,0,0:0:0:0:
168,168,95720,1,0,0:0:0:0:
168,144,95810,1,0,0:0:0:0:
172,124,95900,1,0,0:0:0:0:
188,116,95991,1,0,0:0:0:0:
224,112,96081,1,0,0:0:0:0:
244,116,96171,1,0,0:0:0:0:
260,124,96262,1,0,0:0:0:0:
284,148,96352,1,0,0:0:0:0:
296,168,96442,1,0,0:0:0:0:
300,184,96533,1,0,0:0:0:0:
288,208,96623,1,0,0:0:0:0:
264,228,96713,1,0,0:0:0:0:
260,176,97074,5,0,0:0:0:0:
216,184,97165,1,0,0:0:0:0:
176,192,97255,1,0,0:0:0:0:
432,224,97436,5,0,0:0:0:0:
404,256,97526,1,0,0:0:0:0:
376,284,97616,1,0,0:0:0:0:
348,300,97707,1,0,0:0:0:0:
324,308,97797,1,0,0:0:0:0:
256,48,98158,5,0,0:0:0:0:
276,76,98249,1,0,0:0:0:0:
296,104,98339,1,0,0:0:0:0:
80,268,98520,1,0,0:0:0:0:
288,272,98700,1,0,0:0:0:0:
288,244,98791,1,0,0:0:0:0:
288,216,98881,1,0,0:0:0:0:
288,188,98971,1,0,0:0:0:0:
292,156,99062,1,0,0:0:0:0:
452,56,99242,1,0,0:0:0:0:
88,60,99423,1,0,0:0:0:0:
96,96,99513,1,0,0:0:0:0:
104,128,99603,1,0,0:0:0:0:
108,164,99694,1,0,0:0:0:0:
112,200,99784,1,0,0:0:0:0:
444,132,99965,5,0,0:0:0:0:
430,177,100055,1,0,0:0:0:0:
417,222,100145,1,0,0:0:0:0:
404,267,100235,1,0,0:0:0:0:
390,313,100326,1,0,0:0:0:0:
288,320,100688,5,0,0:0:0:0:
302,275,100778,1,0,0:0:0:0:
317,230,100868,1,0,0:0:0:0:
332,185,100958,1,0,0:0:0:0:
347,140,101049,1,0,0:0:0:0:
92,112,101230,5,0,0:0:0:0:
96,272,101410,1,0,0:0:0:0:
128,268,101501,1,0,0:0:0:0:
160,260,101591,1,0,0:0:0:0:
260,24,101772,1,0,0:0:0:0:
288,320,101952,1,0,0:0:0:0:
288,288,102043,1,0,0:0:0:0:
288,248,102133,1,0,0:0:0:0:
444,40,102314,1,0,0:0:0:0:
468,312,102494,1,0,0:0:0:0:
440,292,102585,1,0,0:0:0:0:
408,264,102675,1,0,0:0:0:0:
264,172,102856,1,0,0:0:0:0:
211,167,102946,1,0,0:0:0:0:
159,162,103036,1,0,0:0:0:0:
107,157,103126,1,0,0:0:0:0:
54,152,103217,1,0,0:0:0:0:
144,304,103397,1,0,0:0:0:0:
288,44,103578,5,0,0:0:0:0:
288,88,103668,1,0,0:0:0:0:
288,128,103759,1,0,0:0:0:0:
284,168,103849,1,0,0:0:0:0:
280,204,103940,1,0,0:0:0:0:
56,40,104120,1,0,0:0:0:0:
76,304,104301,1,0,0:0:0:0:
224,36,104481,1,0,0:0:0:0:
240,300,104662,1,0,0:0:0:0:
272,284,104753,1,0,0:0:0:0:
296,268,104843,1,0,0:0:0:0:
464,152,105024,1,0,0:0:0:0:
440,184,105114,1,0,0:0:0:0:
408,216,105204,1,0,0:0:0:0:
48,244,105385,1,0,0:0:0:0:
48,208,105475,1,0,0:0:0:0:
48,172,105565,1,0,0:0:0:0:
244,240,105746,1,0,0:0:0:0:
244,187,105836,1,0,0:0:0:0:
245,135,105926,1,0,0:0:0:0:
246,82,106016,1,0,0:0:0:0:
247,30,106107,1,0,0:0:0:0:
104,56,106830,5,0,0:0:0:0:
112,92,106920,1,0,0:0:0:0:
124,120,107011,1,0,0:0:0:0:
136,148,107101,1,0,0:0:0:0:
152,184,107191,1,0,0:0:0:0:
268,240,107372,1,0,0:0:0:0:
392,200,107553,1,0,0:0:0:0:
376,176,107643,1,0,0:0:0:0:
356,144,107733,1,0,0:0:0:0:
332,112,107824,1,0,0:0:0:0:
308,80,107914,1,0,0:0:0:0:
268,240,108095,1,0,0:0:0:0:
480,348,108275,1,0,0:0:0:0:
460,328,108366,1,0,0:0:0:0:
440,304,108456,1,0,0:0:0:0:
80,192,108637,5,0,0:0:0:0:
131,180,108727,1,0,0:0:0:0:
182,168,108817,1,0,0:0:0:0:
233,157,108907,1,0,0:0:0:0:
284,145,108998,1,0,0:0:0:0:
352,68,109359,5,0,0:0:0:0:
300,76,109449,1,0,0:0:0:0:
248,85,109539,1,0,0:0:0:0:
196,94,109629,1,0,0:0:0:0:
145,103,109720,1,0,0:0:0:0:
88,228,109901,5,0,0:0:0:0:
128,244,109992,1,0,0:0:0:0:
168,260,110082,1,0,0:0:0:0:
368,288,110262,1,0,0:0:0:0:
368,248,110353,1,0,0:0:0:0:
368,212,110443,1,0,0:0:0:0:
384,56,110624,1,0,0:0:0:0:
416,88,110714,1,0,0:0:0:0:
444,112,110804,1,0,0:0:0:0:
80,56,110985,1,0,0:0:0:0:
272,148,111166,5,0,0:0:0:0:
236,186,111256,1,0,0:0:0:0:
201,225,111346,1,0,0:0:0:0:
166,264,111436,1,0,0:0:0:0:
130,303,111527,1,0,0:0:0:0:
124,56,112340,5,0,0:0:0:0:
160,84,112430,1,0,0:0:0:0:
180,112,112521,1,0,0:0:0:0:
404,80,112701,1,0,0:0:0:0:
404,112,112792,1,0,0:0:0:0:
400,148,112882,1,0,0:0:0:0:
244,340,113063,5,0,0:0:0:0:
288,344,113153,1,0,0:0:0:0:
336,344,113243,1,0,0:0:0:0:
52,160,113424,5,0,0:0:0:0:
84,160,113514,1,0,0:0:0:0:
112,160,113605,1,0,0:0:0:0:
144,160,113695,1,0,0:0:0:0:
160,160,113785,1,0,0:0:0:0:
192,160,113876,1,0,0:0:0:0:
216,160,113966,1,0,0:0:0:0:
232,160,114056,1,0,0:0:0:0:
248,156,114147,1,0,0:0:0:0:
264,156,114237,1,0,0:0:0:0:
292,160,114327,1,0,0:0:0:0:
348,148,114418,5,0,0:0:0:0:
397,150,114508,1,0,0:0:0:0:
409,104,114598,1,0,0:0:0:0:
366,82,114688,1,0,0:0:0:0:
337,120,114779,1,0,0:0:0:0:
456,32,115502,5,0,0:0:0:0:
421,64,115592,1,0,0:0:0:0:
387,96,115682,1,0,0:0:0:0:
352,128,115772,1,0,0:0:0:0:
318,161,115863,1,0,0:0:0:0:
96,40,116044,1,0,0:0:0:0:
68,344,116224,1,0,0:0:0:0:
72,320,116315,1,0,0:0:0:0:
76,292,116405,1,0,0:0:0:0:
240,32,116586,1,0,0:0:0:0:
240,352,116766,1,0,0:0:0:0:
244,324,116856,1,0,0:0:0:0:
244,296,116947,1,0,0:0:0:0:
400,28,117127,1,0,0:0:0:0:
472,320,117308,1,0,0:0:0:0:
436,281,117398,1,0,0:0:0:0:
400,243,117488,1,0,0:0:0:0:
364,204,117578,1,0,0:0:0:0:
328,166,117669,1,0,0:0:0:0:
256,112,118031,5,0,0:0:0:0:
219,149,118121,1,0,0:0:0:0:
182,187,118211,1,0,0:0:0:0:
146,224,118301,1,0,0:0:0:0:
109,262,118392,1,0,0:0:0:0:
256,40,118573,5,0,0:0:0:0:
280,64,118663,1,0,0:0:0:0:
304,88,118753,1,0,0:0:0:0:
152,344,118934,1,0,0:0:0:0:
180,328,119024,1,0,0:0:0:0:
216,304,119115,1,0,0:0:0:0:
60,84,119295,1,0,0:0:0:0:
92,104,119386,1,0,0:0:0:0:
120,128,119476,1,0,0:0:0:0:
476,208,119657,1,0,0:0:0:0:
448,192,119747,1,0,0:0:0:0:
412,172,119837,1,0,0:0:0:0:
256,228,120018,1,0,0:0:0:0:
252,200,120108,1,0,0:0:0:0:
248,172,120199,1,0,0:0:0:0:
352,96,120560,5,0,0:0:0:0:
369,145,120650,1,0,0:0:0:0:
363,196,120740,1,0,0:0:0:0:
316,212,120830,1,0,0:0:0:0:
267,195,120921,1,0,0:0:0:0:
219,174,121011,1,0,0:0:0:0:
208,216,121101,1,0,0:0:0:0:
236,260,121192,1,0,0:0:0:0:
274,295,121282,1,0,0:0:0:0:
320,322,121372,1,0,0:0:0:0:
464,92,121644,5,0,0:0:0:0:
413,82,121734,1,0,0:0:0:0:
361,71,121824,1,0,0:0:0:0:
310,60,121914,1,0,0:0:0:0:
258,49,122005,1,0,0:0:0:0:
84,84,122186,5,0,0:0:0:0:
92,208,122367,1,0,0:0:0:0:
120,228,122457,1,0,0:0:0:0:
144,240,122547,1,0,0:0:0:0:
176,252,122638,1,0,0:0:0:0:
204,256,122728,1,0,0:0:0:0:
232,260,122818,1,0,0:0:0:0:
264,264,122909,1,0,0:0:0:0:
372,56,123089,1,0,0:0:0:0:
432,192,123270,1,0,0:0:0:0:
428,224,123360,1,0,0:0:0:0:
416,256,123450,1,0,0:0:0:0:
64,244,123631,1,0,0:0:0:0:
64,204,123721,1,0,0:0:0:0:
64,164,123812,1,0,0:0:0:0:
256,88,124173,5,0,0:0:0:0:
296,108,124263,1,0,0:0:0:0:
324,128,124354,1,0,0:0:0:0:
332,160,124444,1,0,0:0:0:0:
332,192,124534,1,0,0:0:0:0:
336,224,124625,1,0,0:0:0:0:
360,244,124715,1,0,0:0:0:0:
396,248,124805,1,0,0:0:0:0:
420,232,124896,1,0,0:0:0:0:
420,196,124986,1,0,0:0:0:0:
436,172,125076,1,0,0:0:0:0:
472,176,125167,1,0,0:0:0:0:
488,208,125257,1,0,0:0:0:0:
492,244,125347,1,0,0:0:0:0:
488,272,125438,1,0,0:0:0:0:
472,296,125528,1,0,0:0:0:0:
448,304,125618,1,0,0:0:0:0:
424,300,125709,1,0,0:0:0:0:
400,288,125799,1,0,0:0:0:0:
384,276,125889,1,0,0:0:0:0:
364,256,125980,1,0,0:0:0:0:
344,240,126070,1,0,0:0:0:0:
320,224,126160,1,0,0:0:0:0:
296,208,126251,1,0,0:0:0:0:
276,200,126341,1,0,0:0:0:0:
252,192,126431,1,0,0:0:0:0:
220,192,126522,1,0,0:0:0:0:
192,184,126612,1,0,0:0:0:0:
160,168,126702,1,0,0:0:0:0:
144,136,126793,1,0,0:0:0:0:
152,112,126883,1,0,0:0:0:0:
168,96,126973,1,0,0:0:0:0:
192,84,127064,1,0,0:0:0:0:
44,40,127425,5,0,0:0:0:0:
43,102,127515,1,0,0:0:0:0:
42,165,127605,1,0,0:0:0:0:
41,228,127695,1,0,0:0:0:0:
40,291,127786,1,0,0:0:0:0:
200,316,127967,5,0,0:0:0:0:
468,36,128148,1,0,0:0:0:0:
444,68,128238,1,0,0:0:0:0:
424,100,128328,1,0,0:0:0:0:
116,260,128509,1,0,0:0:0:0:
488,356,128690,1,0,0:0:0:0:
464,336,128780,1,0,0:0:0:0:
440,312,128870,1,0,0:0:0:0:
252,220,129232,5,0,0:0:0:0:
252,188,129322,1,0,0:0:0:0:
252,152,129412,1,0,0:0:0:0:
252,120,129503,1,0,0:0:0:0:
252,92,129593,1,0,0:0:0:0:
252,60,129594,1,0,0:0:0:0:
292,60,129683,1,0,0:0:0:0:
324,60,129774,1,0,0:0:0:0:
344,60,129864,1,0,0:0:0:0:
376,60,129954,1,0,0:0:0:0:
48,224,130315,5,0,0:0:0:0:
103,193,130405,1,0,0:0:0:0:
158,162,130495,1,0,0:0:0:0:
213,131,130585,1,0,0:0:0:0:
268,101,130676,1,0,0:0:0:0:
428,304,130857,5,0,0:0:0:0:
288,216,131038,1,0,0:0:0:0:
288,216,131128,1,0,0:0:0:0:
288,216,131219,1,0,0:0:0:0:
428,304,131399,1,0,0:0:0:0:
288,216,131580,1,0,0:0:0:0:
288,216,131670,1,0,0:0:0:0:
288,216,131761,1,0,0:0:0:0:
40,44,132122,5,0,0:0:0:0:
40,72,132212,1,0,0:0:0:0:
40,100,132303,1,0,0:0:0:0:
40,124,132393,1,0,0:0:0:0:
36,148,132483,1,0,0:0:0:0:
36,172,132574,1,0,0:0:0:0:
32,192,132664,1,0,0:0:0:0:
32,212,132754,1,0,0:0:0:0:
32,240,132845,1,0,0:0:0:0:
472,328,133206,5,0,0:0:0:0:
472,265,133296,1,0,0:0:0:0:
472,202,133386,1,0,0:0:0:0:
472,139,133476,1,0,0:0:0:0:
472,76,133567,1,0,0:0:0:0:
28,32,133748,5,0,0:0:0:0:
64,44,133838,1,0,0:0:0:0:
96,56,133929,1,0,0:0:0:0:
480,312,134109,1,0,0:0:0:0:
448,296,134199,1,0,0:0:0:0:
416,280,134289,1,0,0:0:0:0:
24,188,134471,1,0,0:0:0:0:
60,188,134561,1,0,0:0:0:0:
88,188,134651,1,0,0:0:0:0:
256,360,135013,5,0,0:0:0:0:
256,316,135103,1,0,0:0:0:0:
260,284,135193,1,0,0:0:0:0:
260,252,135284,1,0,0:0:0:0:
260,224,135374,1,0,0:0:0:0:
264,196,135464,1,0,0:0:0:0:
264,168,135555,1,0,0:0:0:0:
264,140,135645,1,0,0:0:0:0:
264,108,135735,1,0,0:0:0:0:
464,352,136097,5,0,0:0:0:0:
417,309,136187,1,0,0:0:0:0:
370,267,136277,1,0,0:0:0:0:
323,225,136367,1,0,0:0:0:0:
277,182,136458,1,0,0:0:0:0:
92,312,136638,5,0,0:0:0:0:
64,168,136819,5,0,0:0:0:0:
88,144,136909,1,0,0:0:0:0:
120,120,136999,1,0,0:0:0:0:
148,96,137090,1,0,0:0:0:0:
180,76,137180,1,0,0:0:0:0:
212,104,137270,1,0,0:0:0:0:
228,128,137361,1,0,0:0:0:0:
240,160,137451,1,0,0:0:0:0:
252,184,137541,1,0,0:0:0:0:
488,192,137903,5,0,0:0:0:0:
456,232,137993,1,0,0:0:0:0:
424,264,138084,1,0,0:0:0:0:
384,300,138174,1,0,0:0:0:0:
352,332,138264,1,0,0:0:0:0:
316,352,138355,1,0,0:0:0:0:
276,356,138445,1,0,0:0:0:0:
236,344,138535,1,0,0:0:0:0:
200,316,138626,1,0,0:0:0:0:
256,192,138987,12,0,143142,0:0:0:0:
