osu file format v14

[General]
AudioFilename: audio.mp3
AudioLeadIn: 0
PreviewTime: -1
Countdown: 1
SampleSet: Normal
StackLeniency: 0.7
Mode: 0
LetterboxInBreaks: 0
WidescreenStoryboard: 1

[Editor]
DistanceSpacing: 1.9
BeatDivisor: 4
GridSize: 4
TimelineZoom: 1

[Metadata]
Title:Vampire Obsession
TitleUnicode:Vampire Obsession
Artist:Famishin
ArtistUnicode:Famishin
Creator:SDpeople
Version:Normal
Source:DRACU-RIOT!
Tags:Yuzu-Soft
BeatmapID:1956681
BeatmapSetID:935433

[Difficulty]
HPDrainRate:4
CircleSize:3
OverallDifficulty:5
ApproachRate:5
SliderMultiplier:1.4
SliderTickRate:1

[Events]
//Background and Video events
0,0,"nigula.png",0,0
//Break Periods
//Storyboard Layer 0 (Background)
//Storyboard Layer 1 (Fail)
//Storyboard Layer 2 (Pass)
//Storyboard Layer 3 (Foreground)
//Storyboard Sound Samples

[TimingPoints]
7776,625,4,1,0,100,1,0
33557,-66.6666666666667,4,1,0,100,0,0
52776,-66.6666666666667,4,1,0,100,0,1
57620,-66.6666666666667,4,1,0,80,0,0
60276,-33.3333333333333,4,1,0,100,0,0
62932,-33.3333333333333,4,1,0,80,0,0
69026,-100,4,1,0,100,0,0
81057,-50,4,1,0,100,0,0
86057,-100,4,1,0,100,0,0
95120,-100,4,1,0,100,0,0
99182,-100,4,1,0,100,0,0
105432,-100,4,1,0,100,0,0
111526,-25,4,1,0,100,0,0
114026,-25,4,1,0,80,0,0
119026,-100,4,1,0,80,0,1
126526,-25,4,1,0,100,0,0
130276,-100,4,1,0,90,0,0
131838,-100,4,1,0,80,0,0
132776,-100,4,1,0,70,0,0
134338,-100,4,1,0,60,0,0

[Colours]
Combo1 : 200,0,0
Combo2 : 255,128,128
Combo3 : 255,0,0
Combo4 : 255,0,128
Combo5 : 255,0,255

[HitObjects]
224,212,7776,5,0,0:0:0:0:
145,141,8401,1,0,0:0:0:0:
258,108,9026,1,0,0:0:0:0:
377,75,9651,2,0,P|380:138|303:166,1,140,8|0,0:0|0:0,0:0:0:0:
281,164,10901,5,0,0:0:0:0:
367,235,11526,1,0,0:0:0:0:
245,267,12151,1,0,0:0:0:0:
158,281,12776,2,0,P|155:218|232:190,1,140,8|0,0:0|0:0,0:0:0:0:
146,151,14026,5,0,0:0:0:0:
139,61,14651,1,0,0:0:0:0:
272,52,15276,1,0,0:0:0:0:
272,52,15588,1,0,0:0:0:0:
272,52,15901,1,0,0:0:0:0:
269,136,16213,2,0,L|272:194,2,35
389,294,17776,5,0,0:0:0:0:
277,208,18401,1,0,0:0:0:0:
255,340,19026,1,0,0:0:0:0:
124,177,19651,2,8,L|236:92,1,140
341,115,20901,2,0,L|359:264,1,140,8|0,0:0|0:0,0:0:0:0:
253,75,22151,2,0,P|246:109|243:135,2,35
150,88,22776,2,4,P|241:172|361:73,1,280
453,64,24651,6,0,L|452:210,1,140,8|0,0:0|0:0,0:0:0:0:
361,240,25901,6,4,L|360:94,1,140,8|4,0:0|0:0,0:0:0:0:
222,128,27776,1,0,0:0:0:0:
128,117,28401,1,0,0:0:0:0:
161,210,29026,1,0,0:0:0:0:
280,197,29651,2,4,P|301:80|161:62,1,280,0|4,0:0|0:0,0:0:0:0:
83,46,31526,5,0,0:0:0:0:
13,90,32151,6,0,L|14:236,1,140
105,266,33401,6,0,L|106:120,1,140
204,96,34651,1,0,0:0:0:0:
191,194,35276,1,0,0:0:0:0:
191,291,35901,2,0,L|251:289,4,52.5000020027161
278,156,37151,5,4,0:0:0:0:
352,243,37776,1,0,0:0:0:0:
392,137,38401,1,0,0:0:0:0:
466,201,39026,2,2,P|480:138|366:42,1,210.000008010865
371,166,40276,2,0,P|336:220|187:207,1,210.000008010865
272,152,41526,2,2,P|212:127|98:222,1,210.000008010865
109,298,42776,6,0,L|232:297,2,105.000004005432
206,202,44026,6,0,L|329:201,2,105.000004005432
306,117,45276,6,0,L|183:116,2,105.000004005432
209,21,46526,6,4,L|86:20,2,105.000004005432
109,85,47776,5,0,0:0:0:0:
160,140,48401,1,0,0:0:0:0:
216,198,49026,1,0,0:0:0:0:
278,260,49651,1,0,0:0:0:0:
352,323,50276,1,0,0:0:0:0:
437,250,50901,1,0,0:0:0:0:
441,150,51526,1,0,0:0:0:0:
372,63,52151,1,0,0:0:0:0:
253,134,52776,1,0,0:0:0:0:
254,272,53401,1,0,0:0:0:0:
253,109,54026,1,0,0:0:0:0:
255,295,54651,1,0,0:0:0:0:
253,90,55276,1,0,0:0:0:0:
260,330,55901,1,0,0:0:0:0:
252,54,56526,1,0,0:0:0:0:
134,150,57776,6,4,B|100:51|182:71|134:149|203:90|217:131|133:146|214:144|160:176|160:176|135:151|185:205|155:226|134:156|124:223|97:214|126:160|74:194|65:164|124:152|60:144|67:111|121:135|67:89|146:49|127:132,1,420.000016021729
325,127,59651,6,4,B|291:28|373:48|325:126|394:67|408:108|324:123|405:121|351:153|351:153|326:128|376:182|346:203|325:133|315:200|288:191|317:137|265:171|256:141|315:129|251:121|258:88|312:112|258:66|337:26|318:109,1,420.000016021729
241,285,61526,6,0,B|207:186|289:206|241:284|310:225|324:266|240:281|321:279|267:311|267:311|242:286|292:340|262:361|241:291|231:358|204:349|233:295|181:329|172:299|231:287|167:279|174:246|228:270|174:224|253:184|234:267,2,420.000016021729
325,127,63401,6,0,B|291:28|373:48|325:126|394:67|408:108|324:123|405:121|351:153|351:153|326:128|376:182|346:203|325:133|315:200|288:191|317:137|265:171|256:141|315:129|251:121|258:88|312:112|258:66|337:26|318:109,2,420.000016021729
146,135,65276,6,0,B|112:36|194:56|146:134|215:75|229:116|145:131|226:129|172:161|172:161|147:136|197:190|167:211|146:141|136:208|109:199|138:145|86:179|77:149|136:137|72:129|79:96|133:120|79:74|158:34|139:117,2,420.000016021729
126,261,69026,5,0,0:0:0:0:
241,240,69651,1,0,0:0:0:0:
162,147,70276,1,0,0:0:0:0:
251,115,70901,2,0,P|380:98|405:82,1,140,8|0,0:0|0:0,0:0:0:0:
417,10,72151,2,0,P|467:58|470:143,1,140
407,193,73401,6,0,P|309:207|254:189,1,140,8|0,0:0|0:0,0:0:0:0:
241,270,74651,2,0,P|187:182|215:154,1,140
123,137,75901,2,0,P|211:83|239:111,1,140,8|0,0:0|0:0,0:0:0:0:
289,158,77151,2,4,L|326:193,4,35,0|0|0|0|4,0:0|0:0|0:0|0:0|0:0,0:0:0:0:
369,277,79026,5,0,0:0:0:0:
263,318,79651,1,0,0:0:0:0:
281,216,80276,1,0,0:0:0:0:
166,252,80901,1,8,0:0:0:0:
76,299,81526,2,0,P|125:165|255:210,1,280
267,273,82776,2,0,P|327:143|203:83,1,280
151,51,84026,6,0,L|90:339,1,280
183,317,85276,6,0,L|471:256,1,280
420,188,86526,2,0,P|337:241|386:243,1,280,0|4,0:0|0:0,0:0:0:0:
361,188,89026,1,0,0:0:0:0:
286,125,89651,1,8,0:0:0:0:
371,100,90276,2,0,P|315:40|236:51,1,140
188,101,91526,5,0,0:0:0:0:
108,170,92151,1,8,0:0:0:0:
35,109,92776,2,0,P|3:156|67:231,1,140
126,224,94026,2,0,L|299:224,1,140
337,156,95276,2,0,L|334:9,1,140
258,61,96526,5,8,0:0:0:0:
155,147,97151,1,8,0:0:0:0:
275,184,97776,1,12,0:0:0:0:
101,228,99026,2,0,P|314:295|478:171,1,420
404,138,101526,2,0,P|191:71|27:195,1,420
53,271,104026,2,0,L|492:270,1,420
411,190,106526,6,0,L|410:135,8,35
299,271,109026,2,0,P|198:270|226:249,1,280
298,104,110901,2,0,P|197:105|225:126,1,280
365,198,112776,1,0,0:0:0:0:
305,106,113401,1,0,0:0:0:0:
117,193,114026,5,0,0:0:0:0:
204,320,114651,1,0,0:0:0:0:
190,154,115276,1,0,0:0:0:0:
276,287,115901,1,0,0:0:0:0:
260,118,116526,1,0,0:0:0:0:
342,235,117151,1,0,0:0:0:0:
338,71,117776,1,0,0:0:0:0:
437,189,118401,1,0,0:0:0:0:
235,158,119026,6,0,L|188:109,3,35
276,155,119651,2,0,L|325:124,3,35
279,198,120276,6,0,L|326:247,3,35
235,197,120901,2,0,L|186:228,3,35
259,176,121526,2,0,L|256:80,1,70
336,184,122151,2,0,L|364:106,1,70
385,243,122776,2,0,L|468:189,1,70
306,253,123401,2,0,L|308:334,1,70
277,158,124026,6,0,L|324:109,3,35
236,155,124651,2,0,L|187:124,3,35
233,198,125276,6,0,L|186:247,3,35
277,197,125901,2,0,L|326:228,3,35
257,179,126526,2,0,L|258:32,1,140
174,179,127151,2,0,L|173:27,1,140
89,181,127776,2,0,L|90:22,1,140,4|0,0:0|0:0,0:0:0:0:
147,98,130276,5,0,0:0:0:0:
234,171,130901,1,0,0:0:0:0:
287,61,131526,2,0,P|350:98|338:165,1,140
364,252,132776,1,0,0:0:0:0:
262,302,133401,1,0,0:0:0:0:
175,261,134026,2,0,P|217:199|284:220,1,140
