osu file format v14

[General]
AudioFilename: audio.mp3
AudioLeadIn: 0
PreviewTime: -1
Countdown: 1
SampleSet: Normal
StackLeniency: 0.7
Mode: 0
LetterboxInBreaks: 0
WidescreenStoryboard: 1

[Editor]
DistanceSpacing: 1.9
BeatDivisor: 4
GridSize: 4
TimelineZoom: 1

[Metadata]
Title:Vampire Obsession
TitleUnicode:Vampire Obsession
Artist:Famishin
ArtistUnicode:Famishin
Creator:SDpeople
Version:Insane
Source:DRACU-RIOT!
Tags:Yuzu-Soft
BeatmapID:1992045
BeatmapSetID:935433

[Difficulty]
HPDrainRate:6.3
CircleSize:4
OverallDifficulty:7.2
ApproachRate:8.7
SliderMultiplier:1.4
SliderTickRate:1

[Events]
//Background and Video events
0,0,"nigula.png",0,0
//Break Periods
//Storyboard Layer 0 (Background)
//Storyboard Layer 1 (Fail)
//Storyboard Layer 2 (Pass)
//Storyboard Layer 3 (Foreground)
//Storyboard Sound Samples

[TimingPoints]
290.493703495412,625.065110949057,4,1,0,60,1,0
603,-66.6666666666667,4,1,0,61,0,0
915,-50,4,1,0,62,0,0
1228,-40,4,1,0,63,0,0
4040,-400,4,1,0,65,0,0
4197,-400,4,1,0,5,0,0
7791,-40,4,1,0,65,0,0
14041,-100,4,1,0,65,0,0
18729,-66.6666666666667,4,1,0,65,0,0
25918,-100,4,1,0,68,0,0
33575,-66.6666666666667,4,1,0,70,0,0
45295,-100,4,1,0,60,0,0
48420,-100,4,1,0,65,0,0
49045,-100,4,1,0,70,0,0
49670,-100,4,1,0,75,0,0
50295,-25,4,1,0,75,0,0
50920,-25,4,1,0,70,0,0
51545,-25,4,1,0,65,0,0
52170,-25,4,1,0,60,0,0
52795,-25,4,1,0,60,0,0
53421,-25,4,1,0,65,0,0
54046,-25,4,1,0,70,0,0
54671,-25,4,1,0,75,0,0
55296,-25,4,1,0,75,0,0
55921,-25,4,1,0,70,0,0
56546,-25,4,1,0,65,0,0
57171,-25,4,1,0,60,0,0
57796,-25,4,1,0,56,0,0
58421,-25,4,1,0,60,0,0
59046,-25,4,1,0,65,0,0
59671,-25,4,1,0,70,0,0
60296,-25,4,1,0,70,0,0
61546,-100,4,1,0,70,0,0
63422,-100,4,1,0,75,0,0
64047,-100,4,1,0,80,0,0
64672,-100,4,1,0,82,0,0
66547,-400,4,1,0,70,0,0
66703,-400,4,1,0,5,0,0
69047,-100,4,1,0,65,0,0
71547,-66.6666666666667,4,1,0,65,0,0
75298,-100,4,1,0,65,0,0
79986,-33.3333333333333,4,1,0,65,0,0
89049,-100,4,1,0,67,0,0
109051,-100,4,1,0,65,0,0
109676,-100,4,1,0,70,0,0
110301,-100,4,1,0,75,0,0
110927,-100,4,1,0,80,0,0
111552,-33.3333333333333,4,1,0,80,0,0
112177,-33.3333333333333,4,1,0,75,0,0
112802,-33.3333333333333,4,1,0,65,0,0
113427,-33.3333333333333,4,1,0,60,0,0
114052,-33.3333333333333,4,1,0,60,0,0
114677,-33.3333333333333,4,1,0,65,0,0
115302,-33.3333333333333,4,1,0,70,0,0
115927,-33.3333333333333,4,1,0,75,0,0
116552,-33.3333333333333,4,1,0,75,0,0
117177,-33.3333333333333,4,1,0,70,0,0
117802,-33.3333333333333,4,1,0,65,0,0
118427,-33.3333333333333,4,1,0,60,0,0
119052,-33.3333333333333,4,1,0,60,0,0
119677,-33.3333333333333,4,1,0,65,0,0
120302,-33.3333333333333,4,1,0,70,0,0
120928,-33.3333333333333,4,1,0,75,0,0
121553,-33.3333333333333,4,1,0,75,0,0
121865,-33.3333333333333,4,1,0,72,0,0
122178,-33.3333333333333,4,1,0,69,0,0
122490,-33.3333333333333,4,1,0,66,0,0
122803,-33.3333333333333,4,1,0,63,0,0
123115,-33.3333333333333,4,1,0,57,0,0
123428,-33.3333333333333,4,1,0,54,0,0
123740,-33.3333333333333,4,1,0,51,0,0
124053,-66.6666666666667,4,1,0,55,0,0
124678,-66.6666666666667,4,1,0,60,0,0
125303,-40,4,1,0,65,0,0
125928,-40,4,1,0,70,0,0
126553,-40,4,1,0,75,0,0
130304,-40,4,1,0,50,0,0

[Colours]
Combo1 : 200,0,0
Combo2 : 255,128,128
Combo3 : 255,0,0
Combo4 : 255,0,128
Combo5 : 255,0,255

[HitObjects]
205,60,290,6,0,L|168:109,1,35
207,127,603,2,0,L|161:197,1,52.5000020027161
206,215,915,2,0,L|155:286,1,70
185,312,1228,6,0,P|241:339|289:269,1,87.5
301,192,1540,2,0,P|245:165|197:235,1,87.5
179,331,1853,2,0,P|235:358|283:288,1,87.5
303,177,2165,2,0,P|247:150|199:220,1,87.5
172,351,2478,2,0,P|228:378|276:308,1,87.5
343,281,2790,1,0,0:0:0:0:
127,49,3415,1,0,0:0:0:0:
53,317,4040,2,0,L|163:308,1,105,0|4,0:0|0:0,0:0:0:0:
147,75,7791,5,0,0:0:0:0:
159,107,8103,2,0,L|216:184,1,87.5
211,177,8416,1,0,0:0:0:0:
205,268,8728,2,0,P|242:289|321:268,1,87.5
296,284,9041,1,0,0:0:0:0:
314,114,9353,1,0,0:0:0:0:
454,230,9666,1,0,0:0:0:0:
314,114,9979,1,0,0:0:0:0:
168,198,10291,5,0,0:0:0:0:
155,183,10604,2,0,B|114:142|114:143|91:222,1,87.5
99,191,10916,1,0,0:0:0:0:
145,313,11229,1,0,0:0:0:0:
145,313,11385,1,0,0:0:0:0:
145,313,11541,1,0,0:0:0:0:
300,224,11854,1,0,0:0:0:0:
147,99,12166,1,0,0:0:0:0:
326,33,12479,1,0,0:0:0:0:
147,99,12791,1,0,0:0:0:0:
190,261,13104,5,0,0:0:0:0:
337,157,13416,1,0,0:0:0:0:
259,17,13729,1,0,0:0:0:0:
259,17,13885,1,0,0:0:0:0:
259,17,14041,2,0,L|256:102,1,70
169,238,14666,1,0,0:0:0:0:
357,237,14979,1,0,0:0:0:0:
254,96,15292,1,0,0:0:0:0:
254,96,15604,1,0,0:0:0:0:
254,96,15917,2,0,P|379:186|374:322,1,280
181,322,17792,5,0,0:0:0:0:
181,322,18104,1,0,0:0:0:0:
81,191,18417,1,0,0:0:0:0:
81,191,18729,2,0,L|83:257,2,52.5000020027161
211,65,19354,1,0,0:0:0:0:
391,132,19667,1,0,0:0:0:0:
420,301,19980,1,0,0:0:0:0:
243,301,20292,5,0,0:0:0:0:
243,301,20605,1,0,0:0:0:0:
361,165,20917,1,0,0:0:0:0:
361,165,21230,2,0,L|369:248,2,52.5000020027161
215,44,21855,1,0,0:0:0:0:
59,133,22167,1,0,0:0:0:0:
79,284,22480,1,0,0:0:0:0:
235,360,22792,5,0,0:0:0:0:
325,197,23105,1,0,0:0:0:0:
325,197,23417,1,0,0:0:0:0:
202,112,23730,2,0,L|160:165,2,52.5000020027161
359,167,24355,1,0,0:0:0:0:
169,295,24668,1,0,0:0:0:0:
252,97,24980,1,0,0:0:0:0:
331,296,25293,1,0,0:0:0:0:
144,167,25605,1,0,0:0:0:0:
182,258,25918,2,0,P|334:282|426:183,1,280
254,240,27793,6,0,L|256:82,1,140
140,130,28730,1,0,0:0:0:0:
140,200,28887,1,0,0:0:0:0:
139,270,29043,1,0,0:0:0:0:
140,130,29356,2,0,L|140:220,1,70
139,270,29981,1,0,0:0:0:0:
258,240,30293,6,0,L|256:82,1,140
372,130,31230,1,0,0:0:0:0:
372,200,31387,1,0,0:0:0:0:
373,270,31543,1,0,0:0:0:0:
372,130,31856,2,0,L|372:220,1,70
373,270,32481,1,0,0:0:0:0:
219,338,32793,5,0,0:0:0:0:
63,283,33106,1,0,0:0:0:0:
159,149,33418,1,0,0:0:0:0:
172,135,33575,2,0,B|248:122|248:122|280:197,1,157.500006008148
279,195,34200,1,0,0:0:0:0:
179,143,34356,2,0,L|276:189,1,105.000004005432
241,272,34981,5,0,0:0:0:0:
85,223,35294,1,0,0:0:0:0:
85,223,35606,1,0,0:0:0:0:
152,113,35919,2,0,L|216:112,1,52.5000020027161
171,78,36231,2,0,L|233:73,1,52.5000020027161
201,40,36544,1,0,0:0:0:0:
110,70,37794,6,0,P|181:55|190:83,1,105.000004005432
152,137,38419,1,0,0:0:0:0:
243,129,38731,1,0,0:0:0:0:
243,129,38888,1,0,0:0:0:0:
243,129,39044,2,0,P|217:198|161:210,1,105.000004005432
102,211,39669,1,0,0:0:0:0:
341,208,39982,1,0,0:0:0:0:
351,103,40294,6,0,P|423:111|416:142,1,105.000004005432
434,200,40919,1,0,0:0:0:0:
354,172,41232,1,0,0:0:0:0:
354,172,41388,1,0,0:0:0:0:
354,172,41544,2,0,P|359:241|408:260,1,105.000004005432
463,275,42169,1,0,0:0:0:0:
213,273,42482,1,0,0:0:0:0:
165,115,42794,6,0,P|265:54|349:122,1,210.000008010865
344,271,44045,2,0,P|256:315|145:257,1,210.000008010865
171,107,45295,2,0,L|171:134,13,17.5
283,145,46545,1,0,0:0:0:0:
259,117,47795,5,0,0:0:0:0:
283,115,47951,1,0,0:0:0:0:
307,120,48107,1,0,0:0:0:0:
330,130,48263,1,0,0:0:0:0:
349,145,48420,5,0,0:0:0:0:
363,165,48576,1,0,0:0:0:0:
373,187,48732,1,0,0:0:0:0:
377,211,48888,1,0,0:0:0:0:
375,236,49045,5,0,0:0:0:0:
367,259,49201,1,0,0:0:0:0:
354,280,49357,1,0,0:0:0:0:
336,296,49513,1,0,0:0:0:0:
315,308,49670,5,0,0:0:0:0:
291,315,49826,1,0,0:0:0:0:
267,315,49982,1,0,0:0:0:0:
243,310,50138,1,0,0:0:0:0:
222,293,50295,6,0,P|170:225|224:159,1,140
188,186,50608,6,0,P|256:238|322:184,1,140
186,181,50920,6,0,P|238:113|184:47,1,140
186,181,51233,6,0,P|118:129|52:183,1,140
64,164,51545,2,0,B|51:283|216:271,1,140
205,202,51858,2,0,B|218:83|53:95,1,140
48,181,52170,2,0,B|35:300|200:288,1,140
221,189,52483,2,0,B|234:70|69:82,1,140
174,63,52795,5,0,0:0:0:0:
192,70,52951,1,0,0:0:0:0:
211,80,53107,1,0,0:0:0:0:
230,90,53263,1,0,0:0:0:0:
223,112,53421,5,0,0:0:0:0:
241,119,53577,1,0,0:0:0:0:
260,129,53733,1,0,0:0:0:0:
279,139,53889,1,0,0:0:0:0:
275,168,54046,5,0,0:0:0:0:
293,175,54202,1,0,0:0:0:0:
312,185,54358,1,0,0:0:0:0:
331,195,54514,1,0,0:0:0:0:
326,229,54671,5,0,0:0:0:0:
344,236,54827,1,0,0:0:0:0:
363,246,54983,1,0,0:0:0:0:
382,256,55139,1,0,0:0:0:0:
406,260,55296,2,0,P|451:167|410:156,1,140
452,168,55608,2,0,P|360:160|354:131,1,140
354,131,55921,2,0,P|345:223|316:229,1,140
354,131,56233,2,0,P|261:122|255:93,1,140
326,55,56546,6,0,B|445:42|433:207,1,140
364,196,56859,2,0,B|245:209|257:44,1,140
343,39,57171,2,0,B|462:26|450:191,1,140
351,212,57484,2,0,B|232:225|244:60,1,140
162,96,57796,5,0,0:0:0:0:
157,116,57952,1,0,0:0:0:0:
156,136,58108,1,0,0:0:0:0:
156,157,58264,1,0,0:0:0:0:
159,177,58421,5,0,0:0:0:0:
165,197,58577,1,0,0:0:0:0:
173,216,58733,1,0,0:0:0:0:
183,233,58889,1,0,0:0:0:0:
196,249,59046,5,0,0:0:0:0:
211,264,59202,1,0,0:0:0:0:
227,277,59358,1,0,0:0:0:0:
244,287,59514,1,0,0:0:0:0:
263,295,59671,5,0,0:0:0:0:
283,301,59827,1,0,0:0:0:0:
303,304,59983,1,0,0:0:0:0:
324,304,60139,1,0,0:0:0:0:
347,300,60296,6,0,L|432:173,1,140
424,183,60609,2,0,L|288:101,1,140
305,111,60921,2,0,L|211:239,1,140
222,224,61234,2,0,L|359:308,1,140
443,165,61546,6,0,L|505:158,1,35
276,63,61859,2,0,L|260:-1,1,35
183,218,62171,2,0,L|121:238,1,35
348,300,62484,2,0,L|365:344,1,35
380,177,62797,5,0,0:0:0:0:
355,163,62953,1,0,0:0:0:0:
331,148,63109,1,0,0:0:0:0:
307,134,63265,1,0,0:0:0:0:
286,132,63422,5,0,0:0:0:0:
270,155,63578,1,0,0:0:0:0:
255,178,63734,1,0,0:0:0:0:
239,201,63890,1,0,0:0:0:0:
248,219,64047,5,0,0:0:0:0:
272,234,64203,1,0,0:0:0:0:
295,249,64359,1,0,0:0:0:0:
319,264,64515,1,0,0:0:0:0:
337,252,64672,5,0,0:0:0:0:
352,229,64828,1,0,0:0:0:0:
360,204,64984,1,0,0:0:0:0:
348,186,65140,1,0,0:0:0:0:
321,180,65297,5,0,0:0:0:0:
99,48,65922,1,0,0:0:0:0:
80,312,66547,2,0,L|157:308,1,70
260,318,69047,5,0,0:0:0:0:
372,311,69360,1,0,0:0:0:0:
427,213,69672,1,0,0:0:0:0:
372,311,69985,1,0,0:0:0:0:
372,311,70141,1,0,0:0:0:0:
372,311,70297,2,0,L|316:225,1,70
255,255,70922,1,0,0:0:0:0:
394,94,71235,1,0,0:0:0:0:
299,88,71547,6,0,P|223:88|212:128,1,105.000004005432
132,63,72172,1,0,0:0:0:0:
97,190,72485,2,0,L|169:193,2,52.5000020027161
136,308,73110,1,0,0:0:0:0:
299,290,73423,2,0,L|303:177,1,105.000004005432
378,206,74048,5,0,0:0:0:0:
376,350,74360,1,0,0:0:0:0:
500,290,74673,1,0,0:0:0:0:
376,350,74985,1,0,0:0:0:0:
376,350,75142,1,0,0:0:0:0:
371,346,75298,2,0,L|287:342,1,70
269,175,75923,1,0,0:0:0:0:
174,338,76235,1,0,0:0:0:0:
89,209,76548,5,0,0:0:0:0:
89,209,76860,1,0,0:0:0:0:
89,209,77173,2,0,L|89:248,3,35
165,117,77798,1,0,0:0:0:0:
313,67,79048,5,0,0:0:0:0:
315,197,79361,1,0,0:0:0:0:
315,325,79673,1,0,0:0:0:0:
443,258,79986,2,0,B|503:297|518:267|459:207,1,105.000004005432
443,193,80298,5,0,0:0:0:0:
253,310,80610,1,0,0:0:0:0:
287,92,80923,5,0,0:0:0:0:
339,308,81235,1,0,0:0:0:0:
216,307,81548,5,0,0:0:0:0:
408,208,81861,1,0,0:0:0:0:
239,79,82174,1,0,0:0:0:0:
82,181,82486,2,0,B|133:149|133:149|153:240,1,105.000004005432
141,214,82799,1,0,0:0:0:0:
305,321,83111,1,0,0:0:0:0:
122,384,83424,1,0,0:0:0:0:
268,113,83736,1,0,0:0:0:0:
412,186,84049,5,0,0:0:0:0:
285,278,84361,1,0,0:0:0:0:
173,170,84674,1,0,0:0:0:0:
264,58,84986,2,0,P|334:31|389:75,1,105.000004005432
358,40,85299,1,0,0:0:0:0:
408,189,85611,5,0,0:0:0:0:
285,278,85924,1,0,0:0:0:0:
173,170,86237,1,0,0:0:0:0:
285,278,86549,1,0,0:0:0:0:
285,278,86862,1,0,0:0:0:0:
350,94,87174,5,0,0:0:0:0:
388,110,87330,1,0,0:0:0:0:
386,145,87487,1,0,0:0:0:0:
343,153,87643,1,0,0:0:0:0:
328,121,87799,1,0,0:0:0:0:
309,67,89049,6,0,B|366:74|344:128|344:129,1,70
378,10,89674,2,0,B|435:17|413:71|413:72,1,70
189,313,90299,6,0,B|132:306|154:252|154:251,1,70
127,370,90924,2,0,B|70:363|92:309|92:308,1,70
203,67,91549,6,0,B|146:74|168:128|168:129,1,70
135,6,92174,2,0,B|78:13|100:67|100:68,1,70
323,313,92799,6,0,B|380:306|358:252|358:251,1,70
392,371,93424,2,0,B|449:364|427:310|427:309,1,70
413,117,94050,2,0,P|448:189|410:257,1,140
79,237,95300,2,0,P|56:159|105:98,1,140
254,86,96550,5,0,0:0:0:0:
254,308,96863,1,0,0:0:0:0:
223,90,97175,5,0,0:0:0:0:
241,64,97331,1,0,0:0:0:0:
279,71,97488,1,0,0:0:0:0:
280,112,97644,1,0,0:0:0:0:
243,122,97800,1,0,0:0:0:0:
86,193,99050,5,0,0:0:0:0:
260,83,99363,1,0,0:0:0:0:
257,327,99675,1,0,0:0:0:0:
233,97,99988,1,0,0:0:0:0:
259,64,100144,1,0,0:0:0:0:
280,95,100300,1,0,0:0:0:0:
454,248,100613,5,0,0:0:0:0:
260,84,100925,1,0,0:0:0:0:
23,80,101238,1,0,0:0:0:0:
260,84,101551,1,0,0:0:0:0:
486,81,101863,1,0,0:0:0:0:
260,84,102176,1,0,0:0:0:0:
232,318,102488,5,0,0:0:0:0:
254,287,102644,1,0,0:0:0:0:
277,320,102801,1,0,0:0:0:0:
254,88,103113,1,0,0:0:0:0:
225,310,103426,2,0,P|276:319|303:283,1,70
430,158,104051,5,0,0:0:0:0:
249,278,104363,1,0,0:0:0:0:
234,62,104676,1,0,0:0:0:0:
274,284,104988,2,0,P|222:293|195:257,1,70
85,124,105613,5,0,0:0:0:0:
387,126,105926,2,0,L|305:126,1,70
171,107,106551,2,0,L|171:134,13,17.5
283,145,107801,1,0,0:0:0:0:
430,264,109051,5,0,0:0:0:0:
355,329,109208,1,0,0:0:0:0:
347,204,109364,1,0,0:0:0:0:
261,269,109520,1,0,0:0:0:0:
269,149,109676,5,0,0:0:0:0:
194,214,109833,1,0,0:0:0:0:
186,89,109989,1,0,0:0:0:0:
100,154,110145,1,0,0:0:0:0:
194,214,110301,5,0,0:0:0:0:
192,120,110458,1,0,0:0:0:0:
288,153,110614,1,0,0:0:0:0:
284,64,110770,1,0,0:0:0:0:
378,116,110927,5,0,0:0:0:0:
377,27,111083,1,0,0:0:0:0:
467,86,111239,1,0,0:0:0:0:
464,0,111395,1,0,0:0:0:0:
383,30,111552,6,0,P|457:130|407:191,1,210.000008010865
129,354,112177,6,0,P|55:254|105:193,1,210.000008010865
418,319,112802,6,0,P|318:393|257:343,1,210.000008010865
94,65,113427,6,0,P|194:-9|255:41,1,210.000008010865
173,186,114052,5,0,0:0:0:0:
261,109,114208,1,0,0:0:0:0:
338,197,114364,1,0,0:0:0:0:
250,274,114521,1,0,0:0:0:0:
177,166,114677,5,0,0:0:0:0:
281,113,114833,1,0,0:0:0:0:
334,217,114989,1,0,0:0:0:0:
230,270,115146,1,0,0:0:0:0:
186,148,115302,5,0,0:0:0:0:
299,122,115458,1,0,0:0:0:0:
325,235,115615,1,0,0:0:0:0:
212,261,115771,1,0,0:0:0:0:
201,129,115927,5,0,0:0:0:0:
318,137,116083,1,0,0:0:0:0:
310,254,116240,1,0,0:0:0:0:
193,246,116396,1,0,0:0:0:0:
101,279,116552,6,0,B|48:182|48:182|106:86,1,210.000008010865
411,105,117177,6,0,B|464:202|464:202|406:298,1,210.000008010865
169,37,117802,6,0,B|266:-16|266:-16|362:42,1,210.000008010865
343,347,118427,6,0,B|246:400|246:400|150:342,1,210.000008010865
201,123,119052,5,0,0:0:0:0:
120,244,119209,1,0,0:0:0:0:
201,123,119365,5,0,0:0:0:0:
120,244,119522,1,0,0:0:0:0:
201,123,119677,5,0,0:0:0:0:
120,244,119834,1,0,0:0:0:0:
289,202,119990,5,0,0:0:0:0:
208,323,120147,1,0,0:0:0:0:
289,202,120302,5,0,0:0:0:0:
208,323,120459,1,0,0:0:0:0:
289,202,120615,5,0,0:0:0:0:
208,323,120772,1,0,0:0:0:0:
381,259,120928,5,0,0:0:0:0:
300,380,121085,1,0,0:0:0:0:
381,259,121240,5,0,0:0:0:0:
300,380,121397,1,0,0:0:0:0:
300,295,121553,6,0,B|359:272|346:243|282:249,1,105.000004005432
290,248,121865,6,0,B|267:189|238:202|244:266,1,105.000004005432
247,262,122178,6,0,B|188:285|201:314|265:308,1,105.000004005432
257,309,122490,6,0,B|279:368|308:355|302:291,1,105.000004005432
309,304,122803,6,0,B|355:253|355:253|276:227,1,105.000004005432
300,234,123115,6,0,B|249:188|249:188|223:268,1,105.000004005432
230,242,123428,6,0,B|184:293|184:293|264:319,1,105.000004005432
240,312,123740,6,0,B|290:358|290:358|316:278,1,105.000004005432
360,231,124053,6,0,L|369:310,3,52.5000020027161
469,239,124678,2,0,L|466:169,3,52.5000020027161
385,137,125303,2,0,P|339:102|307:140,3,87.5
289,205,125928,2,0,P|334:239|366:201,3,87.5
386,88,126553,5,0,0:0:0:0:
104,372,127178,5,0,0:0:0:0:
10,30,127803,5,0,0:0:0:0:
256,190,130304,5,0,0:0:0:0:
