osu file format v14

[General]
AudioFilename: audio.mp3
AudioLeadIn: 0
PreviewTime: -1
Countdown: 1
SampleSet: Soft
StackLeniency: 0.7
Mode: 0
LetterboxInBreaks: 0
WidescreenStoryboard: 0

[Editor]
DistanceSpacing: 1.9
BeatDivisor: 4
GridSize: 4
TimelineZoom: 1

[Metadata]
Title:Vampire Obsession
TitleUnicode:Vampire Obsession
Artist:Famishin
ArtistUnicode:Famishin
Creator:SDpeople
Version:Hard
Source:DRACU-RIOT!
Tags:Yuzu-Soft
BeatmapID:1954372
BeatmapSetID:935433

[Difficulty]
HPDrainRate:4
CircleSize:3.8
OverallDifficulty:7
ApproachRate:8
SliderMultiplier:1.4
SliderTickRate:1

[Events]
//Background and Video events
0,0,"nigula.png",0,0
//Break Periods
//Storyboard Layer 0 (Background)
//Storyboard Layer 1 (Fail)
//Storyboard Layer 2 (Pass)
//Storyboard Layer 3 (Foreground)
//Storyboard Sound Samples

[TimingPoints]
7774,625.065110949057,4,2,1,100,1,0
33557,-66.6666666666667,4,2,1,100,0,0
47776,-66.6666666666667,4,2,1,100,0,1
50276,-66.6666666666667,4,2,1,100,0,0
52776,-66.6666666666667,4,2,1,100,0,1
55276,-66.6666666666667,4,2,1,100,0,0
57620,-66.6666666666667,4,2,1,80,0,1
60276,-33.3333333333333,4,2,1,100,0,0
62932,-33.3333333333333,4,2,1,80,0,1
65276,-33.3333333333333,4,2,1,80,0,0
69026,-100,4,2,1,100,0,0
81057,-50,4,2,1,100,0,0
86057,-100,4,2,1,100,0,0
95120,-100,4,2,1,100,0,0
99182,-50,4,2,1,100,0,0
105432,-100,4,2,1,100,0,0
109026,-100,4,2,1,100,0,1
111526,-25,4,2,1,100,0,0
114026,-25,4,2,1,80,0,0
114027,-25,4,2,1,80,0,1
126526,-25,4,2,1,100,0,0
130276,-100,4,2,1,90,0,0
131838,-100,4,2,1,80,0,0
132776,-100,4,2,1,70,0,0
134338,-100,4,2,1,60,0,0

[Colours]
Combo1 : 200,0,0
Combo2 : 255,128,128
Combo3 : 255,0,0
Combo4 : 255,0,128
Combo5 : 255,0,255

[HitObjects]
129,91,7773,5,0,0:0:0:0:
129,91,8086,1,0,0:0:0:0:
252,101,8399,1,10,0:0:0:0:
252,101,8711,2,0,L|248:148,2,35
175,235,9336,5,0,0:0:0:0:
175,235,9649,1,0,0:0:0:0:
296,100,9961,1,0,0:0:0:0:
429,161,10274,5,0,0:0:0:0:
429,161,10586,1,0,0:0:0:0:
287,230,10899,1,10,0:0:0:0:
287,230,11211,2,0,L|274:275,2,35
430,384,11836,6,0,L|328:382,1,70
251,224,12461,1,0,0:0:0:0:
109,326,12774,1,0,0:0:0:0:
144,136,13087,1,2,0:0:0:0:
0,218,13399,1,10,0:0:0:0:
71,48,13712,6,0,L|59:88,2,35
194,196,14337,1,0,0:0:0:0:
318,15,14649,1,0,0:0:0:0:
397,195,14962,1,0,0:0:0:0:
409,98,15274,5,0,0:0:0:0:
409,98,15587,1,0,0:0:0:0:
416,212,15899,1,10,0:0:0:0:
416,212,16056,6,0,L|364:211,3,35
260,173,16837,5,0,0:0:0:0:
260,173,16993,1,0,0:0:0:0:
260,173,17149,1,0,0:0:0:0:
154,264,17462,1,10,0:0:0:0:
304,303,17775,5,0,0:0:0:0:
266,136,18087,1,0,0:0:0:0:
135,247,18400,1,0,0:0:0:0:
0,201,18712,2,0,L|2:122,1,70
90,21,19337,5,0,0:0:0:0:
160,174,19650,1,0,0:0:0:0:
272,45,19962,1,10,0:0:0:0:
279,193,20275,2,0,P|242:241|220:246,1,70
85,257,20900,5,0,0:0:0:0:
85,257,21212,2,0,L|85:292,2,35
198,301,21837,5,0,0:0:0:0:
391,235,22150,1,0,0:0:0:0:
369,56,22463,1,10,0:0:0:0:
189,17,22775,1,0,0:0:0:0:
29,93,23088,1,0,0:0:0:0:
19,245,23400,6,0,L|18:284,2,35
23,46,24025,2,0,B|14:94|14:94|46:78,1,70
205,124,24650,2,0,B|196:172|196:172|228:156,1,70
394,229,25275,2,0,B|385:277|385:277|417:261,1,70
464,175,25900,2,0,P|358:109|318:239,1,280,0|4,0:0|0:0,0:0:0:70:soft-hitfinish.wav
383,320,27776,5,0,0:0:0:0:
210,357,28088,1,0,0:0:0:0:
267,195,28401,1,10,0:0:0:0:
443,165,28713,1,0,0:0:0:0:
436,122,28869,2,0,L|398:111,1,35
311,66,29182,6,0,L|273:93,1,35
116,147,29651,2,0,L|99:206,2,35
108,259,30276,1,0,0:0:0:0:
237,107,30588,1,0,0:0:0:0:
314,280,30901,5,10,0:0:0:0:
237,191,31213,1,0,0:0:0:0:
228,223,31370,2,0,P|199:228|199:204,1,35
341,183,31839,5,0,0:0:0:0:
262,45,32151,1,0,0:0:0:0:
457,127,32464,1,0,0:0:0:0:
380,0,32776,1,0,0:0:0:0:
512,120,33089,5,0,0:0:0:0:
492,263,33401,1,10,0:0:0:0:
416,262,33714,1,0,0:0:0:0:
408,303,33870,2,0,P|380:298|398:292,1,52.5000020027161
294,307,34339,2,0,P|294:227|435:201,1,210.000008010865
317,110,35276,2,0,L|361:74,2,52.5000020027161
201,112,35901,6,0,L|158:75,2,52.5000020027161
148,186,36526,2,0,P|295:180|262:51,1,315.000012016297
447,121,37777,1,0,0:0:0:0:
323,33,38089,1,0,0:0:0:0:
299,195,38402,1,10,0:0:0:0:
226,258,38714,2,0,P|365:264|358:122,1,315.000012016297
362,43,39964,5,0,0:0:0:0:
230,182,40277,1,0,0:0:0:0:
230,182,40589,2,0,L|155:107,1,105.000004005432,0|10,0:0|0:0,0:0:0:0:
380,77,41214,2,0,P|418:136|418:134,1,315.000012016297
356,138,42465,5,0,0:0:0:0:
380,285,42777,2,0,P|418:226|418:228,1,315.000012016297
356,224,44027,5,0,0:0:0:0:
130,79,44340,2,0,P|92:138|92:136,1,315.000012016297
156,138,45590,5,0,0:0:0:0:
132,285,45902,2,0,P|94:226|94:228,1,315.000012016297
156,224,47153,5,4,0:0:0:0:
145,84,47778,1,0,0:0:0:0:
145,84,47934,1,0,0:0:0:0:
145,84,48090,2,0,L|145:140,1,52.5000020027161,2|0,0:0|0:0,0:0:0:70:soft-hitwhistle.wav
56,251,48403,5,0,0:0:0:0:
56,251,48559,1,0,0:0:0:0:
56,251,48715,2,0,L|-28:245,1,52.5000020027161,2|0,0:0|0:0,0:0:0:0:
190,146,49028,2,0,L|249:121,1,52.5000020027161
244,125,49340,1,2,0:0:0:0:
244,125,49497,1,0,0:0:0:0:
208,307,49653,6,0,L|279:256,1,52.5000020027161
250,276,49965,1,2,0:0:0:0:
250,276,50122,1,0,0:0:0:0:
394,232,50278,2,0,P|394:181|352:141,1,105.000004005432,2|0,0:0|0:0,0:0:0:0:
218,55,50903,2,0,P|160:68|130:129,1,105.000004005432,2|0,0:0|0:0,0:0:0:0:
163,297,51528,6,0,P|186:351|247:384,1,105.000004005432
163,297,52153,2,0,P|171:240|149:189,1,105.000004005432
5,269,52778,1,0,0:0:0:0:
2,263,52934,1,0,0:0:0:0:
5,269,53091,2,0,L|5:213,1,52.5000020027161,2|0,0:0|0:0,0:0:0:0:
64,71,53403,5,0,0:0:0:0:
64,71,53560,1,0,0:0:0:0:
64,71,53716,2,0,L|-20:77,1,52.5000020027161,2|0,0:0|0:0,0:0:0:0:
184,13,54028,2,0,L|243:38,1,52.5000020027161
238,34,54341,1,2,0:0:0:0:
238,34,54497,1,0,0:0:0:0:
138,183,54653,6,0,L|209:234,1,52.5000020027161
180,213,54966,1,2,0:0:0:0:
180,213,55122,1,0,0:0:0:0:
348,137,55278,2,0,P|367:189|348:249,1,105.000004005432,2|0,0:0|0:0,0:0:0:0:
190,339,55904,2,0,P|118:320|103:269,1,105.000004005432
59,127,56529,6,0,P|66:69|115:46,1,105.000004005432
94,211,57154,2,0,P|52:161|80:103,1,105.000004005432
167,69,57779,5,0,0:0:0:0:
185,48,57935,1,0,0:0:0:0:
208,31,58091,1,0,0:0:0:0:
233,20,58248,1,0,0:0:0:0:
261,14,58404,2,0,L|302:65,1,52.5000020027161
293,54,58716,2,0,L|310:125,1,52.5000020027161
365,45,59029,5,0,0:0:0:0:
384,65,59185,1,0,0:0:0:0:
399,89,59341,1,0,0:0:0:0:
409,115,59498,1,0,0:0:0:0:
414,142,59654,2,0,L|424:211,1,52.5000020027161
421,193,59966,2,0,L|375:232,1,52.5000020027161
444,205,60279,6,0,B|440:282|440:282|490:263,1,105.000004005432
509,240,60592,2,0,B|499:177|500:176|452:147|452:147,1,105.000004005432
349,121,60904,6,0,B|345:198|345:198|395:179,1,105.000004005432
414,156,61217,2,0,B|404:93|405:92|357:63|357:63,1,105.000004005432
245,97,61529,6,0,B|241:174|241:174|291:155,1,105.000004005432
310,132,61842,2,0,B|300:69|301:68|253:39|253:39,1,105.000004005432
132,134,62154,6,0,B|128:211|128:211|178:192,1,105.000004005432
197,169,62467,2,0,B|187:106|188:105|140:76|140:76,1,105.000004005432
228,65,62779,5,0,0:0:0:0:
267,68,62935,1,0,0:0:0:0:
306,72,63092,1,0,0:0:0:0:
345,76,63248,1,0,0:0:0:0:
374,93,63404,2,0,B|435:78|435:77|416:141,1,105.000004005432
416,137,63717,2,0,B|355:152|355:153|374:89,1,105.000004005432
328,129,64029,5,0,0:0:0:0:
289,133,64186,1,0,0:0:0:0:
250,137,64342,1,0,0:0:0:0:
210,141,64498,1,0,0:0:0:0:
241,185,64654,2,0,B|302:170|302:169|283:233,1,105.000004005432
283,229,64967,2,0,B|222:244|222:245|241:181,1,105.000004005432
348,168,65279,5,0,0:0:0:0:
89,14,65905,1,0,0:0:0:0:
123,352,66530,1,14,0:0:0:0:
364,84,69030,5,0,0:0:0:0:
364,84,69342,2,0,L|361:183,1,70
345,328,69967,2,0,L|337:388,2,35
188,253,70593,5,0,0:0:0:0:
35,373,70905,1,0,0:0:0:0:
5,204,71218,1,10,0:0:0:0:
129,80,71530,1,0,0:0:0:0:
222,249,71843,5,0,0:0:0:0:
222,249,72155,2,0,L|295:201,1,70
359,55,72780,1,0,0:0:0:0:
383,77,72937,2,0,P|368:115|372:117,1,35
285,231,73405,5,0,0:0:0:0:
442,168,73718,1,10,0:0:0:0:
383,18,74030,1,0,0:0:0:0:
262,177,74343,5,0,0:0:0:0:
191,3,74655,1,0,0:0:0:0:
54,140,74968,1,0,0:0:0:0:
78,154,75124,2,0,L|75:209,1,35
34,319,75593,6,0,L|112:342,1,70
252,249,76218,2,0,L|335:254,1,70,10|0,0:0|0:0,0:0:0:0:
478,240,76843,1,0,0:0:0:0:
373,82,77156,2,0,L|313:55,4,35
68,68,79031,5,0,0:0:0:0:
175,232,79343,1,0,0:0:0:0:
196,45,79656,1,10,0:0:0:0:
76,203,79969,2,0,L|18:201,2,35
214,141,80594,2,0,P|234:206|220:227,1,70
59,293,81219,5,0,0:0:0:0:
239,269,81531,2,0,L|275:363,2,70
133,135,82156,2,0,P|228:93|257:122,1,140,10|0,0:0|0:0,0:0:0:0:
349,248,82781,2,0,L|360:331,2,70
373,60,83406,1,0,0:0:0:0:
201,157,83719,5,0,0:0:0:0:
76,41,84031,1,0,0:0:0:0:
156,236,84344,1,0,0:0:0:0:
315,79,84657,1,10,0:0:0:0:
449,212,84969,2,0,L|518:280,2,70
247,226,85594,1,0,0:0:0:0:
322,33,85907,1,0,0:0:0:0:
128,67,86219,5,0,0:0:0:0:
86,232,86532,2,0,L|143:318,1,70
301,340,87157,2,0,L|326:389,4,35
255,266,89032,5,0,0:0:0:0:
362,116,89344,1,0,0:0:0:0:
150,109,89657,1,10,0:0:0:0:
150,109,89970,2,0,L|147:196,1,70
144,334,90595,1,0,0:0:0:0:
144,334,90907,2,0,L|228:287,1,70
320,243,91532,5,0,0:0:0:0:
308,45,91845,1,0,0:0:0:0:
477,154,92157,1,10,0:0:0:0:
403,322,92470,1,0,0:0:0:0:
223,334,92782,2,0,L|139:333,1,70
223,143,93407,5,0,0:0:0:0:
101,18,93720,1,0,0:0:0:0:
7,187,94032,1,0,0:0:0:0:
211,245,94345,1,0,0:0:0:0:
48,340,94658,2,0,L|132:339,1,70,10|0,0:0|0:0,0:0:0:0:
247,286,95283,1,0,0:0:0:0:
274,286,95439,2,0,L|275:231,1,35
253,119,95908,2,0,L|253:38,1,70
363,196,96533,6,0,L|419:195,2,35
131,190,97158,2,0,L|77:192,2,35
257,191,97783,5,14,0:0:0:0:
58,65,99033,5,0,0:0:0:0:
209,29,99346,2,0,L|218:110,2,70,10|0|10,0:0|0:0|0:0,0:0:0:0:
138,180,99971,2,0,P|238:192|267:153,1,140
209,29,100596,1,0,0:0:0:0:
250,175,100908,2,0,L|259:256,2,70,10|0|10,0:0|0:0|0:0,0:0:0:0:
200,343,101533,2,0,P|300:355|329:316,1,140
235,141,102158,1,0,0:0:0:0:
62,149,102471,6,0,L|59:234,2,70,10|0|10,0:0|0:0|0:0,0:0:0:0:
105,292,103096,1,0,0:0:0:0:
124,112,103408,1,0,0:0:0:0:
301,37,103721,1,0,0:0:0:0:
468,163,104034,1,10,0:0:0:0:
381,322,104346,1,10,0:0:0:0:
201,312,104659,1,0,0:0:0:0:
167,123,104971,1,0,0:0:0:0:
133,115,105127,2,0,L|136:188,1,70,0|10,0:0|0:0,0:0:0:0:
307,77,105596,5,10,0:0:0:0:
307,77,105909,2,0,L|315:163,1,70
404,308,106534,2,0,L|448:307,2,35
398,269,107003,2,0,L|431:232,1,35
388,73,107471,6,0,L|322:110,1,70
140,94,108096,1,0,0:0:0:0:
68,244,108409,1,14,0:0:0:0:
207,199,109034,5,0,0:0:0:0:
180,188,109190,1,0,0:0:0:0:
158,172,109347,1,2,0:0:0:0:
142,149,109503,1,0,0:0:0:0:
121,125,109659,2,0,L|165:80,1,35
118,87,109972,2,0,L|146:50,1,35,2|0,0:0|0:0,0:0:0:0:
168,23,110284,5,0,0:0:0:0:
192,10,110440,1,0,0:0:0:0:
220,3,110597,1,2,0:0:0:0:
247,5,110753,1,0,0:0:0:0:
288,23,110909,2,0,L|335:46,1,35
301,72,111222,2,0,L|343:93,1,35,2|0,0:0|0:0,0:0:0:0:
416,70,111534,6,0,B|493:110|490:108|443:178,1,140
422,171,111847,6,0,B|345:131|348:133|395:63,1,140,2|0,0:0|0:0,0:0:0:0:
422,312,112159,6,0,B|345:272|348:274|395:204,1,140
411,197,112472,6,0,B|488:237|485:235|438:305,1,140,2|0,0:0|0:0,0:0:0:0:
258,210,112784,6,0,B|335:250|332:248|285:318,1,140
269,325,113097,6,0,B|192:285|195:287|242:217,1,140,2|0,0:0|0:0,0:0:0:0:
250,69,113410,6,0,B|327:109|324:107|277:177,1,140
261,184,113722,6,0,B|184:144|187:146|234:76,1,140,2|0,0:0|0:0,0:0:0:0:
324,72,114035,5,0,0:0:0:0:
349,82,114191,1,0,0:0:0:0:
375,92,114347,1,2,0:0:0:0:
401,103,114503,1,0,0:0:0:0:
410,144,114660,2,0,B|431:96|431:96|451:192,1,140
410,144,114972,2,0,B|362:165|362:165|458:185,1,140,2|0,0:0|0:0,0:0:0:0:
390,231,115285,5,0,0:0:0:0:
383,258,115441,1,0,0:0:0:0:
372,284,115597,1,2,0:0:0:0:
356,306,115753,1,0,0:0:0:0:
307,299,115910,2,0,B|355:320|355:320|259:340,1,140
307,299,116222,2,0,B|286:251|286:251|266:347,1,140,2|0,0:0|0:0,0:0:0:0:
204,299,116535,6,0,B|259:303|259:303|270:258|270:258|214:243,1,140
177,241,116847,2,0,B|122:237|122:237|111:282|111:282|167:297,1,140,2|0,0:0|0:0,0:0:0:0:
135,179,117160,6,0,B|190:183|190:183|201:138|201:138|145:123,1,140
116,115,117472,2,0,B|61:111|61:111|50:156|50:156|106:171,1,140,2|0,0:0|0:0,0:0:0:0:
197,83,117785,6,0,B|252:87|252:87|263:42|263:42|207:27,1,140
178,19,118097,2,0,B|123:15|123:15|112:60|112:60|168:75,1,140,2|0,0:0|0:0,0:0:0:0:
171,149,118410,6,0,B|116:145|116:145|105:190|105:190|161:205,1,140
190,213,118723,2,0,B|245:217|245:217|256:172|256:172|200:157,1,140,2|0,0:0|0:0,0:0:0:0:
148,275,119035,6,0,B|148:346|151:347|90:304|207:315,1,140
80,267,119348,2,0,B|9:267|8:270|51:209|40:326,1,140,10|0,0:0|0:0,0:0:0:0:
163,204,119660,2,0,B|223:194|220:193|281:236|164:225,1,140
89,194,119973,2,0,B|89:123|86:122|147:165|30:154,1,140,10|0,0:0|0:0,0:0:0:0:
125,233,120285,6,0,B|125:304|128:305|67:262|184:273,1,140
54,226,120598,2,0,B|-17:226|-18:229|25:168|14:285,1,140,10|0,0:0|0:0,0:0:0:0:
136,166,120910,2,0,B|196:156|193:155|254:198|137:187,1,140
59,156,121223,2,0,B|59:85|56:84|117:127|0:116,1,140,10|0,0:0|0:0,0:0:0:0:
210,113,121535,6,0,B|208:194|236:200|273:131,1,140
272,132,121848,2,0,B|270:213|298:219|335:149,1,140,10|0,0:0|0:0,0:0:0:0:
334,151,122160,2,0,B|332:232|360:238|397:169,1,140
396,170,122473,2,0,B|394:252|422:258|459:188,1,140,10|0,0:0|0:0,0:0:0:0:
458,189,122785,6,0,B|460:107|432:101|395:171,1,140
396,170,123098,2,0,B|398:88|370:82|333:152,1,140,10|0,0:0|0:0,0:0:0:0:
334,151,123411,2,0,B|336:69|308:63|271:133,1,140
272,132,123723,2,0,B|274:50|246:44|209:114,1,140,10|0,0:0|0:0,0:0:0:0:
209,112,124036,6,0,B|173:89|116:84|141:147|213:136,1,140
204,137,124348,6,0,B|167:113|110:108|135:172|207:161,1,140,10|0,0:0|0:0,0:0:0:0:
199,162,124661,6,0,B|162:138|105:133|130:197|202:186,1,140
194,187,124973,6,0,B|157:163|100:158|125:222|197:211,1,140,10|0,0:0|0:0,0:0:0:0:
189,212,125286,6,0,B|225:235|282:240|257:176|185:187,1,140
194,187,125598,6,0,B|230:210|287:215|262:151|190:162,1,140,10|0,0:0|0:0,0:0:0:0:
199,162,125911,6,0,B|235:185|292:190|267:126|195:137,1,140
204,137,126223,6,0,B|240:160|297:165|272:101|200:112,1,140,10|0,0:0|0:0,0:0:0:0:
208,111,126536,6,0,L|41:75,1,140
45,292,127161,2,0,L|233:314,1,140
377,266,127786,6,0,L|386:100,1,140,14|0,0:0|0:0,0:0:0:0:
188,175,130286,5,0,0:0:0:0:
188,175,130599,1,0,0:0:0:0:
97,298,130911,1,8,0:0:0:0:
97,298,131224,2,0,L|161:298,2,35
262,327,131849,5,0,0:0:0:0:
262,327,132161,1,0,0:0:0:0:
396,225,132474,1,8,0:0:0:0:
256,163,132787,5,0,0:0:0:0:
256,163,133099,1,0,0:0:0:0:
374,73,133412,1,8,0:0:0:0:
374,73,133724,2,0,L|374:19,2,35
285,180,134349,5,0,0:0:0:0:
150,75,134662,1,0,0:0:0:0:
118,237,134974,2,0,L|122:282,1,35,4|0,0:0|0:0,0:0:0:0:
