osu file format v14

[General]
AudioFilename: audio.mp3
AudioLeadIn: 0
PreviewTime: -1
Countdown: 1
SampleSet: Normal
StackLeniency: 0.7
Mode: 0
LetterboxInBreaks: 0
WidescreenStoryboard: 0

[Editor]
Bookmarks: 60499
DistanceSpacing: 2.1
BeatDivisor: 4
GridSize: 4
TimelineZoom: 2.2

[Metadata]
Title:Love and love(Title Version)
TitleUnicode:恋ひ恋ふ縁 (Title Version)
Artist:Famishin
ArtistUnicode:Famishin
Creator:phtry
Version:Murasame
Source:
Tags:
BeatmapID:1551991
BeatmapSetID:735187

[Difficulty]
HPDrainRate:5
CircleSize:5
OverallDifficulty:8
ApproachRate:9
SliderMultiplier:1.7
SliderTickRate:1

[Events]
//Background and Video events
//Break Periods
//Storyboard Layer 0 (Background)
//Storyboard Layer 1 (Fail)
//Storyboard Layer 2 (Pass)
//Storyboard Layer 3 (Foreground)
//Storyboard Sound Samples

[TimingPoints]
504,416.63773349073,4,1,0,50,1,0
504,-100,4,1,0,50,0,0
2170,-50,4,1,0,50,0,0
5503,-80,4,1,0,50,0,0
8211,-50,4,1,0,50,0,0
10711,-80,4,1,0,50,0,0
11544,-100,4,1,0,50,0,0
21127,-80,4,1,0,50,0,0
22169,-66.6666666666667,4,1,0,5,0,0
22794,-66.6666666666667,4,1,0,55,0,0
24252,-80,4,1,0,50,0,0
26960,-100,4,1,0,50,0,0
28002,-133.333333333333,4,1,0,50,0,0
28835,-200,4,1,0,50,0,0
30501,-80,4,1,0,50,0,0
34668,-50,4,2,0,30,0,0
35501,-80,4,1,0,55,0,0
35918,-100,4,1,0,55,0,0
38001,-50,4,1,0,55,0,0
41542,-100,4,1,0,55,0,0
43626,-200,4,1,0,55,0,0
44042,-133.333333333333,4,1,0,5,0,0
44875,-66.6666666666667,4,1,0,55,0,0
45500,-300,4,1,0,55,0,0
45709,-200,4,1,0,55,0,0
47167,-300,4,1,0,55,0,0
47375,-200,4,1,0,55,0,0
48833,-133.333333333333,4,1,0,55,0,0
52167,-100,4,1,0,55,0,0
55500,-66.6666666666667,4,1,0,55,0,0
60083,-66.6666666666667,4,1,0,55,0,1
60916,-80,4,1,0,55,0,1
72165,-66.6666666666667,4,1,0,55,0,1
79873,-200,4,1,0,55,0,1
100497,-80,4,1,0,55,0,0

[HitObjects]
136,220,504,5,0,0:0:0:0:
264,264,712,1,0,0:0:0:0:
132,236,920,6,0,P|168:292|216:316,1,85
348,196,1337,1,0,0:0:0:0:
300,76,1545,1,0,0:0:0:0:
420,144,1753,2,0,P|356:104|316:96,1,85
136,196,2170,6,0,P|104:192|144:204,1,170
136,196,2378,6,0,P|104:192|144:204,1,170
136,196,2587,6,0,P|104:192|144:204,1,170
136,196,2795,6,0,P|104:192|144:204,1,170
136,196,3003,6,0,P|104:192|144:204,1,170
136,196,3316,5,0,0:0:0:0:
148,234,3420,1,0,0:0:0:0:
260,344,3628,1,0,0:0:0:0:
272,72,3837,5,0,0:0:0:0:
424,144,4045,1,0,0:0:0:0:
448,180,4149,1,0,0:0:0:0:
452,224,4253,1,0,0:0:0:0:
352,80,4462,1,0,0:0:0:0:
172,308,4670,5,0,0:0:0:0:
280,228,4878,1,0,0:0:0:0:
312,188,4982,1,0,0:0:0:0:
328,240,5087,1,0,0:0:0:0:
364,384,5295,1,0,0:0:0:0:
400,224,5503,6,0,P|376:164|352:128,1,106.25
256,56,5920,1,0,0:0:0:0:
136,84,6128,2,0,B|100:88|68:80|68:80|112:156|100:232,1,212.5
176,344,6753,1,0,0:0:0:0:
284,324,6961,1,0,0:0:0:0:
384,368,7170,2,0,P|432:324|448:280,1,106.25
412,232,7586,2,0,P|400:164|416:120,1,106.25
260,56,8211,6,0,P|288:76|256:56,1,170
260,56,8420,6,0,P|288:76|256:56,1,170
260,56,8628,6,0,P|288:76|256:56,1,170
260,56,8836,6,0,P|288:76|256:56,1,170
256,56,9045,6,0,P|228:76|260:56,1,170
392,80,9461,2,0,P|404:72|384:96,1,170
328,256,9878,1,0,0:0:0:0:
168,168,10086,2,0,P|152:160|180:168,1,170
248,348,10503,1,0,0:0:0:0:
400,180,10711,1,0,0:0:0:0:
144,104,10919,6,0,L|88:208,1,106.25
224,332,11544,6,0,L|316:348,1,85
224,332,11753,6,0,L|316:348,1,85
224,332,11961,6,0,L|316:348,1,85
224,332,12169,6,0,L|316:348,1,85
408,348,12586,2,0,P|428:304|440:248,1,85
456,36,13211,5,0,0:0:0:0:
36,144,13628,5,0,0:0:0:0:
104,360,13836,1,0,0:0:0:0:
336,280,14044,1,0,0:0:0:0:
264,80,14253,1,0,0:0:0:0:
36,144,14461,1,0,0:0:0:0:
124,32,14878,6,0,L|44:92,1,85
56,83,15086,6,0,L|136:24,1,85
124,32,15294,6,0,L|44:92,1,85
56,83,15502,6,0,L|136:24,1,85
124,32,15711,6,0,L|44:92,1,85
124,32,15919,6,0,L|44:92,1,85
164,340,16544,5,0,0:0:0:0:
232,188,16752,1,0,0:0:0:0:
24,284,16961,1,0,0:0:0:0:
492,144,17377,5,0,0:0:0:0:
268,164,17586,1,0,0:0:0:0:
380,8,17794,5,0,0:0:0:0:
256,192,17898,12,0,18419,0:0:0:0:
256,192,18419,5,0,0:0:0:0:
256,192,18523,1,0,0:0:0:0:
256,192,18627,1,0,0:0:0:0:
256,192,18731,1,0,0:0:0:0:
256,192,18836,2,0,L|256:100,1,85
164,96,19252,5,0,0:0:0:0:
60,216,19461,1,0,0:0:0:0:
76,232,19565,1,0,0:0:0:0:
100,248,19669,2,0,P|148:268|188:268,1,85
68,384,20085,1,0,0:0:0:0:
252,304,20294,5,0,0:0:0:0:
292,356,20398,1,0,0:0:0:0:
316,296,20502,2,0,P|332:236|336:200,1,85
508,280,20919,1,0,0:0:0:0:
472,152,21127,2,0,P|432:96|376:64,1,106.25
156,16,21752,5,0,0:0:0:0:
116,256,22169,6,0,B|64:308|64:308|156:312|240:352,1,255.000009727478
396,128,22794,2,0,B|448:76|448:76|356:72|272:32,1,255.000009727478
260,88,23314,1,0,0:0:0:0:
216,36,23419,1,0,0:0:0:0:
156,220,23627,1,0,0:0:0:0:
440,80,23835,5,0,0:0:0:0:
412,288,24044,1,0,0:0:0:0:
424,356,24148,1,0,0:0:0:0:
364,332,24252,2,0,P|300:320|256:328,1,106.25
112,260,24668,2,0,P|132:184|128:132,1,106.25
448,100,25085,2,0,P|440:160|444:220,1,106.25
424,320,25502,1,0,0:0:0:0:
256,224,25710,1,0,0:0:0:0:
424,320,25918,1,0,0:0:0:0:
256,224,26127,5,0,0:0:0:0:
256,224,26231,1,0,0:0:0:0:
256,224,26335,2,0,P|168:216|140:216,1,106.25
448,368,26752,1,0,0:0:0:0:
384,188,26960,6,0,P|392:128|404:96,1,85
304,52,27377,2,0,P|352:112|356:136,1,85
72,112,27793,1,0,0:0:0:0:
88,324,28002,2,0,L|224:360,1,127.500004863739
424,96,28835,6,0,L|440:184,1,85
424,96,29460,1,0,0:0:0:0:
436,152,29564,1,0,0:0:0:0:
448,204,29668,1,0,0:0:0:0:
396,224,29772,1,0,0:0:0:0:
344,236,29876,1,0,0:0:0:0:
364,108,30085,5,0,0:0:0:0:
308,124,30189,1,0,0:0:0:0:
324,180,30293,1,0,0:0:0:0:
80,28,30501,2,0,L|196:40,1,106.25
80,28,30918,6,0,L|196:40,1,106.25
80,28,31335,1,0,0:0:0:0:
184,40,31543,1,0,0:0:0:0:
120,128,31751,1,0,0:0:0:0:
296,196,31960,5,0,0:0:0:0:
88,288,32168,1,0,0:0:0:0:
304,304,32376,2,0,B|396:296|396:296|416:272,1,106.25
480,136,32793,1,0,0:0:0:0:
144,184,33001,1,0,0:0:0:0:
380,368,33210,1,0,0:0:0:0:
456,348,33314,5,0,0:0:0:0:
400,308,33418,2,0,B|300:292|300:292|292:280,1,106.25
448,232,33835,1,0,0:0:0:0:
92,252,34043,1,0,0:0:0:0:
352,224,34251,2,0,B|328:132|328:132|304:112,1,106.25
132,36,34668,2,0,B|68:72|68:72|128:112|128:112|104:96,1,170
68,72,34772,1,2,0:0:0:0:
128,112,34876,1,2,0:0:0:0:
228,200,35084,6,0,B|280:264|280:264|216:312|216:312|240:296,1,170
276,264,35189,1,2,0:0:0:0:
216,312,35293,1,2,0:0:0:0:
88,208,35501,5,0,0:0:0:0:
268,80,35709,1,0,0:0:0:0:
440,200,35918,2,0,L|464:296,1,85
468,304,36334,1,0,0:0:0:0:
468,304,36439,1,0,0:0:0:0:
468,304,36543,1,0,0:0:0:0:
388,152,36751,5,0,0:0:0:0:
336,368,36959,1,0,0:0:0:0:
288,104,37168,5,0,0:0:0:0:
156,292,37376,1,0,0:0:0:0:
36,184,37584,2,0,L|64:72,1,85
332,48,38001,2,0,B|268:108|268:108|324:160|324:160|316:152,1,170
268,108,38105,1,0,0:0:0:0:
324,160,38209,1,0,0:0:0:0:
408,256,38418,6,0,B|456:320|456:320|396:372|396:372|416:352,1,170
452,320,38522,1,0,0:0:0:0:
396,372,38626,1,0,0:0:0:0:
224,376,38834,1,0,0:0:0:0:
224,376,39042,1,0,0:0:0:0:
252,192,39251,5,0,0:0:0:0:
252,192,39459,1,0,0:0:0:0:
272,40,39876,5,0,0:0:0:0:
304,4,40292,1,0,0:0:0:0:
456,168,40709,1,0,0:0:0:0:
224,256,40917,1,0,0:0:0:0:
480,252,41126,1,0,0:0:0:0:
224,160,41334,1,0,0:0:0:0:
208,156,41438,5,0,0:0:0:0:
180,152,41542,2,0,B|188:176|188:176|252:200,1,85
24,120,41959,1,0,0:0:0:0:
472,160,42167,5,0,0:0:0:0:
40,68,42376,1,0,0:0:0:0:
352,380,42584,1,0,0:0:0:0:
304,0,42792,1,0,0:0:0:0:
76,320,43001,1,0,0:0:0:0:
420,264,43209,1,0,0:0:0:0:
440,260,43417,5,0,0:0:0:0:
104,196,43626,2,0,L|48:176,1,42.5
352,304,44042,2,0,P|372:324|376:340,1,31.8750012159348
344,208,44250,6,0,P|364:196|384:200,1,31.8750012159348
268,148,44459,6,0,P|276:124|300:116,1,31.8750012159348
172,124,44667,6,0,P|168:96|188:80,1,31.8750012159348
64,272,44875,2,0,B|56:312|32:328|32:328|132:324|232:348,1,255.000009727478
436,304,45500,6,0,L|464:132,1,170
444,248,45709,2,0,L|456:192,1,42.5
452,206,45917,1,0,0:0:0:0:
264,24,46125,1,0,0:0:0:0:
176,340,46334,1,0,0:0:0:0:
463,136,46750,1,0,0:0:0:0:
60,264,47167,6,0,L|236:328,1,170
108,280,47375,2,0,L|152:296,1,42.5
147,294,47584,1,0,0:0:0:0:
472,240,47792,1,0,0:0:0:0:
68,148,48000,1,0,0:0:0:0:
219,322,48417,1,0,0:0:0:0:
224,352,48833,6,0,P|180:296|180:232,1,127.500004863739
380,252,49458,1,0,0:0:0:0:
472,72,49667,6,0,P|416:32|340:44,1,127.500004863739
132,180,50292,1,0,0:0:0:0:
328,240,50500,2,0,P|360:184|336:124,1,127.500004863739
180,40,51125,1,0,0:0:0:0:
344,136,51333,5,0,0:0:0:0:
180,228,51542,1,0,0:0:0:0:
124,268,51646,1,0,0:0:0:0:
180,312,51750,1,0,0:0:0:0:
373,164,51958,5,0,0:0:0:0:
456,304,52167,2,0,B|376:216|376:216|372:140,1,170
139,220,52792,5,0,0:0:0:0:
56,80,53000,2,0,B|136:168|136:168|140:244,1,170
256,192,53625,1,0,0:0:0:0:
184,64,53833,5,0,0:0:0:0:
256,24,53937,1,0,0:0:0:0:
328,64,54041,1,0,0:0:0:0:
256,192,54250,1,0,0:0:0:0:
184,320,54458,5,0,0:0:0:0:
256,360,54562,1,0,0:0:0:0:
328,320,54666,1,0,0:0:0:0:
256,192,54875,1,0,0:0:0:0:
256,192,55083,1,0,0:0:0:0:
264,64,55500,6,0,B|364:76|464:152|416:388|264:376|104:376|80:212|112:72|260:64,1,765
256,192,55708,1,0,0:0:0:0:
360,248,55916,1,0,0:0:0:0:
256,192,56125,1,0,0:0:0:0:
156,260,56333,1,0,0:0:0:0:
256,88,56958,1,0,0:0:0:0:
256,88,57166,5,0,0:0:0:0:
256,192,57583,1,0,0:0:0:0:
256,300,58000,1,0,0:0:0:0:
256,364,58416,1,0,0:0:0:0:
392,176,58833,5,0,0:0:0:0:
140,248,59041,1,0,0:0:0:0:
400,256,59249,5,0,0:0:0:0:
108,168,59458,1,0,0:0:0:0:
476,192,59666,5,0,0:0:0:0:
32,192,59874,1,0,0:0:0:0:
256,192,60083,6,0,B|220:148|212:236|188:240|352:276|332:172|284:152|240:172|252:96,1,255.000009727478
256,72,60708,1,0,0:0:0:0:
256,48,60812,1,0,0:0:0:0:
256,16,60916,6,0,L|256:128,1,106.25
336,340,61333,1,0,0:0:0:0:
112,284,61541,1,0,0:0:0:0:
60,240,61645,1,0,0:0:0:0:
112,204,61749,1,0,0:0:0:0:
160,160,61853,1,0,0:0:0:0:
104,124,61958,1,0,0:0:0:0:
224,40,62166,5,0,0:0:0:0:
320,224,62374,1,0,0:0:0:0:
424,204,62478,1,0,0:0:0:0:
396,236,62583,2,0,B|336:304|336:304|312:304,2,106.25
256,192,63416,5,0,0:0:0:0:
256,312,63832,1,0,0:0:0:0:
256,336,63936,1,0,0:0:0:0:
256,368,64040,6,0,L|256:256,1,106.25
180,44,64457,1,0,0:0:0:0:
400,100,64665,1,0,0:0:0:0:
452,144,64769,1,0,0:0:0:0:
400,180,64873,1,0,0:0:0:0:
352,224,64977,1,0,0:0:0:0:
408,260,65082,1,0,0:0:0:0:
288,344,65290,5,0,0:0:0:0:
192,160,65498,1,0,0:0:0:0:
136,116,65603,1,0,0:0:0:0:
188,72,65707,1,0,0:0:0:0:
364,64,65916,5,0,0:0:0:0:
132,188,66124,1,0,0:0:0:0:
364,272,66332,1,0,0:0:0:0:
188,192,66541,2,0,L|152:300,1,106.25
364,204,67166,6,0,B|400:184|400:184|424:108,1,106.25
428,76,67478,1,0,0:0:0:0:
416,44,67582,1,0,0:0:0:0:
256,24,67790,1,0,0:0:0:0:
80,40,67999,2,0,B|56:68|56:68|64:136,1,106.25
72,168,68311,1,0,0:0:0:0:
100,220,68415,1,0,0:0:0:0:
136,176,68520,1,0,0:0:0:0:
72,168,68624,5,0,0:0:0:0:
252,140,68832,1,0,0:0:0:0:
160,360,69040,1,0,0:0:0:0:
408,32,69249,1,0,0:0:0:0:
444,364,69665,5,0,0:0:0:0:
112,300,70082,5,0,0:0:0:0:
356,216,70499,2,0,L|464:168,1,106.25
356,216,70915,1,0,0:0:0:0:
453,172,71124,2,0,L|348:220,1,106.25
236,248,71540,5,0,0:0:0:0:
168,240,71644,1,0,0:0:0:0:
160,176,71749,1,0,0:0:0:0:
376,352,71957,1,0,0:0:0:0:
348,96,72165,6,0,P|268:40|188:40,1,127.500004863739
196,56,72374,6,0,B|128:64|104:160|108:168,1,127.500004863739
128,196,72582,6,0,P|200:232|256:216,1,127.500004863739
304,212,72790,6,0,P|196:224|156:192,1,127.500004863739
160,204,72998,6,0,P|224:228|280:212,1,127.500004863739
278,212,73207,5,0,0:0:0:0:
336,192,73311,5,0,0:0:0:0:
324,252,73415,5,0,0:0:0:0:
160,204,73623,1,0,0:0:0:0:
372,116,73832,5,0,0:0:0:0:
432,32,73936,1,0,0:0:0:0:
452,104,74040,2,0,B|452:208|452:208|416:264,1,127.500004863739
240,296,74457,1,0,0:0:0:0:
100,304,74561,1,0,0:0:0:0:
144,344,74665,6,0,P|228:320|264:280,1,127.500004863739
200,112,75082,1,0,0:0:0:0:
420,304,75290,2,0,L|276:304,1,127.500004863739
292,304,75498,1,0,0:0:0:0:
320,36,75707,1,0,0:0:0:0:
176,336,75915,1,0,0:0:0:0:
228,0,76123,1,0,0:0:0:0:
288,372,76332,5,0,0:0:0:0:
288,372,76748,1,0,0:0:0:0:
60,236,77165,5,0,0:0:0:0:
284,156,77373,1,0,0:0:0:0:
444,340,77581,2,0,B|408:336|380:316|380:316|408:340|444:336,1,127.500004863739
336,104,78206,5,0,0:0:0:0:
384,64,78311,1,0,0:0:0:0:
392,124,78415,1,0,0:0:0:0:
256,384,78623,1,0,0:0:0:0:
400,328,78831,5,0,0:0:0:0:
140,248,79040,1,0,0:0:0:0:
444,240,79248,5,0,0:0:0:0:
92,344,79456,1,0,0:0:0:0:
256,188,79665,1,0,0:0:0:0:
256,68,79873,6,0,L|256:124,1,42.5
