osu file format v14

[General]
AudioFilename: audio.mp3
AudioLeadIn: 0
PreviewTime: 0
Countdown: 0
SampleSet: None
StackLeniency: 0.7
Mode: 0
LetterboxInBreaks: 0
WidescreenStoryboard: 0

[Editor]
DistanceSpacing: 1.5
BeatDivisor: 4
GridSize: 4
TimelineZoom: 1

[Metadata]
Title:A Shadow To Prevail
TitleUnicode:A Shadow To Prevail
Artist:FamilyJules7x & Danny Baranowsky
ArtistUnicode:FamilyJules7x & Danny Baranowsky
Creator:doctorsonic46
Version:Insane
Source:Crypt of the Necrodancer
Tags:FamilyJules7x Danny Baranowsky dB soundworks A Shadow to Prevail Crypt of the Necrodancer
BeatmapID:926468
BeatmapSetID:429367

[Difficulty]
HPDrainRate:6.5
CircleSize:4
OverallDifficulty:7
ApproachRate:9
SliderMultiplier:1.6
SliderTickRate:2

[Events]
//Background and Video events
0,0,"CFT4llCW8AAuF2y.png",0,0
//Break Periods
2,22699,23399
2,84199,89399
//Storyboard Layer 0 (Background)
//Storyboard Layer 1 (Fail)
//Storyboard Layer 2 (Pass)
//Storyboard Layer 3 (Foreground)
//Storyboard Sound Samples

[TimingPoints]
-0.281680474755291,375,4,1,0,100,1,0
0,-100,4,3,0,100,0,0
23999,-100,4,1,0,100,0,0
35999,-100,4,3,0,100,0,0
50249,-100,4,1,0,100,0,0
59249,-100,4,3,0,100,0,0
71905,-100,4,1,0,100,0,1
83812,-100,4,3,0,100,0,0
95999,-100,4,1,0,100,0,0
108280,-100,4,2,0,100,0,0
117374,-100,4,3,0,100,0,0
133499,-100,4,1,0,100,0,1
154499,-100,4,3,0,100,0,0

[Colours]
Combo1 : 240,0,0
Combo2 : 0,255,57
Combo3 : 128,0,255
Combo4 : 252,202,3
Combo5 : 0,128,255

[HitObjects]
60,188,0,6,0,P|40:132|80:100,1,80
136,40,374,1,0,0:0:0:0:
256,56,562,2,0,B|296:96|292:152,1,80
208,212,937,2,0,P|224:256|280:256,1,80
428,60,1499,5,0,0:0:0:0:
276,52,1874,1,4,0:0:0:0:
232,68,1968,1,0,0:0:0:0:
196,96,2062,1,0,0:0:0:0:
168,128,2155,1,0,0:0:0:0:
160,172,2249,1,4,0:0:0:0:
164,216,2343,1,0,0:0:0:0:
188,256,2437,1,0,0:0:0:0:
224,284,2530,1,0,0:0:0:0:
268,300,2624,1,4,0:0:0:0:
404,308,2812,1,0,0:0:0:0:
444,196,2999,6,0,B|464:144|392:104,1,80
324,56,3374,1,0,0:0:0:0:
204,68,3562,2,0,B|120:92|112:124,1,80
80,208,3937,2,0,B|64:284|128:296,1,80
336,300,4499,1,0,0:0:0:0:
56,168,4874,6,0,L|12:148,3,40,8|0|0|0,0:0|0:0|0:0|0:0,0:0:0:0:
44,92,5249,6,0,L|112:72,3,40,8|0|0|0,0:0|0:0|0:0|0:0,0:0:0:0:
116,132,5624,6,0,L|164:120,3,40,8|0|0|0,0:0|0:0|0:0|0:0,0:0:0:0:
200,84,5999,6,0,B|260:56|292:120,1,80
348,188,6374,1,0,0:0:0:0:
340,308,6562,2,0,B|292:344|240:304,1,80
144,304,6937,2,0,B|104:272|104:212,1,80
144,32,7499,5,0,0:0:0:0:
304,48,7874,1,4,0:0:0:0:
328,80,7968,1,0,0:0:0:0:
352,116,8062,1,0,0:0:0:0:
364,160,8155,1,0,0:0:0:0:
356,200,8249,1,4,0:0:0:0:
332,228,8343,1,0,0:0:0:0:
296,244,8437,1,0,0:0:0:0:
256,256,8530,1,0,0:0:0:0:
216,256,8624,1,4,0:0:0:0:
176,252,8718,1,0,0:0:0:0:
140,240,8812,1,0,0:0:0:0:
108,216,8905,1,0,0:0:0:0:
88,180,8999,6,0,B|104:132|144:96,1,80
240,68,9374,1,0,0:0:0:0:
356,104,9562,2,0,B|396:152|388:204,1,80
344,288,9937,2,0,B|320:348|252:304,1,80
104,156,10499,1,0,0:0:0:0:
332,76,10874,6,0,L|384:68,3,40,8|0|0|0,0:0|0:0|0:0|0:0,0:0:0:0:
412,116,11249,6,0,L|380:156,3,40,8|0|0|0,0:0|0:0|0:0|0:0,0:0:0:0:
360,200,11624,6,0,L|400:248,3,40,8|0|0|0,0:0|0:0|0:0|0:0,0:0:0:0:
388,292,11999,6,0,P|320:324|284:316,1,80
196,316,12374,1,0,0:0:0:0:
112,232,12562,2,0,P|92:180|100:140,1,80
168,64,12937,2,0,B|200:44|256:40,1,80
400,224,13499,5,0,0:0:0:0:
252,284,13874,1,4,0:0:0:0:
212,276,13968,1,0,0:0:0:0:
180,252,14062,1,0,0:0:0:0:
152,224,14155,1,0,0:0:0:0:
132,188,14249,1,4,0:0:0:0:
120,148,14343,1,0,0:0:0:0:
124,108,14437,1,0,0:0:0:0:
140,72,14530,1,0,0:0:0:0:
172,48,14624,1,4,0:0:0:0:
208,32,14718,1,0,0:0:0:0:
248,36,14812,1,0,0:0:0:0:
280,56,14905,1,0,0:0:0:0:
312,80,14999,6,0,B|352:104|364:176,1,80
376,264,15374,1,0,0:0:0:0:
268,316,15562,2,0,B|200:336|172:284,1,80
128,204,15937,2,0,P|152:156|196:136,1,80
396,116,16499,1,0,0:0:0:0:
228,264,16874,6,0,L|184:240,3,40,8|0|0|0,0:0|0:0|0:0|0:0,0:0:0:0:
232,188,17249,6,0,L|268:156,3,40,8|0|0|0,0:0|0:0|0:0|0:0,0:0:0:0:
212,116,17624,6,0,L|160:88,3,40,8|0|0|0,0:0|0:0|0:0|0:0,0:0:0:0:
208,44,17999,6,0,P|248:32|304:52,1,80
396,84,18374,1,0,0:0:0:0:
440,196,18562,2,0,B|436:248|372:272,1,80
284,300,18937,2,0,B|240:316|192:280,1,80
56,104,19499,5,0,0:0:0:0:
284,36,19874,1,4,0:0:0:0:
272,72,19968,1,0,0:0:0:0:
248,104,20062,1,0,0:0:0:0:
220,132,20155,1,0,0:0:0:0:
192,156,20249,1,4,0:0:0:0:
172,192,20343,1,0,0:0:0:0:
172,232,20437,1,0,0:0:0:0:
196,264,20530,1,0,0:0:0:0:
232,276,20624,1,4,0:0:0:0:
272,280,20718,1,0,0:0:0:0:
312,268,20812,1,0,0:0:0:0:
340,240,20905,1,0,0:0:0:0:
348,200,20999,6,0,B|344:140|272:124,1,80
200,80,21374,1,0,0:0:0:0:
80,84,21562,2,0,P|52:120|60:180,1,80
80,268,21937,2,0,P|112:296|152:292,1,80,2|2,0:0|0:0,0:0:0:0:
380,240,22499,5,2,0:0:0:0:
412,252,23999,6,0,P|444:224|432:156,2,80
308,312,24562,1,0,0:0:0:0:
196,272,24749,2,0,P|164:248|160:176,2,80
316,260,25312,2,4,B|364:220|380:180|360:140|292:112,1,160
208,104,25874,1,0,0:0:0:0:
96,152,26062,2,0,P|96:204|144:236,1,80
204,300,26437,1,0,0:0:0:0:
324,304,26624,1,0,0:0:0:0:
420,232,26812,6,4,B|420:136|420:136|344:76,1,160
260,48,27374,2,0,P|212:36|164:56,2,80
332,148,27937,1,0,0:0:0:0:
296,264,28124,1,0,0:0:0:0:
188,320,28312,2,4,B|108:312|108:312|52:224,1,160
52,140,28874,2,0,P|60:100|116:72,2,80
124,240,29437,1,0,0:0:0:0:
228,300,29624,1,0,0:0:0:0:
348,320,29812,6,4,B|384:296|384:296|456:336|456:336|476:272,1,160
452,164,30374,2,0,P|440:120|396:92,2,80
384,264,30937,1,0,0:0:0:0:
268,320,31124,1,0,0:0:0:0:
148,324,31312,2,4,B|92:296|92:296|128:248|128:248|80:200,1,160
64,108,31874,2,0,P|87:75|152:36,2,80
116,216,32437,1,0,0:0:0:0:
224,264,32624,1,0,0:0:0:0:
336,220,32812,6,4,B|412:196|428:96,1,160
312,68,33374,2,0,L|212:88,1,80
152,172,33749,2,0,L|268:156,1,80
352,164,34124,1,0,0:0:0:0:
424,260,34312,1,0,0:0:0:0:
320,320,34499,2,0,P|264:320|216:300,1,80
156,232,34874,2,0,P|152:176|192:140,1,80
256,124,35249,2,4,B|296:120|296:120|296:140|296:140|320:136|320:136|320:160|320:160|364:192,1,160
404,232,35718,2,0,L|440:272,2,40
356,196,35999,6,4,B|328:148|256:148,1,80
172,148,36374,1,8,0:0:0:0:
100,244,36562,1,8,0:0:0:0:
164,292,36749,1,4,0:0:0:0:
204,288,36843,1,0,0:0:0:0:
240,272,36937,1,0,0:0:0:0:
272,248,37030,1,0,0:0:0:0:
296,216,37124,1,4,0:0:0:0:
308,176,37218,1,0,0:0:0:0:
304,136,37312,1,0,0:0:0:0:
280,104,37405,1,0,0:0:0:0:
248,76,37499,1,4,0:0:0:0:
212,60,37593,1,0,0:0:0:0:
172,60,37687,1,0,0:0:0:0:
132,68,37780,1,0,0:0:0:0:
104,96,37874,1,4,0:0:0:0:
48,204,38062,6,8,P|52:248|96:284,1,80
176,340,38437,2,8,P|212:356|268:344,1,80
364,312,38812,1,4,0:0:0:0:
436,216,38999,2,8,L|480:120,2,80
344,296,39562,1,0,0:0:0:0:
228,320,39749,2,0,P|132:328|72:280,1,160,2|2,0:0|3:0,0:0:0:0:
72,176,40312,2,4,L|72:84,2,80
192,192,40874,2,4,L|260:100,2,80
284,272,41437,2,4,L|396:260,2,80
164,280,41999,5,2,0:0:0:0:
68,204,42187,2,0,P|44:172|52:108,1,80
124,48,42562,1,0,0:0:0:0:
244,48,42749,1,4,0:0:0:0:
280,68,42843,1,0,0:0:0:0:
312,92,42937,1,0,0:0:0:0:
340,120,43030,1,0,0:0:0:0:
364,152,43124,1,4,0:0:0:0:
372,192,43218,1,0,0:0:0:0:
364,232,43312,1,0,0:0:0:0:
340,264,43405,1,0,0:0:0:0:
308,284,43499,1,4,0:0:0:0:
272,296,43593,1,0,0:0:0:0:
232,300,43687,1,0,0:0:0:0:
192,300,43780,1,0,0:0:0:0:
156,288,43874,1,4,0:0:0:0:
68,204,44062,6,0,P|60:168|84:116,1,80
172,56,44437,2,0,P|220:44|272:52,1,80
356,100,44812,1,0,0:0:0:0:
425,197,44999,2,0,L|401:277,1,80
360,316,45280,2,0,L|308:344,1,40,0|4,0:0|0:0,0:0:0:0:
204,324,45562,1,0,0:0:0:0:
100,268,45749,2,0,L|120:176,1,80
148,140,46030,2,0,L|192:100,1,40,0|4,0:0|0:0,0:0:0:0:
296,84,46312,1,0,0:0:0:0:
408,124,46499,1,0,0:0:0:0:
408,244,46687,2,0,L|356:312,2,80
304,184,47249,2,0,L|216:220,2,80
228,92,47812,1,2,0:0:0:0:
256,192,47999,12,0,50249,0:0:0:0:
124,152,50437,6,0,P|140:112|200:88,1,80
284,60,50812,1,0,0:0:0:0:
372,140,50999,2,0,P|372:188|320:220,1,80
268,296,51374,2,0,P|216:312|164:296,1,80
12,148,51937,1,0,0:0:0:0:
240,68,52312,2,0,B|324:76|324:76|400:156,1,160
200,296,53062,2,0,B|128:268|128:268|124:224|124:224|68:184,1,160
48,92,53624,2,0,P|72:60|136:56,1,80
228,68,53999,2,0,P|276:100|292:140,1,80
316,172,54280,1,4,0:0:0:0:
316,172,54374,1,4,0:0:0:0:
268,284,54562,1,0,0:0:0:0:
148,280,54749,2,0,B|96:252|120:192,1,80
168,108,55124,6,4,B|212:84|212:84|292:132|292:132|404:100,1,240
488,168,55874,1,0,0:0:0:0:
428,272,56062,2,0,P|396:316|348:316,1,80
252,328,56437,2,0,P|204:324|148:288,1,80
84,232,56812,1,0,0:0:0:0:
48,116,56999,1,0,3:0:0:0:
84,228,57187,1,0,3:0:0:0:
160,136,57374,1,0,3:0:0:0:
84,232,57562,1,0,3:0:0:0:
204,232,57749,1,0,3:0:0:0:
84,228,57937,1,0,3:0:0:0:
160,136,58124,1,0,3:0:0:0:
248,56,58312,2,0,L|260:8,2,40,0|0|0,3:0|3:0|3:0,3:0:0:0:
228,176,58687,2,4,B|240:272|240:272|328:296,1,160,4|4,3:0|3:0,3:0:0:0:
392,212,59249,5,4,0:0:0:0:
392,212,59343,1,0,0:0:0:0:
392,212,59437,1,0,0:0:0:0:
392,212,59530,1,0,0:0:0:0:
392,212,59624,1,4,0:0:0:0:
392,212,59718,1,0,0:0:0:0:
392,212,59812,1,0,0:0:0:0:
392,212,59905,1,0,0:0:0:0:
392,212,59999,6,0,P|348:240|304:244,1,80
212,196,60374,1,0,0:0:0:0:
100,148,60562,2,0,P|88:112|136:72,2,80
148,256,61124,2,0,P|176:300|232:308,1,80
320,320,61499,1,0,0:0:0:0:
440,316,61687,2,0,P|480:308|496:244,2,80
332,264,62249,2,0,P|280:256|240:208,1,80
168,160,62624,1,0,0:0:0:0:
76,84,62812,6,4,L|16:32,2,80,0|0|0,0:0|0:0|0:0,0:0:0:0:
180,144,63374,1,0,0:0:0:0:
276,216,63562,2,0,P|324:232|384:212,1,80
456,168,63937,1,0,0:0:0:0:
392,64,64124,2,0,P|352:32|288:24,2,80,2|2|2,0:0|0:0|0:0,0:0:0:0:
440,176,64687,1,0,0:0:0:0:
324,212,64874,2,0,P|284:232|220:212,1,80
192,100,65249,2,0,P|252:92|296:116,1,80
376,156,65624,2,0,P|412:200|408:248,1,80
344,320,65999,6,0,P|300:352|248:352,2,80,2|2|2,0:0|0:0|0:0,0:0:0:0:
404,216,66562,1,0,0:0:0:0:
348,108,66749,2,0,P|316:80|268:76,1,80
160,80,67124,2,0,P|120:92|64:124,2,80,2|2|2,0:0|0:0|0:0,0:0:0:0:
280,68,67687,2,0,P|328:84|348:132,1,80
388,220,68062,1,0,0:0:0:0:
324,320,68249,2,4,P|296:348|252:340,2,80
388,220,68812,1,0,0:0:0:0:
364,104,68999,6,8,P|340:68|288:56,2,80
408,216,69562,2,12,P|376:248|332:248,1,80
228,280,69937,1,0,0:0:0:0:
120,228,70124,2,0,P|76:216|56:160,2,80
240,224,70687,2,4,P|276:212|304:164,1,80
332,64,71062,2,4,P|272:56|228:80,1,80
136,92,71437,2,4,P|92:120|76:168,1,80
124,256,71812,1,8,0:0:0:0:
276,308,71999,6,0,L|376:304,1,80
355,304,72280,1,4,0:0:0:0:
355,304,72374,1,4,0:0:0:0:
384,148,72562,2,0,P|364:116|304:100,2,80
360,308,73124,1,4,0:0:0:0:
360,308,73218,1,4,0:0:0:0:
360,308,73312,2,0,P|312:316|264:280,2,80
412,156,73874,1,4,0:0:0:0:
412,156,73968,1,4,0:0:0:0:
412,156,74062,1,4,0:0:0:0:
276,72,74249,2,0,P|220:68|168:84,1,80
96,196,74624,1,0,0:0:0:0:
96,196,74718,1,0,0:0:0:0:
96,196,74812,6,0,P|124:228|196:244,1,80
308,188,75187,1,0,0:0:0:0:
308,188,75280,1,0,0:0:0:0:
308,188,75374,1,0,0:0:0:0:
200,72,75562,2,4,P|152:52|96:68,1,80
64,204,75937,1,0,0:0:0:0:
64,204,76030,1,0,0:0:0:0:
64,204,76124,2,0,P|92:236|144:248,1,80
288,256,76499,1,0,0:0:0:0:
288,256,76593,1,0,0:0:0:0:
288,256,76687,2,4,P|332:252|364:216,1,80
464,108,77062,1,0,0:0:0:0:
320,40,77249,1,0,0:0:0:0:
160,56,77437,1,0,0:0:0:0:
60,180,77624,1,0,0:0:0:0:
160,304,77812,1,0,0:0:0:0:
320,324,77999,5,0,0:0:0:0:
276,168,78187,1,0,0:0:0:0:
276,168,78280,1,0,0:0:0:0:
276,168,78374,2,4,P|224:200|176:180,1,80
68,124,78749,1,0,0:0:0:0:
68,124,78843,1,0,0:0:0:0:
68,124,78937,2,0,P|112:92|164:104,1,80
296,84,79312,5,0,0:0:0:0:
444,140,79499,1,0,0:0:0:0:
296,200,79687,1,0,0:0:0:0:
444,264,79874,1,0,0:0:0:0:
292,312,80062,1,0,0:0:0:0:
136,276,80249,1,0,0:0:0:0:
280,200,80437,1,0,0:0:0:0:
132,144,80624,1,4,0:0:0:0:
284,92,80812,1,4,0:0:0:0:
136,28,80999,5,4,0:0:0:0:
52,164,81187,2,0,P|32:208|44:256,2,80
180,68,81749,2,0,P|220:44|276:56,1,80
404,92,82124,2,0,P|444:120|444:176,1,80
372,288,82499,1,0,3:0:0:0:
64,200,82874,1,4,3:0:0:0:
216,148,83249,1,0,3:0:0:0:
252,136,83343,1,4,3:0:0:0:
292,124,83437,1,0,3:0:0:0:
328,108,83530,1,4,3:0:0:0:
368,96,83624,1,0,3:0:0:0:
448,236,83999,1,0,3:0:0:0:
152,172,89999,6,0,L|196:124,4,40,0|0|0|0|4,0:0|0:0|0:0|0:0|0:0,0:0:0:0:
260,120,90562,1,0,0:0:0:0:
376,148,90749,2,0,P|384:204|360:236,1,80
320,328,91124,2,0,P|272:340|224:320,1,80,0|0,3:0|3:0,3:0:0:0:
148,256,91499,2,0,L|108:220,4,40,0|0|0|0|4,0:0|0:0|0:0|0:0|0:0,0:0:0:0:
216,156,92062,2,0,P|252:132|312:148,1,80
408,140,92437,2,0,P|428:196|392:232,1,80
368,320,92812,1,0,0:0:0:0:
248,312,92999,6,0,L|196:296,4,40,0|0|0|0|4,0:0|0:0|0:0|0:0|0:0,0:0:0:0:
56,224,93562,2,0,P|36:184|40:136,1,80
112,56,93937,2,0,P|156:32|216:56,1,80
296,76,94312,1,0,0:0:0:0:
400,132,94499,2,0,L|452:172,4,40,0|0|0|0|4,0:0|0:0|0:0|0:0|0:0,0:0:0:0:
332,308,95062,1,0,0:0:0:0:
212,300,95249,1,4,0:0:0:0:
212,300,95343,1,0,0:0:0:0:
212,300,95437,1,0,3:0:0:0:
112,232,95624,1,2,3:0:0:0:
112,232,95718,1,0,3:0:0:0:
112,232,95812,1,0,3:0:0:0:
44,132,95999,6,0,P|16:92|32:32,2,80
164,148,96562,2,0,P|208:148|236:100,1,80
264,76,96843,2,0,L|304:44,1,40
416,48,97124,2,0,P|448:88|436:128,1,80
384,220,97499,2,0,P|340:244|284:236,1,80
192,248,97874,1,4,0:0:0:0:
192,248,97968,1,0,0:0:0:0:
192,248,98062,1,0,0:0:0:0:
100,168,98249,1,4,3:0:0:0:
100,168,98343,1,0,3:0:0:0:
100,168,98437,1,0,3:0:0:0:
184,80,98624,6,4,P|212:48|276:48,2,80
152,196,99187,2,0,P|176:240|232:248,1,80
324,244,99562,2,0,P|368:240|408:192,2,80
232,168,100124,5,0,0:0:0:0:
232,168,100218,1,0,0:0:0:0:
232,168,100312,1,0,0:0:0:0:
136,96,100499,1,0,0:0:0:0:
136,96,100593,1,0,0:0:0:0:
136,96,100687,1,0,0:0:0:0:
52,180,100874,2,0,P|36:232|60:280,2,80
156,116,101437,1,0,0:0:0:0:
156,116,101530,1,0,0:0:0:0:
156,116,101624,1,0,0:0:0:0:
268,72,101812,1,4,0:0:0:0:
384,92,101999,6,0,P|424:124|436:180,2,80
272,52,102562,2,0,P|232:48|164:64,2,80
372,120,103124,2,0,P|378:171|360:220,1,80
280,276,103499,2,0,P|240:296|176:280,1,80
112,216,103874,1,0,0:0:0:0:
112,216,103968,1,0,0:0:0:0:
112,216,104062,1,0,0:0:0:0:
136,100,104249,1,0,0:0:0:0:
136,100,104343,1,0,0:0:0:0:
136,100,104437,1,0,0:0:0:0:
244,44,104624,2,4,P|282:36|352:68,1,80
420,116,104999,5,0,0:0:0:0:
448,192,105187,1,0,0:0:0:0:
440,272,105374,1,0,0:0:0:0:
372,312,105562,1,0,0:0:0:0:
292,316,105749,1,0,0:0:0:0:
216,288,105937,1,0,0:0:0:0:
164,228,106124,1,0,0:0:0:0:
164,148,106312,1,0,0:0:0:0:
208,80,106499,2,0,P|236:48|288:48,2,80
140,124,107062,2,4,B|64:144|64:144|16:224,1,160
40,248,107530,2,4,L|64:296,1,40
132,312,107812,1,4,0:0:0:0:
476,72,108562,5,0,0:0:0:0:
476,72,108655,1,0,0:0:0:0:
476,72,108749,1,4,0:0:0:0:
208,172,110062,5,0,0:0:0:0:
208,172,110155,1,0,0:0:0:0:
208,172,110249,1,0,0:0:0:0:
384,128,110530,1,0,0:0:0:0:
376,308,110812,1,0,0:0:0:0:
256,304,110999,1,0,0:0:0:0:
20,32,111562,5,0,0:0:0:0:
20,32,111655,1,0,0:0:0:0:
20,32,111749,1,4,0:0:0:0:
416,92,112499,2,0,L|460:56,3,40
392,44,112874,2,0,L|320:44,4,40
384,164,113437,2,0,L|348:204,2,45
160,152,113999,5,0,0:0:0:0:
192,272,114280,1,0,0:0:0:0:
364,320,114562,1,0,0:0:0:0:
448,236,114749,1,4,0:0:0:0:
292,56,115124,1,0,0:0:0:0:
256,232,115405,1,0,0:0:0:0:
68,144,115687,1,0,0:0:0:0:
168,292,115968,1,0,0:0:0:0:
280,328,116249,1,4,0:0:0:0:
456,84,116624,1,0,0:0:0:0:
204,104,116999,1,0,0:0:0:0:
256,192,117374,12,2,119624,0:0:0:0:
56,228,119999,6,0,P|64:288|96:296,1,80
188,332,120374,2,0,P|236:344|288:328,1,80
352,256,120749,2,0,L|396:164,2,80
232,272,121312,1,0,0:0:0:0:
120,228,121499,2,0,L|80:152,2,80
228,172,122062,1,0,0:0:0:0:
332,112,122249,2,0,P|372:108|432:148,1,80
464,212,122624,5,0,0:0:0:0:
372,288,122812,2,0,P|336:308|276:288,1,80
196,244,123187,2,0,L|120:180,2,80
280,160,123749,2,0,L|316:72,2,80
168,160,124312,1,0,0:0:0:0:
84,244,124499,2,0,P|72:300|104:344,2,80
132,132,125062,1,0,0:0:0:0:
232,68,125249,1,0,0:0:0:0:
348,40,125437,1,0,0:0:0:0:
452,100,125624,1,0,0:0:0:0:
432,220,125812,6,0,P|424:268|380:288,2,80
388,108,126374,2,0,P|360:76|308:64,2,80
416,224,126937,2,0,P|400:272|360:288,1,80
256,288,127312,1,0,0:0:0:0:
136,284,127499,2,0,P|92:276|60:224,2,80
248,236,128062,2,0,P|288:224|320:184,2,80
132,208,128624,5,0,0:0:0:0:
68,108,128812,2,0,P|92:72|156:60,1,80
244,60,129187,1,0,0:0:0:0:
344,128,129374,1,0,0:0:0:0:
384,240,129562,1,0,0:0:0:0:
296,320,129749,1,0,0:0:0:0:
180,292,129937,1,0,0:0:0:0:
88,216,130124,1,0,0:0:0:0:
112,100,130312,1,0,0:0:0:0:
224,64,130499,1,2,0:0:0:0:
424,196,130874,1,2,0:0:0:0:
184,168,131249,1,2,0:0:0:0:
416,104,131624,1,4,0:0:0:0:
352,252,131999,1,0,0:0:0:0:
116,148,133312,5,0,1:0:0:0:
116,148,133405,1,0,1:0:0:0:
148,88,133499,2,4,B|216:48|216:48|328:44,1,160
416,64,134062,1,0,0:0:0:0:
436,180,134249,2,0,P|424:228|380:244,1,80
284,276,134624,2,4,P|232:292|184:276,2,80
368,192,135187,2,0,P|384:156|340:100,1,80
264,64,135562,2,0,P|212:44|172:72,1,80
136,156,135937,1,0,0:0:0:0:
212,248,136124,2,4,P|248:288|304:288,2,80
228,144,136687,2,0,P|256:112|320:104,1,80
412,100,137062,2,0,P|456:136|468:192,2,80
304,48,137624,2,4,P|260:28|204:52,2,80
368,148,138187,2,0,P|384:200|360:232,1,80
268,276,138562,1,0,0:0:0:0:
148,288,138749,2,0,L|96:244,4,40
224,192,139312,6,0,P|232:144|288:112,1,80
372,104,139687,2,0,P|416:128|432:176,1,80
416,272,140062,2,0,P|384:312|332:308,1,80
236,312,140437,1,4,0:0:0:0:
120,276,140624,2,4,P|77:256|56:200,1,80
76,112,140999,2,0,P|104:80|164:80,2,80
56,224,141562,1,0,0:0:0:0:
56,224,141655,1,0,0:0:0:0:
56,224,141749,1,0,0:0:0:0:
56,224,141843,1,0,0:0:0:0:
56,224,141937,1,0,0:0:0:0:
56,224,142030,1,0,0:0:0:0:
56,224,142124,1,0,0:0:0:0:
144,308,142312,6,0,P|176:332|240:316,2,80
104,196,142874,1,0,0:0:0:0:
140,80,143062,2,0,P|168:60|236:68,2,80
128,200,143624,2,0,P|144:256|192:268,1,80
280,256,143999,1,4,0:0:0:0:
384,196,144187,1,4,0:0:0:0:
416,80,144374,1,0,0:0:0:0:
304,36,144562,1,4,0:0:0:0:
224,124,144749,1,0,0:0:0:0:
224,124,144843,1,0,0:0:0:0:
224,124,144937,1,0,0:0:0:0:
224,124,145030,1,0,0:0:0:0:
224,124,145124,1,4,0:0:0:0:
312,204,145312,6,4,P|336:228|336:300,1,80
232,316,145687,2,0,P|198:301|168:248,2,80
344,272,146249,1,0,0:0:0:0:
432,192,146437,1,0,0:0:0:0:
340,80,146624,2,4,P|300:44|244:36,2,80
308,196,147187,1,0,0:0:0:0:
208,264,147374,2,0,P|164:264|116:220,2,80
248,152,147937,1,0,0:0:0:0:
152,80,148124,2,4,P|108:76|48:100,1,80
84,204,148499,5,0,0:0:0:0:
188,264,148687,1,0,0:0:0:0:
308,256,148874,1,0,0:0:0:0:
408,188,149062,2,0,P|424:136|396:104,1,80
300,76,149437,1,0,0:0:0:0:
180,72,149624,2,4,L|92:88,2,80
292,112,150187,1,0,0:0:0:0:
360,208,150374,2,0,P|368:256|324:288,1,80
232,264,150749,1,0,0:0:0:0:
136,188,150937,6,0,P|144:148|176:108,1,80
284,92,151312,1,0,0:0:0:0:
400,120,151499,2,0,P|448:136|480:188,2,80
328,216,152062,2,0,P|296:256|240:260,1,80
156,232,152437,2,4,L|88:164,2,80
276,212,152999,1,0,0:0:0:0:
384,156,153187,1,0,0:0:0:0:
432,44,153374,1,0,0:0:0:0:
312,48,153562,2,0,P|266:48|220:72,1,80
160,156,153937,2,0,P|180:196|220:212,1,80
328,180,154312,6,0,P|344:136|392:124,1,80
492,128,154687,2,0,P|508:172|496:216,2,80
380,80,155249,2,0,P|348:52|288:48,2,80
312,180,155812,1,0,0:0:0:0:
204,232,155999,1,4,0:0:0:0:
436,296,156374,1,4,0:0:0:0:
256,136,156749,1,4,0:0:0:0:
460,264,157124,1,6,0:0:0:0:
220,288,157499,1,0,0:0:0:0:
