osu file format v14

[General]
AudioFilename: audio.mp3
AudioLeadIn: 0
PreviewTime: 144511
Countdown: 1
SampleSet: Soft
StackLeniency: 0.7
Mode: 0
LetterboxInBreaks: 0
WidescreenStoryboard: 0

[Editor]
Bookmarks: 35467,43743,63605,114300,126643,132129,143100,156834,156854,178671,200740,208969,233442,247113,269878,309187,314427,361891,397517,412560,421998,429998,437998,445998,453998,469998,477998,485998
DistanceSpacing: 0.7
BeatDivisor: 4
GridSize: 4
TimelineZoom: 2.2

[Metadata]
Title:Top 10 Video Game Boss Battle Themes - Guitar Medley
TitleUnicode:Top 10 Video Game Boss Battle Themes - Guitar Medley
Artist:FamilyJules
ArtistUnicode:FamilyJules
Creator:Seto Kousuke
Version:Video Game
Source:
Tags:
BeatmapID:1149594
BeatmapSetID:542240

[Difficulty]
HPDrainRate:5
CircleSize:4
OverallDifficulty:8
ApproachRate:9.5
SliderMultiplier:1.8
SliderTickRate:1

[Events]
//Background and Video events
0,0,"jules.png",0,0
//Break Periods
2,28887,30017
2,42128,43258
2,103569,108329
2,399998,405973
//Storyboard Layer 0 (Background)
//Storyboard Layer 1 (Fail)
//Storyboard Layer 2 (Pass)
//Storyboard Layer 3 (Foreground)
//Storyboard Sound Samples

[TimingPoints]
266,337.078651685393,4,2,0,100,1,0
266,-200,4,2,0,100,0,0
5659,-100,4,2,0,100,0,0
27232,413.793103448276,4,2,0,100,1,0
57005,-117.647058823529,4,2,0,100,0,0
63625,-80,4,2,0,100,0,0
66108,-133.333333333333,4,2,0,100,0,0
66936,-80,4,2,0,100,0,0
69005,-133.333333333333,4,2,0,100,0,0
70246,-80,4,2,0,100,0,0
91763,-117.647058823529,4,2,0,100,0,0
103369,342.857142857143,4,2,0,100,1,0
108854,-133.333333333333,4,2,0,100,0,0
145863,-100,4,2,0,100,0,0
156854,-133.333333333333,4,2,0,100,0,0
167825,-100,4,2,0,100,0,0
178797,-117.647058823529,4,2,0,100,0,0
187025,-181.818181818181,4,2,0,100,0,0
188397,-117.647058823529,4,2,0,100,0,0
189769,-100,4,2,0,100,0,0
215826,-133.333333333333,4,2,0,100,0,0
221140,-100,4,2,0,100,0,0
221311,379.746835443038,4,2,0,100,1,0
227386,-80,4,2,0,100,0,0
269923,329.67032967033,4,2,0,100,1,0
272560,326.086956521739,4,2,0,100,1,0
275168,327.868852459016,4,2,0,100,1,0
285659,327.868852459016,4,2,0,100,1,0
295940,397.350993377483,4,2,0,100,1,0
296704,437.956204379562,4,2,0,100,1,0
297470,428.571428571429,4,2,0,100,1,0
298290,309.278350515464,4,2,0,100,1,0
298757,327.868852459016,4,2,0,100,1,0
309248,-125,4,2,0,100,0,0
314494,-100,4,2,0,100,0,0
321379,-133.333333333333,4,2,0,100,0,0
330232,609.137055837563,4,2,0,100,1,0
339978,304.568527918782,4,2,0,100,1,0
339978,-153.846153846153,4,2,0,100,0,0
349724,609.137055837563,4,2,0,100,1,0
352160,304.568527918782,4,2,0,100,1,0
363733,-166.666666666667,4,2,0,100,0,0
366779,609.137055837563,4,2,0,100,1,0
369215,304.568527918782,4,2,0,100,1,0
374043,-80,4,2,0,100,0,0
378961,609.137055837563,4,2,0,100,1,0
383834,304.568527918782,4,2,0,100,1,0
388689,315.789473684211,4,2,0,100,1,0
389952,342.857142857143,4,2,0,100,1,0
391323,363.636363636364,4,2,0,100,1,0
393504,422.535211267606,4,2,0,100,1,0
394343,857.142857142857,4,2,0,100,1,0
395206,882.352941176471,4,2,0,100,1,0
396080,923.076923076923,4,2,0,100,1,0
397011,1000,4,2,0,100,1,0
397011,-142.857142857143,4,2,0,100,0,0
397998,250,4,2,0,100,1,0
429998,-142.857142857143,4,2,0,100,0,0
445998,-100,4,2,0,100,0,0
453998,-142.857142857143,4,2,0,100,0,0
477998,-100,4,2,0,100,0,0
485998,-142.857142857143,4,2,0,100,0,0

[HitObjects]
104,172,266,6,0,L|84:80,3,90
248,56,1614,2,0,L|228:143,3,90
388,156,2962,2,0,L|368:64,3,90
288,248,4310,5,0,0:0:0:0:
288,248,4648,1,0,0:0:0:0:
288,248,4985,1,0,0:0:0:0:
196,324,5322,2,0,P|232:322|276:344,1,67.5,8|0,0:0|0:0,0:0:0:0:
261,332,5659,6,0,L|364:308,1,90,4|0,0:0|0:0,0:0:0:0:
180,184,5996,1,8,0:0:0:0:
104,316,6164,1,0,0:0:0:0:
92,152,6333,1,0,0:0:0:0:
40,240,6501,1,0,0:0:0:0:
196,280,6670,2,0,L|300:280,1,90,8|0,0:0|0:0,0:0:0:0:
440,172,7007,5,0,0:0:0:0:
404,304,7176,2,0,L|420:356,2,45,0|0|8,0:0|0:0|0:0,0:0:0:0:
216,180,7513,2,0,P|256:122|362:112,1,180
280,316,8018,2,0,L|172:320,1,90,8|0,0:0|0:0,0:0:0:0:
44,188,8355,5,0,0:0:0:0:
148,208,8524,1,0,0:0:0:0:
64,360,8692,2,0,P|60:304|84:256,1,90,8|0,0:0|0:0,0:0:0:0:
252,232,9030,1,0,0:0:0:0:
108,112,9198,1,0,0:0:0:0:
224,136,9367,1,8,0:0:0:0:
176,40,9535,1,0,0:0:0:0:
136,236,9704,6,0,L|184:336,1,90
212,320,9957,1,0,0:0:0:0:
212,320,10041,1,8,0:0:0:0:
316,188,10209,1,0,0:0:0:0:
328,304,10378,1,4,0:0:0:0:
224,136,10546,1,0,0:0:0:0:
412,240,10715,2,0,L|512:240,1,90,4|0,0:0|0:0,0:0:0:0:
464,56,11052,6,0,P|380:28|288:64,1,180,4|8,0:0|0:0,0:0:0:0:
260,256,11558,2,0,L|276:304,2,45
208,128,11895,1,0,0:0:0:0:
148,280,12063,2,0,P|100:284|44:260,1,90,8|0,0:0|0:0,0:0:0:0:
104,36,12400,5,0,0:0:0:0:
0,160,12569,2,0,P|9:189|28:208,2,45,0|0|8,0:0|0:0|0:0,0:0:0:0:
184,40,12906,2,0,P|276:64|300:144,1,180
248,296,13412,2,0,P|240:248|288:188,1,90,8|0,0:0|0:0,0:0:0:0:
400,120,13749,5,0,0:0:0:0:
348,208,13917,1,0,0:0:0:0:
504,128,14086,1,8,0:0:0:0:
412,288,14254,1,0,0:0:0:0:
300,120,14423,2,0,L|196:116,1,90
128,256,14760,1,8,0:0:0:0:
120,152,14928,1,0,0:0:0:0:
228,316,15097,6,0,L|312:364,1,90,4|0,0:0|0:0,0:0:0:0:
378,164,15434,2,0,L|294:116,1,90,4|0,0:0|0:0,0:0:0:0:
424,296,15771,1,0,0:0:0:0:
454,280,15855,1,0,0:0:0:0:
476,256,15940,1,0,0:0:0:0:
488,224,16024,1,0,0:0:0:0:
489,191,16108,2,0,L|460:148,1,45
496,72,16277,2,0,L|436:52,1,45
376,212,16445,6,0,P|332:220|272:204,1,90,4|0,0:0|0:0,0:0:0:0:
168,96,16782,1,8,0:0:0:0:
124,200,16951,1,0,0:0:0:0:
124,200,17035,1,0,0:0:0:0:
124,200,17119,1,0,0:0:0:0:
272,116,17288,1,0,0:0:0:0:
164,296,17457,2,0,P|120:304|56:279,1,90,8|0,0:0|0:0,0:0:0:0:
32,132,17794,5,0,0:0:0:0:
0,228,17962,1,0,0:0:0:0:
180,112,18131,1,8,0:0:0:0:
252,272,18299,1,0,0:0:0:0:
252,272,18383,1,0,0:0:0:0:
252,272,18468,2,0,L|312:206,1,90
88,72,18805,2,0,L|84:161,1,90,8|0,0:0|0:0,0:0:0:0:
180,297,19142,5,0,0:0:0:0:
312,205,19310,1,0,0:0:0:0:
232,357,19479,1,8,0:0:0:0:
248,161,19648,1,0,0:0:0:0:
340,353,19816,2,0,L|444:353,1,90
512,181,20153,2,0,L|408:181,1,90,8|0,0:0|0:0,0:0:0:0:
156,280,20490,5,0,0:0:0:0:
133,283,20574,1,0,0:0:0:0:
111,281,20659,1,0,0:0:0:0:
90,273,20743,1,0,0:0:0:0:
72,259,20827,1,4,0:0:0:0:
59,241,20912,1,0,0:0:0:0:
51,220,20996,1,0,0:0:0:0:
48,198,21080,1,0,0:0:0:0:
52,176,21164,2,0,L|68:128,3,45,4|0|0|0,0:0|0:0|0:0|0:0,0:0:0:0:
176,136,21501,2,0,L|192:184,3,45,4|0|0|0,0:0|0:0|0:0|0:0,0:0:0:0:
288,184,21839,6,0,L|332:76,1,90,4|0,0:0|0:0,0:0:0:0:
352,92,22091,1,0,0:0:0:0:
352,92,22176,1,8,0:0:0:0:
424,252,22344,1,0,0:0:0:0:
424,252,22428,1,0,0:0:0:0:
424,252,22513,2,0,L|312:256,1,90
320,292,22765,1,0,0:0:0:0:
320,292,22850,1,8,0:0:0:0:
204,156,23018,2,0,L|196:200,1,45
152,284,23187,5,0,0:0:0:0:
178,293,23271,1,0,0:0:0:0:
206,294,23355,1,0,0:0:0:0:
233,287,23440,1,0,0:0:0:0:
257,273,23524,1,0,0:0:0:0:
276,252,23608,1,0,0:0:0:0:
288,226,23692,1,0,0:0:0:0:
291,198,23777,1,0,0:0:0:0:
287,171,23861,2,0,L|280:120,3,45
240,44,24198,2,0,L|247:-8,3,45
360,40,24535,6,0,L|436:40,2,60
408,116,24872,6,0,L|484:116,2,60
452,188,25209,6,0,L|528:188,2,60
372,256,25546,6,0,L|296:256,2,60
240,320,25883,6,0,L|136:320,1,90
24,200,26221,2,0,L|128:200,1,90
232,64,26558,2,0,L|132:64,1,90
304,224,26895,5,8,0:0:0:0:
312,120,27063,1,8,0:0:0:0:
136,304,27232,1,4,0:0:0:0:
304,80,30542,6,0,L|376:76,1,45
220,148,30749,2,0,L|148:144,1,45
308,176,30956,2,0,L|380:172,1,45,8|0,0:0|0:0,0:0:0:0:
224,244,31163,2,0,L|152:240,1,45
372,336,31369,2,0,L|428:380,1,45
276,336,31576,2,0,L|220:380,1,45
412,244,31783,2,0,L|484:240,1,45,8|0,0:0|0:0,0:0:0:0:
308,176,31990,2,0,L|236:172,1,45
84,260,32197,6,0,L|130:260,1,45
44,96,32404,2,0,L|12:64,1,45
212,48,32611,2,0,L|244:80,1,45,8|0,0:0|0:0,0:0:0:0:
144,96,32818,2,0,L|112:64,1,45
312,48,33025,2,0,L|344:80,1,45
320,216,33232,2,0,L|288:184,1,45
428,168,33438,2,0,L|460:200,1,45,8|0,0:0|0:0,0:0:0:0:
416,336,33645,2,0,L|384:304,1,45
352,112,33852,6,0,L|280:108,1,45
168,168,34059,2,0,L|240:164,1,45
352,220,34266,2,0,L|280:216,1,45,8|0,0:0|0:0,0:0:0:0:
168,276,34473,2,0,L|240:272,1,45
216,72,34680,6,0,L|144:68,1,45,8|0,0:0|0:0,0:0:0:0:
32,128,34887,2,0,L|96:124,1,45,8|0,0:0|0:0,0:0:0:0:
216,184,35094,2,0,L|152:180,1,45,8|0,0:0|0:0,0:0:0:0:
32,240,35300,2,0,L|104:236,1,45,8|0,0:0|0:0,0:0:0:0:
248,332,35507,6,0,P|184:312|76:360,1,180,4|0,0:0|0:0,0:0:0:0:
472,340,36128,2,0,L|506:310,2,45
456,352,36956,2,0,L|396:352,1,45
396,80,37369,2,0,L|353:66,2,45
184,140,37783,6,0,L|180:68,1,45
91,200,37990,1,0,0:0:0:0:
72,228,38094,1,0,0:0:0:0:
80,260,38197,2,0,L|100:308,1,45
176,352,38404,2,0,L|280:356,1,90,8|8,0:0|0:0,0:0:0:0:
256,40,38818,5,0,0:0:0:0:
236,62,38921,1,0,0:0:0:0:
225,90,39025,1,0,0:0:0:0:
223,120,39128,1,0,0:0:0:0:
230,149,39232,2,0,L|274:213,1,45
372,168,39438,2,0,L|328:104,1,45
308,260,39645,2,0,L|352:324,1,45
452,288,39852,2,0,L|408:224,1,45
240,360,40059,2,0,L|128:360,1,90,8|8,0:0|0:0,0:0:0:0:
84,104,40473,5,4,0:0:0:0:
384,160,43783,6,0,P|316:148|232:224,1,180,2|8,0:0|0:0,0:0:0:0:
156,344,44404,2,0,B|168:292|168:292|144:228|144:228|156:144,1,180,2|2,0:0|0:0,0:0:0:0:
264,292,45025,2,0,L|392:292,1,90,8|0,0:0|0:0,0:0:0:0:
304,104,45438,6,0,L|200:104,1,90,2|0,0:0|0:0,0:0:0:0:
364,172,45852,1,8,0:0:0:0:
232,24,46059,1,2,0:0:0:0:
93,59,46266,1,0,0:0:0:0:
86,68,46369,1,0,0:0:0:0:
80,77,46473,1,0,0:0:0:0:
74,87,46576,1,0,0:0:0:0:
68,96,46680,2,0,P|92:144|80:192,1,90,8|0,0:0|0:0,0:0:0:0:
0,304,47094,6,0,P|52:260|104:264,1,90
144,280,47404,1,0,0:0:0:0:
144,280,47507,2,0,B|196:276|196:276|252:304|252:304,1,90,8|0,0:0|0:0,0:0:0:0:
312,356,47921,1,0,0:0:0:0:
464,224,48128,1,0,0:0:0:0:
416,320,48335,1,8,0:0:0:0:
408,128,48542,1,0,0:0:0:0:
244,248,48749,6,0,L|160:208,1,90,2|0,0:0|0:0,0:0:0:0:
244,16,49163,2,0,L|328:56,1,90,8|0,0:0|0:0,0:0:0:0:
364,267,49576,2,0,L|324:248,3,45,8|0|0|0,0:0|0:0|0:0|0:0,0:0:0:0:
236,277,49990,2,0,L|192:268,1,45,8|0,0:0|0:0,0:0:0:0:
124,336,50197,2,0,L|200:352,1,45,8|0,0:0|0:0,0:0:0:0:
44,368,50404,6,0,P|80:320|60:200,1,180,4|8,0:0|0:0,0:0:0:0:
12,136,51025,1,2,0:0:0:0:
12,136,51438,1,2,0:0:0:0:
152,172,51645,2,0,L|256:176,1,90,8|0,0:0|0:0,0:0:0:0:
332,56,52059,6,0,L|380:20,3,45,2|0|0|0,0:0|0:0|0:0|0:0,0:0:0:0:
408,92,52473,2,0,L|456:56,3,45,2|0|0|0,0:0|0:0|0:0|0:0,0:0:0:0:
476,148,52887,1,2,0:0:0:0:
477,170,52990,1,2,0:0:0:0:
479,192,53094,1,2,0:0:0:0:
481,215,53197,1,2,0:0:0:0:
483,237,53300,2,0,L|444:272,1,45,8|0,0:0|0:0,0:0:0:0:
476,336,53507,2,0,L|425:351,1,45,2|0,0:0|0:0,0:0:0:0:
336,376,53714,6,0,L|152:356,1,180,2|8,0:0|0:0,0:0:0:0:
72,312,54335,1,2,0:0:0:0:
72,312,54749,1,2,0:0:0:0:
200,292,54956,2,0,L|260:212,1,90,8|0,0:0|0:0,0:0:0:0:
320,68,55369,6,0,L|306:9,3,45,2|0|0|0,0:0|0:0|0:0|0:0,0:0:0:0:
238,46,55783,2,0,L|224:-12,3,45,2|0|0|0,0:0|0:0|0:0|0:0,0:0:0:0:
150,45,56197,1,2,0:0:0:0:
134,61,56300,1,2,0:0:0:0:
118,77,56404,1,2,0:0:0:0:
103,93,56507,1,2,0:0:0:0:
87,109,56611,2,0,L|94:160,1,45,8|0,0:0|0:0,0:0:0:0:
29,189,56818,2,0,L|57:232,1,45,2|0,0:0|0:0,0:0:0:0:
116,296,57025,6,0,P|180:280|272:312,1,153.000002918243,4|2,0:0|0:0,0:0:0:0:
336,372,57645,1,0,0:0:0:0:
492,348,57852,2,0,L|452:180,1,153.000002918243,8|4,0:0|0:0,0:0:0:0:
457,200,58680,6,0,L|365:148,1,76.5000014591217,2|0,0:0|0:0,0:0:0:0:
368,196,58990,2,0,L|300:128,1,76.5000014591217,2|0,0:0|0:0,0:0:0:0:
284,168,59300,1,2,0:0:0:0:
456,76,59507,2,0,L|504:76,2,38.2500007295609,8|2|2,0:0|0:0|0:0,0:0:0:0:
224,32,59921,6,0,P|186:93|185:129,1,76.5000014591217,8|0,0:0|0:0,0:0:0:0:
151,74,60232,2,0,P|130:143|138:177,1,76.5000014591217,2|0,0:0|0:0,0:0:0:0:
85,114,60542,2,0,P|76:185|90:218,1,76.5000014591217,2|0,0:0|0:0,0:0:0:0:
20,176,60852,2,0,P|41:244|68:268,1,76.5000014591217,2|0,0:0|0:0,0:0:0:0:
72,272,61163,2,0,L|108:292,2,38.2500007295609,8|0|0,0:0|0:0|0:0,0:0:0:0:
152,308,61473,2,0,P|188:294|240:292,1,76.5000014591217,2|0,0:0|0:0,0:0:0:0:
252,304,61783,1,2,0:0:0:0:
336,364,61990,6,0,L|388:316,3,38.2500007295609,8|0|0|0,0:0|0:0|0:0|0:0,0:0:0:0:
444,312,62404,2,0,L|470:246,3,38.2500007295609,8|0|0|0,0:0|0:0|0:0|0:0,0:0:0:0:
488,176,62818,1,8,0:0:0:0:
487,138,62921,1,0,0:0:0:0:
469,104,63025,1,8,0:0:0:0:
438,83,63128,1,0,0:0:0:0:
400,77,63232,2,0,L|340:104,1,38.2500007295609,8|0,0:0|0:0,0:0:0:0:
384,236,63438,2,0,L|395:198,1,38.2500007295609,8|0,0:0|0:0,0:0:0:0:
192,196,63645,6,0,P|184:264|276:340,1,168.75,4|2,0:0|0:0,0:0:0:0:
384,236,64059,2,0,P|325:222|268:248,1,112.5,8|0,0:0|0:0,0:0:0:0:
452,328,64473,1,2,0:0:0:0:
424,128,64680,1,2,0:0:0:0:
324,340,64887,2,0,B|292:320|252:336|252:336|252:328|252:328|212:356|152:320,1,168.75,8|2,0:0|0:0,0:0:0:0:
104,296,65300,6,0,P|88:240|124:164,1,112.5,2|0,0:0|0:0,0:0:0:0:
332,264,65714,2,0,P|228:224|176:252,1,168.75,8|0,0:0|0:0,0:0:0:0:
170,329,66128,2,0,L|164:376,3,33.7500012874604,2|0|0|0,0:0|0:0|0:0|0:0,0:0:0:0:
268,192,66542,2,0,L|262:145,3,33.7500012874604,2|0|0|0,0:0|0:0|0:0|0:0,0:0:0:0:
340,320,66956,6,0,P|400:280|404:168,1,168.75,4|2,0:0|0:0,0:0:0:0:
360,128,67369,1,8,0:0:0:0:
456,328,67576,1,2,0:0:0:0:
316,228,67783,1,2,0:0:0:0:
500,232,67990,1,4,0:0:0:0:
308,332,68197,2,0,B|271:339|238:311|238:311|236:318|236:318|208:278|139:291,1,168.75,8|2,0:0|0:0,0:0:0:0:
80,312,68611,6,0,P|32:268|56:184,1,112.5,2|2,0:0|0:0,0:0:0:0:
108,80,69025,2,0,L|128:36,3,33.7500012874604,8|0|0|0,0:0|0:0|0:0|0:0,0:0:0:0:
204,192,69438,2,0,L|224:236,3,33.7500012874604,8|0|0|0,0:0|0:0|0:0|0:0,0:0:0:0:
292,64,69852,2,0,L|324:32,1,33.7500012874604,8|0,0:0|0:0,0:0:0:0:
376,152,70059,2,0,L|432:152,1,33.7500012874604,8|0,0:0|0:0,0:0:0:0:
395,291,70266,6,0,B|353:311|353:311|223:295,1,168.75,4|2,0:0|0:0,0:0:0:0:
232,297,70680,1,2,0:0:0:0:
320,188,70887,1,0,0:0:0:0:
160,380,71094,2,0,P|124:312|208:196,1,225,8|4,0:0|0:0,0:0:0:0:
20,280,71714,1,2,0:0:0:0:
248,364,71921,6,0,B|292:376|292:376|418:338,1,168.75,2|2,0:0|0:0,0:0:0:0:
409,341,72335,1,2,0:0:0:0:
216,276,72542,1,0,0:0:0:0:
460,232,72749,2,0,P|370:171|268:207,1,225,8|4,0:0|0:0,0:0:0:0:
248,364,73369,1,2,0:0:0:0:
68,356,73576,6,0,P|28:300|52:184,1,168.75,2|2,0:0|0:0,0:0:0:0:
104,160,73990,2,0,P|144:112|140:48,1,112.5,2|0,0:0|0:0,0:0:0:0:
116,240,74404,1,8,0:0:0:0:
21,42,74611,1,0,0:0:0:0:
116,240,74818,2,0,B|204:258|204:258|180:220,1,112.5,2|0,0:0|0:0,0:0:0:0:
64,312,75232,6,0,L|240:352,1,168.75,4|0,0:0|0:0,0:0:0:0:
230,340,75645,1,4,0:0:0:0:
304,224,75852,1,2,0:0:0:0:
435,264,76059,1,2,0:0:0:0:
475,226,76163,1,2,0:0:0:0:
485,171,76266,1,2,0:0:0:0:
461,122,76369,1,2,0:0:0:0:
412,96,76473,1,10,0:0:0:0:
256,28,76680,1,0,0:0:0:0:
256,28,76783,1,0,0:0:0:0:
256,28,76887,6,0,P|212:108|248:172,1,168.75,4|2,0:0|0:0,0:0:0:0:
412,96,77300,2,0,L|299:102,1,112.5,8|0,0:0|0:0,0:0:0:0:
240,308,77714,1,2,0:0:0:0:
332,200,77921,1,2,0:0:0:0:
148,200,78128,1,8,0:0:0:0:
356,88,78335,6,0,P|412:120|396:292,1,225,4|2,0:0|0:0,0:0:0:0:
392,284,78852,1,2,0:0:0:0:
392,284,78956,1,8,0:0:0:0:
240,176,79163,1,0,0:0:0:0:
180,324,79369,1,2,0:0:0:0:
164,300,79473,1,2,0:0:0:0:
148,277,79576,1,2,0:0:0:0:
132,254,79680,1,2,0:0:0:0:
116,230,79783,1,8,0:0:0:0:
216,64,79990,2,0,L|164:100,1,56.25,2|0,0:0|0:0,0:0:0:0:
308,68,80197,5,4,0:0:0:0:
248,240,80404,2,0,L|308:204,1,56.25
236,316,80611,1,8,0:0:0:0:
340,16,80818,1,0,0:0:0:0:
404,248,81025,1,4,0:0:0:0:
412,56,81232,2,0,L|448:116,1,56.25
340,16,81438,1,8,0:0:0:0:
312,224,81645,1,0,0:0:0:0:
152,16,81852,5,4,0:0:0:0:
232,196,82059,2,0,L|196:136,1,56.25
312,224,82266,1,8,0:0:0:0:
64,148,82473,1,0,0:0:0:0:
280,124,82680,1,4,0:0:0:0:
96,36,82887,2,0,L|163:52,1,56.25
20,64,83094,1,8,0:0:0:0:
312,20,83300,1,0,0:0:0:0:
251,270,83507,6,0,P|231:222|283:122,1,168.75,4|2,0:0|0:0,0:0:0:0:
316,328,83921,2,0,P|255:356|200:336,1,112.5,8|0,0:0|0:0,0:0:0:0:
360,216,84335,1,2,0:0:0:0:
451,304,84542,1,2,0:0:0:0:
456,104,84749,1,8,0:0:0:0:
316,328,84956,6,0,P|240:344|144:240,1,225,4|2,0:0|0:0,0:0:0:0:
204,56,85576,1,8,0:0:0:0:
96,124,85783,1,2,0:0:0:0:
256,228,85990,1,2,0:0:0:0:
352,52,86197,2,0,L|300:88,1,56.25,2|0,0:0|0:0,0:0:0:0:
465,180,86404,2,0,L|512:148,1,56.25,8|0,0:0|0:0,0:0:0:0:
302,195,86611,2,0,L|250:231,1,56.25,4|0,0:0|0:0,0:0:0:0:
438,315,86818,5,4,0:0:0:0:
438,315,87025,2,0,B|444:283|444:283|432:259,1,56.25,2|0,0:0|0:0,0:0:0:0:
251,173,87232,2,0,B|245:205|245:205|257:229,1,56.25,2|0,0:0|0:0,0:0:0:0:
326,325,87438,1,4,0:0:0:0:
326,325,87645,2,0,B|332:293|332:293|320:269,1,56.25,2|0,0:0|0:0,0:0:0:0:
126,188,87852,2,0,B|119:219|119:219|131:243,1,56.25,2|0,0:0|0:0,0:0:0:0:
184,336,88059,1,4,0:0:0:0:
214,76,88266,1,4,0:0:0:0:
380,220,88473,6,0,B|348:226|348:226|324:214,1,56.25,2|0,0:0|0:0,0:0:0:0:
214,76,88680,2,0,B|246:70|246:70|270:82,1,56.25,2|0,0:0|0:0,0:0:0:0:
200,308,88887,1,4,0:0:0:0:
392,208,89094,2,0,B|360:214|360:214|336:202,1,56.25,2|0,0:0|0:0,0:0:0:0:
226,64,89300,2,0,B|258:58|258:58|282:70,1,56.25,2|0,0:0|0:0,0:0:0:0:
172,212,89507,1,2,0:0:0:0:
144,208,89611,1,2,0:0:0:0:
118,196,89714,1,2,0:0:0:0:
97,178,89818,1,2,0:0:0:0:
82,154,89921,1,2,0:0:0:0:
74,127,90025,1,2,0:0:0:0:
72,100,90128,6,0,P|28:109|3:134,2,75,2|2|2,0:0|0:0|0:0,0:0:0:0:
104,112,90542,5,2,0:0:0:0:
8,16,90749,1,2,0:0:0:0:
320,76,90956,1,8,0:0:0:0:
344,88,91369,1,0,0:0:0:0:
368,104,91783,6,0,L|360:224,1,114.750002188683,2|2,0:0|0:0,0:0:0:0:
360,218,92197,1,2,0:0:0:0:
485,153,92404,1,2,0:0:0:0:
352,368,92611,1,8,0:0:0:0:
132,72,93025,5,4,0:0:0:0:
132,72,93438,6,0,L|124:196,1,114.750002188683,2|2,0:0|0:0,0:0:0:0:
124,186,93852,1,2,0:0:0:0:
19,112,94059,1,2,0:0:0:0:
104,308,94266,2,0,L|192:312,1,76.5000014591217,8|0,0:0|0:0,0:0:0:0:
244,152,94680,1,0,0:0:0:0:
144,224,94887,2,0,L|196:232,1,38.2500007295609,2|2,0:0|0:0,0:0:0:0:
348,256,95094,5,2,0:0:0:0:
328,48,95300,2,0,L|296:88,1,38.2500007295609,2|2,0:0|0:0,0:0:0:0:
296,96,95507,2,0,L|400:96,1,76.5000014591217,2|2,0:0|0:0,0:0:0:0:
460,224,95921,1,8,0:0:0:0:
467,251,96025,1,2,0:0:0:0:
466,280,96128,1,2,0:0:0:0:
455,306,96232,1,2,0:0:0:0:
420,328,96335,1,8,0:0:0:0:
402,321,96438,1,2,0:0:0:0:
387,309,96542,1,0,0:0:0:0:
378,292,96645,1,2,0:0:0:0:
356,256,96749,6,0,P|287:234|195:255,1,153.000002918243,4|2,0:0|0:0,0:0:0:0:
200,116,97369,1,2,0:0:0:0:
408,112,97576,2,0,P|343:74|292:96,1,114.750002188683,8|2,0:0|0:0,0:0:0:0:
288,104,97990,1,2,0:0:0:0:
492,136,98197,1,2,0:0:0:0:
420,320,98404,6,0,P|356:312|312:348,1,114.750002188683,8|2,0:0|0:0,0:0:0:0:
300,368,98818,2,0,L|212:348,1,76.5000014591217,2|2,0:0|0:0,0:0:0:0:
84,320,99232,1,8,0:0:0:0:
256,56,99645,5,4,0:0:0:0:
256,56,100059,2,0,P|240:100|292:192,1,153.000002918243,4|2,0:0|0:0,0:0:0:0:
400,264,100680,1,2,0:0:0:0:
300,312,100887,2,0,L|124:304,1,153.000002918243,8|2,0:0|0:0,0:0:0:0:
64,96,101714,5,8,0:0:0:0:
78,98,101818,1,2,0:0:0:0:
92,98,101921,1,2,0:0:0:0:
106,97,102025,1,2,0:0:0:0:
119,92,102128,1,8,0:0:0:0:
132,85,102232,1,2,0:0:0:0:
143,76,102335,1,2,0:0:0:0:
152,65,102438,1,2,0:0:0:0:
159,52,102542,5,8,0:0:0:0:
214,64,102645,1,2,0:0:0:0:
255,103,102749,1,2,0:0:0:0:
270,158,102852,1,2,0:0:0:0:
254,213,102956,2,0,L|212:258,1,38.2500007295609,8|0,0:0|0:0,0:0:0:0:
42,164,103163,2,0,L|84:119,1,38.2500007295609,8|0,0:0|0:0,0:0:0:0:
101,348,103369,5,4,0:0:0:0:
392,192,108854,5,2,0:0:0:0:
260,252,109197,2,0,L|212:320,1,67.5000025749208,2|0,0:0|0:0,0:0:0:0:
424,100,109883,5,2,0:0:0:0:
200,64,110569,1,0,0:0:0:0:
80,300,111254,5,8,0:0:0:0:
200,64,111597,5,2,0:0:0:0:
344,108,111940,2,0,L|376:176,1,67.5000025749208,2|2,0:0|0:0,0:0:0:0:
100,140,112626,1,2,0:0:0:0:
332,272,113311,1,0,0:0:0:0:
136,256,113654,6,0,L|148:312,1,33.7500012874604,8|2,0:0|0:0,0:0:0:0:
200,184,113826,1,2,0:0:0:0:
200,184,113911,1,0,0:0:0:0:
200,184,113997,2,0,L|212:240,1,33.7500012874604,8|2,0:0|0:0,0:0:0:0:
256,120,114169,1,8,0:0:0:0:
64,344,114340,5,8,0:0:0:0:
396,64,115369,5,8,0:0:0:0:
396,64,115711,5,2,0:0:0:0:
456,140,115883,1,0,0:0:0:0:
436,236,116054,2,0,L|376:312,1,67.5000025749208,8|0,0:0|0:0,0:0:0:0:
160,336,116397,2,0,L|220:260,1,67.5000025749208,2|0,0:0|0:0,0:0:0:0:
408,304,116740,2,0,L|449:251,1,67.5000025749208,8|0,0:0|0:0,0:0:0:0:
215,298,117083,2,0,L|173:350,1,67.5000025749208,2|0,0:0|0:0,0:0:0:0:
472,268,117426,2,0,L|412:344,1,67.5000025749208,8|0,0:0|0:0,0:0:0:0:
192,364,117769,2,0,L|252:288,1,67.5000025749208,2|0,0:0|0:0,0:0:0:0:
460,336,118111,2,0,L|501:283,1,67.5000025749208,8|0,0:0|0:0,0:0:0:0:
456,112,118454,5,2,0:0:0:0:
384,188,118626,1,0,0:0:0:0:
376,44,118797,1,8,0:0:0:0:
308,120,118969,1,0,0:0:0:0:
384,188,119140,1,0,0:0:0:0:
296,232,119311,1,0,0:0:0:0:
420,328,119483,1,8,0:0:0:0:
472,244,119654,1,0,0:0:0:0:
332,356,119826,5,2,0:0:0:0:
252,308,119997,1,2,0:0:0:0:
300,148,120169,1,8,0:0:0:0:
384,188,120340,1,0,0:0:0:0:
200,152,120511,1,2,0:0:0:0:
187,163,120597,1,2,0:0:0:0:
175,175,120683,1,2,0:0:0:0:
163,186,120769,1,2,0:0:0:0:
150,198,120854,1,8,0:0:0:0:
80,80,121026,1,0,0:0:0:0:
20,240,121197,6,0,L|56:324,1,67.5000025749208,2|0,0:0|0:0,0:0:0:0:
244,316,121540,1,8,0:0:0:0:
144,360,121711,1,2,0:0:0:0:
248,200,121883,5,2,0:0:0:0:
244,316,122054,1,2,0:0:0:0:
340,240,122226,1,8,0:0:0:0:
244,316,122397,1,2,0:0:0:0:
248,200,122569,5,2,0:0:0:0:
244,316,122740,1,2,0:0:0:0:
408,192,122911,1,8,0:0:0:0:
244,316,123083,1,2,0:0:0:0:
80,160,123254,2,0,L|100:80,1,67.5000025749208,2|0,0:0|0:0,0:0:0:0:
304,32,123597,2,0,L|288:124,1,67.5000025749208,4|0,0:0|0:0,0:0:0:0:
156,16,123940,5,2,0:0:0:0:
64,40,124111,1,2,0:0:0:0:
28,136,124283,2,0,L|48:232,1,67.5000025749208,8|0,0:0|0:0,0:0:0:0:
272,88,124626,1,2,0:0:0:0:
180,112,124797,1,2,0:0:0:0:
144,208,124969,2,0,L|164:304,1,67.5000025749208,8|0,0:0|0:0,0:0:0:0:
268,344,125311,5,2,0:0:0:0:
352,136,125483,1,2,0:0:0:0:
360,312,125654,1,8,0:0:0:0:
248,176,125826,1,2,0:0:0:0:
440,276,125997,1,2,0:0:0:0:
444,259,126083,1,2,0:0:0:0:
447,242,126169,1,2,0:0:0:0:
450,226,126254,1,2,0:0:0:0:
454,209,126340,2,0,L|432:136,1,67.5000025749208,8|0,0:0|0:0,0:0:0:0:
228,80,126683,6,0,P|240:52|268:28,2,45.0000017166138,4|0|0,0:0|0:0|0:0,0:0:0:0:
248,184,127026,6,0,P|260:212|288:236,2,45.0000017166138
132,84,127369,6,0,P|144:56|172:32,2,45.0000017166138
152,188,127711,6,0,P|164:216|192:240,2,45.0000017166138
256,180,128054,6,0,P|286:179|320:194,1,45.0000017166138,4|0,0:0|0:0,0:0:0:0:
336,200,128283,1,0,0:0:0:0:
352,76,128397,6,0,P|374:96|387:131,1,45.0000017166138
394,146,128626,1,0,0:0:0:0:
492,68,128740,6,0,P|492:98|477:132,1,45.0000017166138
472,147,128969,1,0,0:0:0:0:
432,248,129083,2,0,P|444:276|472:300,2,45.0000017166138
336,200,129426,5,8,0:0:0:0:
331,198,129511,1,2,0:0:0:0:
327,197,129597,1,2,0:0:0:0:
322,195,129683,1,2,0:0:0:0:
319,194,129769,2,0,L|267:186,1,33.7500012874604,8|2,0:0|0:0,0:0:0:0:
228,112,129940,5,8,0:0:0:0:
223,113,130026,1,2,0:0:0:0:
219,114,130111,1,2,0:0:0:0:
214,116,130197,1,2,0:0:0:0:
211,118,130283,2,0,L|159:126,1,33.7500012874604,8|2,0:0|0:0,0:0:0:0:
80,56,130454,5,8,0:0:0:0:
58,100,130540,1,2,0:0:0:0:
68,149,130626,1,2,0:0:0:0:
48,192,130711,1,2,0:0:0:0:
55,242,130797,2,0,L|96:272,1,33.7500012874604,8|2,0:0|0:0,0:0:0:0:
176,352,130969,5,8,0:0:0:0:
181,351,131054,1,2,0:0:0:0:
185,350,131140,1,2,0:0:0:0:
190,348,131226,1,2,0:0:0:0:
193,346,131311,2,0,L|245:338,1,33.7500012874604,8|2,0:0|0:0,0:0:0:0:
372,356,131483,5,8,0:0:0:0:
409,323,131569,1,2,0:0:0:0:
422,275,131654,1,2,0:0:0:0:
406,228,131740,1,2,0:0:0:0:
360,192,131826,1,8,0:0:0:0:
350,205,131911,1,2,0:0:0:0:
345,221,131997,1,2,0:0:0:0:
344,238,132083,1,2,0:0:0:0:
347,255,132169,6,0,L|268:264,1,67.5000025749208,4|0,0:0|0:0,0:0:0:0:
256,108,132511,1,8,0:0:0:0:
248,336,132683,2,0,L|180:312,1,67.5000025749208,2|2,0:0|0:0,0:0:0:0:
360,128,133026,1,2,0:0:0:0:
120,236,133197,1,8,0:0:0:0:
164,108,133369,1,2,0:0:0:0:
248,336,133540,6,0,L|324:336,1,67.5000025749208,12|0,0:0|0:0,0:0:0:0:
268,128,133883,1,2,0:0:0:0:
424,236,134054,1,2,0:0:0:0:
304,20,134226,2,0,L|236:24,1,67.5000025749208,12|0,0:0|0:0,0:0:0:0:
108,168,134569,1,8,0:0:0:0:
192,92,134740,1,0,0:0:0:0:
152,336,134911,5,4,0:0:0:0:
132,240,135254,5,2,0:0:0:0:
152,336,135426,1,2,0:0:0:0:
120,204,135769,5,2,0:0:0:0:
152,336,135940,1,2,0:0:0:0:
108,168,136283,5,2,0:0:0:0:
152,336,136454,1,2,0:0:0:0:
433,92,136797,5,2,0:0:0:0:
476,208,136969,2,0,L|472:292,1,67.5000025749208,8|0,0:0|0:0,0:0:0:0:
304,288,137311,1,2,0:0:0:0:
408,356,137483,1,0,0:0:0:0:
312,156,137654,6,0,L|228:128,1,67.5000025749208,4|0,0:0|0:0,0:0:0:0:
216,280,137997,1,8,0:0:0:0:
240,56,138169,2,0,L|160:60,1,67.5000025749208,2|0,0:0|0:0,0:0:0:0:
320,236,138511,1,2,0:0:0:0:
128,208,138683,1,8,0:0:0:0:
380,148,138854,1,2,0:0:0:0:
112,328,139026,6,0,L|40:284,1,67.5000025749208,12|0,0:0|0:0,0:0:0:0:
404,68,139540,1,2,0:0:0:0:
404,68,139883,1,2,0:0:0:0:
232,36,140054,2,0,L|164:76,1,67.5000025749208,8|0,0:0|0:0,0:0:0:0:
168,268,140397,5,4,0:0:0:0:
200,188,140569,1,2,0:0:0:0:
264,248,140740,1,2,0:0:0:0:
168,268,140911,1,8,0:0:0:0:
280,163,141083,1,2,0:0:0:0:
376,216,141254,5,2,0:0:0:0:
336,228,141340,1,2,0:0:0:0:
296,236,141426,1,8,0:0:0:0:
368,84,141597,1,2,0:0:0:0:
384,304,141769,5,8,0:0:0:0:
280,163,141940,1,2,0:0:0:0:
288,199,142026,1,2,0:0:0:0:
296,236,142111,1,10,0:0:0:0:
440,216,142283,2,0,L|396:264,1,33.7500012874604,2|0,0:0|0:0,0:0:0:0:
284,340,142454,1,8,0:0:0:0:
275,340,142540,1,8,0:0:0:0:
267,341,142626,1,8,0:0:0:0:
258,342,142711,1,8,0:0:0:0:
250,343,142797,6,0,L|210:327,1,33.7500012874604,8|0,0:0|0:0,0:0:0:0:
144,168,142969,2,0,L|176:192,1,33.7500012874604,2|0,0:0|0:0,0:0:0:0:
44,344,143140,5,2,0:0:0:0:
44,344,143826,5,2,0:0:0:0:
366,88,144511,5,8,0:0:0:0:
324,272,144683,2,0,L|284:276,2,33.7500012874604,2|0|0,0:0|0:0|0:0,0:0:0:0:
404,196,145026,1,2,0:0:0:0:
356,364,145197,1,2,0:0:0:0:
480,256,145369,1,2,0:0:0:0:
300,168,145540,1,2,0:0:0:0:
448,344,145711,1,2,0:0:0:0:
172,248,145883,6,0,L|64:248,1,90,4|0,0:0|0:0,0:0:0:0:
240,88,146226,1,8,0:0:0:0:
300,168,146397,1,0,0:0:0:0:
104,148,146569,2,0,L|104:52,1,90
268,256,146911,1,8,0:0:0:0:
172,248,147083,1,0,0:0:0:0:
328,84,147254,5,2,0:0:0:0:
420,232,147426,2,0,L|356:304,1,90,8|0,0:0|0:0,0:0:0:0:
440,36,147769,1,0,0:0:0:0:
440,248,147940,1,8,0:0:0:0:
416,271,148026,1,2,0:0:0:0:
392,295,148111,1,2,0:0:0:0:
368,319,148197,1,2,0:0:0:0:
344,343,148283,2,0,L|244:336,1,90,8|0,0:0|0:0,0:0:0:0:
144,88,148626,6,0,L|240:104,1,90,4|0,0:0|0:0,0:0:0:0:
60,224,148969,1,8,0:0:0:0:
64,120,149140,1,2,0:0:0:0:
156,264,149311,2,0,P|152:328|128:360,1,90,2|0,0:0|0:0,0:0:0:0:
60,112,149654,2,0,P|64:48|88:16,1,90,8|0,0:0|0:0,0:0:0:0:
266,108,149997,5,2,0:0:0:0:
239,86,150083,1,2,0:0:0:0:
208,75,150169,1,2,0:0:0:0:
174,75,150254,1,2,0:0:0:0:
143,87,150340,1,10,0:0:0:0:
284,276,150511,2,0,P|276:300|244:340,2,45,0|0|8,0:0|0:0|0:0,0:0:0:0:
196,180,150854,1,2,0:0:0:0:
404,288,151026,2,0,L|508:284,1,90,12|0,0:0|0:0,0:0:0:0:
328,82,151369,6,0,L|224:86,1,90,4|0,0:0|0:0,0:0:0:0:
120,280,151711,1,8,0:0:0:0:
144,148,151883,1,2,0:0:0:0:
264,336,152054,2,0,P|288:284|280:232,1,90,2|0,0:0|0:0,0:0:0:0:
76,76,152397,2,0,P|52:128|60:180,1,90,8|0,0:0|0:0,0:0:0:0:
280,112,152740,5,2,0:0:0:0:
188,24,152911,1,2,0:0:0:0:
208,212,153083,1,8,0:0:0:0:
280,20,153254,1,0,0:0:0:0:
80,156,153426,5,10,0:0:0:0:
60,129,153511,1,2,0:0:0:0:
51,95,153597,1,2,0:0:0:0:
53,63,153683,1,2,0:0:0:0:
67,32,153769,1,8,0:0:0:0:
280,20,153940,1,2,0:0:0:0:
348,200,154111,5,10,0:0:0:0:
327,226,154197,1,2,0:0:0:0:
296,243,154283,1,2,0:0:0:0:
265,250,154369,1,2,0:0:0:0:
231,244,154454,2,0,L|216:144,1,90,10|2,0:0|0:0,0:0:0:0:
152,112,154711,1,0,0:0:0:0:
136,108,154797,2,0,L|132:232,1,90,10|0,0:0|0:0,0:0:0:0:
68,240,155054,1,0,0:0:0:0:
56,248,155140,2,0,L|52:124,1,90,10|0,0:0|0:0,0:0:0:0:
48,80,155397,1,2,0:0:0:0:
56,68,155483,6,2,L|116:44,1,45,10|2,0:0|0:0,0:0:0:0:
280,56,155654,2,0,L|220:80,1,45,2|2,0:0|0:0,0:0:0:0:
136,208,155826,6,0,L|196:184,1,45,10|2,0:0|0:0,0:0:0:0:
368,204,155997,2,0,L|308:228,1,45,2|2,0:0|0:0,0:0:0:0:
452,16,156169,1,8,0:0:0:0:
485,45,156254,1,2,0:0:0:0:
503,86,156340,1,2,0:0:0:0:
499,130,156426,1,2,0:0:0:0:
456,176,156511,1,10,0:0:0:0:
435,215,156597,1,2,0:0:0:0:
432,260,156683,1,2,0:0:0:0:
449,301,156769,1,2,0:0:0:0:
508,240,156854,6,0,P|436:224|376:256,1,135.000005149842,4|2,0:0|0:0,0:0:0:0:
172,352,157540,2,0,P|204:280|176:208,1,135.000005149842,4|2,0:0|0:0,0:0:0:0:
124,160,158054,1,2,0:0:0:0:
312,348,158226,5,6,0:0:0:0:
100,260,158569,1,2,0:0:0:0:
468,28,158911,2,0,P|496:88|464:168,1,135.000005149842,4|2,0:0|0:0,0:0:0:0:
478,151,159597,6,2,L|314:143,1,135.000005149842,6|2,0:0|0:0,0:0:0:0:
268,204,160111,1,2,0:0:0:0:
272,312,160283,2,0,P|320:360|388:360,1,135.000005149842,4|2,0:0|0:0,0:0:0:0:
460,288,160797,1,2,0:0:0:0:
452,184,160969,6,0,L|392:56,2,135.000005149842,4|2|4,0:0|0:0|0:0,0:0:0:0:
463,353,161826,2,0,P|455:313|464:274,1,67.5000025749208,2|8,0:0|0:0,0:0:0:0:
459,287,162340,6,0,P|388:288|307:243,1,135.000005149842,4|2,0:0|0:0,0:0:0:0:
164,80,163026,2,0,P|196:152|168:224,1,135.000005149842,4|2,0:0|0:0,0:0:0:0:
116,272,163540,1,2,0:0:0:0:
304,84,163711,5,4,0:0:0:0:
100,188,164054,1,2,0:0:0:0:
472,344,164397,1,12,0:0:0:0:
444,64,164740,1,2,0:0:0:0:
444,64,165083,6,0,P|463:140|440:200,1,135.000005149842,4|2,0:0|0:0,0:0:0:0:
376,256,165597,1,2,0:0:0:0:
276,256,165769,2,0,L|144:200,1,135.000005149842,4|2,0:0|0:0,0:0:0:0:
151,203,166283,1,2,0:0:0:0:
304,348,166454,5,4,0:0:0:0:
456,304,166797,1,2,0:0:0:0:
204,340,167140,2,0,L|116:296,1,67.5000025749208,8|2,0:0|0:0,0:0:0:0:
48,176,167483,1,8,0:0:0:0:
48,159,167569,1,8,0:0:0:0:
48,142,167654,1,8,0:0:0:0:
48,125,167740,1,8,0:0:0:0:
48,108,167826,6,0,P|83:76|148:60,1,90,6|0,0:0|0:0,0:0:0:0:
280,176,168169,1,8,0:0:0:0:
244,56,168340,1,2,0:0:0:0:
176,240,168511,2,0,P|176:288|204:336,1,90,2|0,0:0|0:0,0:0:0:0:
367,172,168854,2,0,P|327:164|271:180,1,90,8|0,0:0|0:0,0:0:0:0:
376,360,169197,5,2,0:0:0:0:
468,264,169369,1,2,0:0:0:0:
264,264,169540,1,8,0:0:0:0:
472,156,169711,2,0,P|456:80|352:48,1,180,2|2,0:0|0:0,0:0:0:0:
391,127,170140,1,2,0:0:0:0:
391,127,170226,2,0,L|324:188,1,90,8|0,0:0|0:0,0:0:0:0:
212,100,170569,6,0,L|96:96,1,90,2|0,0:0|0:0,0:0:0:0:
232,312,170911,2,0,L|336:312,1,90,8|0,0:0|0:0,0:0:0:0:
112,224,171254,1,2,0:0:0:0:
120,356,171426,1,2,0:0:0:0:
192,168,171597,1,8,0:0:0:0:
48,152,171769,6,0,P|16:211|54:309,1,180,4|0,0:0|0:0,0:0:0:0:
120,356,172197,1,2,0:0:0:0:
120,356,172283,2,0,L|224:360,1,90,8|0,0:0|0:0,0:0:0:0:
380,176,172626,5,8,0:0:0:0:
400,340,172797,1,2,0:0:0:0:
264,104,172969,5,8,0:0:0:0:
244,268,173140,1,2,0:0:0:0:
496,256,173311,6,0,L|468:128,1,90,4|0,0:0|0:0,0:0:0:0:
264,104,173654,2,0,L|292:232,1,90,8|0,0:0|0:0,0:0:0:0:
476,60,173997,2,0,L|348:88,1,90,2|0,0:0|0:0,0:0:0:0:
256,292,174340,2,0,L|384:264,1,90,8|0,0:0|0:0,0:0:0:0:
316,28,174683,5,2,0:0:0:0:
196,48,174854,1,2,0:0:0:0:
344,184,175026,1,8,0:0:0:0:
178,208,175197,2,0,P|154:116|214:36,1,180,2|0,0:0|0:0,0:0:0:0:
248,136,175626,1,2,0:0:0:0:
248,136,175711,2,0,L|152:120,1,90,8|0,0:0|0:0,0:0:0:0:
24,296,176054,5,8,0:0:0:0:
88,220,176226,1,2,0:0:0:0:
148,300,176397,1,8,0:0:0:0:
212,224,176569,1,2,0:0:0:0:
268,308,176740,1,8,0:0:0:0:
328,156,176911,1,2,0:0:0:0:
392,312,177083,1,8,0:0:0:0:
480,132,177254,1,4,0:0:0:0:
480,240,177426,6,0,L|504:292,1,45,8|2,0:0|0:0,0:0:0:0:
392,120,177597,2,0,L|416:68,1,45,8|2,0:0|0:0,0:0:0:0:
373,271,177769,2,0,L|397:323,1,45,8|2,0:0|0:0,0:0:0:0:
285,151,177940,2,0,L|309:99,1,45,8|2,0:0|0:0,0:0:0:0:
220,296,178111,1,8,0:0:0:0:
189,263,178197,1,2,0:0:0:0:
147,250,178283,1,2,0:0:0:0:
104,260,178369,1,2,0:0:0:0:
72,291,178454,2,0,L|72:179,1,90,4|0,0:0|0:0,0:0:0:0:
176,32,178797,6,0,L|228:52,3,38.2500007295609,2|0|0|0,0:0|0:0|0:0|0:0,0:0:0:0:
224,160,179140,2,0,L|188:146,1,38.2500007295609,8|0,0:0|0:0,0:0:0:0:
328,100,179311,2,0,L|363:113,1,38.2500007295609
376,228,179483,2,0,L|340:214,3,38.2500007295609
456,160,179826,2,0,L|491:173,3,38.2500007295609,8|0|0|0,0:0|0:0|0:0|0:0,0:0:0:0:
436,344,180169,6,0,L|400:330,3,38.2500007295609
340,214,180511,2,0,L|376:228,1,38.2500007295609,8|0,0:0|0:0,0:0:0:0:
232,252,180683,2,0,L|196:238,1,38.2500007295609
268,360,180854,2,0,L|303:373,3,38.2500007295609
144,352,181197,2,0,L|108:365,3,38.2500007295609,8|0|0|0,0:0|0:0|0:0|0:0,0:0:0:0:
44,244,181540,6,0,L|79:230,3,38.2500007295609
140,116,181883,2,0,L|104:129,1,38.2500007295609,8|0,0:0|0:0,0:0:0:0:
256,156,182054,2,0,L|291:142,1,38.2500007295609
180,224,182226,2,0,L|204:288,1,38.2500007295609
216,80,182397,2,0,L|192:16,1,38.2500007295609
360,192,182569,2,0,L|380:248,1,38.2500007295609,8|0,0:0|0:0,0:0:0:0:
448,76,182740,2,0,L|428:20,1,38.2500007295609
468,296,182911,6,0,L|516:304,7,38.2500007295609,2|0|0|0|0|0|0|0,0:0|0:0|0:0|0:0|0:0|0:0|0:0|0:0,0:0:0:0:
380,348,183597,2,0,P|324:336|280:364,1,76.5000014591217,4|0,0:0|0:0,0:0:0:0:
296,304,183854,2,0,P|240:316|192:296,1,76.5000014591217,4|0,0:0|0:0,0:0:0:0:
200,348,184111,1,4,0:0:0:0:
64,288,184283,5,8,0:0:0:0:
67,269,184369,1,2,0:0:0:0:
71,250,184454,1,2,0:0:0:0:
75,231,184540,1,2,0:0:0:0:
104,212,184626,1,8,0:0:0:0:
107,193,184711,1,2,0:0:0:0:
111,174,184797,1,2,0:0:0:0:
115,155,184883,1,2,0:0:0:0:
140,132,184969,2,0,L|148:88,3,38.2500007295609,8|2|2|2,0:0|0:0|0:0|0:0,0:0:0:0:
184,268,185311,2,0,L|192:312,3,38.2500007295609,8|2|2|2,0:0|0:0|0:0|0:0,0:0:0:0:
296,328,185654,5,8,0:0:0:0:
314,306,185740,1,2,0:0:0:0:
340,295,185826,1,2,0:0:0:0:
368,297,185911,1,2,0:0:0:0:
393,311,185997,1,8,0:0:0:0:
385,273,186083,1,2,0:0:0:0:
385,235,186169,1,2,0:0:0:0:
392,197,186254,1,2,0:0:0:0:
406,162,186340,5,8,0:0:0:0:
440,133,186426,1,2,0:0:0:0:
476,160,186511,1,2,0:0:0:0:
448,196,186597,1,2,0:0:0:0:
406,162,186683,1,8,0:0:0:0:
374,140,186769,1,2,0:0:0:0:
338,130,186854,1,2,0:0:0:0:
300,133,186940,1,2,0:0:0:0:
265,148,187026,1,4,0:0:0:0:
152,308,187369,1,0,0:0:0:0:
308,352,187540,1,0,0:0:0:0:
308,352,187711,2,0,P|344:328|360:272,1,99.0000030212403
316,192,188226,1,0,0:0:0:0:
168,176,188397,6,0,L|220:216,5,51.0000009727478
80,224,189083,1,0,0:0:0:0:
115,188,189197,1,0,0:0:0:0:
129,139,189311,1,0,0:0:0:0:
119,90,189426,2,0,L|60:40,1,51.0000009727478
200,56,189654,1,0,0:0:0:0:
244,132,189769,6,0,L|324:144,1,60,4|0,0:0|0:0,0:0:0:0:
404,60,189997,1,2,0:0:0:0:
404,60,190111,2,0,P|389:126|400:156,2,60,8|0|0,0:0|0:0|0:0,0:0:0:0:
480,200,190454,2,0,P|418:195|372:232,1,120,2|0,0:0|0:0,0:0:0:0:
328,360,190797,2,0,P|352:330|364:288,1,60,8|0,0:0|0:0,0:0:0:0:
296,252,191026,1,0,0:0:0:0:
208,252,191140,6,0,P|185:306|198:364,1,120,2|0,0:0|0:0,0:0:0:0:
295,251,191483,2,0,P|297:221|290:193,2,60,8|0|0,0:0|0:0|0:0,0:0:0:0:
204,156,191826,2,0,P|224:96|304:68,1,120,2|0,0:0|0:0,0:0:0:0:
445,90,192169,1,8,0:0:0:0:
461,114,192283,1,0,0:0:0:0:
467,143,192397,1,0,0:0:0:0:
462,173,192511,6,0,L|370:269,1,120,2|0,0:0|0:0,0:0:0:0:
384,370,192854,2,0,L|480:274,1,120,8|0,0:0|0:0,0:0:0:0:
376,174,193197,2,0,P|319:202|296:275,1,120,2|0,0:0|0:0,0:0:0:0:
252,382,193540,2,0,P|276:364|290:338,2,60,8|0|0,0:0|0:0|0:0,0:0:0:0:
92,324,193883,6,0,L|76:240,1,60,8|0,0:0|0:0,0:0:0:0:
144,184,194111,1,2,0:0:0:0:
60,308,194226,6,0,L|44:224,1,60,8|0,0:0|0:0,0:0:0:0:
112,168,194454,1,2,0:0:0:0:
28,288,194569,6,0,L|24:224,1,60,8|0,0:0|0:0,0:0:0:0:
48,104,194797,1,2,0:0:0:0:
144,184,194911,2,0,L|218:161,1,60,8|0,0:0|0:0,0:0:0:0:
264,56,195140,1,2,0:0:0:0:
312,176,195254,6,0,L|336:256,1,60,4|0,0:0|0:0,0:0:0:0:
384,112,195483,1,2,0:0:0:0:
384,112,195597,2,0,L|408:192,1,60,8|0,0:0|0:0,0:0:0:0:
264,56,195826,1,2,0:0:0:0:
204,104,195940,2,0,P|144:116|68:80,1,120,2|0,0:0|0:0,0:0:0:0:
24,188,196283,2,0,P|52:184|96:192,2,60,8|0|0,0:0|0:0|0:0,0:0:0:0:
112,336,196626,6,0,P|120:269|188:216,1,120,2|0,0:0|0:0,0:0:0:0:
252,136,196969,2,0,P|240:172|208:204,2,60,8|0|0,0:0|0:0|0:0,0:0:0:0:
344,48,197311,2,0,P|340:112|384:160,1,120,2|0,0:0|0:0,0:0:0:0:
476,192,197654,2,0,P|480:160|508:120,2,60,8|0|0,0:0|0:0|0:0,0:0:0:0:
408,352,197997,6,0,P|411:284|352:223,1,120,2|0,0:0|0:0,0:0:0:0:
272,172,198340,2,0,P|292:200|320:212,2,60,8|0|0,0:0|0:0|0:0,0:0:0:0:
280,32,198683,2,0,P|344:48|384:108,1,120,2|0,0:0|0:0,0:0:0:0:
220,96,199026,2,0,L|144:100,2,60,8|0|0,0:0|0:0|0:0,0:0:0:0:
288,176,199369,5,8,0:0:0:0:
300,216,199483,1,0,0:0:0:0:
284,255,199597,1,2,0:0:0:0:
316,184,199711,5,8,0:0:0:0:
328,224,199826,1,0,0:0:0:0:
312,264,199940,1,2,0:0:0:0:
232,320,200054,5,8,0:0:0:0:
183,305,200169,1,0,0:0:0:0:
135,324,200283,1,2,0:0:0:0:
68,384,200397,2,0,L|52:304,1,60,8|0,0:0|0:0,0:0:0:0:
128,244,200626,2,0,L|144:164,1,60,8|4,0:0|0:0,0:0:0:0:
140,184,201083,6,0,L|208:156,1,60,2|0,0:0|0:0,0:0:0:0:
456,36,201426,1,8,0:0:0:0:
296,24,201654,1,2,0:0:0:0:
472,40,201883,1,2,0:0:0:0:
400,328,202111,5,4,0:0:0:0:
400,328,202454,2,0,L|332:300,1,60,2|0,0:0|0:0,0:0:0:0:
84,180,202797,1,8,0:0:0:0:
244,168,203026,1,2,0:0:0:0:
68,184,203254,1,2,0:0:0:0:
304,23,203483,5,2,0:0:0:0:
334,55,203597,1,2,0:0:0:0:
345,98,203711,1,2,0:0:0:0:
334,141,203826,1,2,0:0:0:0:
303,172,203940,2,0,L|227:166,1,60,2|0,0:0|0:0,0:0:0:0:
20,28,204169,5,4,0:0:0:0:
20,128,204397,1,2,0:0:0:0:
24,228,204626,1,2,0:0:0:0:
284,296,204854,2,0,P|232:268|112:320,1,180,2|0,0:0|0:0,0:0:0:0:
123,304,205311,1,2,0:0:0:0:
412,340,205540,5,4,0:0:0:0:
412,240,205769,1,2,0:0:0:0:
416,140,205997,1,2,0:0:0:0:
216,64,206226,6,0,L|200:152,1,60,8|0,0:0|0:0,0:0:0:0:
296,24,206454,1,2,0:0:0:0:
240,88,206569,2,0,L|224:176,1,60,8|0,0:0|0:0,0:0:0:0:
320,48,206797,1,2,0:0:0:0:
264,120,206911,2,0,L|248:208,1,60,8|0,0:0|0:0,0:0:0:0:
344,80,207140,1,2,0:0:0:0:
420,88,207254,1,10,0:0:0:0:
472,144,207369,1,2,0:0:0:0:
480,220,207483,1,2,0:0:0:0:
440,284,207597,6,0,L|400:328,2,60,8|0|0,0:0|0:0|0:0,0:0:0:0:
304,328,207940,2,0,L|264:284,2,60,8|0|0,0:0|0:0|0:0,0:0:0:0:
180,280,208283,2,0,L|140:324,2,60,8|0|0,0:0|0:0|0:0,0:0:0:0:
48,316,208626,2,0,L|8:252,1,60,8|0,0:0|0:0,0:0:0:0:
12,168,208854,1,0,0:0:0:0:
100,192,208969,1,4,0:0:0:0:
440,56,209654,6,0,L|456:136,1,60,2|0,0:0|0:0,0:0:0:0:
352,174,209883,2,0,L|364:116,1,60,2|0,0:0|0:0,0:0:0:0:
445,226,210111,2,0,L|425:305,1,60,2|0,0:0|0:0,0:0:0:0:
348,336,210340,6,0,P|312:324|268:332,1,60,4|0,0:0|0:0,0:0:0:0:
108,328,210569,1,2,0:0:0:0:
108,328,210683,2,0,P|160:356|220:336,1,120,8|0,0:0|0:0,0:0:0:0:
236,144,211026,2,0,P|220:208|248:272,1,120,2|0,0:0|0:0,0:0:0:0:
360,192,211369,2,0,P|328:192|284:204,2,60,8|0|0,0:0|0:0|0:0,0:0:0:0:
448,296,211711,6,0,P|432:236|472:172,1,120,2|0,0:0|0:0,0:0:0:0:
496,68,212054,2,0,L|436:24,1,60,8|0,0:0|0:0,0:0:0:0:
352,40,212283,1,2,0:0:0:0:
352,40,212397,2,0,L|292:84,1,60,8|0,0:0|0:0,0:0:0:0:
203,80,212626,1,2,0:0:0:0:
203,80,212740,2,0,L|143:36,1,60,8|0,0:0|0:0,0:0:0:0:
56,32,212969,1,2,0:0:0:0:
16,100,213083,6,0,P|29:166|76:203,1,120,4|0,0:0|0:0,0:0:0:0:
192,248,213426,1,8,0:0:0:0:
192,248,213540,2,0,P|160:220|97:212,1,60
196,328,213769,2,0,P|252:344|306:322,1,120,2|0,0:0|0:0,0:0:0:0:
344,180,214111,1,8,0:0:0:0:
344,180,214226,2,0,P|339:221|369:277,1,60
504,108,214454,6,0,P|432:96|352:144,1,120,2|0,0:0|0:0,0:0:0:0:
448,244,214797,2,0,P|452:214|447:185,1,60,8|0,0:0|0:0,0:0:0:0:
304,32,215026,1,0,0:0:0:0:
304,32,215140,2,0,P|299:61|304:90,1,60,8|0,0:0|0:0,0:0:0:0:
200,212,215369,1,0,0:0:0:0:
200,212,215483,2,0,P|204:182|199:153,2,60,8|0|0,0:0|0:0|0:0,0:0:0:0:
106,80,215826,6,0,P|194:40|309:96,1,225.000008583069,4|0,0:0|0:0,0:0:0:0:
316,116,216511,1,4,0:0:0:0:
440,88,216740,1,4,0:0:0:0:
452,280,216969,1,4,0:0:0:0:
452,280,217197,6,0,P|354:229|204:288,1,270.000010299683,4|4,0:0|0:0,0:0:0:0:
145,21,218226,1,2,0:0:0:0:
50,269,218569,6,0,P|13:172|73:48,1,225.000008583069,4|0,0:0|0:0,0:0:0:0:
80,48,219254,1,4,0:0:0:0:
208,12,219483,1,4,0:0:0:0:
244,208,219711,1,4,0:0:0:0:
368,16,219940,6,0,P|428:44|452:236,1,270.000010299683,4|4,0:0|0:0,0:0:0:0:
88,312,221140,6,0,L|160:312,2,45,0|0|2,0:0|0:0|0:0,0:0:0:0:
296,56,221880,1,0,0:0:0:0:
296,56,221975,1,0,0:0:0:0:
296,56,222070,2,0,P|280:120|364:204,1,180,8|0,0:0|0:0,0:0:0:0:
60,48,222829,5,4,0:0:0:0:
192,312,223399,1,0,0:0:0:0:
192,312,223494,1,0,0:0:0:0:
192,312,223589,2,0,L|228:112,1,180,8|0,0:0|0:0,0:0:0:0:
223,134,224348,5,8,0:0:0:0:
308,84,224538,1,0,0:0:0:0:
296,272,224728,1,0,0:0:0:0:
228,48,224918,1,8,0:0:0:0:
424,160,225108,1,0,0:0:0:0:
223,134,225298,1,0,0:0:0:0:
400,68,225488,1,8,0:0:0:0:
380,320,225678,1,0,0:0:0:0:
112,220,225867,5,8,0:0:0:0:
132,227,225962,1,2,0:0:0:0:
148,244,226057,1,2,0:0:0:0:
154,265,226152,1,2,0:0:0:0:
151,287,226247,2,0,L|112:328,1,45,2|0,0:0|0:0,0:0:0:0:
32,96,226437,1,8,0:0:0:0:
62,63,226532,1,2,0:0:0:0:
104,48,226627,1,2,0:0:0:0:
148,54,226722,1,2,0:0:0:0:
184,80,226817,2,0,L|204:128,1,45
240,368,227007,1,8,0:0:0:0:
240,368,227386,6,0,P|276:320|260:264,1,112.5,2|0,0:0|0:0,0:0:0:0:
92,352,227766,1,8,0:0:0:0:
156,240,227956,1,0,0:0:0:0:
328,372,228146,2,0,L|384:372,1,56.25,2|0,0:0|0:0,0:0:0:0:
456,304,228336,1,2,0:0:0:0:
240,368,228526,2,0,P|252:312|304:280,1,112.5,8|0,0:0|0:0,0:0:0:0:
372,288,228811,1,0,0:0:0:0:
372,288,228905,6,0,L|388:164,1,112.5,2|0,0:0|0:0,0:0:0:0:
224,48,229285,1,8,0:0:0:0:
352,56,229475,1,0,0:0:0:0:
168,156,229665,2,0,L|108:136,2,56.25,2|0|2,0:0|0:0|0:0,0:0:0:0:
455,66,230045,2,0,P|391:42|335:70,1,112.5,8|0,0:0|0:0,0:0:0:0:
366,222,230424,5,8,0:0:0:0:
366,194,230519,1,0,0:0:0:0:
348,174,230614,1,0,0:0:0:0:
321,171,230709,1,0,0:0:0:0:
299,188,230804,1,0,0:0:0:0:
342,198,230899,1,0,0:0:0:0:
380,176,230994,1,8,0:0:0:0:
392,134,231089,1,0,0:0:0:0:
372,95,231184,1,0,0:0:0:0:
324,66,231279,1,0,0:0:0:0:
269,68,231374,1,0,0:0:0:0:
233,117,231469,1,0,0:0:0:0:
204,182,231564,1,8,0:0:0:0:
138,205,231659,1,0,0:0:0:0:
72,186,231754,1,0,0:0:0:0:
27,134,231848,1,0,0:0:0:0:
22,65,231943,6,0,L|95:44,1,56.25,8|0,0:0|0:0,0:0:0:0:
233,117,232133,2,0,L|212:44,1,56.25,2|0,0:0|0:0,0:0:0:0:
138,205,232323,2,0,L|159:278,1,56.25,2|0,0:0|0:0,0:0:0:0:
353,227,232513,1,8,0:0:0:0:
362,172,232608,1,2,0:0:0:0:
336,124,232703,1,2,0:0:0:0:
286,102,232798,1,2,0:0:0:0:
233,117,232893,2,0,L|175:157,1,56.25,2|0,0:0|0:0,0:0:0:0:
88,289,233083,1,8,0:0:0:0:
384,380,233273,1,4,0:0:0:0:
384,380,233462,5,2,0:0:0:0:
372,372,233557,1,0,0:0:0:0:
359,366,233652,1,8,0:0:0:0:
345,362,233747,1,0,0:0:0:0:
332,359,233842,1,0,0:0:0:0:
318,359,233937,1,0,0:0:0:0:
304,360,234032,1,8,0:0:0:0:
290,363,234127,1,0,0:0:0:0:
277,368,234222,5,0,0:0:0:0:
298,356,234316,1,0,0:0:0:0:
314,337,234411,1,8,0:0:0:0:
324,316,234506,1,0,0:0:0:0:
326,292,234601,1,0,0:0:0:0:
322,268,234696,1,0,0:0:0:0:
311,247,234791,1,8,0:0:0:0:
295,230,234886,1,0,0:0:0:0:
277,216,234981,5,0,0:0:0:0:
323,247,235076,1,0,0:0:0:0:
378,249,235171,1,8,0:0:0:0:
426,221,235266,1,0,0:0:0:0:
453,173,235361,1,0,0:0:0:0:
450,117,235456,1,0,0:0:0:0:
419,71,235551,1,8,0:0:0:0:
368,49,235646,1,0,0:0:0:0:
314,64,235741,5,0,0:0:0:0:
309,77,235836,1,0,0:0:0:0:
305,90,235931,1,8,0:0:0:0:
300,104,236026,1,0,0:0:0:0:
296,117,236121,1,0,0:0:0:0:
291,130,236216,1,0,0:0:0:0:
287,144,236311,1,8,0:0:0:0:
282,157,236405,1,0,0:0:0:0:
278,170,236500,5,0,0:0:0:0:
250,198,236595,1,0,0:0:0:0:
211,201,236690,1,8,0:0:0:0:
179,179,236785,1,0,0:0:0:0:
169,141,236880,1,0,0:0:0:0:
186,105,236975,1,0,0:0:0:0:
226,98,237070,1,8,0:0:0:0:
269,133,237165,1,0,0:0:0:0:
290,184,237260,1,0,0:0:0:0:
329,222,237355,1,0,0:0:0:0:
384,232,237450,1,8,0:0:0:0:
434,210,237545,1,0,0:0:0:0:
463,163,237640,1,0,0:0:0:0:
461,108,237735,1,0,0:0:0:0:
428,63,237829,2,0,L|361:49,1,56.25,8|0,0:0|0:0,0:0:0:0:
254,96,238019,5,0,0:0:0:0:
309,99,238114,1,0,0:0:0:0:
352,134,238209,1,8,0:0:0:0:
369,186,238304,1,0,0:0:0:0:
354,239,238399,1,0,0:0:0:0:
311,275,238494,1,0,0:0:0:0:
255,280,238589,2,0,L|175:264,1,56.25,8|0,0:0|0:0,0:0:0:0:
110,159,238779,5,0,0:0:0:0:
120,168,238874,1,0,0:0:0:0:
129,179,238969,1,8,0:0:0:0:
135,191,239064,1,0,0:0:0:0:
139,205,239159,1,0,0:0:0:0:
139,219,239254,1,0,0:0:0:0:
137,233,239348,1,8,0:0:0:0:
132,246,239443,1,0,0:0:0:0:
125,258,239538,6,0,P|189:238|267:272,1,112.5,2|8,0:0|0:0,0:0:0:0:
367,350,239918,1,2,0:0:0:0:
321,363,240013,1,0,0:0:0:0:
278,348,240108,1,8,0:0:0:0:
401,170,240298,1,0,0:0:0:0:
434,186,240392,1,0,0:0:0:0:
455,216,240487,1,8,0:0:0:0:
457,253,240582,1,0,0:0:0:0:
433,272,240678,2,0,P|357:252|312:270,1,112.5,6|0,0:0|0:0,0:0:0:0:
184,359,241057,6,0,P|164:295|198:217,1,112.5,2|8,0:0|0:0,0:0:0:0:
273,105,241437,1,0,0:0:0:0:
274,206,241627,1,8,0:0:0:0:
104,188,241817,1,0,0:0:0:0:
104,188,241912,1,0,0:0:0:0:
104,188,242007,1,8,0:0:0:0:
201,38,242197,2,0,P|181:114|199:159,1,112.5,4|0,0:0|0:0,0:0:0:0:
374,304,242576,5,4,0:0:0:0:
463,166,242861,1,2,0:0:0:0:
428,358,243146,1,8,0:0:0:0:
350,157,243336,5,2,0:0:0:0:
311,141,243431,1,2,0:0:0:0:
269,145,243526,1,2,0:0:0:0:
235,168,243621,1,2,0:0:0:0:
215,205,243716,2,0,L|225:277,1,56.25,8|0,0:0|0:0,0:0:0:0:
400,328,243905,2,0,L|392:272,1,56.25,8|0,0:0|0:0,0:0:0:0:
293,57,244095,5,4,0:0:0:0:
310,295,244380,1,0,0:0:0:0:
293,57,244665,1,0,0:0:0:0:
175,162,244855,2,0,P|203:104|175:44,1,112.5,8|0,0:0|0:0,0:0:0:0:
57,217,245235,1,2,0:0:0:0:
63,93,245424,1,2,0:0:0:0:
173,289,245614,5,8,0:0:0:0:
212,302,245709,1,2,0:0:0:0:
254,298,245804,1,2,0:0:0:0:
289,276,245899,1,2,0:0:0:0:
312,241,245994,2,0,L|328:160,1,56.25,8|0,0:0|0:0,0:0:0:0:
129,65,246184,1,2,0:0:0:0:
129,65,246374,5,8,0:0:0:0:
115,104,246469,1,2,0:0:0:0:
119,146,246564,1,2,0:0:0:0:
141,181,246659,1,2,0:0:0:0:
176,204,246754,2,0,L|257:219,1,56.25,8|0,0:0|0:0,0:0:0:0:
337,75,246943,2,0,L|255:59,1,56.25
289,284,247133,6,0,P|316:220|196:131,1,225,4|8,0:0|0:0,0:0:0:0:
251,352,247703,1,2,0:0:0:0:
277,360,247798,1,2,0:0:0:0:
305,359,247893,2,0,P|357:324|380:275,1,112.5
278,38,248273,2,0,P|237:74|216:126,1,112.5,8|0,0:0|0:0,0:0:0:0:
378,280,248652,6,0,B|430:217|370:168|370:168|356:209,1,168.75,2|0,0:0|0:0,0:0:0:0:
432,120,249032,2,0,P|374:89|321:107,1,112.5,8|0,0:0|0:0,0:0:0:0:
232,272,249412,1,0,0:0:0:0:
255,162,249602,1,0,0:0:0:0:
327,351,249792,2,0,L|385:353,1,56.25,8|0,0:0|0:0,0:0:0:0:
246,376,249981,1,0,0:0:0:0:
110,336,250171,5,8,0:0:0:0:
222,63,250456,5,0,0:0:0:0:
59,224,250741,5,0,0:0:0:0:
59,224,251121,1,0,0:0:0:0:
128,153,251311,1,0,0:0:0:0:
194,227,251500,1,0,0:0:0:0:
30,73,251690,5,8,0:0:0:0:
303,185,251975,5,0,0:0:0:0:
142,22,252260,5,0,0:0:0:0:
142,22,252640,1,0,0:0:0:0:
211,93,252829,1,0,0:0:0:0:
277,19,253019,1,0,0:0:0:0:
405,205,253209,6,0,P|378:269|231:247,1,225,4|8,0:0|0:0,0:0:0:0:
426,130,253779,1,2,0:0:0:0:
451,142,253874,1,2,0:0:0:0:
469,163,253969,2,0,P|481:224|462:275,1,112.5,2|0,0:0|0:0,0:0:0:0:
223,371,254348,2,0,P|219:316|241:264,1,112.5,8|0,0:0|0:0,0:0:0:0:
412,332,254728,6,0,B|298:332|298:332|332:308|333:275,1,168.75
361,206,255108,2,0,P|366:140|326:88,1,112.5,8|0,0:0|0:0,0:0:0:0:
129,47,255488,2,0,P|124:113|164:165,1,112.5
303,26,255867,1,8,0:0:0:0:
261,158,256057,1,0,0:0:0:0:
27,52,256247,6,0,P|90:29|138:56,1,112.5,2|0,0:0|0:0,0:0:0:0:
152,90,256532,2,0,P|215:113|263:86,1,112.5
300,59,256817,2,0,P|270:140|342:240,1,168.75
336,242,257197,2,0,P|346:273|345:306,1,56.25
290,351,257386,1,0,0:0:0:0:
374,136,257576,1,0,0:0:0:0:
478,266,257766,5,8,0:0:0:0:
451,233,257861,1,2,0:0:0:0:
412,217,257956,1,2,0:0:0:0:
371,220,258051,1,2,0:0:0:0:
335,241,258146,1,8,0:0:0:0:
181,94,258336,1,8,0:0:0:0:
213,121,258431,1,2,0:0:0:0:
229,160,258526,1,2,0:0:0:0:
226,201,258621,1,2,0:0:0:0:
205,237,258716,2,0,L|152:283,1,56.25,8|0,0:0|0:0,0:0:0:0:
13,177,258905,2,0,L|66:223,1,56.25,8|0,0:0|0:0,0:0:0:0:
213,121,259095,2,0,L|160:167,1,56.25,8|0,0:0|0:0,0:0:0:0:
31,50,259285,6,0,P|106:36|155:62,1,112.5,4|8,0:0|0:0,0:0:0:0:
300,178,259665,2,0,P|306:207|298:240,2,56.25,0|0|8,0:0|0:0|0:0,0:0:0:0:
118,309,260045,2,0,P|193:323|242:297,1,112.5,2|8,0:0|0:0,0:0:0:0:
393,200,260424,2,0,P|399:170|391:138,2,56.25,0|0|8,0:0|0:0|0:0,0:0:0:0:
196,151,260804,5,2,0:0:0:0:
223,147,260899,1,2,0:0:0:0:
251,152,260994,1,8,0:0:0:0:
275,167,261089,1,2,0:0:0:0:
292,188,261184,1,2,0:0:0:0:
302,215,261279,1,2,0:0:0:0:
302,243,261374,1,8,0:0:0:0:
293,269,261469,1,2,0:0:0:0:
274,290,261564,2,0,L|385:300,1,112.5,2|8,0:0|0:0,0:0:0:0:
187,74,261943,2,0,P|163:82|128:114,2,56.25,0|0|8,0:0|0:0|0:0,0:0:0:0:
79,269,262323,6,0,P|63:216|119:142,1,112.5,0|8,0:0|0:0,0:0:0:0:
143,220,262608,2,0,P|195:237|269:200,1,112.5
248,220,262893,1,8,0:0:0:0:
318,65,263083,2,0,P|310:41|278:5,2,56.25,0|0|8,0:0|0:0|0:0,0:0:0:0:
318,319,263462,2,0,P|310:343|278:378,2,56.25,0|0|8,0:0|0:0|0:0,0:0:0:0:
201,122,263842,5,2,0:0:0:0:
213,147,263937,1,2,0:0:0:0:
231,168,264032,1,10,0:0:0:0:
254,185,264127,1,2,0:0:0:0:
279,196,264222,1,2,0:0:0:0:
307,201,264317,1,2,0:0:0:0:
335,199,264412,1,10,0:0:0:0:
362,191,264507,1,2,0:0:0:0:
386,177,264602,2,0,L|425:73,1,56.25,8|0,0:0|0:0,0:0:0:0:
220,69,264792,2,0,L|181:173,1,56.25,8|0,0:0|0:0,0:0:0:0:
275,313,264981,2,0,L|313:208,1,56.25,8|0,0:0|0:0,0:0:0:0:
108,204,265171,2,0,L|69:308,1,56.25,8|0,0:0|0:0,0:0:0:0:
88,256,265551,6,0,L|147:230,1,56.25,4|0,0:0|0:0,0:0:0:0:
218,205,265741,1,0,0:0:0:0:
218,205,265836,1,0,0:0:0:0:
218,205,265931,1,8,0:0:0:0:
377,323,266121,2,0,P|327:298|271:315,1,112.5,0|8,0:0|0:0,0:0:0:0:
118,363,266500,1,0,0:0:0:0:
118,363,266595,1,0,0:0:0:0:
118,363,266690,1,8,0:0:0:0:
330,224,266880,5,0,0:0:0:0:
346,185,266975,1,0,0:0:0:0:
345,143,267070,1,8,0:0:0:0:
328,105,267165,1,0,0:0:0:0:
297,76,267260,2,0,L|228:90,1,56.25
85,215,267450,1,8,0:0:0:0:
68,253,267545,1,0,0:0:0:0:
69,295,267640,1,0,0:0:0:0:
86,333,267735,1,0,0:0:0:0:
118,363,267829,2,0,L|187:349,1,56.25,8|0,0:0|0:0,0:0:0:0:
361,286,268019,1,0,0:0:0:0:
372,278,268114,1,0,0:0:0:0:
384,271,268209,1,8,0:0:0:0:
396,263,268304,1,0,0:0:0:0:
408,256,268399,1,12,0:0:0:0:
34,171,268969,6,0,L|43:241,2,56.25
218,38,269412,5,0,0:0:0:0:
314,147,269665,5,0,0:0:0:0:
443,241,269923,6,0,L|417:169,3,45
32,58,270417,2,0,L|50:110,3,45
167,333,270912,2,0,L|183:286,3,45
210,220,271241,5,2,0:0:0:0:
269,370,271406,1,8,0:0:0:0:
459,220,271571,5,2,0:0:0:0:
400,370,271736,1,8,0:0:0:0:
337,102,271901,5,2,0:0:0:0:
341,263,272065,1,8,0:0:0:0:
229,110,272230,5,2,0:0:0:0:
446,111,272395,1,8,0:0:0:0:
278,30,272560,6,0,L|350:3,3,45
52,291,273049,6,0,L|-20:264,3,45
392,342,273538,6,0,L|464:315,3,45
318,294,273864,5,2,0:0:0:0:
468,235,274027,1,8,0:0:0:0:
242,234,274190,5,2,0:0:0:0:
458,136,274353,1,8,0:0:0:0:
166,183,274516,5,2,0:0:0:0:
446,38,274679,1,8,0:0:0:0:
264,28,274842,1,2,0:0:0:0:
356,213,275005,1,8,0:0:0:0:
166,183,275168,5,4,0:0:0:0:
492,240,275659,1,0,0:0:0:0:
162,202,276151,1,4,0:0:0:0:
488,259,276643,1,0,0:0:0:0:
276,41,277135,1,4,0:0:0:0:
276,41,277463,1,4,0:0:0:0:
271,335,277790,5,4,0:0:0:0:
80,64,278282,1,0,0:0:0:0:
287,324,278774,1,4,0:0:0:0:
97,53,279266,1,0,0:0:0:0:
92,357,279758,1,4,0:0:0:0:
92,357,280086,1,4,0:0:0:0:
352,87,280413,6,0,L|423:81,2,60,2|0|0,0:0|0:0|0:0,0:0:0:0:
273,140,280741,2,0,L|202:134,2,60
360,193,281069,2,0,L|431:187,2,60,2|0|0,0:0|0:0|0:0,0:0:0:0:
281,246,281397,2,0,L|210:240,2,60
348,320,281725,6,0,L|419:314,1,60,2|0,0:0|0:0,0:0:0:0:
465,259,281943,1,0,0:0:0:0:
419,187,282053,2,0,L|348:193,1,60
302,248,282271,1,0,0:0:0:0:
221,240,282381,2,0,L|150:234,1,60,2|0,0:0|0:0,0:0:0:0:
104,179,282599,1,0,0:0:0:0:
135,95,282708,2,0,L|206:101,1,60
252,156,282927,1,0,0:0:0:0:
307,90,283036,6,0,L|367:96,2,60,2|0|0,0:0|0:0|0:0,0:0:0:0:
451,164,283364,2,0,L|391:169,2,60
313,232,283692,2,0,L|372:237,2,60,2|0|0,0:0|0:0|0:0,0:0:0:0:
456,305,284020,2,0,L|396:310,2,60
329,360,284348,6,0,L|258:354,1,60,2|0,0:0|0:0,0:0:0:0:
200,282,284566,1,0,0:0:0:0:
200,282,284676,2,0,L|129:276,1,60
203,160,284894,1,0,0:0:0:0:
203,160,285004,2,0,L|274:154,1,60,2|0,0:0|0:0,0:0:0:0:
408,230,285222,1,0,0:0:0:0:
408,230,285331,6,0,L|409:289,3,45
423,315,285659,6,0,P|378:335|306:307,1,90,2|0,0:0|0:0,0:0:0:0:
163,262,285986,1,10,0:0:0:0:
196,356,286150,2,0,P|243:317|230:190,1,180,2|0,0:0|0:0,0:0:0:0:
125,178,286560,1,0,0:0:0:0:
119,193,286642,2,0,P|134:244|189:265,1,90,2|0,0:0|0:0,0:0:0:0:
346,261,286970,2,0,P|373:206|345:149,1,90,8|0,0:0|0:0,0:0:0:0:
234,43,287298,1,0,0:0:0:0:
312,111,287462,1,0,0:0:0:0:
424,15,287626,1,8,0:0:0:0:
424,15,287954,5,2,0:0:0:0:
455,52,288036,1,0,0:0:0:0:
464,100,288118,1,0,0:0:0:0:
449,147,288199,1,0,0:0:0:0:
414,181,288281,1,0,0:0:0:0:
367,194,288363,1,0,0:0:0:0:
319,183,288445,1,0,0:0:0:0:
282,150,288527,1,0,0:0:0:0:
266,104,288609,1,2,0:0:0:0:
291,69,288691,1,0,0:0:0:0:
334,73,288773,1,0,0:0:0:0:
354,111,288855,1,0,0:0:0:0:
331,148,288937,1,0,0:0:0:0:
302,174,289019,1,0,0:0:0:0:
265,188,289101,1,0,0:0:0:0:
226,189,289183,1,0,0:0:0:0:
189,176,289265,1,2,0:0:0:0:
159,151,289347,1,0,0:0:0:0:
140,117,289429,1,0,0:0:0:0:
134,78,289511,1,0,0:0:0:0:
142,40,289593,2,0,P|184:21|236:27,1,90,8|0,0:0|0:0,0:0:0:0:
409,76,289921,6,0,P|429:121|401:193,1,90,4|0,0:0|0:0,0:0:0:0:
356,336,290249,1,8,0:0:0:0:
450,303,290413,2,0,P|411:255|284:269,1,180,2|0,0:0|0:0,0:0:0:0:
272,374,290822,1,0,0:0:0:0:
287,380,290904,2,0,P|338:365|359:310,1,90,2|0,0:0|0:0,0:0:0:0:
355,153,291232,2,0,P|300:126|243:154,1,90,8|0,0:0|0:0,0:0:0:0:
137,265,291560,1,0,0:0:0:0:
205,187,291724,1,0,0:0:0:0:
109,75,291888,1,8,0:0:0:0:
109,75,292216,5,2,0:0:0:0:
157,52,292298,1,0,0:0:0:0:
211,51,292380,1,0,0:0:0:0:
260,72,292462,1,0,0:0:0:0:
298,110,292544,1,0,0:0:0:0:
316,161,292626,1,0,0:0:0:0:
313,214,292708,1,0,0:0:0:0:
289,262,292790,1,0,0:0:0:0:
248,296,292872,1,2,0:0:0:0:
196,311,292954,1,0,0:0:0:0:
143,304,293036,1,0,0:0:0:0:
155,254,293118,1,0,0:0:0:0:
199,227,293199,1,0,0:0:0:0:
249,239,293281,1,0,0:0:0:0:
276,281,293363,1,0,0:0:0:0:
266,332,293445,1,0,0:0:0:0:
224,360,293527,5,2,0:0:0:0:
439,320,293855,1,8,0:0:0:0:
97,254,294183,5,2,0:0:0:0:
312,214,294511,1,8,0:0:0:0:
102,73,294839,6,0,L|34:66,2,60
201,98,295167,1,8,0:0:0:0:
344,64,295940,6,0,L|399:55,2,45
341,169,296704,5,0,0:0:0:0:
345,293,297470,6,0,L|389:309,2,45
85,99,298290,5,8,0:0:0:0:
85,99,298599,1,0,0:0:0:0:
153,170,298757,6,0,L|276:175,1,90,2|0,0:0|0:0,0:0:0:0:
384,52,299084,1,8,0:0:0:0:
283,82,299248,1,0,0:0:0:0:
428,224,299412,2,0,P|437:180|422:138,1,90,2|0,0:0|0:0,0:0:0:0:
329,279,299740,2,0,L|239:281,1,90,8|0,0:0|0:0,0:0:0:0:
68,90,300068,6,0,L|158:88,1,90,2|0,0:0|0:0,0:0:0:0:
120,295,300396,1,8,0:0:0:0:
170,211,300560,2,0,P|121:190|75:215,1,90,2|0,0:0|0:0,0:0:0:0:
24,324,300888,1,2,0:0:0:0:
191,331,301052,1,8,0:0:0:0:
232,153,301216,1,0,0:0:0:0:
280,328,301379,6,0,P|310:369|363:380,1,90,2|0,0:0|0:0,0:0:0:0:
468,192,301707,1,8,0:0:0:0:
432,320,301871,1,0,0:0:0:0:
312,160,302035,2,0,L|309:61,1,90
470,102,302363,2,0,L|467:191,1,90,8|0,0:0|0:0,0:0:0:0:
338,353,302691,6,0,P|292:369|251:358,1,90,2|0,0:0|0:0,0:0:0:0:
189,170,303019,2,0,P|205:216|194:256,1,90,8|0,0:0|0:0,0:0:0:0:
42,337,303347,1,2,0:0:0:0:
33,293,303429,1,2,0:0:0:0:
49,251,303511,1,2,0:0:0:0:
84,224,303593,1,2,0:0:0:0:
128,219,303675,1,8,0:0:0:0:
348,326,303837,1,2,0:0:0:0:
338,332,303919,1,2,0:0:0:0:
329,338,304002,6,0,L|339:244,1,90,4|0,0:0|0:0,0:0:0:0:
443,116,304330,1,8,0:0:0:0:
429,222,304494,1,0,0:0:0:0:
260,167,304658,1,2,0:0:0:0:
374,40,304822,1,0,0:0:0:0:
338,248,304986,2,0,L|213:253,1,90,8|0,0:0|0:0,0:0:0:0:
55,157,305314,6,0,P|100:140|146:155,1,90,2|0,0:0|0:0,0:0:0:0:
196,339,305642,1,8,0:0:0:0:
247,250,305806,2,0,P|207:232|164:240,1,90,2|0,0:0|0:0,0:0:0:0:
312,332,306134,1,2,0:0:0:0:
449,196,306297,2,0,L|442:93,1,90,8|0,0:0|0:0,0:0:0:0:
267,17,306625,6,0,P|305:58|281:182,1,180,2|8,0:0|0:0,0:0:0:0:
133,241,307117,1,0,0:0:0:0:
141,138,307281,2,0,P|177:109|231:107,1,90,2|0,0:0|0:0,0:0:0:0:
203,309,307609,2,0,P|167:338|113:340,1,90,8|0,0:0|0:0,0:0:0:0:
16,186,307937,1,8,0:0:0:0:
24,165,308019,1,0,0:0:0:0:
32,144,308101,1,0,0:0:0:0:
165,109,308265,1,8,0:0:0:0:
157,130,308347,1,0,0:0:0:0:
149,151,308429,1,0,0:0:0:0:
121,33,308593,1,8,0:0:0:0:
162,18,308675,1,0,0:0:0:0:
206,26,308757,1,0,0:0:0:0:
239,56,308838,1,0,0:0:0:0:
251,99,308920,2,0,L|231:149,1,45,8|0,0:0|0:0,0:0:0:0:
436,106,309084,2,0,L|456:56,1,45,8|0,0:0|0:0,0:0:0:0:
286,226,309248,5,4,0:0:0:0:
286,226,309576,1,2,0:0:0:0:
378,188,309740,1,2,0:0:0:0:
297,308,309904,2,0,P|366:294|434:317,1,144,8|0,0:0|0:0,0:0:0:0:
241,106,310560,5,2,0:0:0:0:
241,106,310888,1,2,0:0:0:0:
155,64,311052,1,2,0:0:0:0:
296,39,311216,2,0,P|264:22|207:30,1,72,8|0,0:0|0:0,0:0:0:0:
98,128,311543,1,4,0:0:0:0:
241,106,311707,1,2,0:0:0:0:
60,223,311871,1,8,0:0:0:0:
60,223,312199,5,2,0:0:0:0:
11,145,312363,1,2,0:0:0:0:
153,193,312527,2,0,P|127:127|154:63,1,144,8|0,0:0|0:0,0:0:0:0:
326,315,313183,5,2,0:0:0:0:
326,315,313511,1,2,0:0:0:0:
412,273,313675,1,2,0:0:0:0:
271,248,313839,2,0,P|303:231|360:239,1,72,8|0,0:0|0:0,0:0:0:0:
184,357,314166,1,8,0:0:0:0:
134,336,314247,1,0,0:0:0:0:
104,292,314329,1,8,0:0:0:0:
101,239,314411,1,0,0:0:0:0:
128,193,314494,6,0,L|232:184,1,90,4|0,0:0|0:0,0:0:0:0:
31,104,314822,1,2,0:0:0:0:
169,95,314986,1,2,0:0:0:0:
14,230,315150,2,0,P|58:223|100:238,1,90,8|0,0:0|0:0,0:0:0:0:
267,328,315478,1,0,0:0:0:0:
155,323,315642,1,0,0:0:0:0:
345,212,315806,6,0,P|300:205|258:220,1,90,2|0,0:0|0:0,0:0:0:0:
390,361,316134,2,0,P|434:367|476:352,1,90
435,88,316461,1,8,0:0:0:0:
336,102,316625,1,0,0:0:0:0:
494,194,316789,6,0,P|429:161|339:225,1,180,2|0,0:0|0:0,0:0:0:0:
292,304,317281,1,0,0:0:0:0:
118,190,317445,2,0,P|162:171|213:175,1,90,8|0,0:0|0:0,0:0:0:0:
222,360,317773,2,0,P|177:378|126:374,1,90
36,212,318101,1,2,0:0:0:0:
164,286,318265,1,0,0:0:0:0:
65,130,318429,2,0,P|71:79|112:39,1,90
321,59,318757,2,0,P|280:27|223:27,1,90,8|0,0:0|0:0,0:0:0:0:
284,288,319084,5,2,0:0:0:0:
284,288,319412,1,0,0:0:0:0:
376,328,319576,1,0,0:0:0:0:
427,241,319740,2,0,P|390:217|346:214,1,90,8|0,0:0|0:0,0:0:0:0:
196,276,320068,1,0,0:0:0:0:
264,196,320232,1,0,0:0:0:0:
108,224,320396,2,0,P|99:310|163:370,1,180,2|0,0:0|0:0,0:0:0:0:
268,360,320888,1,0,0:0:0:0:
176,148,321052,1,8,0:0:0:0:
48,120,321216,1,0,0:0:0:0:
220,32,321379,5,2,0:0:0:0:
220,32,321707,2,0,L|268:120,1,67.5000025749208
308,32,322035,2,0,L|340:116,1,67.5000025749208
400,48,322363,2,0,L|412:132,1,67.5000025749208
480,88,322691,2,0,L|480:172,1,67.5000025749208
360,324,323019,5,8,0:0:0:0:
464,164,323183,1,2,0:0:0:0:
308,252,323347,1,8,0:0:0:0:
500,244,323511,1,2,0:0:0:0:
248,159,323675,5,8,0:0:0:0:
464,164,323838,1,0,0:0:0:0:
356,32,324002,1,0,0:0:0:0:
308,252,324166,1,8,0:0:0:0:
308,252,324494,6,0,L|308:284,2,22.5000008583069
308,308,324658,1,0,0:0:0:0:
124,168,324822,1,8,0:0:0:0:
124,168,325150,5,2,0:0:0:0:
200,348,325314,1,8,0:0:0:0:
200,148,325478,1,2,0:0:0:0:
48,328,325642,1,2,0:0:0:0:
332,244,325806,1,8,0:0:0:0:
332,244,326134,6,0,L|330:212,2,22.5000008583069
336,280,326298,1,0,0:0:0:0:
76,240,326462,1,8,0:0:0:0:
76,240,326789,1,0,0:0:0:0:
276,120,326953,1,4,0:0:0:0:
256,192,327035,12,0,328838,0:0:0:0:
372,80,328920,6,0,L|420:64,7,33.7500012874604
296,76,329576,2,0,L|273:50,1,33.7500012874604
296,204,329740,2,0,L|318:229,1,33.7500012874604
140,148,329904,2,0,L|117:122,1,33.7500012874604
156,324,330068,2,0,L|178:349,1,33.7500012874604
424,344,330232,5,0,0:0:0:0:
424,328,330841,1,0,0:0:0:0:
424,308,331450,1,0,0:0:0:0:
424,284,332059,2,0,P|412:236|376:200,1,90
48,196,332668,5,0,0:0:0:0:
48,180,333277,1,0,0:0:0:0:
48,160,333886,1,0,0:0:0:0:
48,136,334495,1,0,0:0:0:0:
184,76,334800,1,0,0:0:0:0:
324,332,335105,5,0,0:0:0:0:
308,332,335714,1,0,0:0:0:0:
288,332,336323,1,0,0:0:0:0:
264,332,336932,1,0,0:0:0:0:
192,148,337237,1,0,0:0:0:0:
460,56,337541,5,0,0:0:0:0:
460,80,338150,1,0,0:0:0:0:
460,100,338759,1,0,0:0:0:0:
460,124,339369,2,0,L|460:232,1,90
344,40,339978,5,2,0:0:0:0:
344,40,340130,1,0,0:0:0:0:
216,92,340282,2,0,P|272:92|312:124,1,87.749995983124,8|0,0:0|0:0,0:0:0:0:
320,144,340587,1,2,0:0:0:0:
320,144,340739,1,0,0:0:0:0:
472,104,340891,2,0,P|416:104|376:136,1,87.749995983124,8|0,0:0|0:0,0:0:0:0:
392,164,341196,5,2,0:0:0:0:
392,164,341348,1,0,0:0:0:0:
484,332,341500,2,0,P|484:276|452:236,1,87.749995983124,8|0,0:0|0:0,0:0:0:0:
424,252,341805,1,2,0:0:0:0:
424,252,341957,1,0,0:0:0:0:
288,340,342109,2,0,P|245:341|207:320,1,87.749995983124,8|0,0:0|0:0,0:0:0:0:
192,276,342414,5,2,0:0:0:0:
192,276,342566,1,0,0:0:0:0:
280,192,342719,2,0,L|328:192,2,29.2499986610413,8|0|0,0:0|0:0|0:0,0:0:0:0:
152,140,343023,1,2,0:0:0:0:
152,140,343175,1,0,0:0:0:0:
264,68,343328,2,0,L|312:68,2,29.2499986610413,8|0|0,0:0|0:0|0:0,0:0:0:0:
352,176,343632,5,2,0:0:0:0:
352,176,343784,1,0,0:0:0:0:
464,104,343937,2,0,L|512:104,2,29.2499986610413,8|0|0,0:0|0:0|0:0,0:0:0:0:
464,232,344241,1,2,0:0:0:0:
464,232,344393,1,0,0:0:0:0:
372,320,344546,2,0,L|324:320,2,29.2499986610413,8|0|0,0:0|0:0|0:0,0:0:0:0:
192,260,344851,5,2,0:0:0:0:
304,200,345003,1,0,0:0:0:0:
200,372,345155,1,8,0:0:0:0:
112,320,345307,1,0,0:0:0:0:
342,320,345460,1,2,0:0:0:0:
220,168,345612,1,0,0:0:0:0:
284,376,345764,1,8,0:0:0:0:
112,320,345917,1,0,0:0:0:0:
256,296,346069,5,2,0:0:0:0:
104,232,346221,1,0,0:0:0:0:
336,216,346373,1,8,0:0:0:0:
220,168,346526,1,0,0:0:0:0:
256,296,346678,1,2,0:0:0:0:
368,120,346830,1,0,0:0:0:0:
176,264,346983,1,8,0:0:0:0:
336,216,347135,1,0,0:0:0:0:
216,28,347287,5,2,0:0:0:0:
216,28,347439,1,0,0:0:0:0:
368,120,347592,2,0,P|336:104|264:116,1,87.749995983124,8|0,0:0|0:0,0:0:0:0:
246,138,347896,1,2,0:0:0:0:
246,138,348048,1,0,0:0:0:0:
240,316,348201,2,0,P|256:284|244:212,1,87.749995983124,8|0,0:0|0:0,0:0:0:0:
216,208,348505,1,2,0:0:0:0:
216,208,348658,1,0,0:0:0:0:
32,220,348810,2,0,P|64:204|136:216,1,87.749995983124,8|0,0:0|0:0,0:0:0:0:
140,236,349115,5,2,0:0:0:0:
128,197,349191,1,2,0:0:0:0:
130,157,349267,1,2,0:0:0:0:
146,120,349343,1,2,0:0:0:0:
172,91,349419,1,2,0:0:0:0:
208,72,349495,1,2,0:0:0:0:
247,65,349571,1,2,0:0:0:0:
286,73,349647,1,2,0:0:0:0:
321,93,349724,5,4,0:0:0:0:
416,208,350333,1,2,0:0:0:0:
360,352,350942,1,4,0:0:0:0:
40,44,351855,5,8,0:0:0:0:
40,44,352160,5,2,0:0:0:0:
55,60,352236,1,0,0:0:0:0:
70,76,352312,1,8,0:0:0:0:
86,93,352388,1,0,0:0:0:0:
112,100,352464,1,2,0:0:0:0:
127,116,352540,1,0,0:0:0:0:
142,132,352616,1,8,0:0:0:0:
158,149,352692,1,0,0:0:0:0:
173,165,352769,2,0,P|168:196|156:224,3,45,2|0|8|0,0:0|0:0|0:0|0:0,0:0:0:0:
256,332,353073,2,0,P|261:301|273:273,3,45,2|0|10|0,0:0|0:0|0:0|0:0,0:0:0:0:
396,168,353378,5,2,0:0:0:0:
363,198,353454,1,0,0:0:0:0:
346,239,353530,1,8,0:0:0:0:
349,284,353606,1,0,0:0:0:0:
371,323,353683,1,2,0:0:0:0:
410,305,353759,1,0,0:0:0:0:
417,263,353835,1,8,0:0:0:0:
386,233,353911,1,0,0:0:0:0:
344,243,353987,1,2,0:0:0:0:
302,258,354063,1,0,0:0:0:0:
257,253,354139,1,8,0:0:0:0:
220,229,354215,1,0,0:0:0:0:
197,191,354291,2,0,L|185:115,1,45,2|0,0:0|0:0,0:0:0:0:
372,28,354444,2,0,L|384:104,1,45,8|0,0:0|0:0,0:0:0:0:
288,168,354596,5,2,0:0:0:0:
464,56,354748,1,2,0:0:0:0:
456,176,354901,2,0,P|392:148|308:180,1,135,4|0,0:0|0:0,0:0:0:0:
288,168,355205,1,2,0:0:0:0:
112,56,355357,1,2,0:0:0:0:
120,176,355510,2,0,P|184:148|268:180,1,135,4|0,0:0|0:0,0:0:0:0:
288,168,355814,6,0,L|288:232,1,45,2|0,0:0|0:0,0:0:0:0:
440,328,355967,2,0,L|440:264,1,45,2|0,0:0|0:0,0:0:0:0:
368,132,356119,2,0,L|364:266,1,135,4|0,0:0|0:0,0:0:0:0:
348,304,356423,1,2,0:0:0:0:
224,260,356576,1,2,0:0:0:0:
452,184,356728,2,0,L|456:104,3,45,4|0|0|0,0:0|0:0|0:0|0:0,0:0:0:0:
384,32,357033,5,2,0:0:0:0:
363,38,357109,1,0,0:0:0:0:
342,45,357185,1,8,0:0:0:0:
320,52,357261,1,0,0:0:0:0:
302,73,357337,1,2,0:0:0:0:
281,80,357413,1,0,0:0:0:0:
261,87,357489,1,8,0:0:0:0:
238,94,357565,1,0,0:0:0:0:
218,101,357642,2,0,P|192:83|171:60,3,45,2|0|8|0,0:0|0:0|0:0|0:0,0:0:0:0:
16,104,357946,2,0,P|32:119|51:131,3,45,2|0|8|0,0:0|0:0|0:0|0:0,0:0:0:0:
184,192,358251,5,2,0:0:0:0:
218,217,358327,1,0,0:0:0:0:
219,261,358403,1,8,0:0:0:0:
184,287,358479,1,0,0:0:0:0:
142,274,358555,1,2,0:0:0:0:
154,242,358631,1,0,0:0:0:0:
178,220,358707,1,8,0:0:0:0:
211,211,358783,1,0,0:0:0:0:
243,217,358860,1,2,0:0:0:0:
281,256,358936,1,0,0:0:0:0:
336,265,359012,1,8,0:0:0:0:
385,240,359088,1,0,0:0:0:0:
410,191,359165,1,2,0:0:0:0:
421,125,359241,1,0,0:0:0:0:
389,68,359317,1,8,0:0:0:0:
327,44,359393,1,0,0:0:0:0:
264,65,359469,6,0,L|196:96,1,45,2|0,0:0|0:0,0:0:0:0:
240,274,359621,1,2,0:0:0:0:
312,156,359774,2,0,L|176:208,1,135,4|0,0:0|0:0,0:0:0:0:
185,204,360078,1,2,0:0:0:0:
352,248,360231,1,2,0:0:0:0:
312,380,360383,2,0,L|176:328,1,135,4|0,0:0|0:0,0:0:0:0:
144,328,360687,6,0,P|120:344|96:352,3,45,2|0|0|0,0:0|0:0|0:0|0:0,0:0:0:0:
140,148,360992,2,0,P|116:132|92:124,3,45,4|0|0|0,0:0|0:0|0:0|0:0,0:0:0:0:
216,248,361297,1,8,0:0:0:0:
260,215,361373,1,0,0:0:0:0:
278,162,361449,1,2,0:0:0:0:
262,109,361525,1,0,0:0:0:0:
219,74,361601,2,0,L|160:72,1,45,8|0,0:0|0:0,0:0:0:0:
80,224,361753,2,0,L|139:221,1,45,8|0,0:0|0:0,0:0:0:0:
352,104,361906,5,4,0:0:0:0:
352,104,362058,1,0,0:0:0:0:
68,112,362363,1,0,0:0:0:0:
308,356,362667,1,0,0:0:0:0:
232,32,362972,1,0,0:0:0:0:
124,344,363276,1,0,0:0:0:0:
432,104,363581,1,0,0:0:0:0:
360,312,363733,6,0,B|340:344|340:344|362:274|336:208,1,161.999995056153,4|0,0:0|0:0,0:0:0:0:
224,88,364342,5,4,0:0:0:0:
224,88,364495,1,0,0:0:0:0:
400,36,364799,1,0,0:0:0:0:
404,336,365104,1,0,0:0:0:0:
108,336,365408,1,0,0:0:0:0:
112,36,365713,1,0,0:0:0:0:
400,36,366017,1,0,0:0:0:0:
320,112,366170,2,0,B|344:136|344:136|368:128|368:128|392:140|392:140|420:128|420:128|448:140|448:140|460:132,1,161.999995056153,4|0,0:0|0:0,0:0:0:0:
476,260,366779,6,0,P|400:224|328:280,1,180,0|2,0:0|0:0,0:0:0:0:
84,332,367997,2,0,P|112:280|68:164,1,180,4|2,0:0|0:0,0:0:0:0:
76,171,369215,6,0,P|120:160|180:176,1,90,2|0,0:0|0:0,0:0:0:0:
228,304,369519,1,0,0:0:0:0:
228,212,369671,1,0,0:0:0:0:
160,364,369824,2,0,P|115:371|72:360,1,90,8|0,0:0|0:0,0:0:0:0:
236,296,370128,2,0,P|280:288|323:299,1,90
408,368,370433,6,0,P|384:324|416:200,1,180,2|2,0:0|0:0,0:0:0:0:
504,152,370890,1,0,0:0:0:0:
380,44,371042,2,0,L|272:40,1,90,8|0,0:0|0:0,0:0:0:0:
192,76,371346,1,4,0:0:0:0:
323,299,371651,5,2,0:0:0:0:
323,299,371956,2,0,P|334:255|318:195,1,90,2|0,0:0|0:0,0:0:0:0:
282,147,372260,1,8,0:0:0:0:
190,147,372412,1,0,0:0:0:0:
130,215,372565,2,0,P|122:259|133:302,1,90,2|0,0:0|0:0,0:0:0:0:
364,136,372869,6,0,P|371:91|360:48,1,90,2|0,0:0|0:0,0:0:0:0:
186,59,373174,2,0,P|178:103|189:146,1,90
280,196,373478,1,8,0:0:0:0:
276,100,373631,1,2,0:0:0:0:
196,240,373783,1,8,0:0:0:0:
288,88,373935,1,2,0:0:0:0:
440,216,374088,6,0,P|444:264|400:320,1,112.5,4|8,0:0|0:0,0:0:0:0:
240,332,374392,1,0,0:0:0:0:
240,332,374468,1,0,0:0:0:0:
240,332,374544,1,8,0:0:0:0:
280,196,374697,1,0,0:0:0:0:
324,288,374849,1,8,0:0:0:0:
136,220,375001,1,0,0:0:0:0:
136,220,375077,1,0,0:0:0:0:
136,220,375154,1,8,0:0:0:0:
280,93,375306,6,0,P|300:145|268:205,1,112.5,0|8,0:0|0:0,0:0:0:0:
152,88,375610,1,0,0:0:0:0:
152,88,375686,1,0,0:0:0:0:
152,88,375763,1,8,0:0:0:0:
360,40,375915,1,0,0:0:0:0:
360,144,376067,1,8,0:0:0:0:
236,16,376220,1,0,0:0:0:0:
236,16,376296,1,0,0:0:0:0:
236,16,376373,1,8,0:0:0:0:
200,208,376524,6,0,P|232:268|284:280,1,112.5,2|8,0:0|0:0,0:0:0:0:
448,132,376829,2,0,P|415:71|364:60,1,112.5,0|8,0:0|0:0,0:0:0:0:
288,200,377133,1,0,0:0:0:0:
292,64,377286,1,8,0:0:0:0:
416,232,377438,1,0,0:0:0:0:
416,232,377514,1,0,0:0:0:0:
416,232,377590,1,8,0:0:0:0:
296,324,377742,5,0,0:0:0:0:
376,132,377895,1,8,0:0:0:0:
376,360,378047,1,2,0:0:0:0:
296,160,378199,1,8,0:0:0:0:
456,336,378352,1,8,0:0:0:0:
452,156,378504,1,2,0:0:0:0:
296,324,378656,1,8,0:0:0:0:
296,324,378808,1,8,0:0:0:0:
92,208,378961,6,0,P|144:184|244:260,1,180,4|8,0:0|0:0,0:0:0:0:
128,368,379874,1,0,0:0:0:0:
324,244,380179,2,0,L|332:128,1,90,4|0,0:0|0:0,0:0:0:0:
300,48,380636,1,0,0:0:0:0:
196,44,380788,6,0,L|200:80,1,22.5,2|0,0:0|0:0,0:0:0:0:
492,128,381092,2,0,L|488:164,1,22.5,2|0,0:0|0:0,0:0:0:0:
296,352,381397,6,0,L|208:376,1,90,4|0,0:0|0:0,0:0:0:0:
164,184,382006,2,0,L|252:160,1,90,8|0,0:0|0:0,0:0:0:0:
352,148,382463,1,0,0:0:0:0:
424,212,382615,2,0,P|436:312|360:360,1,180,4|8,0:0|0:0,0:0:0:0:
304,360,383377,1,0,0:0:0:0:
304,360,383529,2,0,L|256:328,1,45,10|0,0:0|0:0,0:0:0:0:
168,272,383834,5,2,0:0:0:0:
168,272,383986,1,0,0:0:0:0:
264,136,384138,2,0,P|216:120|132:156,1,135,8|0,0:0|0:0,0:0:0:0:
132,196,384443,1,2,0:0:0:0:
132,196,384595,1,0,0:0:0:0:
48,36,384747,2,0,P|32:84|68:168,1,135,8|0,0:0|0:0,0:0:0:0:
112,152,385052,5,2,0:0:0:0:
112,152,385204,1,0,0:0:0:0:
215,303,385356,2,0,P|218:252|161:180,1,135,8|0,0:0|0:0,0:0:0:0:
132,196,385661,1,2,0:0:0:0:
132,196,385813,1,0,0:0:0:0:
295,101,385965,2,0,P|239:97|175:149,1,135,8|0,0:0|0:0,0:0:0:0:
171,185,386270,5,2,0:0:0:0:
171,185,386422,1,0,0:0:0:0:
336,204,386575,2,0,L|464:152,1,135,8|0,0:0|0:0,0:0:0:0:
396,264,386879,1,2,0:0:0:0:
416,92,387031,1,0,0:0:0:0:
264,68,387184,2,0,L|396:12,1,135,8|0,0:0|0:0,0:0:0:0:
328,124,387488,5,2,0:0:0:0:
176,40,387641,1,0,0:0:0:0:
160,200,387793,2,0,P|136:132|68:116,1,135,8|0,0:0|0:0,0:0:0:0:
84,192,388097,1,2,0:0:0:0:
232,112,388250,1,0,0:0:0:0:
372,200,388402,2,0,P|326:226|264:212,1,90,8|0,0:0|0:0,0:0:0:0:
396,92,388689,6,0,P|444:124|448:136,7,45,2|0|0|0|8|0|0|0,0:0|0:0|0:0|0:0|0:0|0:0|0:0|0:0,0:0:0:0:
435,273,389320,2,0,P|417:286|396:292,7,45,0|0|0|0|8|0|0|0,0:0|0:0|0:0|0:0|0:0|0:0|0:0|0:0,0:0:0:0:
232,296,389952,2,0,P|210:290|192:277,7,45,2|0|0|0|8|0|0|0,0:0|0:0|0:0|0:0|0:0|0:0|0:0|0:0,0:0:0:0:
196,108,390637,2,0,P|213:94|235:89,7,45,0|0|0|0|8|0|0|0,0:0|0:0|0:0|0:0|0:0|0:0|0:0|0:0,0:0:0:0:
96,192,391323,6,0,P|74:196|52:192,3,45,8|0|0|0,0:0|0:0|0:0|0:0,0:0:0:0:
176,248,391686,2,0,P|197:252|219:248,3,45,8|0|0|0,0:0|0:0|0:0|0:0,0:0:0:0:
92,352,392050,2,0,P|109:338|131:333,3,45,8|0|0|0,0:0|0:0|0:0|0:0,0:0:0:0:
224,364,392413,2,0,P|245:358|263:345,3,45,8|0|0|0,0:0|0:0|0:0|0:0,0:0:0:0:
320,264,392777,6,0,P|341:259|363:263,3,45,8|0|0|0,0:0|0:0|0:0|0:0,0:0:0:0:
424,336,393141,2,0,P|445:340|467:335,3,45,8|0|0|0,0:0|0:0|0:0|0:0,0:0:0:0:
256,328,393504,2,0,P|234:322|216:309,7,45,8|0|8|0|8|0|8|0,0:0|0:0|0:0|0:0|0:0|0:0|0:0|0:0,0:0:0:0:
296,360,394343,6,0,P|352:356|400:272,1,150,8|0,0:0|0:0,0:0:0:0:
272,160,395206,6,0,P|268:232|332:284,1,150,8|0,0:0|0:0,0:0:0:0:
472,200,396080,6,0,P|424:176|328:216,1,150,8|0,0:0|0:0,0:0:0:0:
408,360,397011,5,8,0:0:0:0:
96,184,397998,5,4,0:0:0:0:
156,140,406498,5,0,0:0:0:0:
352,140,407498,1,0,0:0:0:0:
152,204,408498,5,0,0:0:0:0:
348,204,409498,1,0,0:0:0:0:
144,288,410498,5,0,0:0:0:0:
340,288,411498,1,0,0:0:0:0:
248,64,413748,5,8,0:0:0:0:
248,64,413998,5,0,0:0:0:0:
320,128,414123,1,0,0:0:0:0:
168,116,414248,1,8,0:0:0:0:
316,208,414373,1,0,0:0:0:0:
157,201,414498,2,0,P|150:156|167:115,1,90
328,44,414748,1,8,0:0:0:0:
400,224,414873,6,0,P|384:265|349:291,1,90
167,115,415123,2,0,P|192:72|266:56,1,90,0|8,0:0|0:0,0:0:0:0:
204,373,415373,2,0,P|159:369|124:344,1,90
176,236,415623,1,0,0:0:0:0:
183,257,415685,1,0,0:0:0:0:
192,280,415748,2,0,L|276:220,1,90,8|0,0:0|0:0,0:0:0:0:
227,55,415998,5,0,0:0:0:0:
160,121,416123,1,0,0:0:0:0:
310,68,416248,1,8,0:0:0:0:
141,42,416373,1,0,0:0:0:0:
210,219,416498,2,0,P|244:198|264:138,1,90
76,100,416748,1,8,0:0:0:0:
112,262,416873,6,0,P|132:300|171:321,1,90
365,133,417123,2,0,P|343:88|270:65,1,90,0|8,0:0|0:0,0:0:0:0:
259,351,417373,1,0,0:0:0:0:
388,224,417498,1,8,0:0:0:0:
287,197,417623,1,0,0:0:0:0:
408,308,417748,1,8,0:0:0:0:
232,268,417873,1,0,0:0:0:0:
365,133,417998,6,0,L|416:48,1,90
192,12,418248,2,0,L|141:97,1,90,8|0,0:0|0:0,0:0:0:0:
152,232,418498,1,0,0:0:0:0:
208,148,418623,1,0,0:0:0:0:
36,168,418748,1,8,0:0:0:0:
128,332,418873,6,0,P|171:334|210:314,1,90
225,60,419123,2,0,P|175:64|129:124,1,90,0|8,0:0|0:0,0:0:0:0:
384,264,419373,2,0,P|399:221|391:179,1,90
208,148,419623,1,0,0:0:0:0:
296,212,419748,1,8,0:0:0:0:
296,16,419873,1,0,0:0:0:0:
92,32,419998,6,0,P|68:68|72:116,1,90
186,229,420248,2,0,P|210:193|206:145,1,90,8|0,0:0|0:0,0:0:0:0:
40,280,420498,1,0,0:0:0:0:
92,192,420623,1,0,0:0:0:0:
112,348,420748,1,8,0:0:0:0:
4,196,420873,1,0,0:0:0:0:
232,344,420998,6,0,L|340:328,1,90,8|0,0:0|0:0,0:0:0:0:
512,260,421248,1,0,0:0:0:0:
500,356,421373,2,0,L|392:340,1,90,8|0,0:0|0:0,0:0:0:0:
256,160,421623,1,0,0:0:0:0:
268,256,421748,2,0,L|376:240,1,90,8|0,0:0|0:0,0:0:0:0:
448,40,421998,5,4,0:0:0:0:
476,132,422123,1,0,0:0:0:0:
280,80,422248,2,0,P|328:64|376:80,1,90,8|0,0:0|0:0,0:0:0:0:
460,244,422498,1,0,0:0:0:0:
396,164,422623,1,0,0:0:0:0:
328,340,422748,1,8,0:0:0:0:
155,171,422873,6,0,P|171:130|206:104,1,90
387,279,423123,2,0,P|362:322|288:337,1,90,0|8,0:0|0:0,0:0:0:0:
350,21,423373,2,0,P|395:24|430:49,1,90
420,192,423623,1,0,0:0:0:0:
272,56,423748,1,8,0:0:0:0:
356,108,423873,1,0,0:0:0:0:
155,171,423998,5,0,0:0:0:0:
148,64,424123,1,0,0:0:0:0:
296,192,424248,2,0,P|300:248|276:292,1,90,8|0,0:0|0:0,0:0:0:0:
146,257,424498,2,0,P|142:201|166:157,1,90
356,108,424748,1,8,0:0:0:0:
340,352,424873,6,0,P|299:369|256:363,1,90
271,108,425123,2,0,P|319:95|382:136,1,90,0|8,0:0|0:0,0:0:0:0:
146,257,425373,2,0,P|116:223|109:180,1,90
176,28,425623,1,0,0:0:0:0:
20,176,425748,1,8,0:0:0:0:
48,36,425873,1,0,0:0:0:0:
208,188,425998,6,0,L|336:188,1,90,4|0,0:0|0:0,0:0:0:0:
388,24,426248,2,0,L|260:24,1,90,8|0,0:0|0:0,0:0:0:0:
416,196,426498,1,8,0:0:0:0:
496,88,426623,1,0,0:0:0:0:
296,104,426748,1,0,0:0:0:0:
368,296,426873,6,0,P|412:308|516:216,1,180,8|0,0:0|0:0,0:0:0:0:
304,228,427248,2,0,P|280:272|292:340,1,90,8|0,0:0|0:0,0:0:0:0:
416,196,427498,2,0,P|419:145|379:89,1,90,8|0,0:0|0:0,0:0:0:0:
248,40,427748,1,8,0:0:0:0:
348,32,427873,1,0,0:0:0:0:
220,188,427998,5,4,0:0:0:0:
211,195,428060,1,0,0:0:0:0:
203,203,428123,1,2,0:0:0:0:
195,210,428185,1,0,0:0:0:0:
187,218,428248,2,0,L|76:224,1,90,8|0,0:0|0:0,0:0:0:0:
8,144,428435,1,0,0:0:0:0:
24,156,428498,2,0,L|135:150,1,90,8|0,0:0|0:0,0:0:0:0:
236,104,428748,1,2,0:0:0:0:
312,248,428873,6,0,P|288:308|244:340,1,90,8|0,0:0|0:0,0:0:0:0:
399,108,429123,2,0,P|419:169|406:222,1,90,8|0,0:0|0:0,0:0:0:0:
160,316,429373,1,2,0:0:0:0:
224,232,429498,1,8,0:0:0:0:
270,324,429623,1,2,0:0:0:0:
124,220,429748,1,8,0:0:0:0:
336,248,429873,1,2,0:0:0:0:
324,80,429998,6,0,P|280:72|240:84,1,62.9999980773926,4|0,0:0|0:0,0:0:0:0:
224,232,430248,1,8,0:0:0:0:
284,164,430373,2,0,P|224:140|160:168,1,125.999996154785,2|0,0:0|0:0,0:0:0:0:
160,324,430748,1,8,0:0:0:0:
248,372,430873,6,0,B|288:376|288:376|324:368|324:368|392:372,1,125.999996154785
464,232,431248,1,8,0:0:0:0:
380,288,431373,2,0,B|331:290|331:290|295:282,1,62.9999980773926,2|0,0:0|0:0,0:0:0:0:
240,224,431623,1,0,0:0:0:0:
488,140,431748,1,8,0:0:0:0:
488,140,431998,6,0,P|456:152|416:148,1,62.9999980773926,2|0,0:0|0:0,0:0:0:0:
276,100,432248,1,8,0:0:0:0:
316,24,432373,2,0,P|354:72|352:133,1,125.999996154785,2|0,0:0|0:0,0:0:0:0:
312,212,432748,1,8,0:0:0:0:
148,224,432873,1,0,0:0:0:0:
148,224,433123,6,0,L|96:220,2,31.4999990386963,0|0|8,0:0|0:0|0:0,0:0:0:0:
136,120,433373,1,0,0:0:0:0:
220,164,433498,1,0,0:0:0:0:
56,168,433623,1,0,0:0:0:0:
40,260,433748,2,0,P|44:297|63:328,1,62.9999980773926,8|0,0:0|0:0,0:0:0:0:
280,348,433998,6,0,P|240:328|156:356,1,125.999996154785,2|8,0:0|0:0,0:0:0:0:
360,252,434373,1,0,0:0:0:0:
492,364,434623,1,8,0:0:0:0:
388,52,434873,1,8,0:0:0:0:
448,272,435123,1,8,0:0:0:0:
140,104,435373,1,8,0:0:0:0:
288,24,435623,1,8,0:0:0:0:
288,24,435873,1,0,0:0:0:0:
236,104,435998,6,0,L|260:172,1,62.9999980773926,2|0,0:0|0:0,0:0:0:0:
436,200,436248,2,0,L|412:132,1,62.9999980773926,8|0,0:0|0:0,0:0:0:0:
292,264,436498,1,0,0:0:0:0:
340,188,436623,1,0,0:0:0:0:
392,268,436748,1,8,0:0:0:0:
292,264,436873,1,0,0:0:0:0:
436,200,436998,6,0,P|472:228|456:312,1,125.999996154785,4|0,0:0|0:0,0:0:0:0:
252,332,437373,2,0,P|216:304|232:220,1,125.999996154785,4|0,0:0|0:0,0:0:0:0:
376,96,437748,1,4,0:0:0:0:
376,96,437998,6,0,L|329:138,1,62.9999980773926
392,300,438248,2,0,L|438:257,1,62.9999980773926
424,24,438498,2,0,P|376:12|340:24,1,62.9999980773926,8|0,0:0|0:0,0:0:0:0:
285,61,438748,1,0,0:0:0:0:
332,254,438873,6,0,P|352:210|308:122,1,125.999996154785
164,116,439248,1,0,0:0:0:0:
144,212,439373,1,0,0:0:0:0:
208,288,439498,2,0,P|236:240|236:208,1,62.9999980773926,8|0,0:0|0:0,0:0:0:0:
80,148,439748,2,0,P|52:196|52:228,1,62.9999980773926
168,364,439998,6,0,P|200:376|240:372,2,62.9999980773926
320,328,440373,1,8,0:0:0:0:
320,328,440623,1,8,0:0:0:0:
148,44,440873,1,8,0:0:0:0:
440,188,441123,1,8,0:0:0:0:
92,296,441373,1,8,0:0:0:0:
424,16,441623,2,0,L|424:88,1,62.9999980773926,0|8,0:0|0:0,0:0:0:0:
320,332,441998,6,0,P|264:312|188:352,1,125.999996154785,2|0,0:0|0:0,0:0:0:0:
16,176,442498,2,0,P|72:196|148:156,1,125.999996154785,8|0,0:0|0:0,0:0:0:0:
304,16,442998,5,0,0:0:0:0:
228,164,443248,1,0,0:0:0:0:
276,328,443498,1,8,0:0:0:0:
308,32,443748,1,0,0:0:0:0:
130,112,443998,6,0,P|126:156|142:192,1,62.9999980773926,8|0,0:0|0:0,0:0:0:0:
192,248,444248,1,2,0:0:0:0:
408,180,444373,2,0,P|364:180|336:204,1,62.9999980773926,8|0,0:0|0:0,0:0:0:0:
308,32,444623,2,0,P|276:63|274:99,1,62.9999980773926,8|0,0:0|0:0,0:0:0:0:
284,292,444873,1,8,0:0:0:0:
264,200,444998,6,0,L|252:156,15,31.4999990386963
264,200,445998,6,0,P|220:196|168:224,1,90,2|0,0:0|0:0,0:0:0:0:
356,328,446248,2,0,P|400:332|452:304,1,90,8|0,0:0|0:0,0:0:0:0:
340,144,446498,1,2,0:0:0:0:
432,200,446623,1,2,0:0:0:0:
280,288,446748,2,0,L|160:292,1,90,8|0,0:0|0:0,0:0:0:0:
32,180,446998,6,0,P|28:136|56:84,1,90,2|0,0:0|0:0,0:0:0:0:
192,16,447248,1,8,0:0:0:0:
264,128,447373,2,0,P|235:161|108:142,1,180,2|0,0:0|0:0,0:0:0:0:
292,32,447748,2,0,P|334:32|384:60,1,90,8|0,0:0|0:0,0:0:0:0:
468,220,447998,1,0,0:0:0:0:
467,231,448060,1,0,0:0:0:0:
466,242,448123,1,0,0:0:0:0:
466,253,448185,1,0,0:0:0:0:
465,264,448248,6,0,L|416:344,1,90,8|0,0:0|0:0,0:0:0:0:
268,244,448498,1,0,0:0:0:0:
324,316,448623,1,0,0:0:0:0:
180,332,448748,1,8,0:0:0:0:
212,168,448873,6,0,P|264:149|361:240,1,180,2|0,0:0|0:0,0:0:0:0:
140,236,449248,1,8,0:0:0:0:
212,76,449373,1,2,0:0:0:0:
232,260,449498,1,8,0:0:0:0:
120,128,449623,1,2,0:0:0:0:
180,332,449748,2,0,P|220:352|272:340,1,90,8|0,0:0|0:0,0:0:0:0:
452,200,449998,6,0,P|388:200|324:292,1,180,4|8,0:0|0:0,0:0:0:0:
392,364,450373,1,0,0:0:0:0:
480,336,450498,2,0,P|452:296|400:280,1,90,2|0,0:0|0:0,0:0:0:0:
167,204,450748,2,0,P|195:244|247:260,1,90,8|0,0:0|0:0,0:0:0:0:
432,164,450998,6,0,B|380:176|380:176|320:156|320:156|232:176,1,180,2|8,0:0|0:0,0:0:0:0:
148,300,451373,1,2,0:0:0:0:
312,244,451498,1,8,0:0:0:0:
96,224,451623,1,2,0:0:0:0:
312,328,451748,1,8,0:0:0:0:
136,148,451873,1,2,0:0:0:0:
204,372,451998,6,0,P|228:280|168:220,1,180,8|8,0:0|0:0,0:0:0:0:
4,240,452373,1,0,0:0:0:0:
52,320,452498,2,0,L|152:312,1,90,10|0,0:0|0:0,0:0:0:0:
225,142,452748,2,0,L|120:148,1,90,8|0,0:0|0:0,0:0:0:0:
320,280,452998,5,8,0:0:0:0:
330,284,453060,1,0,0:0:0:0:
340,288,453123,1,0,0:0:0:0:
264,216,453248,1,2,0:0:0:0:
268,352,453373,5,8,0:0:0:0:
278,356,453435,1,0,0:0:0:0:
288,360,453498,1,0,0:0:0:0:
212,288,453623,1,2,0:0:0:0:
384,372,453748,2,0,P|418:342|428:288,1,90,8|0,0:0|0:0,0:0:0:0:
216,64,453998,6,0,L|180:76,4,31.4999990386963,4|0|0|0|0,0:0|0:0|0:0|0:0|0:0,0:0:0:0:
216,64,454748,2,0,L|292:64,1,62.9999980773926
368,188,454998,2,0,P|256:140|140:188,1,251.999992309571,4|4,0:0|0:0,0:0:0:0:
492,348,455748,1,2,0:0:0:0:
384,104,456248,6,0,L|374:74,4,31.4999990386963,0|0|0|0|4,0:0|0:0|0:0|0:0|0:0,0:0:0:0:
88,48,456748,2,0,L|97:77,4,31.4999990386963,0|0|0|0|4,0:0|0:0|0:0|0:0|0:0,0:0:0:0:
324,168,457248,1,0,0:0:0:0:
342,260,457373,1,0,0:0:0:0:
270,319,457498,2,0,L|186:280,1,62.9999980773926,12|0,0:0|0:0,0:0:0:0:
168,122,457748,2,0,L|251:160,1,62.9999980773926,8|0,0:0|0:0,0:0:0:0:
57,228,457998,2,0,L|60:196,4,31.4999990386963,4|0|0|0|0,0:0|0:0|0:0|0:0|0:0,0:0:0:0:
57,228,458748,6,0,L|141:224,1,62.9999980773926,2|0,0:0|0:0,0:0:0:0:
198,49,458998,2,0,L|136:52,1,62.9999980773926,4|0,0:0|0:0,0:0:0:0:
244,216,459248,2,0,L|328:212,1,62.9999980773926,2|0,0:0|0:0,0:0:0:0:
418,33,459498,2,0,L|356:36,1,62.9999980773926,4|0,0:0|0:0,0:0:0:0:
445,206,459748,2,0,L|508:204,1,62.9999980773926
410,120,459998,6,0,L|284:120,1,125.999996154785,8|8,0:0|0:0,0:0:0:0:
137,296,460498,2,0,L|200:296,1,62.9999980773926,8|8,0:0|0:0,0:0:0:0:
200,296,460873,1,0,0:0:0:0:
324,344,460998,6,0,L|388:332,3,62.9999980773926,8|0|8|0,0:0|0:0|0:0|0:0,0:0:0:0:
424,304,461498,1,8,0:0:0:0:
296,176,461623,1,2,0:0:0:0:
272,268,461748,1,8,0:0:0:0:
388,128,461873,1,2,0:0:0:0:
464,212,461998,6,0,L|464:244,1,31.4999990386963
180,68,462248,2,0,L|180:124,1,31.4999990386963
308,192,462498,2,0,L|308:136,1,31.4999990386963
272,92,462623,1,0,0:0:0:0:
216,304,462873,2,0,L|216:360,1,31.4999990386963
380,124,463123,2,0,L|380:68,1,31.4999990386963
104,92,463373,6,0,L|104:36,1,31.4999990386963
56,188,463498,2,0,L|56:251,3,62.9999980773926
128,300,463998,6,0,L|158:300,1,31.4999990386963
315,38,464248,2,0,L|261:37,1,31.4999990386963
312,240,464498,2,0,L|365:240,1,31.4999990386963
420,216,464623,1,0,0:0:0:0:
204,108,464873,2,0,L|150:108,1,31.4999990386963
236,320,465123,2,0,L|289:320,1,31.4999990386963
360,136,465373,6,0,L|304:136,1,31.4999990386963
420,216,465498,2,0,L|483:216,3,62.9999980773926
336,216,465998,6,0,L|314:237,1,31.4999990386963
18,162,466248,2,0,L|55:124,1,31.4999990386963
163,303,466498,2,0,L|125:340,1,31.4999990386963
70,363,466623,1,0,0:0:0:0:
176,52,466873,2,0,L|213:14,1,31.4999990386963
273,306,467123,2,0,L|235:343,1,31.4999990386963
440,40,467373,2,0,L|479:0,1,31.4999990386963
454,138,467498,2,0,L|409:182,3,62.9999980773926
416,276,467998,6,0,L|392:297,1,31.4999990386963
348,72,468248,2,0,L|371:50,1,31.4999990386963
284,336,468498,2,0,L|260:357,1,31.4999990386963
316,264,468623,1,0,0:0:0:0:
32,344,468873,2,0,L|55:322,1,31.4999990386963
416,320,469123,2,0,L|392:341,1,31.4999990386963
228,296,469373,2,0,L|267:335,1,31.4999990386963
242,198,469498,2,0,L|197:153,3,62.9999980773926
456,208,469998,6,0,L|504:184,11,41.9999987182618
336,124,470998,5,4,0:0:0:0:
336,124,471248,2,0,L|337:193,1,62.9999980773926
468,40,471623,2,0,L|466:111,1,62.9999980773926
276,264,471998,6,0,P|289:284|299:314,1,31.4999990386963
168,256,472164,6,0,P|175:269|184:282,1,31.4999990386963
232,196,472331,6,0,P|245:216|255:246,1,31.4999990386963
124,188,472497,6,0,P|131:201|140:214,1,31.4999990386963
192,120,472664,6,0,P|205:140|215:170,1,31.4999990386963
84,112,472830,6,0,P|91:125|100:138,1,31.4999990386963
148,52,472998,6,0,P|161:72|171:102,2,31.4999990386963
52,24,473248,2,0,L|12:56,1,31.4999990386963
23,241,473498,2,0,P|30:254|39:267,2,31.4999990386963
128,268,473747,1,0,0:0:0:0:
224,224,473873,1,0,0:0:0:0:
232,120,473998,6,0,L|204:105,1,31.4999990386963
36,348,474248,2,0,L|63:362,1,31.4999990386963
320,332,474498,2,0,L|292:317,1,31.4999990386963
212,328,474623,1,0,0:0:0:0:
296,48,474873,2,0,L|323:62,1,31.4999990386963
76,160,475123,2,0,L|48:145,1,31.4999990386963
376,176,475373,6,0,L|403:190,1,31.4999990386963
440,264,475498,2,0,L|364:264,1,62.9999980773926
377,264,475998,6,0,L|377:296,1,31.4999990386963
116,140,476248,2,0,L|116:196,1,31.4999990386963
152,240,476373,1,0,0:0:0:0:
192,32,476623,2,0,L|192:-24,1,31.4999990386963
40,256,476873,2,0,L|40:312,1,31.4999990386963
340,96,477123,6,0,L|316:48,1,31.4999990386963
304,52,477248,2,0,L|304:136,1,62.9999980773926
240,276,477498,1,0,0:0:0:0:
328,228,477623,2,0,L|328:196,2,31.4999990386963
328,328,477873,1,0,0:0:0:0:
156,336,477998,6,0,P|136:300|144:248,1,90,2|0,0:0|0:0,0:0:0:0:
212,96,478248,1,8,0:0:0:0:
240,188,478373,1,0,0:0:0:0:
36,84,478498,1,2,0:0:0:0:
36,84,478748,1,2,0:0:0:0:
52,168,478873,6,0,B|80:272|80:272|120:232,1,135,8|0,0:0|0:0,0:0:0:0:
140,192,479123,2,0,P|203:209|205:277,1,135,8|0,0:0|0:0,0:0:0:0:
156,336,479373,2,0,L|360:336,1,180,8|0,0:0|0:0,0:0:0:0:
452,208,479748,1,8,0:0:0:0:
440,320,479873,1,2,0:0:0:0:
312,116,479998,5,2,0:0:0:0:
420,104,480123,1,2,0:0:0:0:
276,248,480248,2,0,L|184:236,1,90,8|0,0:0|0:0,0:0:0:0:
56,44,480498,1,2,0:0:0:0:
56,44,480748,1,2,0:0:0:0:
188,40,480873,6,0,B|224:48|224:48|136:100,1,135,8|0,0:0|0:0,0:0:0:0:
72,140,481123,2,0,B|42:162|42:162|144:172,1,135,8|0,0:0|0:0,0:0:0:0:
224,120,481373,2,0,P|232:216|144:272,1,180,8|0,0:0|0:0,0:0:0:0:
16,268,481748,1,8,0:0:0:0:
180,356,481873,1,0,0:0:0:0:
100,244,481998,5,2,0:0:0:0:
52,344,482123,1,0,0:0:0:0:
252,304,482248,2,0,L|352:264,1,90,8|0,0:0|0:0,0:0:0:0:
408,88,482498,1,2,0:0:0:0:
408,88,482748,1,2,0:0:0:0:
380,176,482873,6,0,P|448:176|492:124,1,135,8|0,0:0|0:0,0:0:0:0:
304,136,483123,2,0,B|264:120|264:120|296:212,1,135,8|0,0:0|0:0,0:0:0:0:
470,256,483373,2,0,L|398:60,1,180,8|0,0:0|0:0,0:0:0:0:
240,24,483748,1,8,0:0:0:0:
332,4,483873,1,2,0:0:0:0:
220,176,483998,5,2,0:0:0:0:
168,88,484123,1,0,0:0:0:0:
104,264,484248,2,0,P|144:288|196:272,1,90,8|0,0:0|0:0,0:0:0:0:
368,155,484498,2,0,P|288:123|216:187,1,180,2|8,0:0|0:0,0:0:0:0:
272,276,484873,1,2,0:0:0:0:
460,192,484998,6,0,P|468:148|444:92,1,90,8|0,0:0|0:0,0:0:0:0:
360,48,485248,1,2,0:0:0:0:
364,260,485373,2,0,P|338:223|281:200,1,90,8|0,0:0|0:0,0:0:0:0:
191,228,485623,1,2,0:0:0:0:
340,360,485748,2,0,L|464:360,1,90,8|0,0:0|0:0,0:0:0:0:
176,336,485998,6,0,L|120:336,2,31.4999990386963,4|0|0,0:0|0:0|0:0,0:0:0:0:
24,360,486498,1,4,0:0:0:0:
176,68,486748,2,0,L|248:80,1,62.9999980773926
388,172,486998,6,0,L|240:152,1,125.999996154785,4|0,0:0|0:0,0:0:0:0:
141,330,487498,2,0,L|285:342,1,125.999996154785,4|2,0:0|0:0,0:0:0:0:
358,46,488248,6,0,L|390:86,4,31.4999990386963,0|0|0|0|4,0:0|0:0|0:0|0:0|0:0,0:0:0:0:
32,176,488748,2,0,L|0:216,4,31.4999990386963,0|0|0|0|4,0:0|0:0|0:0|0:0|0:0,0:0:0:0:
156,100,489248,1,0,0:0:0:0:
64,352,489498,1,4,0:0:0:0:
272,32,489748,6,0,L|256:112,1,62.9999980773926,2|0,0:0|0:0,0:0:0:0:
224,268,489998,1,2,0:0:0:0:
220,280,491748,5,0,0:0:0:0:
216,308,491998,1,0,0:0:0:0:
