osu file format v14

[General]
AudioFilename: audio.mp3
AudioLeadIn: 0
PreviewTime: 17973
Countdown: 0
SampleSet: Normal
StackLeniency: 0.7
Mode: 1
LetterboxInBreaks: 0
WidescreenStoryboard: 1

[Editor]
DistanceSpacing: 1.5
BeatDivisor: 4
GridSize: 32
TimelineZoom: 2.5

[Metadata]
Title:The World Revolving (feat. ToxicxEternity)
TitleUnicode:The World Revolving (feat. ToxicxEternity)
Artist:FamilyJules
ArtistUnicode:FamilyJules
Creator:Hakuryu
Version:Chaos!
Source:DELTARUNE
Tags:metal cover
BeatmapID:2044504
BeatmapSetID:976773

[Difficulty]
HPDrainRate:5
CircleSize:5
OverallDifficulty:7
ApproachRate:5
SliderMultiplier:1.4
SliderTickRate:1

[Events]
//Background and Video events
0,0,"GB.png",0,0
//Break Periods
//Storyboard Layer 0 (Background)
//Storyboard Layer 1 (Fail)
//Storyboard Layer 2 (Pass)
//Storyboard Layer 3 (Foreground)
//Storyboard Sound Samples

[TimingPoints]
289,315.789473684211,4,1,0,70,1,0
17920,-100,4,1,0,10,0,0
18446,-111.111111111111,4,1,0,10,0,0
18920,-117.647058823529,4,1,0,10,0,0
19236,-121.951219512195,4,1,0,10,0,0
19710,-126.582278481013,4,1,0,10,0,0
19789,-129.87012987013,4,1,0,10,0,0
19867,-133.333333333333,4,1,0,10,0,0
21446,-33.3333333333333,4,1,0,10,0,0
23025,-90.9090909090909,4,1,0,70,0,1
33131,-86.9565217391304,4,1,0,70,0,1
43236,-100,4,1,0,70,0,0
53341,-90.9090909090909,4,1,0,70,0,1
62183,-90.9090909090909,4,1,0,70,0,0
62815,-100,4,1,0,70,0,0
81052,-100,4,1,0,10,0,0
81131,-111.111111111111,4,1,0,10,0,0
81604,-125,4,1,0,10,0,0
82078,-142.857142857143,4,1,0,10,0,0
82394,-166.666666666667,4,1,0,10,0,0
82867,-178.571428571429,4,1,0,10,0,0
82946,-188.679245283019,4,1,0,10,0,0
83025,-200,4,1,0,10,0,0
96289,-90.9090909090909,4,1,0,70,0,1
104025,-100,4,1,0,70,0,0
113973,-90.9090909090909,4,1,0,70,0,1
123762,-90.9090909090909,4,1,0,70,0,0
124078,-100,4,1,0,70,0,0
134183,-95.2380952380952,4,1,0,70,0,1
144289,-90.9090909090909,4,1,0,70,0,1
149341,-100,4,1,0,70,0,1
152025,-95.2380952380952,4,1,0,70,0,1
153131,-90.9090909090909,4,1,0,70,0,1
164499,-90.9090909090909,4,1,0,70,0,0
164657,-100,4,1,0,70,0,0
174604,-83.3333333333333,4,1,0,70,0,1
183446,-74.0740740740741,4,1,0,70,0,0
183710,-74.0740740740741,4,1,0,10,0,0
183762,-100,4,1,0,10,0,0
184078,-111.111111111111,4,1,0,10,0,0
184394,-125,4,1,0,10,0,0
184710,-142.857142857143,4,1,0,10,0,0
185604,-100,4,1,0,5,0,0
185657,-200,4,1,0,5,0,0

[HitObjects]
258,197,289,5,0,0:0:0:0:
258,197,446,1,8,0:0:0:0:
258,197,604,1,0,0:0:0:0:
258,197,762,1,0,0:0:0:0:
258,197,920,1,8,0:0:0:0:
255,166,1078,1,0,0:0:0:0:
256,191,1394,1,8,0:0:0:0:
256,191,1710,1,8,0:0:0:0:
256,191,1867,1,0,0:0:0:0:
256,191,2025,1,0,0:0:0:0:
256,191,2183,1,0,0:0:0:0:
256,191,2341,1,8,0:0:0:0:
256,191,2499,1,0,0:0:0:0:
256,191,2815,1,0,0:0:0:0:
249,196,3289,1,8,0:0:0:0:
249,196,3762,1,0,0:0:0:0:
262,180,4078,1,8,0:0:0:0:
261,180,4394,1,8,0:0:0:0:
264,187,4710,1,0,0:0:0:0:
264,186,5025,1,8,0:0:0:0:
264,186,5341,1,4,0:0:0:0:
264,187,5499,1,0,0:0:0:0:
264,187,5657,1,0,0:0:0:0:
261,190,5815,1,8,0:0:0:0:
261,190,5973,1,0,0:0:0:0:
261,190,6131,1,0,0:0:0:0:
264,187,6446,1,8,0:0:0:0:
261,190,6762,1,8,0:0:0:0:
261,190,6920,1,0,0:0:0:0:
261,190,7078,1,8,0:0:0:0:
264,187,7236,1,0,0:0:0:0:
264,187,7394,1,0,0:0:0:0:
261,190,7552,1,0,0:0:0:0:
261,190,7867,1,4,0:0:0:0:
260,195,8341,1,0,0:0:0:0:
260,195,8815,1,8,0:0:0:0:
260,195,9131,1,0,0:0:0:0:
260,195,9604,1,0,0:0:0:0:
260,195,9683,1,0,0:0:0:0:
260,195,9762,1,8,0:0:0:0:
247,194,10394,5,8,0:0:0:0:
251,194,10552,1,0,0:0:0:0:
253,195,10710,1,0,0:0:0:0:
253,195,10867,1,8,0:0:0:0:
253,195,11025,1,0,0:0:0:0:
253,195,11183,1,8,0:0:0:0:
253,195,11341,1,0,0:0:0:0:
251,194,11499,1,8,0:0:0:0:
253,195,11657,1,8,0:0:0:0:
253,195,11815,1,0,0:0:0:0:
253,195,11973,1,8,0:0:0:0:
253,195,12131,1,0,0:0:0:0:
253,195,12289,1,8,0:0:0:0:
251,194,12446,1,8,0:0:0:0:
253,195,12604,1,0,0:0:0:0:
253,195,12762,1,8,0:0:0:0:
253,195,12841,1,8,0:0:0:0:
253,195,12920,1,0,0:0:0:0:
256,200,13078,1,0,0:0:0:0:
256,200,13236,1,8,0:0:0:0:
256,200,13394,1,8,0:0:0:0:
256,200,13552,1,0,0:0:0:0:
256,200,13710,1,0,0:0:0:0:
256,200,13867,1,8,0:0:0:0:
256,200,14025,1,0,0:0:0:0:
256,200,14183,1,8,0:0:0:0:
256,200,14499,1,8,0:0:0:0:
256,200,14657,1,0,0:0:0:0:
256,200,14815,1,0,0:0:0:0:
256,200,14973,1,8,0:0:0:0:
256,200,15131,1,0,0:0:0:0:
256,200,15289,1,0,0:0:0:0:
256,200,15446,1,8,0:0:0:0:
256,200,15762,1,8,0:0:0:0:
256,200,15920,1,8,0:0:0:0:
256,200,16078,1,0,0:0:0:0:
256,200,16236,1,0,0:0:0:0:
256,200,16394,1,8,0:0:0:0:
256,200,16552,1,0,0:0:0:0:
274,198,16710,1,8,0:0:0:0:
274,198,16867,1,0,0:0:0:0:
274,198,17025,1,8,0:0:0:0:
274,198,17183,1,0,0:0:0:0:
274,198,17341,1,0,0:0:0:0:
274,198,17499,1,8,0:0:0:0:
274,198,17657,1,0,0:0:0:0:
274,198,17815,1,0,0:0:0:0:
257,192,17973,5,8,0:0:0:0:
228,108,18446,1,0,0:0:0:0:
257,192,18920,1,0,0:0:0:0:
257,192,19236,1,12,0:0:0:0:
257,192,19710,1,8,0:0:0:0:
257,192,19789,1,8,0:0:0:0:
257,192,19867,1,0,0:0:0:0:
256,192,21446,12,0,22710,0:0:0:0:
256,192,23025,5,0,0:0:0:0:
256,192,23104,1,0,0:0:0:0:
256,192,23183,1,0,0:0:0:0:
256,192,23262,1,0,0:0:0:0:
256,192,23341,1,8,0:0:0:0:
256,192,23420,1,8,0:0:0:0:
256,192,23499,1,0,0:0:0:0:
256,192,23578,1,0,0:0:0:0:
256,192,23657,1,0,0:0:0:0:
256,192,23736,1,0,0:0:0:0:
256,192,23815,1,8,0:0:0:0:
256,192,23894,1,8,0:0:0:0:
256,192,23973,1,8,0:0:0:0:
256,192,24052,1,0,0:0:0:0:
256,192,24131,1,8,0:0:0:0:
256,192,24210,1,0,0:0:0:0:
256,192,24289,1,0,0:0:0:0:
256,192,24367,1,0,0:0:0:0:
256,192,24446,1,8,0:0:0:0:
256,192,24525,1,0,0:0:0:0:
256,192,24604,1,8,0:0:0:0:
256,192,24683,1,8,0:0:0:0:
256,192,24762,1,0,0:0:0:0:
256,192,24841,1,0,0:0:0:0:
256,192,24920,1,8,0:0:0:0:
256,192,24999,1,0,0:0:0:0:
256,192,25078,1,0,0:0:0:0:
256,192,25157,1,0,0:0:0:0:
256,192,25236,1,8,0:0:0:0:
256,192,25315,1,0,0:0:0:0:
256,192,25394,1,8,0:0:0:0:
256,192,25473,1,0,0:0:0:0:
256,192,25552,1,0,0:0:0:0:
256,192,25631,1,0,0:0:0:0:
256,192,25710,1,0,0:0:0:0:
256,192,25789,1,0,0:0:0:0:
256,192,25867,1,8,0:0:0:0:
256,192,25946,1,8,0:0:0:0:
256,192,26025,1,0,0:0:0:0:
256,192,26104,1,0,0:0:0:0:
256,192,26183,1,8,0:0:0:0:
256,192,26262,1,8,0:0:0:0:
256,192,26341,1,0,0:0:0:0:
256,192,26420,1,0,0:0:0:0:
256,192,26499,1,8,0:0:0:0:
256,192,26578,1,0,0:0:0:0:
256,192,26657,1,8,0:0:0:0:
256,192,26736,1,0,0:0:0:0:
256,192,26815,1,0,0:0:0:0:
256,192,26894,1,0,0:0:0:0:
256,192,26973,1,8,0:0:0:0:
256,192,27052,1,0,0:0:0:0:
256,192,27131,1,8,0:0:0:0:
256,192,27210,1,8,0:0:0:0:
256,192,27289,1,0,0:0:0:0:
256,192,27367,1,0,0:0:0:0:
256,192,27446,1,8,0:0:0:0:
256,192,27525,1,0,0:0:0:0:
256,192,27604,1,0,0:0:0:0:
256,192,27683,1,0,0:0:0:0:
256,192,27762,1,8,0:0:0:0:
256,192,27841,1,0,0:0:0:0:
256,192,27920,1,0,0:0:0:0:
256,192,27999,1,0,0:0:0:0:
256,192,28078,1,8,0:0:0:0:
256,192,28157,1,8,0:0:0:0:
256,192,28236,1,0,0:0:0:0:
256,192,28315,1,0,0:0:0:0:
256,192,28394,1,8,0:0:0:0:
256,192,28473,1,0,0:0:0:0:
256,192,28552,1,8,0:0:0:0:
256,192,28631,1,0,0:0:0:0:
256,192,28710,1,0,0:0:0:0:
256,192,28789,1,0,0:0:0:0:
256,192,28867,1,8,0:0:0:0:
256,192,28946,1,8,0:0:0:0:
256,192,29025,1,0,0:0:0:0:
256,192,29104,1,0,0:0:0:0:
256,192,29183,1,8,0:0:0:0:
256,192,29236,1,8,0:0:0:0:
256,192,29289,1,8,0:0:0:0:
256,192,29341,1,0,0:0:0:0:
260,194,29420,1,0,0:0:0:0:
256,198,29499,1,0,0:0:0:0:
256,192,29578,1,0,0:0:0:0:
256,192,29657,1,8,0:0:0:0:
256,192,29736,1,0,0:0:0:0:
256,192,29815,1,8,0:0:0:0:
256,192,29894,1,0,0:0:0:0:
256,192,29973,1,0,0:0:0:0:
256,192,30052,1,0,0:0:0:0:
256,192,30131,1,8,0:0:0:0:
256,192,30210,1,0,0:0:0:0:
256,192,30289,1,8,0:0:0:0:
256,192,30367,1,0,0:0:0:0:
256,192,30446,1,0,0:0:0:0:
256,192,30525,1,0,0:0:0:0:
256,192,30604,1,8,0:0:0:0:
256,192,30683,1,8,0:0:0:0:
256,192,30762,1,0,0:0:0:0:
256,192,30841,1,0,0:0:0:0:
256,192,30920,1,8,0:0:0:0:
256,192,30999,1,0,0:0:0:0:
256,192,31078,1,8,0:0:0:0:
256,192,31157,1,0,0:0:0:0:
256,192,31236,1,0,0:0:0:0:
256,192,31315,1,0,0:0:0:0:
256,192,31394,1,8,0:0:0:0:
256,192,31473,1,0,0:0:0:0:
256,192,31552,1,8,0:0:0:0:
256,192,31631,1,8,0:0:0:0:
256,192,31710,1,0,0:0:0:0:
256,192,31789,1,0,0:0:0:0:
256,192,31867,1,8,0:0:0:0:
256,192,31946,5,0,0:0:0:0:
256,192,32025,1,0,0:0:0:0:
256,192,32104,1,0,0:0:0:0:
256,192,32183,1,8,0:0:0:0:
256,192,32262,1,0,0:0:0:0:
256,192,32341,1,8,0:0:0:0:
256,192,32394,1,8,0:0:0:0:
256,192,32446,1,8,0:0:0:0:
256,192,32499,1,0,0:0:0:0:
256,192,32578,1,0,0:0:0:0:
256,192,32657,1,8,0:0:0:0:
256,192,32736,1,0,0:0:0:0:
256,192,32815,1,0,0:0:0:0:
256,192,32894,1,0,0:0:0:0:
256,192,32973,1,8,0:0:0:0:
256,192,33131,5,0,0:0:0:0:
256,192,33210,1,0,0:0:0:0:
256,192,33289,1,0,0:0:0:0:
256,192,33368,1,0,0:0:0:0:
256,192,33447,1,8,0:0:0:0:
256,192,33526,1,0,0:0:0:0:
256,192,33605,1,0,0:0:0:0:
256,192,33684,1,0,0:0:0:0:
256,192,33763,1,0,0:0:0:0:
256,192,33842,1,0,0:0:0:0:
256,192,33921,1,8,0:0:0:0:
256,192,34000,1,8,0:0:0:0:
256,192,34079,1,0,0:0:0:0:
256,192,34158,1,0,0:0:0:0:
256,192,34237,1,8,0:0:0:0:
256,192,34316,1,0,0:0:0:0:
256,192,34395,1,0,0:0:0:0:
256,192,34473,1,0,0:0:0:0:
256,192,34552,1,8,0:0:0:0:
256,192,34631,1,0,0:0:0:0:
256,192,34710,1,8,0:0:0:0:
256,192,34789,1,8,0:0:0:0:
256,192,34868,1,0,0:0:0:0:
256,192,34947,1,0,0:0:0:0:
256,192,35026,1,8,0:0:0:0:
256,192,35105,1,0,0:0:0:0:
256,192,35184,1,0,0:0:0:0:
256,192,35263,1,0,0:0:0:0:
256,192,35342,1,8,0:0:0:0:
256,192,35421,1,0,0:0:0:0:
256,192,35500,1,8,0:0:0:0:
256,192,35579,1,0,0:0:0:0:
256,192,35658,1,0,0:0:0:0:
256,192,35737,1,0,0:0:0:0:
256,192,35816,1,0,0:0:0:0:
256,192,35895,1,0,0:0:0:0:
256,192,35973,1,8,0:0:0:0:
256,192,36052,1,8,0:0:0:0:
256,192,36131,1,0,0:0:0:0:
256,192,36210,1,0,0:0:0:0:
256,192,36289,1,8,0:0:0:0:
256,192,36368,1,8,0:0:0:0:
256,192,36447,1,0,0:0:0:0:
256,192,36526,1,0,0:0:0:0:
256,192,36605,1,8,0:0:0:0:
256,192,36684,1,0,0:0:0:0:
256,192,36763,1,8,0:0:0:0:
256,192,36842,1,0,0:0:0:0:
256,192,36921,1,0,0:0:0:0:
256,192,37000,1,0,0:0:0:0:
256,192,37079,1,8,0:0:0:0:
256,192,37158,1,0,0:0:0:0:
256,192,37237,1,8,0:0:0:0:
256,192,37316,1,8,0:0:0:0:
256,192,37395,1,0,0:0:0:0:
256,192,37473,1,0,0:0:0:0:
256,192,37552,1,8,0:0:0:0:
256,192,37631,1,0,0:0:0:0:
256,192,37710,1,0,0:0:0:0:
256,192,37789,1,0,0:0:0:0:
256,192,37868,1,8,0:0:0:0:
256,192,37947,1,0,0:0:0:0:
256,192,38026,1,0,0:0:0:0:
256,192,38105,1,0,0:0:0:0:
256,192,38184,1,8,0:0:0:0:
256,192,38263,1,8,0:0:0:0:
256,192,38342,1,0,0:0:0:0:
256,192,38421,1,0,0:0:0:0:
256,192,38500,1,8,0:0:0:0:
256,192,38579,1,0,0:0:0:0:
256,192,38658,1,8,0:0:0:0:
256,192,38737,1,0,0:0:0:0:
256,192,38816,1,0,0:0:0:0:
256,192,38895,1,0,0:0:0:0:
256,192,38973,1,8,0:0:0:0:
256,192,39052,1,8,0:0:0:0:
256,192,39131,1,0,0:0:0:0:
256,192,39210,1,0,0:0:0:0:
256,192,39289,1,8,0:0:0:0:
256,192,39342,1,8,0:0:0:0:
256,192,39395,1,8,0:0:0:0:
256,192,39447,1,0,0:0:0:0:
260,194,39526,1,0,0:0:0:0:
256,198,39605,1,0,0:0:0:0:
256,192,39684,1,0,0:0:0:0:
256,192,39763,1,8,0:0:0:0:
256,192,39842,1,0,0:0:0:0:
256,192,39921,1,8,0:0:0:0:
256,192,40000,1,0,0:0:0:0:
256,192,40079,1,0,0:0:0:0:
256,192,40158,1,0,0:0:0:0:
256,192,40237,1,0,0:0:0:0:
256,192,40316,1,0,0:0:0:0:
256,192,40395,1,8,0:0:0:0:
256,192,40473,1,8,0:0:0:0:
256,192,40552,1,0,0:0:0:0:
256,192,40631,1,0,0:0:0:0:
256,192,40710,1,8,0:0:0:0:
256,192,40789,1,0,0:0:0:0:
256,192,40868,1,0,0:0:0:0:
256,192,40947,1,0,0:0:0:0:
256,192,41026,1,8,0:0:0:0:
256,192,41105,1,0,0:0:0:0:
256,192,41184,1,8,0:0:0:0:
256,192,41263,1,0,0:0:0:0:
256,192,41342,1,0,0:0:0:0:
256,192,41421,1,0,0:0:0:0:
256,192,41500,1,8,0:0:0:0:
256,192,41579,1,0,0:0:0:0:
256,192,41658,1,8,0:0:0:0:
256,192,41737,1,8,0:0:0:0:
256,192,41816,1,0,0:0:0:0:
256,192,41895,1,0,0:0:0:0:
256,192,41973,1,8,0:0:0:0:
256,192,42052,5,0,0:0:0:0:
256,192,42131,1,0,0:0:0:0:
256,192,42210,1,0,0:0:0:0:
256,192,42289,1,8,0:0:0:0:
256,192,42368,1,0,0:0:0:0:
256,192,42447,1,8,0:0:0:0:
256,192,42500,1,8,0:0:0:0:
256,192,42552,1,8,0:0:0:0:
256,192,42605,1,0,0:0:0:0:
256,192,42684,1,0,0:0:0:0:
256,192,42763,1,8,0:0:0:0:
256,192,42842,1,0,0:0:0:0:
256,192,42920,1,8,0:0:0:0:
260,195,43236,1,0,0:0:0:0:
254,198,43394,1,0,0:0:0:0:
265,189,43552,1,8,0:0:0:0:
256,192,43631,1,8,0:0:0:0:
265,189,43710,1,0,0:0:0:0:
265,189,43867,1,0,0:0:0:0:
251,200,44025,1,8,0:0:0:0:
251,200,44183,1,0,0:0:0:0:
254,198,44341,1,0,0:0:0:0:
254,198,44420,1,0,0:0:0:0:
251,200,44499,1,8,0:0:0:0:
251,200,44657,1,0,0:0:0:0:
251,200,44815,1,8,0:0:0:0:
251,200,44973,1,0,0:0:0:0:
251,200,45052,1,0,0:0:0:0:
251,200,45131,1,8,0:0:0:0:
249,201,45289,1,0,0:0:0:0:
251,200,45446,1,0,0:0:0:0:
251,200,45604,1,8,0:0:0:0:
256,204,45762,1,8,0:0:0:0:
256,204,45920,1,8,0:0:0:0:
256,204,45973,1,0,0:0:0:0:
256,204,46025,1,0,0:0:0:0:
261,198,46078,1,8,0:0:0:0:
265,198,46236,1,0,0:0:0:0:
265,198,46394,1,0,0:0:0:0:
259,196,46473,1,0,0:0:0:0:
265,198,46552,1,8,0:0:0:0:
265,198,46710,1,0,0:0:0:0:
265,198,46867,1,8,0:0:0:0:
263,202,46946,1,0,0:0:0:0:
261,198,47025,1,0,0:0:0:0:
265,198,47183,1,8,0:0:0:0:
265,198,47341,1,0,0:0:0:0:
265,198,47499,1,0,0:0:0:0:
261,202,47578,1,0,0:0:0:0:
265,198,47657,1,8,0:0:0:0:
265,198,47815,1,0,0:0:0:0:
261,198,47973,1,8,0:0:0:0:
271,200,48052,1,0,0:0:0:0:
265,198,48131,1,8,0:0:0:0:
265,198,48289,1,8,0:0:0:0:
265,198,48446,1,0,0:0:0:0:
265,198,48499,1,0,0:0:0:0:
267,203,48552,1,0,0:0:0:0:
265,198,48604,1,8,0:0:0:0:
265,198,48762,1,0,0:0:0:0:
261,198,48920,1,0,0:0:0:0:
260,198,49078,1,8,0:0:0:0:
260,198,49157,1,8,0:0:0:0:
260,198,49236,1,0,0:0:0:0:
260,198,49394,1,8,0:0:0:0:
260,198,49552,1,0,0:0:0:0:
260,198,49710,5,0,0:0:0:0:
260,198,49789,1,0,0:0:0:0:
261,198,49867,1,8,0:0:0:0:
260,198,50025,1,0,0:0:0:0:
260,198,50183,1,8,0:0:0:0:
260,198,50499,1,8,0:0:0:0:
260,198,50657,1,0,0:0:0:0:
255,198,50815,5,8,0:0:0:0:
255,198,50894,1,8,0:0:0:0:
255,198,50973,1,0,0:0:0:0:
255,198,51052,1,8,0:0:0:0:
255,198,51131,1,0,0:0:0:0:
255,198,51210,1,8,0:0:0:0:
255,198,51289,1,0,0:0:0:0:
255,198,51367,1,0,0:0:0:0:
255,198,51446,1,8,0:0:0:0:
256,185,51604,1,0,0:0:0:0:
256,185,51762,1,8,0:0:0:0:
251,173,51920,1,0,0:0:0:0:
251,173,51999,1,0,0:0:0:0:
251,173,52078,1,0,0:0:0:0:
251,173,52236,1,0,0:0:0:0:
251,173,52394,1,8,0:0:0:0:
251,173,52473,1,8,0:0:0:0:
251,173,52552,1,0,0:0:0:0:
251,173,52710,1,8,0:0:0:0:
251,173,52867,1,0,0:0:0:0:
258,190,53025,1,8,0:0:0:0:
258,190,53183,1,0,0:0:0:0:
258,189,53341,5,8,0:0:0:0:
258,189,53420,1,8,0:0:0:0:
258,189,53499,1,0,0:0:0:0:
258,189,53578,1,0,0:0:0:0:
258,189,53657,1,8,0:0:0:0:
258,189,53736,1,0,0:0:0:0:
258,189,53815,1,0,0:0:0:0:
258,189,53894,1,0,0:0:0:0:
258,189,53973,1,8,0:0:0:0:
258,189,54052,1,0,0:0:0:0:
258,189,54131,1,0,0:0:0:0:
258,189,54210,1,0,0:0:0:0:
258,189,54289,1,8,0:0:0:0:
258,189,54367,1,0,0:0:0:0:
258,189,54446,1,8,0:0:0:0:
258,189,54525,1,8,0:0:0:0:
258,189,54604,1,0,0:0:0:0:
258,189,54683,1,0,0:0:0:0:
258,189,54762,1,8,0:0:0:0:
258,189,54841,1,0,0:0:0:0:
258,189,54920,1,0,0:0:0:0:
258,189,54999,1,0,0:0:0:0:
258,189,55078,1,8,0:0:0:0:
258,189,55157,1,0,0:0:0:0:
258,189,55236,1,8,0:0:0:0:
258,189,55315,1,8,0:0:0:0:
258,189,55394,1,0,0:0:0:0:
258,189,55473,1,0,0:0:0:0:
258,189,55552,1,8,0:0:0:0:
258,189,55631,1,0,0:0:0:0:
258,189,55710,1,8,0:0:0:0:
258,189,55789,1,0,0:0:0:0:
258,189,55867,1,8,0:0:0:0:
258,189,55920,1,8,0:0:0:0:
258,189,55973,1,8,0:0:0:0:
258,189,56025,1,0,0:0:0:0:
258,189,56104,1,0,0:0:0:0:
258,189,56183,1,8,0:0:0:0:
258,189,56262,1,0,0:0:0:0:
258,189,56341,1,8,0:0:0:0:
258,189,56420,1,8,0:0:0:0:
258,189,56499,1,0,0:0:0:0:
258,189,56578,1,0,0:0:0:0:
258,189,56657,1,8,0:0:0:0:
258,189,56736,1,0,0:0:0:0:
258,189,56815,1,8,0:0:0:0:
258,189,56894,1,8,0:0:0:0:
258,189,56973,1,0,0:0:0:0:
258,189,57052,1,0,0:0:0:0:
258,189,57131,1,8,0:0:0:0:
258,189,57210,1,0,0:0:0:0:
258,189,57289,1,8,0:0:0:0:
258,189,57367,1,0,0:0:0:0:
258,189,57446,1,8,0:0:0:0:
258,189,57525,1,8,0:0:0:0:
258,189,57604,1,0,0:0:0:0:
258,189,57683,1,0,0:0:0:0:
258,189,57762,1,8,0:0:0:0:
258,189,57841,1,0,0:0:0:0:
258,189,57920,1,0,0:0:0:0:
258,189,57999,1,0,0:0:0:0:
258,189,58078,1,8,0:0:0:0:
258,189,58157,1,8,0:0:0:0:
258,189,58236,1,0,0:0:0:0:
258,189,58315,1,0,0:0:0:0:
258,189,58394,1,8,0:0:0:0:
258,189,58446,1,8,0:0:0:0:
258,189,58499,1,8,0:0:0:0:
258,189,58552,1,0,0:0:0:0:
258,189,58631,1,0,0:0:0:0:
258,189,58710,1,8,0:0:0:0:
258,189,58789,1,0,0:0:0:0:
258,189,58867,1,8,0:0:0:0:
258,189,58946,1,0,0:0:0:0:
258,189,59025,1,0,0:0:0:0:
258,189,59104,1,0,0:0:0:0:
258,189,59183,1,8,0:0:0:0:
258,189,59262,1,8,0:0:0:0:
258,189,59341,1,0,0:0:0:0:
258,189,59420,1,0,0:0:0:0:
258,189,59499,1,8,0:0:0:0:
258,189,59578,1,0,0:0:0:0:
258,189,59657,1,8,0:0:0:0:
258,189,59736,1,8,0:0:0:0:
258,189,59815,1,0,0:0:0:0:
258,189,59894,1,0,0:0:0:0:
258,189,59973,1,8,0:0:0:0:
258,189,60052,1,8,0:0:0:0:
258,189,60131,1,0,0:0:0:0:
258,189,60210,1,0,0:0:0:0:
258,189,60289,1,8,0:0:0:0:
258,189,60367,1,0,0:0:0:0:
258,189,60446,1,0,0:0:0:0:
258,189,60525,1,0,0:0:0:0:
258,189,60604,1,8,0:0:0:0:
258,189,60683,1,8,0:0:0:0:
258,189,60762,1,8,0:0:0:0:
258,189,60841,1,0,0:0:0:0:
258,189,60920,1,8,0:0:0:0:
258,189,60999,5,8,0:0:0:0:
258,189,61078,1,0,0:0:0:0:
258,189,61157,1,0,0:0:0:0:
258,189,61236,1,8,0:0:0:0:
258,189,61315,1,0,0:0:0:0:
258,189,61394,1,8,0:0:0:0:
258,189,61473,1,8,0:0:0:0:
258,189,61552,1,0,0:0:0:0:
258,189,61631,1,0,0:0:0:0:
258,189,61710,1,8,0:0:0:0:
258,189,61789,1,0,0:0:0:0:
258,189,61867,1,8,0:0:0:0:
258,189,61946,1,0,0:0:0:0:
258,189,62025,1,0,0:0:0:0:
258,189,62104,1,0,0:0:0:0:
257,192,62183,5,8,0:0:0:0:
243,197,62815,1,0,0:0:0:0:
251,196,63446,1,8,0:0:0:0:
251,196,63525,1,8,0:0:0:0:
251,196,63604,1,0,0:0:0:0:
242,163,63762,1,0,0:0:0:0:
242,163,63920,1,8,0:0:0:0:
242,163,64078,1,0,0:0:0:0:
242,163,64236,1,8,0:0:0:0:
242,163,64315,1,8,0:0:0:0:
242,163,64394,1,0,0:0:0:0:
233,177,64473,1,0,0:0:0:0:
235,177,64552,1,8,0:0:0:0:
244,173,64710,1,0,0:0:0:0:
244,173,64867,1,8,0:0:0:0:
244,173,65025,1,0,0:0:0:0:
245,173,65183,1,0,0:0:0:0:
244,173,65262,1,0,0:0:0:0:
244,173,65341,1,8,0:0:0:0:
244,173,65499,1,0,0:0:0:0:
244,173,65657,1,0,0:0:0:0:
244,173,65736,1,0,0:0:0:0:
244,173,65815,1,8,0:0:0:0:
244,173,65894,1,0,0:0:0:0:
244,173,65973,1,8,0:0:0:0:
253,197,66131,1,0,0:0:0:0:
253,197,66289,1,8,0:0:0:0:
252,197,66367,1,8,0:0:0:0:
252,197,66446,1,0,0:0:0:0:
252,197,66604,1,0,0:0:0:0:
252,197,66762,1,8,0:0:0:0:
252,197,66920,1,8,0:0:0:0:
253,197,67078,1,0,0:0:0:0:
253,197,67157,1,0,0:0:0:0:
253,197,67236,1,8,0:0:0:0:
252,197,67394,1,0,0:0:0:0:
263,193,67552,1,8,0:0:0:0:
264,193,67631,1,8,0:0:0:0:
264,193,67710,1,0,0:0:0:0:
264,193,67867,1,0,0:0:0:0:
264,192,68025,1,0,0:0:0:0:
263,192,68183,1,8,0:0:0:0:
258,192,68341,1,0,0:0:0:0:
258,192,68420,1,0,0:0:0:0:
263,193,68499,1,8,0:0:0:0:
256,197,68657,1,0,0:0:0:0:
256,197,68815,1,8,0:0:0:0:
256,197,68973,1,0,0:0:0:0:
256,197,69131,1,8,0:0:0:0:
256,197,69210,1,0,0:0:0:0:
256,197,69289,1,0,0:0:0:0:
256,197,69446,1,8,0:0:0:0:
256,197,69604,1,0,0:0:0:0:
256,197,69762,1,0,0:0:0:0:
256,197,69920,1,8,0:0:0:0:
256,197,69999,1,0,0:0:0:0:
256,197,70078,1,8,0:0:0:0:
256,197,70236,1,0,0:0:0:0:
256,197,70394,1,0,0:0:0:0:
256,197,70473,1,0,0:0:0:0:
256,197,70552,1,8,0:0:0:0:
256,197,70631,1,8,0:0:0:0:
256,197,70710,1,0,0:0:0:0:
256,197,70867,1,0,0:0:0:0:
256,197,71025,1,4,0:0:0:0:
256,197,71499,1,0,0:0:0:0:
256,197,71657,1,8,0:0:0:0:
256,197,71973,1,0,0:0:0:0:
256,197,72289,1,8,0:0:0:0:
256,197,72367,1,8,0:0:0:0:
256,197,72446,1,0,0:0:0:0:
256,197,72604,1,0,0:0:0:0:
256,197,72762,1,8,0:0:0:0:
256,197,72920,1,0,0:0:0:0:
263,183,73236,1,8,0:0:0:0:
263,183,73394,1,8,0:0:0:0:
263,183,73552,1,0,0:0:0:0:
260,190,73710,1,0,0:0:0:0:
260,190,73867,1,8,0:0:0:0:
260,190,73946,1,0,0:0:0:0:
260,190,74025,1,8,0:0:0:0:
260,190,74104,1,8,0:0:0:0:
260,190,74183,1,0,0:0:0:0:
260,190,74262,1,0,0:0:0:0:
260,190,74341,1,8,0:0:0:0:
260,190,74420,1,0,0:0:0:0:
260,190,74499,1,8,0:0:0:0:
260,190,74578,1,8,0:0:0:0:
260,190,74657,1,0,0:0:0:0:
260,190,74736,1,0,0:0:0:0:
260,190,74815,1,8,0:0:0:0:
260,190,74894,1,0,0:0:0:0:
260,190,74973,1,0,0:0:0:0:
260,190,75052,1,0,0:0:0:0:
260,190,75131,1,8,0:0:0:0:
260,190,75289,1,0,0:0:0:0:
260,190,75446,1,8,0:0:0:0:
260,190,75604,1,0,0:0:0:0:
260,190,75762,1,0,0:0:0:0:
260,190,75920,1,8,0:0:0:0:
260,190,75999,1,8,0:0:0:0:
260,190,76078,1,0,0:0:0:0:
260,190,76236,1,0,0:0:0:0:
260,190,76394,1,8,0:0:0:0:
260,190,76473,1,0,0:0:0:0:
260,190,76552,1,0,0:0:0:0:
260,190,76710,1,0,0:0:0:0:
260,190,76867,1,8,0:0:0:0:
260,190,77025,1,0,0:0:0:0:
260,190,77183,1,0,0:0:0:0:
260,190,77262,1,0,0:0:0:0:
260,190,77341,1,8,0:0:0:0:
260,190,77499,1,0,0:0:0:0:
260,190,77657,1,0,0:0:0:0:
260,190,77736,1,0,0:0:0:0:
260,190,77815,1,8,0:0:0:0:
260,190,77894,1,0,0:0:0:0:
260,190,77973,1,8,0:0:0:0:
260,190,78131,1,0,0:0:0:0:
260,190,78289,1,8,0:0:0:0:
260,190,78446,1,0,0:0:0:0:
260,190,78604,1,8,0:0:0:0:
260,190,78762,1,0,0:0:0:0:
241,199,78920,1,0,0:0:0:0:
242,199,78999,1,0,0:0:0:0:
242,199,79078,1,8,0:0:0:0:
242,199,79157,1,8,0:0:0:0:
242,199,79236,1,0,0:0:0:0:
242,199,79315,1,0,0:0:0:0:
242,199,79394,1,8,0:0:0:0:
242,199,79473,1,0,0:0:0:0:
242,199,79552,1,8,0:0:0:0:
242,199,79631,1,0,0:0:0:0:
242,199,79710,1,0,0:0:0:0:
242,199,79789,1,0,0:0:0:0:
241,199,79867,1,8,0:0:0:0:
251,193,79946,5,8,0:0:0:0:
251,193,80025,1,8,0:0:0:0:
251,193,80104,1,0,0:0:0:0:
251,193,80183,1,8,0:0:0:0:
269,184,80341,1,0,0:0:0:0:
269,184,80499,1,8,0:0:0:0:
269,184,80657,1,0,0:0:0:0:
268,184,80815,1,0,0:0:0:0:
268,184,80894,1,0,0:0:0:0:
268,184,80973,1,0,0:0:0:0:
257,196,81131,5,0,0:0:0:0:
259,191,81604,1,0,0:0:0:0:
266,181,82078,1,8,0:0:0:0:
266,181,82394,1,0,0:0:0:0:
266,181,82867,1,8,0:0:0:0:
266,181,82946,1,0,0:0:0:0:
266,181,83025,1,0,0:0:0:0:
256,196,83657,1,0,0:0:0:0:
259,196,83973,1,0,0:0:0:0:
256,196,84131,1,0,0:0:0:0:
256,196,84289,1,8,0:0:0:0:
256,207,85078,1,8,0:0:0:0:
256,207,85236,1,0,0:0:0:0:
256,207,85394,1,8,0:0:0:0:
258,212,85552,1,8,0:0:0:0:
245,196,85867,1,8,0:0:0:0:
245,196,86025,1,0,0:0:0:0:
256,190,87604,1,0,0:0:0:0:
256,190,87762,1,0,0:0:0:0:
256,190,87920,1,8,0:0:0:0:
256,190,88078,1,0,0:0:0:0:
256,190,88394,1,0,0:0:0:0:
256,190,88552,1,8,0:0:0:0:
256,190,88710,1,0,0:0:0:0:
227,220,88867,1,0,0:0:0:0:
251,196,89025,1,0,0:0:0:0:
251,196,89183,1,8,0:0:0:0:
251,196,89815,1,8,0:0:0:0:
251,196,89894,1,8,0:0:0:0:
251,196,89973,1,0,0:0:0:0:
251,196,90289,1,0,0:0:0:0:
251,196,90446,1,8,0:0:0:0:
251,196,90920,1,0,0:0:0:0:
251,196,91236,1,0,0:0:0:0:
251,196,91710,1,8,0:0:0:0:
251,196,92183,1,8,0:0:0:0:
251,196,92499,1,0,0:0:0:0:
251,196,92973,1,0,0:0:0:0:
251,196,93052,1,0,0:0:0:0:
251,196,93131,1,8,0:0:0:0:
251,196,93446,1,0,0:0:0:0:
251,196,93762,1,8,0:0:0:0:
250,198,95183,1,0,0:0:0:0:
250,198,95341,1,0,0:0:0:0:
250,198,95499,1,0,0:0:0:0:
250,198,95657,1,8,0:0:0:0:
250,198,95973,1,0,0:0:0:0:
250,198,96131,1,0,0:0:0:0:
250,198,96289,1,0,0:0:0:0:
255,191,96367,1,0,0:0:0:0:
255,191,96446,1,0,0:0:0:0:
255,191,96525,1,0,0:0:0:0:
255,191,96604,1,8,0:0:0:0:
255,191,96683,1,8,0:0:0:0:
255,191,96762,1,0,0:0:0:0:
255,191,96841,1,0,0:0:0:0:
255,191,96920,1,8,0:0:0:0:
255,191,96999,1,0,0:0:0:0:
255,191,97078,1,0,0:0:0:0:
255,191,97157,1,0,0:0:0:0:
255,191,97236,1,8,0:0:0:0:
255,191,97315,1,8,0:0:0:0:
255,191,97394,1,8,0:0:0:0:
255,191,97473,1,0,0:0:0:0:
255,191,97552,1,8,0:0:0:0:
255,191,97631,1,0,0:0:0:0:
255,191,97710,1,8,0:0:0:0:
255,191,97789,1,0,0:0:0:0:
255,191,97867,1,8,0:0:0:0:
255,191,97946,1,8,0:0:0:0:
255,191,98025,1,0,0:0:0:0:
255,191,98104,1,0,0:0:0:0:
255,191,98183,1,8,0:0:0:0:
255,191,98262,1,0,0:0:0:0:
255,191,98341,1,0,0:0:0:0:
255,191,98420,1,0,0:0:0:0:
255,191,98499,1,8,0:0:0:0:
255,191,98578,1,0,0:0:0:0:
255,191,98657,1,0,0:0:0:0:
255,191,98736,1,0,0:0:0:0:
255,191,98815,1,8,0:0:0:0:
255,191,98894,1,0,0:0:0:0:
255,191,98973,1,8,0:0:0:0:
255,191,99052,1,8,0:0:0:0:
255,191,99131,1,0,0:0:0:0:
255,191,99210,1,0,0:0:0:0:
255,191,99289,1,8,0:0:0:0:
255,191,99367,1,0,0:0:0:0:
255,191,99446,1,0,0:0:0:0:
255,191,99525,1,0,0:0:0:0:
255,191,99604,1,8,0:0:0:0:
255,191,99683,1,0,0:0:0:0:
255,191,99762,1,8,0:0:0:0:
255,191,99841,1,0,0:0:0:0:
255,191,99920,1,8,0:0:0:0:
255,191,99973,1,8,0:0:0:0:
255,191,100025,1,8,0:0:0:0:
255,191,100078,1,0,0:0:0:0:
255,191,100157,1,0,0:0:0:0:
255,191,100236,1,0,0:0:0:0:
255,191,100315,1,0,0:0:0:0:
255,191,100394,1,8,0:0:0:0:
255,191,100473,1,0,0:0:0:0:
255,191,100552,1,8,0:0:0:0:
255,191,100631,1,8,0:0:0:0:
255,191,100710,1,0,0:0:0:0:
255,191,100789,1,0,0:0:0:0:
255,191,100867,1,8,0:0:0:0:
255,191,100946,1,0,0:0:0:0:
255,191,101025,1,8,0:0:0:0:
255,191,101104,1,0,0:0:0:0:
255,191,101183,1,0,0:0:0:0:
255,191,101262,1,0,0:0:0:0:
255,191,101341,1,8,0:0:0:0:
255,191,101420,1,0,0:0:0:0:
255,191,101499,1,8,0:0:0:0:
255,191,101578,1,0,0:0:0:0:
255,191,101657,1,0,0:0:0:0:
255,191,101736,1,0,0:0:0:0:
255,191,101815,1,8,0:0:0:0:
255,191,101894,1,8,0:0:0:0:
255,191,101973,1,0,0:0:0:0:
255,191,102052,1,0,0:0:0:0:
255,191,102131,1,8,0:0:0:0:
255,191,102210,1,0,0:0:0:0:
255,191,102289,1,8,0:0:0:0:
255,191,102367,1,0,0:0:0:0:
255,191,102446,1,0,0:0:0:0:
255,191,102525,1,0,0:0:0:0:
255,191,102604,1,8,0:0:0:0:
255,191,102683,5,0,0:0:0:0:
255,191,102762,1,8,0:0:0:0:
255,191,102841,1,0,0:0:0:0:
255,191,102920,1,0,0:0:0:0:
255,191,102999,1,0,0:0:0:0:
255,191,103078,1,8,0:0:0:0:
255,191,103131,1,8,0:0:0:0:
255,191,103183,1,8,0:0:0:0:
256,182,103236,1,0,0:0:0:0:
255,191,103315,1,0,0:0:0:0:
255,191,103394,1,8,0:0:0:0:
255,191,103473,1,0,0:0:0:0:
255,191,103552,1,8,0:0:0:0:
255,191,103631,1,8,0:0:0:0:
255,191,103710,1,0,0:0:0:0:
255,191,103789,1,0,0:0:0:0:
255,191,103867,5,8,0:0:0:0:
256,198,104025,1,0,0:0:0:0:
256,198,104183,1,8,0:0:0:0:
256,198,104341,1,0,0:0:0:0:
266,210,104420,1,0,0:0:0:0:
258,198,104499,1,8,0:0:0:0:
266,210,104657,1,0,0:0:0:0:
261,205,104815,1,8,0:0:0:0:
261,205,104973,1,0,0:0:0:0:
261,205,105131,1,8,0:0:0:0:
266,210,105210,1,8,0:0:0:0:
261,208,105289,1,0,0:0:0:0:
261,208,105446,1,0,0:0:0:0:
266,210,105604,1,8,0:0:0:0:
261,205,105762,1,8,0:0:0:0:
266,210,105841,1,8,0:0:0:0:
261,205,105920,1,0,0:0:0:0:
261,205,106078,1,0,0:0:0:0:
266,210,106236,1,0,0:0:0:0:
266,210,106394,1,8,0:0:0:0:
263,205,106552,1,8,0:0:0:0:
263,205,106604,1,8,0:0:0:0:
261,205,106657,1,8,0:0:0:0:
261,205,106710,1,0,0:0:0:0:
256,197,106867,1,0,0:0:0:0:
256,197,107025,1,0,0:0:0:0:
256,197,107183,1,8,0:0:0:0:
256,197,107341,1,0,0:0:0:0:
256,197,107499,1,0,0:0:0:0:
256,197,107578,1,0,0:0:0:0:
256,197,107657,1,8,0:0:0:0:
256,197,107815,1,0,0:0:0:0:
256,197,107973,1,8,0:0:0:0:
256,197,108131,1,0,0:0:0:0:
256,197,108289,1,0,0:0:0:0:
256,197,108367,1,0,0:0:0:0:
256,197,108446,1,0,0:0:0:0:
258,205,108604,1,8,0:0:0:0:
256,197,108762,1,8,0:0:0:0:
256,197,108920,1,0,0:0:0:0:
256,197,109078,1,8,0:0:0:0:
257,178,109131,1,0,0:0:0:0:
257,178,109183,1,0,0:0:0:0:
257,178,109236,1,8,0:0:0:0:
255,185,109394,1,0,0:0:0:0:
255,185,109552,1,8,0:0:0:0:
256,185,109710,1,0,0:0:0:0:
264,188,109867,1,8,0:0:0:0:
264,188,109946,1,0,0:0:0:0:
264,188,110025,1,0,0:0:0:0:
263,188,110183,1,0,0:0:0:0:
262,188,110341,1,0,0:0:0:0:
261,188,110420,1,0,0:0:0:0:
261,188,110499,1,8,0:0:0:0:
237,185,110657,1,0,0:0:0:0:
237,184,110815,1,8,0:0:0:0:
236,186,110973,1,0,0:0:0:0:
257,189,111131,1,8,0:0:0:0:
236,186,111289,1,0,0:0:0:0:
261,188,111446,1,8,0:0:0:0:
261,188,111525,1,8,0:0:0:0:
260,188,111604,1,0,0:0:0:0:
260,188,111683,1,8,0:0:0:0:
260,188,111762,1,0,0:0:0:0:
260,188,111841,1,0,0:0:0:0:
261,188,111920,1,8,0:0:0:0:
261,188,111999,1,0,0:0:0:0:
261,188,112078,1,8,0:0:0:0:
261,191,112236,1,0,0:0:0:0:
256,192,112394,1,8,0:0:0:0:
256,192,112473,1,0,0:0:0:0:
256,191,112552,1,8,0:0:0:0:
260,188,112631,1,8,0:0:0:0:
260,188,112710,1,0,0:0:0:0:
260,188,112867,1,0,0:0:0:0:
261,188,113025,1,0,0:0:0:0:
261,191,113183,1,8,0:0:0:0:
273,196,113341,1,8,0:0:0:0:
273,196,113420,1,0,0:0:0:0:
273,196,113499,1,0,0:0:0:0:
267,197,113578,1,0,0:0:0:0:
267,197,113657,1,8,0:0:0:0:
270,196,113815,1,0,0:0:0:0:
270,196,113973,1,8,0:0:0:0:
270,196,114131,1,0,0:0:0:0:
270,196,114210,1,0,0:0:0:0:
273,196,114289,1,8,0:0:0:0:
273,196,114446,1,0,0:0:0:0:
267,197,114604,1,8,0:0:0:0:
267,197,114683,1,8,0:0:0:0:
270,196,114762,1,0,0:0:0:0:
270,196,114920,1,0,0:0:0:0:
270,196,115078,1,8,0:0:0:0:
270,196,115236,1,0,0:0:0:0:
273,196,115394,1,8,0:0:0:0:
273,196,115473,1,0,0:0:0:0:
267,197,115552,1,8,0:0:0:0:
267,197,115631,1,8,0:0:0:0:
267,197,115710,1,0,0:0:0:0:
270,196,115867,1,8,0:0:0:0:
270,196,116025,1,0,0:0:0:0:
270,196,116183,1,8,0:0:0:0:
273,196,116341,1,0,0:0:0:0:
251,198,116420,1,0,0:0:0:0:
273,196,116499,1,8,0:0:0:0:
260,197,116578,1,0,0:0:0:0:
274,206,116657,1,8,0:0:0:0:
274,206,116710,1,8,0:0:0:0:
274,206,116762,1,8,0:0:0:0:
274,206,116815,1,0,0:0:0:0:
271,204,116973,1,0,0:0:0:0:
270,204,117131,1,8,0:0:0:0:
270,204,117210,1,8,0:0:0:0:
270,204,117289,1,0,0:0:0:0:
272,202,117446,1,0,0:0:0:0:
271,202,117604,1,8,0:0:0:0:
274,206,117683,1,8,0:0:0:0:
274,206,117762,1,0,0:0:0:0:
274,206,117841,1,0,0:0:0:0:
271,204,117920,1,8,0:0:0:0:
270,204,118078,1,0,0:0:0:0:
270,204,118236,1,8,0:0:0:0:
270,204,118315,1,8,0:0:0:0:
272,202,118394,1,0,0:0:0:0:
271,202,118552,1,0,0:0:0:0:
271,201,118710,1,8,0:0:0:0:
271,201,118867,1,0,0:0:0:0:
271,204,118946,1,0,0:0:0:0:
270,204,119025,1,8,0:0:0:0:
270,204,119104,1,0,0:0:0:0:
270,209,119183,1,8,0:0:0:0:
270,209,119236,1,0,0:0:0:0:
270,209,119289,1,0,0:0:0:0:
270,209,119341,1,8,0:0:0:0:
262,193,119499,1,8,0:0:0:0:
250,194,119657,1,0,0:0:0:0:
249,194,119736,1,0,0:0:0:0:
249,194,119815,1,8,0:0:0:0:
263,198,119973,1,0,0:0:0:0:
263,198,120131,1,8,0:0:0:0:
263,198,120289,1,0,0:0:0:0:
263,198,120446,1,8,0:0:0:0:
263,198,120525,1,0,0:0:0:0:
263,198,120604,1,8,0:0:0:0:
263,198,120683,1,8,0:0:0:0:
263,198,120762,1,0,0:0:0:0:
263,198,120920,1,8,0:0:0:0:
252,203,121078,1,0,0:0:0:0:
252,203,121157,1,0,0:0:0:0:
252,203,121236,1,0,0:0:0:0:
252,203,121394,1,0,0:0:0:0:
252,203,121552,1,8,0:0:0:0:
252,203,121631,1,8,0:0:0:0:
252,203,121710,1,0,0:0:0:0:
252,203,121789,1,8,0:0:0:0:
252,203,121867,1,0,0:0:0:0:
252,203,121946,1,8,0:0:0:0:
252,203,122025,1,0,0:0:0:0:
252,203,122104,1,0,0:0:0:0:
252,203,122183,1,8,0:0:0:0:
250,195,122341,1,0,0:0:0:0:
250,195,122499,1,8,0:0:0:0:
244,194,122578,1,8,0:0:0:0:
250,195,122657,1,0,0:0:0:0:
244,194,122736,1,0,0:0:0:0:
260,197,122815,1,8,0:0:0:0:
252,203,122973,1,0,0:0:0:0:
252,203,123131,1,0,0:0:0:0:
252,203,123210,1,0,0:0:0:0:
256,200,123289,1,8,0:0:0:0:
238,199,123446,1,0,0:0:0:0:
254,203,123604,1,0,0:0:0:0:
254,202,123762,1,8,0:0:0:0:
257,197,124078,1,8,0:0:0:0:
257,197,124157,1,8,0:0:0:0:
257,197,124236,1,0,0:0:0:0:
257,197,124394,1,0,0:0:0:0:
271,193,124552,1,8,0:0:0:0:
271,193,124710,1,0,0:0:0:0:
271,193,124867,1,0,0:0:0:0:
271,193,124946,1,0,0:0:0:0:
271,193,125025,1,8,0:0:0:0:
271,193,125183,1,8,0:0:0:0:
256,191,125341,1,0,0:0:0:0:
256,190,125420,1,0,0:0:0:0:
256,190,125499,1,8,0:0:0:0:
256,190,125578,1,0,0:0:0:0:
256,190,125657,1,0,0:0:0:0:
271,193,125815,1,0,0:0:0:0:
265,183,125973,1,8,0:0:0:0:
265,183,126131,1,0,0:0:0:0:
265,183,126289,1,0,0:0:0:0:
265,183,126367,1,0,0:0:0:0:
265,183,126446,1,8,0:0:0:0:
265,183,126604,1,0,0:0:0:0:
264,183,126762,1,8,0:0:0:0:
264,183,126841,1,8,0:0:0:0:
265,183,126920,1,0,0:0:0:0:
265,183,127078,1,0,0:0:0:0:
265,183,127236,1,0,0:0:0:0:
265,183,127315,1,0,0:0:0:0:
265,183,127394,1,8,0:0:0:0:
265,183,127473,1,0,0:0:0:0:
265,183,127552,1,8,0:0:0:0:
265,183,127631,1,0,0:0:0:0:
264,183,127710,1,8,0:0:0:0:
270,179,127749,1,0,0:0:0:0:
270,179,127789,1,0,0:0:0:0:
270,179,127828,1,0,0:0:0:0:
270,179,127867,1,8,0:0:0:0:
260,181,128025,1,0,0:0:0:0:
260,181,128183,1,8,0:0:0:0:
260,181,128262,1,8,0:0:0:0:
260,181,128341,1,0,0:0:0:0:
260,181,128499,1,0,0:0:0:0:
260,181,128657,1,0,0:0:0:0:
264,183,128736,1,0,0:0:0:0:
260,181,128815,1,8,0:0:0:0:
260,181,128973,1,8,0:0:0:0:
260,181,129131,1,8,0:0:0:0:
260,181,129210,1,8,0:0:0:0:
260,181,129289,1,0,0:0:0:0:
260,181,129367,1,8,0:0:0:0:
260,181,129446,1,0,0:0:0:0:
260,181,129604,1,0,0:0:0:0:
264,183,129762,1,8,0:0:0:0:
260,181,129920,1,0,0:0:0:0:
271,194,130078,1,8,0:0:0:0:
264,193,130157,1,8,0:0:0:0:
264,193,130236,1,0,0:0:0:0:
262,192,130394,1,0,0:0:0:0:
262,192,130552,1,0,0:0:0:0:
262,192,130710,1,8,0:0:0:0:
262,192,130867,1,0,0:0:0:0:
261,192,130946,1,0,0:0:0:0:
261,192,131025,1,8,0:0:0:0:
261,192,131104,1,0,0:0:0:0:
264,193,131183,1,8,0:0:0:0:
264,193,131262,1,8,0:0:0:0:
262,192,131341,1,0,0:0:0:0:
262,192,131499,1,0,0:0:0:0:
262,192,131657,1,0,0:0:0:0:
262,192,131736,1,0,0:0:0:0:
262,192,131815,1,8,0:0:0:0:
255,204,131973,1,0,0:0:0:0:
247,205,132131,1,8,0:0:0:0:
247,205,132289,1,0,0:0:0:0:
244,195,132446,1,8,0:0:0:0:
244,195,132525,1,8,0:0:0:0:
244,195,132604,1,0,0:0:0:0:
244,195,132683,1,8,0:0:0:0:
244,195,132762,1,0,0:0:0:0:
244,195,132841,1,0,0:0:0:0:
244,195,132920,1,8,0:0:0:0:
244,195,132999,5,0,0:0:0:0:
244,195,133078,1,0,0:0:0:0:
244,195,133157,1,0,0:0:0:0:
244,195,133236,1,8,0:0:0:0:
244,195,133315,1,8,0:0:0:0:
244,195,133394,1,8,0:0:0:0:
244,195,133473,1,8,0:0:0:0:
244,195,133552,1,0,0:0:0:0:
244,195,133631,1,0,0:0:0:0:
244,195,133710,1,8,0:0:0:0:
244,195,133789,1,0,0:0:0:0:
244,195,133867,1,8,0:0:0:0:
257,197,134183,5,8,0:0:0:0:
257,197,134262,1,0,0:0:0:0:
257,197,134341,1,8,0:0:0:0:
257,197,134499,1,0,0:0:0:0:
245,203,134657,1,0,0:0:0:0:
257,197,134815,5,8,0:0:0:0:
257,197,134894,1,0,0:0:0:0:
257,197,134973,1,8,0:0:0:0:
257,197,135052,1,8,0:0:0:0:
257,197,135131,1,0,0:0:0:0:
255,189,135289,1,8,0:0:0:0:
255,189,135367,1,0,0:0:0:0:
255,189,135446,1,8,0:0:0:0:
255,189,135525,1,0,0:0:0:0:
255,189,135604,1,0,0:0:0:0:
255,189,135762,1,8,0:0:0:0:
255,189,135841,1,0,0:0:0:0:
255,189,135920,1,0,0:0:0:0:
255,189,135999,1,8,0:0:0:0:
255,189,136078,1,0,0:0:0:0:
255,189,136236,1,8,0:0:0:0:
255,189,136315,1,0,0:0:0:0:
255,189,136394,1,8,0:0:0:0:
255,189,136473,1,0,0:0:0:0:
255,189,136552,1,0,0:0:0:0:
255,189,136710,1,0,0:0:0:0:
255,189,136789,1,8,0:0:0:0:
255,189,136867,1,0,0:0:0:0:
255,189,136946,1,0,0:0:0:0:
255,189,137025,1,8,0:0:0:0:
255,189,137183,1,8,0:0:0:0:
255,189,137262,1,8,0:0:0:0:
255,189,137341,1,0,0:0:0:0:
255,189,137420,1,0,0:0:0:0:
255,189,137499,1,0,0:0:0:0:
247,197,137657,1,8,0:0:0:0:
256,198,137736,1,0,0:0:0:0:
247,197,137815,1,0,0:0:0:0:
256,198,137894,1,0,0:0:0:0:
256,195,137973,1,8,0:0:0:0:
265,193,138131,1,8,0:0:0:0:
265,193,138210,1,0,0:0:0:0:
265,193,138289,1,8,0:0:0:0:
265,193,138367,1,0,0:0:0:0:
265,193,138446,1,0,0:0:0:0:
268,194,138604,1,8,0:0:0:0:
268,194,138683,1,0,0:0:0:0:
268,194,138762,1,0,0:0:0:0:
266,186,138920,1,8,0:0:0:0:
266,186,138999,1,8,0:0:0:0:
266,186,139078,1,0,0:0:0:0:
259,188,139236,1,8,0:0:0:0:
265,193,139315,1,8,0:0:0:0:
265,193,139394,1,0,0:0:0:0:
265,193,139473,1,0,0:0:0:0:
268,194,139552,1,8,0:0:0:0:
268,194,139631,1,8,0:0:0:0:
268,194,139710,1,0,0:0:0:0:
268,194,139789,1,0,0:0:0:0:
266,192,139867,1,8,0:0:0:0:
271,198,139946,1,0,0:0:0:0:
271,198,140025,1,8,0:0:0:0:
271,198,140104,1,8,0:0:0:0:
271,198,140183,1,0,0:0:0:0:
271,198,140262,1,0,0:0:0:0:
271,198,140341,1,0,0:0:0:0:
271,198,140420,1,0,0:0:0:0:
271,198,140499,1,8,0:0:0:0:
271,198,140578,1,0,0:0:0:0:
271,198,140657,1,0,0:0:0:0:
271,198,140736,1,8,0:0:0:0:
271,198,140815,1,8,0:0:0:0:
271,198,140894,1,0,0:0:0:0:
271,198,140973,1,0,0:0:0:0:
271,198,141052,1,0,0:0:0:0:
271,198,141131,1,8,0:0:0:0:
246,190,141210,1,0,0:0:0:0:
246,190,141289,1,0,0:0:0:0:
246,190,141367,1,0,0:0:0:0:
246,190,141446,1,8,0:0:0:0:
246,190,141525,1,0,0:0:0:0:
246,190,141604,1,8,0:0:0:0:
246,190,141683,1,0,0:0:0:0:
246,190,141762,1,8,0:0:0:0:
236,186,141841,1,0,0:0:0:0:
236,186,141920,1,0,0:0:0:0:
236,186,141999,1,0,0:0:0:0:
234,186,142078,1,8,0:0:0:0:
242,196,142236,1,8,0:0:0:0:
242,196,142394,1,0,0:0:0:0:
242,196,142473,1,0,0:0:0:0:
242,196,142552,1,8,0:0:0:0:
252,197,142710,1,8,0:0:0:0:
253,196,142789,1,0,0:0:0:0:
253,196,142867,1,8,0:0:0:0:
253,196,142946,1,8,0:0:0:0:
253,196,143025,1,0,0:0:0:0:
253,196,143104,1,0,0:0:0:0:
253,196,143183,1,8,0:0:0:0:
253,196,143262,1,0,0:0:0:0:
253,196,143341,1,8,0:0:0:0:
253,196,143420,1,0,0:0:0:0:
253,196,143499,1,0,0:0:0:0:
253,196,143578,1,8,0:0:0:0:
252,197,143657,1,0,0:0:0:0:
252,197,143736,1,0,0:0:0:0:
253,196,143815,1,8,0:0:0:0:
253,196,143894,1,0,0:0:0:0:
253,196,143973,1,8,0:0:0:0:
253,196,144289,1,0,0:0:0:0:
250,204,144367,1,0,0:0:0:0:
250,204,144446,1,0,0:0:0:0:
250,204,144525,1,0,0:0:0:0:
250,204,144604,1,8,0:0:0:0:
250,204,144683,1,8,0:0:0:0:
250,204,144762,1,0,0:0:0:0:
250,204,144841,1,0,0:0:0:0:
250,204,144920,1,8,0:0:0:0:
250,204,144999,1,0,0:0:0:0:
250,204,145078,1,0,0:0:0:0:
250,204,145157,1,0,0:0:0:0:
250,204,145236,1,8,0:0:0:0:
250,204,145315,1,0,0:0:0:0:
250,204,145394,1,0,0:0:0:0:
250,204,145473,1,0,0:0:0:0:
250,204,145552,1,8,0:0:0:0:
250,204,145631,1,8,0:0:0:0:
250,204,145710,1,0,0:0:0:0:
250,204,145789,1,0,0:0:0:0:
250,204,145867,1,8,0:0:0:0:
250,204,145946,1,8,0:0:0:0:
250,204,146025,1,8,0:0:0:0:
250,204,146104,1,0,0:0:0:0:
250,204,146183,1,8,0:0:0:0:
250,204,146262,1,0,0:0:0:0:
250,204,146341,1,0,0:0:0:0:
250,204,146420,1,0,0:0:0:0:
250,204,146499,1,8,0:0:0:0:
250,204,146578,1,0,0:0:0:0:
250,204,146657,1,8,0:0:0:0:
250,204,146736,1,0,0:0:0:0:
250,204,146815,1,0,0:0:0:0:
250,204,146894,1,0,0:0:0:0:
250,204,146973,1,8,0:0:0:0:
250,204,147052,1,0,0:0:0:0:
250,204,147131,1,8,0:0:0:0:
250,204,147210,1,8,0:0:0:0:
250,204,147289,1,0,0:0:0:0:
250,204,147367,1,0,0:0:0:0:
250,204,147446,1,8,0:0:0:0:
250,204,147525,1,0,0:0:0:0:
250,204,147604,1,0,0:0:0:0:
250,204,147683,1,0,0:0:0:0:
250,204,147762,1,8,0:0:0:0:
250,204,147841,1,8,0:0:0:0:
250,204,147920,1,8,0:0:0:0:
250,204,147999,1,8,0:0:0:0:
250,204,148078,1,0,0:0:0:0:
250,204,148157,5,0,0:0:0:0:
250,204,148236,1,8,0:0:0:0:
250,204,148315,1,0,0:0:0:0:
250,204,148394,1,8,0:0:0:0:
250,204,148473,1,8,0:0:0:0:
250,204,148552,1,0,0:0:0:0:
250,204,148631,1,0,0:0:0:0:
250,204,148710,1,8,0:0:0:0:
250,204,148789,1,0,0:0:0:0:
250,204,148867,1,0,0:0:0:0:
250,204,148946,1,0,0:0:0:0:
250,204,149025,1,8,0:0:0:0:
254,188,149341,5,8,0:0:0:0:
257,192,149446,1,0,0:0:0:0:
257,192,149552,1,0,0:0:0:0:
257,192,149657,1,8,0:0:0:0:
257,192,149762,1,0,0:0:0:0:
257,192,149867,1,0,0:0:0:0:
257,192,149973,1,8,0:0:0:0:
257,192,150078,1,0,0:0:0:0:
257,192,150183,1,0,0:0:0:0:
257,192,150289,1,8,0:0:0:0:
257,192,150394,1,0,0:0:0:0:
257,192,150499,1,8,0:0:0:0:
257,192,150604,1,0,0:0:0:0:
257,192,150710,1,0,0:0:0:0:
257,192,150815,1,8,0:0:0:0:
257,192,150920,1,8,0:0:0:0:
257,192,151025,1,0,0:0:0:0:
257,192,151131,1,0,0:0:0:0:
257,192,151236,1,8,0:0:0:0:
257,192,151341,1,0,0:0:0:0:
257,192,151446,1,0,0:0:0:0:
257,192,151552,1,8,0:0:0:0:
257,192,151657,1,0,0:0:0:0:
257,192,151762,1,8,0:0:0:0:
259,206,151867,1,0,0:0:0:0:
257,204,152025,1,0,0:0:0:0:
256,203,152183,1,8,0:0:0:0:
256,203,152262,1,8,0:0:0:0:
256,203,152341,1,0,0:0:0:0:
256,203,152499,1,0,0:0:0:0:
256,203,152657,1,0,0:0:0:0:
259,206,152815,1,8,0:0:0:0:
257,204,152973,1,0,0:0:0:0:
260,207,153131,1,0,0:0:0:0:
260,207,153210,1,0,0:0:0:0:
260,207,153289,1,0,0:0:0:0:
260,207,153367,1,0,0:0:0:0:
260,207,153446,1,8,0:0:0:0:
260,207,153525,1,8,0:0:0:0:
260,207,153604,1,0,0:0:0:0:
260,207,153683,1,0,0:0:0:0:
260,207,153762,1,8,0:0:0:0:
260,207,153841,1,0,0:0:0:0:
260,207,153920,1,8,0:0:0:0:
260,207,153999,1,8,0:0:0:0:
260,207,154078,1,0,0:0:0:0:
260,207,154157,1,0,0:0:0:0:
260,207,154236,1,0,0:0:0:0:
260,207,154315,1,0,0:0:0:0:
260,207,154394,1,8,0:0:0:0:
260,207,154473,1,0,0:0:0:0:
260,207,154552,1,0,0:0:0:0:
260,207,154631,1,0,0:0:0:0:
260,207,154710,1,8,0:0:0:0:
260,207,154789,1,0,0:0:0:0:
260,207,154867,1,8,0:0:0:0:
260,207,154946,1,8,0:0:0:0:
260,207,155025,1,0,0:0:0:0:
260,207,155104,1,0,0:0:0:0:
260,207,155183,1,8,0:0:0:0:
260,207,155262,1,0,0:0:0:0:
260,207,155341,1,8,0:0:0:0:
260,207,155420,1,0,0:0:0:0:
260,207,155499,1,0,0:0:0:0:
260,207,155578,1,0,0:0:0:0:
260,207,155657,1,8,0:0:0:0:
260,207,155736,1,8,0:0:0:0:
260,207,155815,1,0,0:0:0:0:
260,207,155894,1,0,0:0:0:0:
260,207,155973,1,8,0:0:0:0:
260,207,156052,1,8,0:0:0:0:
260,207,156131,1,8,0:0:0:0:
260,207,156210,1,0,0:0:0:0:
260,207,156289,1,8,0:0:0:0:
260,207,156367,1,0,0:0:0:0:
260,207,156446,1,0,0:0:0:0:
260,207,156525,1,0,0:0:0:0:
260,207,156604,1,8,0:0:0:0:
260,207,156683,1,0,0:0:0:0:
260,207,156762,1,8,0:0:0:0:
260,207,156841,1,0,0:0:0:0:
260,207,156920,1,0,0:0:0:0:
260,207,156999,1,0,0:0:0:0:
260,207,157078,1,8,0:0:0:0:
260,207,157157,1,0,0:0:0:0:
260,207,157236,1,8,0:0:0:0:
260,207,157315,1,8,0:0:0:0:
260,207,157394,1,0,0:0:0:0:
260,207,157473,1,0,0:0:0:0:
260,207,157552,1,8,0:0:0:0:
260,207,157631,1,0,0:0:0:0:
260,207,157710,1,0,0:0:0:0:
260,207,157789,1,0,0:0:0:0:
260,207,157867,1,8,0:0:0:0:
260,207,157946,1,8,0:0:0:0:
260,207,158025,1,0,0:0:0:0:
260,207,158104,1,0,0:0:0:0:
260,207,158183,1,8,0:0:0:0:
260,207,158262,1,0,0:0:0:0:
260,207,158341,1,8,0:0:0:0:
260,207,158420,1,0,0:0:0:0:
260,207,158499,1,8,0:0:0:0:
260,207,158578,1,8,0:0:0:0:
260,207,158657,1,0,0:0:0:0:
260,207,158736,1,0,0:0:0:0:
260,207,158815,1,8,0:0:0:0:
260,207,158894,1,0,0:0:0:0:
260,207,158973,1,0,0:0:0:0:
260,207,159052,1,0,0:0:0:0:
260,207,159131,1,8,0:0:0:0:
260,207,159210,1,8,0:0:0:0:
260,207,159289,1,0,0:0:0:0:
260,207,159367,1,0,0:0:0:0:
260,207,159446,1,8,0:0:0:0:
260,207,159525,1,8,0:0:0:0:
260,207,159604,1,8,0:0:0:0:
260,207,159683,1,8,0:0:0:0:
260,207,159762,1,0,0:0:0:0:
260,207,159841,1,0,0:0:0:0:
260,207,159920,1,0,0:0:0:0:
260,207,159999,1,0,0:0:0:0:
260,207,160078,1,8,0:0:0:0:
260,207,160157,1,8,0:0:0:0:
260,207,160236,1,0,0:0:0:0:
260,207,160315,1,0,0:0:0:0:
260,207,160394,1,8,0:0:0:0:
260,207,160473,1,8,0:0:0:0:
260,207,160552,1,0,0:0:0:0:
260,207,160631,1,0,0:0:0:0:
260,207,160710,1,8,0:0:0:0:
260,207,160789,1,0,0:0:0:0:
260,207,160867,1,0,0:0:0:0:
260,207,160946,1,0,0:0:0:0:
260,207,161025,1,8,0:0:0:0:
260,207,161104,1,8,0:0:0:0:
260,207,161183,1,8,0:0:0:0:
260,207,161262,1,0,0:0:0:0:
260,207,161341,1,8,0:0:0:0:
260,207,161420,1,0,0:0:0:0:
260,207,161499,1,0,0:0:0:0:
260,207,161578,1,0,0:0:0:0:
260,207,161657,1,8,0:0:0:0:
260,207,161736,1,0,0:0:0:0:
260,207,161815,1,8,0:0:0:0:
260,207,161894,1,0,0:0:0:0:
260,207,161973,1,8,0:0:0:0:
260,207,162052,5,8,0:0:0:0:
260,207,162131,1,0,0:0:0:0:
260,207,162210,1,0,0:0:0:0:
260,207,162289,1,8,0:0:0:0:
260,207,162367,1,8,0:0:0:0:
260,207,162446,1,0,0:0:0:0:
260,207,162525,1,0,0:0:0:0:
260,207,162604,1,8,0:0:0:0:
260,207,162683,1,0,0:0:0:0:
260,207,162762,1,8,0:0:0:0:
260,207,162841,1,8,0:0:0:0:
260,207,162920,1,0,0:0:0:0:
260,207,162999,1,0,0:0:0:0:
260,207,163078,1,0,0:0:0:0:
260,207,163157,1,0,0:0:0:0:
260,207,163236,1,8,0:0:0:0:
246,190,163315,1,0,0:0:0:0:
247,190,163394,1,0,0:0:0:0:
247,190,163473,1,0,0:0:0:0:
256,193,163552,1,8,0:0:0:0:
247,190,163631,1,0,0:0:0:0:
247,190,163710,1,8,0:0:0:0:
247,190,163789,1,8,0:0:0:0:
256,193,163867,1,0,0:0:0:0:
247,190,163946,1,0,0:0:0:0:
247,190,164025,1,8,0:0:0:0:
247,190,164104,1,0,0:0:0:0:
256,193,164183,1,8,0:0:0:0:
247,190,164262,1,8,0:0:0:0:
246,190,164341,1,0,0:0:0:0:
247,190,164420,1,0,0:0:0:0:
247,190,164499,1,8,0:0:0:0:
256,188,164657,1,0,0:0:0:0:
256,188,164815,1,8,0:0:0:0:
256,188,164973,1,0,0:0:0:0:
256,188,165131,1,0,0:0:0:0:
256,188,165210,1,0,0:0:0:0:
256,188,165289,1,0,0:0:0:0:
256,188,165446,1,8,0:0:0:0:
256,188,165604,1,0,0:0:0:0:
256,188,165762,1,8,0:0:0:0:
256,188,165920,1,0,0:0:0:0:
256,188,165999,1,0,0:0:0:0:
256,188,166078,1,8,0:0:0:0:
256,188,166236,1,0,0:0:0:0:
256,188,166394,1,0,0:0:0:0:
256,188,166473,1,0,0:0:0:0:
256,188,166552,1,8,0:0:0:0:
243,192,166631,1,0,0:0:0:0:
256,188,166710,1,0,0:0:0:0:
243,192,166789,1,0,0:0:0:0:
256,188,166867,1,8,0:0:0:0:
256,188,166946,1,0,0:0:0:0:
256,188,167025,1,8,0:0:0:0:
243,186,167183,1,0,0:0:0:0:
245,186,167341,1,8,0:0:0:0:
245,186,167499,1,0,0:0:0:0:
253,191,167657,1,8,0:0:0:0:
256,188,167736,1,8,0:0:0:0:
253,191,167815,1,0,0:0:0:0:
256,188,167973,1,0,0:0:0:0:
251,191,168131,1,0,0:0:0:0:
251,191,168210,1,0,0:0:0:0:
251,191,168289,1,8,0:0:0:0:
251,191,168446,1,0,0:0:0:0:
253,191,168604,1,8,0:0:0:0:
253,191,168683,1,0,0:0:0:0:
251,191,168762,1,8,0:0:0:0:
246,189,168920,1,8,0:0:0:0:
251,191,169078,1,0,0:0:0:0:
251,191,169236,1,0,0:0:0:0:
255,185,169394,1,0,0:0:0:0:
255,185,169473,1,0,0:0:0:0:
255,185,169552,1,0,0:0:0:0:
253,191,169710,1,0,0:0:0:0:
253,193,169867,1,8,0:0:0:0:
251,191,170025,1,0,0:0:0:0:
251,191,170183,1,8,0:0:0:0:
251,191,170262,1,8,0:0:0:0:
253,193,170341,1,0,0:0:0:0:
253,193,170499,1,0,0:0:0:0:
253,191,170657,1,0,0:0:0:0:
253,193,170815,1,8,0:0:0:0:
251,191,170973,1,0,0:0:0:0:
251,191,171052,1,0,0:0:0:0:
251,191,171131,1,8,0:0:0:0:
251,191,171289,1,0,0:0:0:0:
253,193,171446,1,8,0:0:0:0:
253,191,171604,1,0,0:0:0:0:
253,193,171762,1,0,0:0:0:0:
253,193,171841,1,0,0:0:0:0:
251,191,171920,1,8,0:0:0:0:
251,191,171999,1,0,0:0:0:0:
251,191,172078,1,8,0:0:0:0:
252,185,172236,1,8,0:0:0:0:
252,185,172394,1,0,0:0:0:0:
250,186,172473,1,0,0:0:0:0:
252,185,172552,1,8,0:0:0:0:
250,186,172710,1,0,0:0:0:0:
250,186,172867,1,0,0:0:0:0:
251,191,173025,1,8,0:0:0:0:
252,185,173183,1,8,0:0:0:0:
252,185,173262,1,8,0:0:0:0:
252,185,173341,1,0,0:0:0:0:
250,186,173499,5,0,0:0:0:0:
256,191,173657,1,0,0:0:0:0:
256,191,173736,1,0,0:0:0:0:
256,191,173815,1,8,0:0:0:0:
256,191,173894,1,0,0:0:0:0:
256,191,173973,1,0,0:0:0:0:
256,191,174052,1,0,0:0:0:0:
256,191,174131,1,8,0:0:0:0:
246,201,174210,1,0,0:0:0:0:
246,201,174289,1,8,0:0:0:0:
252,202,174446,1,8,0:0:0:0:
257,195,174604,5,0,0:0:0:0:
257,195,174683,1,0,0:0:0:0:
257,195,174762,1,0,0:0:0:0:
257,195,174841,1,0,0:0:0:0:
257,195,174920,1,0,0:0:0:0:
257,195,174999,1,0,0:0:0:0:
257,195,175078,1,0,0:0:0:0:
257,195,175157,1,0,0:0:0:0:
257,195,175236,1,0,0:0:0:0:
257,195,175315,1,0,0:0:0:0:
257,195,175394,1,0,0:0:0:0:
257,195,175473,1,0,0:0:0:0:
257,195,175552,1,8,0:0:0:0:
257,195,175631,1,0,0:0:0:0:
257,195,175710,1,0,0:0:0:0:
257,195,175789,1,0,0:0:0:0:
257,195,175867,1,8,0:0:0:0:
257,195,175946,1,0,0:0:0:0:
257,195,176025,1,0,0:0:0:0:
257,195,176104,1,0,0:0:0:0:
257,195,176183,1,8,0:0:0:0:
257,195,176262,1,0,0:0:0:0:
257,195,176341,1,0,0:0:0:0:
257,195,176420,1,0,0:0:0:0:
257,195,176499,1,8,0:0:0:0:
257,195,176578,1,0,0:0:0:0:
257,195,176657,1,0,0:0:0:0:
257,195,176736,1,0,0:0:0:0:
257,195,176815,1,0,0:0:0:0:
257,195,176894,1,0,0:0:0:0:
257,195,176973,1,8,0:0:0:0:
257,195,177052,1,0,0:0:0:0:
257,195,177131,1,8,0:0:0:0:
257,195,177210,1,0,0:0:0:0:
257,195,177289,1,0,0:0:0:0:
257,195,177367,1,0,0:0:0:0:
257,195,177446,1,0,0:0:0:0:
257,195,177525,1,0,0:0:0:0:
257,195,177604,1,0,0:0:0:0:
257,195,177683,1,0,0:0:0:0:
257,195,177762,1,0,0:0:0:0:
257,195,177841,1,0,0:0:0:0:
257,195,177920,1,0,0:0:0:0:
257,195,177999,1,0,0:0:0:0:
257,195,178078,1,8,0:0:0:0:
257,195,178157,1,0,0:0:0:0:
257,195,178236,1,0,0:0:0:0:
257,195,178315,1,0,0:0:0:0:
257,195,178394,1,8,0:0:0:0:
257,195,178473,1,0,0:0:0:0:
257,195,178552,1,0,0:0:0:0:
257,195,178631,1,0,0:0:0:0:
257,195,178710,1,8,0:0:0:0:
257,195,178789,1,0,0:0:0:0:
257,195,178867,1,0,0:0:0:0:
257,195,178946,1,0,0:0:0:0:
257,195,179025,1,8,0:0:0:0:
257,195,179104,1,0,0:0:0:0:
257,195,179183,1,0,0:0:0:0:
257,195,179262,1,0,0:0:0:0:
257,195,179341,1,8,0:0:0:0:
257,195,179420,1,0,0:0:0:0:
257,195,179499,1,0,0:0:0:0:
257,195,179578,1,0,0:0:0:0:
257,195,179657,1,8,0:0:0:0:
257,195,179736,1,0,0:0:0:0:
257,195,179815,1,0,0:0:0:0:
257,195,179894,1,0,0:0:0:0:
257,195,179973,1,0,0:0:0:0:
257,195,180052,1,0,0:0:0:0:
257,195,180131,1,0,0:0:0:0:
257,195,180210,1,0,0:0:0:0:
257,195,180289,1,0,0:0:0:0:
257,195,180367,1,0,0:0:0:0:
257,195,180446,1,0,0:0:0:0:
257,195,180525,1,0,0:0:0:0:
257,195,180604,1,8,0:0:0:0:
257,195,180683,1,0,0:0:0:0:
257,195,180762,1,0,0:0:0:0:
257,195,180841,1,0,0:0:0:0:
257,195,180920,1,8,0:0:0:0:
257,195,180999,1,0,0:0:0:0:
257,195,181078,1,0,0:0:0:0:
257,195,181157,1,0,0:0:0:0:
257,195,181236,1,8,0:0:0:0:
257,195,181315,1,0,0:0:0:0:
257,195,181394,1,0,0:0:0:0:
257,195,181473,1,0,0:0:0:0:
257,195,181552,1,8,0:0:0:0:
257,195,181631,1,0,0:0:0:0:
257,195,181710,1,0,0:0:0:0:
257,195,181789,1,0,0:0:0:0:
257,195,181867,1,0,0:0:0:0:
257,195,181946,1,0,0:0:0:0:
257,195,182025,1,8,0:0:0:0:
257,195,182104,1,0,0:0:0:0:
257,195,182183,1,8,0:0:0:0:
257,195,182262,5,0,0:0:0:0:
257,195,182341,1,0,0:0:0:0:
257,195,182420,1,0,0:0:0:0:
257,195,182499,1,0,0:0:0:0:
257,195,182578,1,0,0:0:0:0:
257,195,182657,1,0,0:0:0:0:
257,195,182736,1,0,0:0:0:0:
257,195,182815,1,0,0:0:0:0:
257,195,182894,1,0,0:0:0:0:
257,195,182973,1,0,0:0:0:0:
257,195,183052,1,0,0:0:0:0:
257,195,183131,1,8,0:0:0:0:
251,190,183210,1,0,0:0:0:0:
251,190,183289,1,0,0:0:0:0:
251,190,183367,1,0,0:0:0:0:
257,194,183446,5,12,0:0:0:0:
257,194,183762,1,8,0:0:0:0:
251,194,184078,1,8,0:0:0:0:
257,194,184394,1,0,0:0:0:0:
257,194,184710,1,4,0:0:0:0:
256,186,185657,1,0,0:0:0:0:
256,186,185973,1,8,0:0:0:0:
256,186,186289,1,8,0:0:0:0:
256,186,186604,1,0,0:0:0:0:
256,186,187078,1,0,0:0:0:0:
256,186,187236,1,8,0:0:0:0:
256,186,188183,1,0,0:0:0:0:
256,186,188499,1,8,0:0:0:0:
256,186,188815,1,0,0:0:0:0:
256,186,189131,1,8,0:0:0:0:
256,186,189446,1,8,0:0:0:0:
256,186,189762,1,0,0:0:0:0:
256,186,190710,1,0,0:0:0:0:
256,186,191025,1,8,0:0:0:0:
256,186,191341,1,0,0:0:0:0:
256,186,191657,1,0,0:0:0:0:
256,186,192131,1,0,0:0:0:0:
256,186,192289,1,8,0:0:0:0:
256,186,193236,1,0,0:0:0:0:
256,186,193552,1,8,0:0:0:0:
256,186,193867,1,0,0:0:0:0:
256,186,194183,1,8,0:0:0:0:
256,186,194499,1,8,0:0:0:0:
256,186,194815,1,0,0:0:0:0:
256,186,195762,1,8,0:0:0:0:
256,186,196078,1,0,0:0:0:0:
256,186,197025,1,8,0:0:0:0:
256,186,197341,1,0,0:0:0:0:
251,187,199867,1,4,0:0:0:0:
256,192,199946,12,0,207131,0:0:0:0:
