osu file format v14

[General]
AudioFilename: MILF - Friday Night Funkin' [METAL].mp3
AudioLeadIn: 0
PreviewTime: 65394
Countdown: 0
SampleSet: Soft
StackLeniency: 0.7
Mode: 3
LetterboxInBreaks: 0
SpecialStyle: 0
WidescreenStoryboard: 0

[Editor]
DistanceSpacing: 0.8
BeatDivisor: 4
GridSize: 32
TimelineZoom: 1

[Metadata]
Title:M.I.L.F (Metal Guitar Cover feat. ToxicxEternity)
TitleUnicode:M.I.L.F (Metal Guitar Cover feat. ToxicxEternity)
Artist:FamilyJules
ArtistUnicode:FamilyJules
Creator:AutotelicBrown
Version:Hard
Source:Friday Night Funkin'
Tags:FNF MILF Mommy Mearest Mom Mother Kawai Sprite Metal Video Game Instrumental PhantomArcade evilsk8r dreadlead DREΔDLEΔD
BeatmapID:3263748
BeatmapSetID:1598090

[Difficulty]
HPDrainRate:7.3
CircleSize:4
OverallDifficulty:7.3
ApproachRate:5
SliderMultiplier:1.4
SliderTickRate:1

[Events]
//Background and Video events
0,0,"bg.png",0,0
//Break Periods
//Storyboard Layer 0 (Background)
//Storyboard Layer 1 (Fail)
//Storyboard Layer 2 (Pass)
//Storyboard Layer 3 (Foreground)
//Storyboard Layer 4 (Overlay)
//Storyboard Sound Samples
Sample,22728,0,"soft-hitfinish.wav",40
Sample,34728,0,"soft-hitfinish.wav",30
Sample,35394,0,"soft-hitfinish.wav",30
Sample,36061,0,"soft-hitfinish.wav",30
Sample,36728,0,"soft-hitfinish.wav",30
Sample,38061,0,"soft-hitfinish.wav",30
Sample,40061,0,"soft-hitfinish.wav",30
Sample,40728,0,"soft-hitfinish.wav",30
Sample,41394,0,"soft-hitfinish.wav",30
Sample,42061,0,"soft-hitfinish.wav",30
Sample,57394,0,"soft-hitfinish.wav",40
Sample,62728,0,"soft-hitfinish.wav",40
Sample,86728,0,"soft-hitfinish.wav",40
Sample,98394,0,"soft-hitfinish.wav",30
Sample,99061,0,"soft-hitfinish.wav",30
Sample,99394,0,"soft-hitfinish.wav",30
Sample,99728,0,"soft-hitfinish.wav",30
Sample,100394,0,"soft-hitfinish.wav",30
Sample,100728,0,"soft-hitfinish.wav",30
Sample,101061,0,"soft-hitfinish.wav",30
Sample,101728,0,"soft-hitfinish.wav",30
Sample,103061,0,"soft-hitfinish.wav",30
Sample,103394,0,"soft-hitfinish.wav",30
Sample,103728,0,"soft-hitfinish.wav",30
Sample,104394,0,"soft-hitfinish.wav",30
Sample,104728,0,"soft-hitfinish.wav",30
Sample,105061,0,"soft-hitfinish.wav",30
Sample,105728,0,"soft-hitfinish.wav",30
Sample,106061,0,"soft-hitfinish.wav",30
Sample,106394,0,"soft-hitfinish.wav",30

[TimingPoints]
1395,333.333333,4,2,1,50,1,0
12061,-100,4,2,1,30,0,0
21394,-100,4,2,1,50,0,0
22728,-100,4,2,1,50,0,1
44061,-100,4,2,1,30,0,0
54728,-100,4,2,1,50,0,0
65394,-100,4,2,1,50,0,1
76061,-100,4,2,1,50,0,0
97394,-100,4,2,1,50,0,1
108061,-100,4,2,1,50,0,0
129394,-100,4,2,1,30,0,0

[HitObjects]
64,192,1395,5,2,0:0:0:0:
320,192,1395,1,0,0:0:0:0:
64,192,1728,1,2,0:0:0:0:
64,192,2061,1,2,0:0:0:0:
320,192,2144,1,0,0:0:0:0:
192,192,2228,1,0,0:0:0:0:
448,192,2311,1,0,0:0:0:0:
320,192,2394,1,2,0:0:0:0:
64,192,2561,1,0,0:0:0:0:
64,192,2894,1,0,0:0:0:0:
64,192,3228,1,0,0:0:0:0:
448,192,3394,1,2,0:0:0:0:
64,192,3561,1,0,0:0:0:0:
320,192,3728,1,2,0:0:0:0:
192,192,3894,1,0,0:0:0:0:
64,192,4061,1,2,0:0:0:0:
64,192,4394,1,2,0:0:0:0:
64,192,4728,1,2,0:0:0:0:
320,192,4811,1,0,0:0:0:0:
192,192,4894,1,0,0:0:0:0:
448,192,4978,1,0,0:0:0:0:
320,192,5061,1,2,0:0:0:0:
64,192,5228,1,0,0:0:0:0:
64,192,5561,1,0,0:0:0:0:
64,192,5894,1,0,0:0:0:0:
448,192,6061,1,2,0:0:0:0:
64,192,6228,1,0,0:0:0:0:
320,192,6394,1,2,0:0:0:0:
192,192,6478,1,2,0:0:0:0:
64,192,6561,1,2,0:0:0:0:
192,192,6728,1,2,0:0:0:0:
320,192,7061,1,2,0:0:0:0:
448,192,7061,1,8,0:0:0:0:
192,192,7394,1,2,0:0:0:0:
320,192,7478,1,0,0:0:0:0:
64,192,7561,1,0,0:0:0:0:
192,192,7644,1,0,0:0:0:0:
448,192,7728,1,10,0:0:0:0:
320,192,7894,1,0,0:0:0:0:
192,192,8228,1,0,0:0:0:0:
64,192,8394,1,10,0:0:0:0:
320,192,8561,1,0,0:0:0:0:
448,192,8728,1,2,0:0:0:0:
192,192,8894,1,0,0:0:0:0:
64,192,9061,1,2,0:0:0:0:
448,192,9061,1,8,0:0:0:0:
320,192,9228,1,0,0:0:0:0:
192,192,9394,1,2,0:0:0:0:
64,192,9728,1,2,0:0:0:0:
320,192,9728,1,8,0:0:0:0:
192,192,10061,1,2,0:0:0:0:
320,192,10144,1,0,0:0:0:0:
64,192,10228,1,0,0:0:0:0:
192,192,10311,1,0,0:0:0:0:
448,192,10394,1,10,0:0:0:0:
320,192,10561,1,0,0:0:0:0:
192,192,10894,1,0,0:0:0:0:
64,192,11061,1,10,0:0:0:0:
320,192,11228,1,0,0:0:0:0:
448,192,11394,1,2,0:0:0:0:
192,192,11561,1,0,0:0:0:0:
448,192,11728,1,0,0:0:0:60:S1.wav
320,192,11811,1,0,0:0:0:60:S1.wav
192,192,11894,1,0,0:0:0:60:S1.wav
64,192,12061,128,2,12728:0:0:0:0:
448,192,12061,1,4,0:0:0:0:
64,192,13061,1,0,0:0:0:0:
320,192,13228,1,0,0:0:0:0:
192,192,13561,1,0,0:0:0:0:
448,192,13894,128,0,14228:0:0:0:0:
64,192,14228,1,0,0:0:0:0:
320,192,14561,128,0,14894:0:0:0:0:
448,192,14894,1,0,0:0:0:0:
192,192,15061,128,0,15394:0:0:0:0:
320,192,15394,128,0,15728:0:0:0:0:
64,192,15728,128,0,16061:0:0:0:0:
448,192,16061,1,0,0:0:0:0:
320,192,16228,1,0,0:0:0:0:
64,192,16394,1,0,0:0:0:0:
192,192,16561,1,0,0:0:0:0:
320,192,16728,1,0,0:0:0:0:
448,192,16894,1,0,0:0:0:0:
320,192,17061,1,2,0:0:0:0:
192,192,17228,1,2,0:0:0:0:
64,192,17394,128,2,18394:0:0:0:0:
192,192,18394,1,2,0:0:0:0:
320,192,18561,128,0,19228:0:0:0:0:
192,192,19228,1,0,0:0:0:0:
448,192,19311,1,0,0:0:0:0:
64,192,19561,1,0,0:0:0:0:
448,192,19894,128,0,20228:0:0:0:0:
320,192,20228,1,0,0:0:0:0:
192,192,20394,128,2,20728:0:0:0:0:
448,192,20728,128,2,21061:0:0:0:0:
64,192,21061,128,2,21394:0:0:0:0:
448,192,21394,1,2,0:0:0:0:
192,192,21561,1,2,0:0:0:0:
320,192,21728,1,2,0:0:0:0:
64,192,21894,1,2,0:0:0:0:
320,192,22061,1,8,0:0:0:0:
448,192,22061,128,2,22728:0:0:0:0:
192,192,22228,1,0,0:0:0:50:S1.wav
320,192,22394,1,10,0:0:0:0:
64,192,22561,1,0,0:0:0:50:S1.wav
192,192,22728,1,2,0:0:0:0:
64,192,22811,1,0,0:0:0:0:
320,192,22894,1,0,0:0:0:0:
448,192,22978,1,0,0:0:0:0:
192,192,23228,1,2,0:0:0:0:
320,192,23394,1,0,0:0:0:0:
320,192,23644,1,0,0:0:0:0:
448,192,23894,1,0,0:0:0:0:
192,192,24228,1,0,0:0:0:0:
64,192,24394,1,10,0:0:0:0:
192,192,24561,1,2,0:0:0:0:
448,192,24728,1,0,0:0:0:0:
448,192,24978,1,0,0:0:0:0:
64,192,25228,1,2,0:0:0:0:
64,192,25561,1,0,0:0:0:0:
192,192,25644,1,0,0:0:0:0:
448,192,25728,1,10,0:0:0:0:
192,192,25894,1,2,0:0:0:0:
320,192,26061,1,0,0:0:0:0:
320,192,26311,1,0,0:0:0:0:
64,192,26561,1,0,0:0:0:0:
448,192,26644,1,0,0:0:0:0:
320,192,26894,1,0,0:0:0:0:
192,192,27061,1,10,0:0:0:0:
448,192,27228,1,2,0:0:0:0:
64,192,27394,1,0,0:0:0:0:
320,192,27561,1,2,0:0:0:0:
192,192,27644,1,0,0:0:0:0:
64,192,27728,1,0,0:0:0:50:S1.wav
448,192,27894,1,0,0:0:0:50:S1.wav
64,192,28061,1,2,0:0:0:0:
192,192,28144,1,0,0:0:0:0:
320,192,28228,1,0,0:0:0:0:
448,192,28311,1,0,0:0:0:0:
64,192,28561,1,2,0:0:0:0:
192,192,28728,1,0,0:0:0:0:
192,192,28978,1,0,0:0:0:0:
320,192,29228,1,0,0:0:0:0:
448,192,29561,1,0,0:0:0:0:
192,192,29728,1,10,0:0:0:0:
320,192,29894,1,2,0:0:0:0:
64,192,30061,1,2,0:0:0:0:
64,192,30311,1,2,0:0:0:0:
448,192,30561,1,2,0:0:0:0:
192,192,30839,1,0,0:0:0:0:
64,192,30950,1,0,0:0:0:0:
320,192,31061,1,10,0:0:0:0:
192,192,31228,1,2,0:0:0:0:
448,192,31394,1,0,0:0:0:0:
448,192,31644,1,0,0:0:0:0:
192,192,31894,1,0,0:0:0:0:
448,192,31978,1,0,0:0:0:0:
64,192,32061,1,10,0:0:0:0:
320,192,32228,1,0,0:0:0:0:
192,192,32394,1,10,0:0:0:0:
448,192,32561,1,0,0:0:0:0:
64,192,32728,1,10,0:0:0:0:
320,192,32894,1,0,0:0:0:0:
192,192,32978,1,0,0:0:0:0:
64,192,33061,1,10,0:0:0:0:
448,192,33228,1,0,0:0:0:50:S1.wav
192,192,33394,1,2,0:0:0:0:
320,192,33394,128,0,34061:0:0:0:40:soft-hitfinish.wav
64,192,34394,1,0,0:0:0:0:
192,192,34561,1,2,0:0:0:0:
448,192,34728,128,2,35061:0:0:0:0:
320,192,35061,128,2,35394:0:0:0:0:
192,192,35394,128,10,35728:0:0:0:0:
448,192,35728,1,2,0:0:0:0:
320,192,35811,1,0,0:0:0:0:
64,192,35894,1,0,0:0:0:0:
448,192,36061,1,2,0:0:0:0:
320,192,36228,1,2,0:0:0:0:
192,192,36394,1,2,0:0:0:0:
320,192,36561,1,0,0:0:0:0:
192,192,36728,1,10,0:0:0:0:
64,192,36894,1,0,0:0:0:0:
192,192,37061,1,2,0:0:0:0:
64,192,37228,1,2,0:0:0:0:
448,192,37394,1,0,0:0:0:30:soft-hitfinish.wav
64,192,37561,1,2,0:0:0:0:
448,192,37728,1,2,0:0:0:0:
320,192,37894,1,2,0:0:0:0:
192,192,38061,1,10,0:0:0:0:
448,192,38144,1,0,0:0:0:0:
64,192,38394,1,0,0:0:0:50:S1.wav
192,192,38728,128,2,39728:0:0:0:0:
320,192,38728,1,0,0:0:0:40:soft-hitfinish.wav
64,192,39728,1,0,0:0:0:0:
320,192,39894,1,2,0:0:0:0:
448,192,40061,128,2,40394:0:0:0:0:
192,192,40394,128,2,40561:0:0:0:0:
64,192,40728,128,10,41061:0:0:0:0:
448,192,41061,1,2,0:0:0:0:
320,192,41144,1,0,0:0:0:0:
192,192,41228,1,2,0:0:0:0:
448,192,41394,1,2,0:0:0:0:
320,192,41561,1,2,0:0:0:0:
64,192,41728,1,2,0:0:0:0:
320,192,41894,1,0,0:0:0:0:
64,192,42061,1,10,0:0:0:0:
448,192,42228,1,0,0:0:0:0:
64,192,42394,1,2,0:0:0:0:
448,192,42561,1,2,0:0:0:0:
64,192,42728,1,2,0:0:0:0:
192,192,42728,1,0,0:0:0:30:soft-hitfinish.wav
320,192,42894,1,2,0:0:0:0:
448,192,42894,1,0,0:0:0:30:soft-hitfinish.wav
64,192,43061,1,2,0:0:0:0:
192,192,43061,1,0,0:0:0:30:soft-hitfinish.wav
320,192,43228,1,2,0:0:0:0:
448,192,43228,1,0,0:0:0:30:soft-hitfinish.wav
192,192,43394,128,10,43728:0:0:0:0:
320,192,43728,128,8,44061:0:0:0:0:
448,192,43728,128,0,44061:0:0:0:0:
64,192,44061,128,2,44728:0:0:0:0:
192,192,44061,1,0,0:0:0:40:soft-hitfinish.wav
64,192,45061,1,0,0:0:0:0:
320,192,45228,1,0,0:0:0:0:
192,192,45561,1,0,0:0:0:0:
448,192,45894,128,0,46228:0:0:0:0:
64,192,46228,1,0,0:0:0:0:
320,192,46561,128,0,46894:0:0:0:0:
448,192,46894,1,0,0:0:0:0:
192,192,47061,128,0,47394:0:0:0:0:
320,192,47394,128,0,47728:0:0:0:0:
64,192,47728,128,0,48061:0:0:0:0:
192,192,48061,1,0,0:0:0:0:
448,192,48228,1,0,0:0:0:0:
64,192,48394,1,0,0:0:0:0:
320,192,48561,1,0,0:0:0:0:
192,192,48728,1,0,0:0:0:0:
64,192,48894,1,0,0:0:0:0:
448,192,49061,1,0,0:0:0:0:
320,192,49228,1,0,0:0:0:0:
64,192,49394,128,0,50394:0:0:0:0:
192,192,50394,1,0,0:0:0:0:
320,192,50561,128,0,51228:0:0:0:0:
192,192,51228,1,0,0:0:0:0:
448,192,51311,1,0,0:0:0:0:
64,192,51561,1,0,0:0:0:0:
448,192,51894,128,0,52228:0:0:0:0:
320,192,52228,1,0,0:0:0:0:
192,192,52394,128,0,52728:0:0:0:0:
448,192,52728,128,0,53061:0:0:0:0:
64,192,53061,128,0,53394:0:0:0:0:
320,192,53394,1,10,0:0:0:0:
448,192,53561,1,0,0:0:0:0:
192,192,53728,1,0,0:0:0:0:
64,192,53894,1,0,0:0:0:0:
448,192,54061,1,0,0:0:0:0:
192,192,54228,1,0,0:0:0:0:
320,192,54394,1,0,0:0:0:0:
64,192,54561,1,0,0:0:0:0:
320,192,54728,1,10,0:0:0:0:
448,192,54728,1,0,0:0:0:40:soft-hitfinish.wav
192,192,54894,1,0,0:0:0:0:
64,192,55061,1,10,0:0:0:0:
320,192,55228,1,0,0:0:0:0:
192,192,55394,1,10,0:0:0:0:
64,192,55561,1,0,0:0:0:0:
320,192,55728,1,10,0:0:0:0:
192,192,55811,1,0,0:0:0:0:
64,192,55894,1,2,0:0:0:0:
448,192,56061,1,10,0:0:0:0:
320,192,56228,1,0,0:0:0:0:
64,192,56394,1,10,0:0:0:0:
448,192,56561,1,0,0:0:0:0:
320,192,56728,1,10,0:0:0:0:
64,192,56894,1,2,0:0:0:0:
448,192,57061,1,10,0:0:0:0:
320,192,57144,1,0,0:0:0:0:
64,192,57228,1,2,0:0:0:0:
448,192,57394,1,10,0:0:0:0:
320,192,57478,1,0,0:0:0:0:
192,192,57561,1,0,0:0:0:0:
448,192,57728,1,10,0:0:0:0:
320,192,57811,1,0,0:0:0:0:
192,192,57894,1,0,0:0:0:0:
448,192,58061,1,10,0:0:0:0:
320,192,58144,1,0,0:0:0:0:
192,192,58228,1,0,0:0:0:0:
448,192,58394,1,10,0:0:0:0:
320,192,58478,1,0,0:0:0:0:
192,192,58561,1,2,0:0:0:0:
320,192,58728,1,10,0:0:0:0:
192,192,58811,1,0,0:0:0:0:
64,192,58894,1,0,0:0:0:0:
320,192,59061,1,10,0:0:0:0:
192,192,59144,1,0,0:0:0:0:
64,192,59228,1,0,0:0:0:0:
320,192,59394,1,10,0:0:0:0:
192,192,59478,1,0,0:0:0:0:
64,192,59561,1,2,0:0:0:0:
320,192,59728,1,0,0:0:0:50:S1.wav
192,192,59811,1,0,0:0:0:50:S1.wav
64,192,59894,1,0,0:0:0:50:S1.wav
320,192,60061,1,10,0:0:0:0:
448,192,60061,1,0,0:0:0:40:soft-hitfinish.wav
192,192,60228,1,0,0:0:0:0:
64,192,60394,1,10,0:0:0:0:
448,192,60561,1,0,0:0:0:0:
192,192,60728,1,10,0:0:0:0:
64,192,60894,1,0,0:0:0:0:
448,192,61061,1,10,0:0:0:0:
192,192,61144,1,0,0:0:0:0:
64,192,61228,1,0,0:0:0:0:
320,192,61394,1,10,0:0:0:0:
192,192,61561,1,0,0:0:0:0:
64,192,61728,1,10,0:0:0:0:
320,192,61894,1,0,0:0:0:0:
192,192,62061,1,10,0:0:0:0:
64,192,62228,1,0,0:0:0:0:
320,192,62394,1,10,0:0:0:0:
192,192,62478,1,0,0:0:0:0:
64,192,62561,1,0,0:0:0:0:
448,192,62728,1,2,0:0:0:0:
320,192,62811,1,0,0:0:0:0:
192,192,62894,1,0,0:0:0:0:
64,192,63061,1,2,0:0:0:0:
192,192,63144,1,0,0:0:0:0:
320,192,63228,1,0,0:0:0:0:
448,192,63394,1,2,0:0:0:0:
320,192,63478,1,0,0:0:0:0:
192,192,63561,1,0,0:0:0:0:
64,192,63728,1,2,0:0:0:0:
192,192,63811,1,0,0:0:0:0:
320,192,63894,1,0,0:0:0:0:
448,192,64061,1,0,0:0:0:70:LR_Tom Hit.wav
64,192,64228,1,0,0:0:0:70:LR_Tom Hit.wav
320,192,64311,1,0,0:0:0:70:LR_Tom Hit 2.wav
192,192,64394,1,0,0:0:0:70:LR_Tom Hit 3.wav
448,192,64561,1,0,0:0:0:70:LR_Tom Hit.wav
320,192,64644,1,0,0:0:0:70:LR_Tom Hit 2.wav
64,192,64728,1,0,0:0:0:70:LR_Tom Hit 3.wav
192,192,64894,1,0,0:0:0:70:LR_Tom Hit.wav
448,192,65061,1,10,0:0:0:0:
448,192,65228,1,10,0:0:0:0:
192,192,65394,1,2,0:0:0:0:
64,192,65478,1,0,0:0:0:0:
320,192,65561,1,0,0:0:0:0:
448,192,65644,1,0,0:0:0:0:
192,192,65894,1,2,0:0:0:0:
320,192,66061,1,0,0:0:0:0:
320,192,66311,1,0,0:0:0:0:
64,192,66561,1,2,0:0:0:0:
448,192,66561,1,0,0:0:0:40:soft-hitfinish.wav
192,192,66894,1,2,0:0:0:0:
64,192,67061,1,10,0:0:0:0:
192,192,67228,1,2,0:0:0:0:
448,192,67394,1,2,0:0:0:0:
448,192,67644,1,2,0:0:0:0:
64,192,67894,1,2,0:0:0:0:
192,192,68061,1,2,0:0:0:0:
448,192,68061,1,0,0:0:0:40:soft-hitfinish.wav
64,192,68144,1,0,0:0:0:0:
320,192,68228,1,0,0:0:0:0:
448,192,68311,1,0,0:0:0:0:
192,192,68561,1,2,0:0:0:0:
320,192,68728,1,0,0:0:0:0:
320,192,68978,1,0,0:0:0:0:
64,192,69228,1,2,0:0:0:0:
192,192,69228,1,0,0:0:0:40:soft-hitfinish.wav
448,192,69311,1,0,0:0:0:0:
64,192,69561,1,2,0:0:0:0:
320,192,69728,1,10,0:0:0:0:
192,192,69811,1,0,0:0:0:0:
64,192,69894,1,2,0:0:0:0:
448,192,70061,1,10,0:0:0:0:
320,192,70228,1,0,0:0:0:50:S1.wav
192,192,70311,1,0,0:0:0:50:S1.wav
64,192,70394,1,10,0:0:0:0:
320,192,70561,1,0,0:0:0:50:S1.wav
64,192,70728,1,2,0:0:0:0:
448,192,70728,1,0,0:0:0:40:soft-hitfinish.wav
192,192,70811,1,0,0:0:0:0:
320,192,70894,1,0,0:0:0:0:
448,192,70978,1,0,0:0:0:0:
64,192,71228,1,0,0:0:0:0:
192,192,71394,1,2,0:0:0:0:
192,192,71644,1,0,0:0:0:0:
64,192,71894,1,2,0:0:0:0:
320,192,71894,1,0,0:0:0:40:soft-hitfinish.wav
448,192,72228,1,0,0:0:0:0:
192,192,72394,1,10,0:0:0:0:
320,192,72561,1,0,0:0:0:0:
64,192,72728,1,2,0:0:0:0:
64,192,72978,1,2,0:0:0:0:
320,192,73228,1,2,0:0:0:0:
64,192,73394,1,2,0:0:0:0:
448,192,73394,1,0,0:0:0:40:soft-hitfinish.wav
192,192,73561,1,0,0:0:0:0:
320,192,73728,1,10,0:0:0:0:
64,192,73894,1,0,0:0:0:0:
448,192,74061,1,2,0:0:0:0:
448,192,74311,1,0,0:0:0:0:
192,192,74561,1,2,0:0:0:0:
320,192,74644,1,2,0:0:0:0:
64,192,74728,1,8,0:0:0:0:
448,192,74728,1,2,0:0:0:0:
192,192,74894,1,2,0:0:0:0:
320,192,74894,1,8,0:0:0:0:
64,192,75061,1,8,0:0:0:0:
448,192,75061,1,2,0:0:0:0:
192,192,75228,1,2,0:0:0:0:
320,192,75228,1,8,0:0:0:0:
64,192,75394,1,2,0:0:0:0:
448,192,75394,128,8,75728:0:0:0:0:
192,192,75728,1,8,0:0:0:0:
320,192,75728,128,2,76061:0:0:0:0:
64,192,76061,128,2,76561:0:0:0:0:
448,192,76061,1,0,0:0:0:40:soft-hitfinish.wav
192,192,76561,128,2,77061:0:0:0:0:
64,192,77061,128,10,77561:0:0:0:0:
192,192,77561,128,0,77894:0:0:0:0:
448,192,77894,1,2,0:0:0:0:
64,192,77978,1,0,0:0:0:0:
320,192,78061,128,0,78561:0:0:0:0:
192,192,78561,1,2,0:0:0:0:
448,192,78728,1,2,0:0:0:0:
320,192,78811,1,0,0:0:0:0:
64,192,78894,1,0,0:0:0:0:
448,192,79061,1,10,0:0:0:0:
320,192,79144,1,0,0:0:0:0:
64,192,79228,1,2,0:0:0:0:
448,192,79394,1,0,0:0:0:0:
320,192,79478,1,0,0:0:0:0:
64,192,79561,1,2,0:0:0:0:
448,192,79728,1,10,0:0:0:0:
320,192,79811,1,0,0:0:0:0:
64,192,79894,1,0,0:0:0:0:
320,192,80061,1,2,0:0:0:0:
192,192,80144,1,0,0:0:0:0:
64,192,80228,1,0,0:0:0:0:
448,192,80394,1,10,0:0:0:0:
320,192,80478,1,0,0:0:0:0:
64,192,80561,1,2,0:0:0:0:
192,192,80728,1,0,0:0:0:0:
448,192,80811,1,0,0:0:0:0:
64,192,80894,1,2,0:0:0:0:
448,192,81061,1,0,0:0:0:50:S1.wav
320,192,81144,1,0,0:0:0:50:S1.wav
64,192,81228,1,0,0:0:0:50:S1.wav
192,192,81394,1,2,0:0:0:0:
320,192,81561,1,0,0:0:0:0:
64,192,81728,1,10,0:0:0:0:
448,192,81811,1,0,0:0:0:0:
192,192,81894,1,2,0:0:0:0:
64,192,82061,1,0,0:0:0:0:
320,192,82144,1,0,0:0:0:0:
192,192,82228,1,2,0:0:0:0:
448,192,82311,1,0,0:0:0:0:
64,192,82394,1,10,0:0:0:0:
320,192,82561,1,0,0:0:0:0:
192,192,82728,1,2,0:0:0:0:
448,192,82811,1,0,0:0:0:0:
64,192,82894,1,0,0:0:0:0:
320,192,82978,1,0,0:0:0:0:
192,192,83061,1,10,0:0:0:0:
64,192,83228,1,2,0:0:0:0:
320,192,83394,1,2,0:0:0:0:
192,192,83478,1,2,0:0:0:0:
448,192,83561,1,2,0:0:0:0:
64,192,83644,1,2,0:0:0:0:
320,192,83728,1,10,0:0:0:0:
192,192,83894,1,2,0:0:0:0:
448,192,84061,1,2,0:0:0:0:
64,192,84228,1,0,0:0:0:0:
320,192,84561,1,2,0:0:0:0:
192,192,84894,1,2,0:0:0:0:
64,192,85228,1,0,0:0:0:0:
448,192,85561,1,0,0:0:0:0:
192,192,85644,1,0,0:0:0:0:
320,192,85728,1,10,0:0:0:0:
64,192,85894,1,2,0:0:0:0:
448,192,86061,1,0,0:0:0:0:
192,192,86394,1,0,0:0:0:50:S1.wav
320,192,86728,1,2,0:0:0:0:
192,192,86811,1,0,0:0:0:0:
64,192,86894,1,0,0:0:0:0:
320,192,87061,1,10,0:0:0:0:
192,192,87144,1,0,0:0:0:0:
64,192,87228,1,2,0:0:0:0:
320,192,87394,1,0,0:0:0:0:
192,192,87478,1,0,0:0:0:0:
64,192,87561,1,2,0:0:0:0:
320,192,87728,1,10,0:0:0:0:
192,192,87811,1,0,0:0:0:0:
64,192,87894,1,0,0:0:0:0:
448,192,88061,1,2,0:0:0:0:
320,192,88144,1,0,0:0:0:0:
64,192,88228,1,0,0:0:0:0:
320,192,88394,1,10,0:0:0:0:
192,192,88478,1,0,0:0:0:0:
64,192,88561,1,2,0:0:0:0:
448,192,88728,1,0,0:0:0:0:
192,192,88811,1,0,0:0:0:0:
64,192,88894,1,2,0:0:0:0:
320,192,89061,1,10,0:0:0:0:
192,192,89144,1,0,0:0:0:0:
64,192,89228,1,2,0:0:0:0:
320,192,89394,1,2,0:0:0:0:
64,192,89561,1,0,0:0:0:0:
448,192,89644,1,0,0:0:0:0:
192,192,89728,1,10,0:0:0:0:
320,192,89894,1,2,0:0:0:0:
64,192,90061,1,0,0:0:0:0:
448,192,90144,1,0,0:0:0:0:
320,192,90228,1,2,0:0:0:0:
192,192,90394,1,10,0:0:0:0:
64,192,90561,1,0,0:0:0:0:
320,192,90728,1,2,0:0:0:0:
192,192,90811,1,0,0:0:0:0:
448,192,90894,1,0,0:0:0:0:
64,192,91061,1,10,0:0:0:0:
320,192,91228,128,2,92061:0:0:0:0:
448,192,92061,1,2,0:0:0:0:
192,192,92144,1,0,0:0:0:0:
64,192,92228,1,0,0:0:0:0:
320,192,92394,1,10,0:0:0:0:
448,192,92561,1,2,0:0:0:0:
192,192,92644,1,0,0:0:0:0:
64,192,92728,1,0,0:0:0:0:
320,192,92894,1,2,0:0:0:0:
448,192,93061,1,10,0:0:0:0:
192,192,93144,1,0,0:0:0:0:
64,192,93228,1,0,0:0:0:0:
448,192,93394,1,2,0:0:0:0:
192,192,93561,1,0,0:0:0:0:
448,192,93644,1,0,0:0:0:0:
320,192,93728,1,10,0:0:0:0:
192,192,93894,1,2,0:0:0:0:
64,192,94061,1,2,0:0:0:0:
448,192,94144,1,2,0:0:0:0:
192,192,94228,1,2,0:0:0:0:
320,192,94311,1,2,0:0:0:0:
64,192,94394,1,10,0:0:0:0:
448,192,94561,1,0,0:0:0:0:
320,192,94644,1,0,0:0:0:0:
192,192,94728,1,2,0:0:0:0:
64,192,94894,1,0,0:0:0:0:
448,192,95061,1,10,0:0:0:0:
320,192,95228,1,2,0:0:0:0:
64,192,95311,1,0,0:0:0:0:
192,192,95394,1,0,0:0:0:0:
64,192,95561,1,2,0:0:0:0:
448,192,95644,1,0,0:0:0:0:
320,192,95728,1,10,0:0:0:0:
192,192,95894,1,0,0:0:0:0:
320,192,95978,1,0,0:0:0:0:
64,192,96061,1,8,0:0:0:0:
448,192,96061,1,2,0:0:0:0:
64,192,96394,1,2,0:0:0:0:
448,192,96394,1,8,0:0:0:0:
64,192,96728,1,8,0:0:0:0:
448,192,96728,1,2,0:0:0:0:
320,192,97061,1,10,0:0:0:0:
192,192,97144,1,0,0:0:0:50:S1.wav
448,192,97228,1,0,0:0:0:50:S1.wav
64,192,97311,1,0,0:0:0:50:S1.wav
192,192,97394,1,2,0:0:0:0:
320,192,97394,128,0,98061:0:0:0:30:soft-hitfinish.wav
192,192,98394,1,10,0:0:0:0:
320,192,98561,1,2,0:0:0:0:
64,192,98728,1,2,0:0:0:0:
448,192,98728,128,0,98894:0:0:0:30:soft-hitfinish.wav
320,192,99061,128,10,99228:0:0:0:0:
192,192,99394,128,2,99561:0:0:0:0:
448,192,99728,1,10,0:0:0:0:
320,192,99811,1,0,0:0:0:0:
64,192,99894,1,2,0:0:0:0:
192,192,100061,1,2,0:0:0:0:
448,192,100061,1,0,0:0:0:30:soft-hitfinish.wav
320,192,100228,1,0,0:0:0:0:
192,192,100394,1,10,0:0:0:0:
320,192,100561,1,2,0:0:0:0:
192,192,100728,1,2,0:0:0:0:
64,192,100894,1,2,0:0:0:0:
192,192,101061,1,10,0:0:0:0:
64,192,101228,1,2,0:0:0:0:
320,192,101394,1,2,0:0:0:0:
448,192,101394,1,0,0:0:0:30:soft-hitfinish.wav
64,192,101561,1,2,0:0:0:0:
320,192,101728,1,10,0:0:0:0:
192,192,101894,1,2,0:0:0:0:
64,192,102061,1,10,0:0:0:0:
448,192,102061,128,0,102394:0:0:0:30:soft-hitfinish.wav
64,192,102394,128,10,102728:0:0:0:0:
192,192,102394,1,0,0:0:0:30:soft-hitfinish.wav
192,192,102728,1,2,0:0:0:0:
320,192,102728,1,0,0:0:0:40:soft-hitfinish.wav
448,192,103061,1,10,0:0:0:0:
192,192,103394,1,2,0:0:0:0:
64,192,103728,1,10,0:0:0:0:
192,192,103811,1,0,0:0:0:0:
320,192,103894,1,2,0:0:0:0:
64,192,104061,1,2,0:0:0:0:
448,192,104061,1,0,0:0:0:30:soft-hitfinish.wav
320,192,104394,1,10,0:0:0:0:
64,192,104728,1,2,0:0:0:0:
448,192,105061,1,10,0:0:0:0:
320,192,105144,1,0,0:0:0:0:
192,192,105228,1,0,0:0:0:0:
64,192,105394,1,2,0:0:0:0:
448,192,105394,1,0,0:0:0:30:soft-hitfinish.wav
320,192,105561,1,2,0:0:0:0:
192,192,105728,1,10,0:0:0:0:
320,192,105894,1,2,0:0:0:0:
192,192,106061,1,2,0:0:0:0:
64,192,106228,1,0,0:0:0:0:
448,192,106394,1,10,0:0:0:0:
320,192,106561,1,0,0:0:0:0:
64,192,106728,1,2,0:0:0:0:
192,192,106728,1,8,0:0:0:0:
448,192,106894,1,0,0:0:0:0:
192,192,107061,1,2,0:0:0:0:
320,192,107061,1,8,0:0:0:0:
64,192,107228,1,0,0:0:0:0:
320,192,107394,128,8,107728:0:0:0:0:
448,192,107394,1,2,0:0:0:0:
64,192,107728,1,2,0:0:0:0:
192,192,107728,128,8,108061:0:0:0:0:
64,192,108061,1,4,0:0:0:0:
448,192,108061,1,2,0:0:0:0:
64,192,108394,1,2,0:0:0:0:
64,192,108728,1,2,0:0:0:0:
320,192,108894,1,0,0:0:0:0:
192,192,108978,1,0,0:0:0:0:
448,192,109061,1,2,0:0:0:0:
64,192,109228,1,0,0:0:0:0:
64,192,109561,1,0,0:0:0:0:
64,192,109894,128,0,110228:0:0:0:0:
448,192,110228,1,0,0:0:0:0:
192,192,110311,1,0,0:0:0:0:
320,192,110394,1,2,0:0:0:0:
64,192,110728,1,2,0:0:0:0:
64,192,111061,1,2,0:0:0:0:
64,192,111394,1,2,0:0:0:0:
320,192,111561,1,0,0:0:0:0:
192,192,111644,1,0,0:0:0:0:
448,192,111728,1,2,0:0:0:0:
320,192,111894,1,0,0:0:0:0:
192,192,112061,1,2,0:0:0:0:
64,192,112228,1,0,0:0:0:0:
320,192,112394,1,2,0:0:0:0:
448,192,112561,1,0,0:0:0:0:
192,192,112728,1,2,0:0:0:0:
320,192,112894,128,0,113228:0:0:0:0:
64,192,113228,1,0,0:0:0:50:S1.wav
192,192,113394,1,2,0:0:0:0:
64,192,113728,1,8,0:0:0:0:
320,192,113728,1,2,0:0:0:0:
192,192,114061,1,2,0:0:0:0:
320,192,114144,1,0,0:0:0:0:
64,192,114228,1,0,0:0:0:0:
192,192,114311,1,0,0:0:0:0:
320,192,114394,1,8,0:0:0:0:
448,192,114394,1,2,0:0:0:0:
192,192,114561,1,0,0:0:0:0:
320,192,114894,1,0,0:0:0:0:
64,192,115061,1,10,0:0:0:0:
192,192,115228,1,0,0:0:0:0:
448,192,115561,1,0,0:0:0:0:
192,192,115644,1,0,0:0:0:0:
320,192,115728,1,8,0:0:0:0:
448,192,115728,1,2,0:0:0:0:
192,192,116061,1,2,0:0:0:0:
64,192,116394,1,8,0:0:0:0:
320,192,116394,1,2,0:0:0:0:
192,192,116728,1,2,0:0:0:0:
320,192,116811,1,0,0:0:0:0:
64,192,116894,1,0,0:0:0:0:
192,192,116978,1,0,0:0:0:0:
320,192,117061,1,2,0:0:0:0:
448,192,117061,1,8,0:0:0:0:
64,192,117228,1,0,0:0:0:0:
192,192,117394,1,8,0:0:0:0:
448,192,117394,1,2,0:0:0:0:
320,192,117561,1,2,0:0:0:0:
64,192,117728,1,2,0:0:0:0:
448,192,117728,1,8,0:0:0:0:
192,192,117894,1,2,0:0:0:0:
320,192,118061,1,8,0:0:0:0:
448,192,118061,128,2,118728:0:0:0:0:
64,192,118228,1,0,0:0:0:50:S1.wav
320,192,118394,1,10,0:0:0:0:
192,192,118561,1,0,0:0:0:50:S1.wav
64,192,118728,128,2,119394:0:0:0:0:
320,192,118728,1,0,0:0:0:0:
64,192,119728,128,2,119894:0:0:0:0:
192,192,119894,1,2,0:0:0:0:
192,192,120228,1,0,0:0:0:0:
320,192,120561,1,2,0:0:0:0:
448,192,120644,128,0,120894:0:0:0:0:
64,192,120894,1,2,0:0:0:0:
320,192,121228,128,2,121561:0:0:0:0:
64,192,121561,1,2,0:0:0:0:
448,192,121644,1,2,0:0:0:0:
192,192,121728,128,2,122061:0:0:0:0:
320,192,122061,128,10,122394:0:0:0:0:
64,192,122394,128,2,122728:0:0:0:0:
320,192,122728,1,2,0:0:0:0:
192,192,122894,1,2,0:0:0:0:
448,192,122978,1,2,0:0:0:0:
64,192,123061,1,2,0:0:0:0:
320,192,123061,1,8,0:0:0:0:
192,192,123228,1,2,0:0:0:0:
320,192,123394,1,2,0:0:0:0:
448,192,123394,1,8,0:0:0:0:
64,192,123561,1,2,0:0:0:0:
192,192,123728,1,2,0:0:0:0:
448,192,123728,1,8,0:0:0:0:
320,192,123894,1,10,0:0:0:0:
64,192,124061,1,2,0:0:0:0:
448,192,124061,1,0,0:0:0:0:
192,192,124144,128,0,125061:0:0:0:0:
64,192,125061,1,2,0:0:0:0:
64,192,125228,1,2,0:0:0:0:
320,192,125311,128,0,125894:0:0:0:0:
192,192,125894,1,2,0:0:0:0:
448,192,125978,1,0,0:0:0:0:
64,192,126228,1,2,0:0:0:0:
448,192,126561,128,2,126894:0:0:0:0:
64,192,126894,1,2,0:0:0:0:
320,192,126978,1,2,0:0:0:0:
192,192,127061,128,2,127394:0:0:0:0:
448,192,127394,128,10,127728:0:0:0:0:
64,192,127728,128,10,127894:0:0:0:0:
192,192,128061,1,2,0:0:0:0:
320,192,128061,1,0,0:0:0:30:soft-hitfinish.wav
64,192,128228,1,2,0:0:0:0:
448,192,128228,1,0,0:0:0:30:soft-hitfinish.wav
192,192,128394,1,2,0:0:0:0:
320,192,128394,1,0,0:0:0:30:soft-hitfinish.wav
64,192,128561,1,2,0:0:0:0:
448,192,128561,1,0,0:0:0:30:soft-hitfinish.wav
64,192,128728,1,2,0:0:0:0:
192,192,128728,1,0,0:0:0:30:soft-hitfinish.wav
320,192,128894,1,2,0:0:0:0:
448,192,128894,1,0,0:0:0:30:soft-hitfinish.wav
64,192,129061,1,2,0:0:0:0:
192,192,129061,1,0,0:0:0:30:soft-hitfinish.wav
320,192,129228,1,2,0:0:0:0:
448,192,129228,1,0,0:0:0:30:soft-hitfinish.wav
192,192,129394,1,2,0:0:0:0:
448,192,129394,1,0,0:0:0:40:soft-hitfinish.wav
64,192,129478,1,0,0:0:0:0:
320,192,129561,1,0,0:0:0:0:
448,192,129644,1,0,0:0:0:0:
64,192,129894,1,0,0:0:0:0:
320,192,130061,1,0,0:0:0:0:
192,192,130311,1,0,0:0:0:0:
448,192,130561,1,0,0:0:0:0:
320,192,130894,1,0,0:0:0:0:
64,192,131061,1,0,0:0:0:0:
192,192,131228,1,0,0:0:0:0:
448,192,131394,1,0,0:0:0:0:
320,192,131644,1,0,0:0:0:0:
192,192,131894,1,0,0:0:0:0:
64,192,132228,1,0,0:0:0:0:
192,192,132311,1,0,0:0:0:0:
448,192,132394,1,0,0:0:0:0:
64,192,132561,1,0,0:0:0:0:
320,192,132728,1,0,0:0:0:0:
192,192,132978,1,0,0:0:0:0:
320,192,133228,1,0,0:0:0:0:
448,192,133311,1,0,0:0:0:0:
64,192,133561,1,0,0:0:0:0:
320,192,133728,1,0,0:0:0:0:
192,192,133894,1,0,0:0:0:0:
64,192,134061,1,0,0:0:0:0:
320,192,134228,1,0,0:0:0:0:
192,192,134394,1,0,0:0:0:0:
448,192,134561,1,0,0:0:0:0:
64,192,134728,1,0,0:0:0:0:
192,192,134811,1,0,0:0:0:0:
320,192,134894,1,0,0:0:0:0:
448,192,134978,1,0,0:0:0:0:
64,192,135228,1,0,0:0:0:0:
192,192,135394,1,0,0:0:0:0:
64,192,135686,1,0,0:0:0:0:
320,192,135894,1,0,0:0:0:0:
448,192,136283,1,0,0:0:0:0:
192,192,136436,1,0,0:0:0:0:
320,192,136603,1,0,0:0:0:0:
64,192,136728,1,0,0:0:0:0:
192,192,137019,1,0,0:0:0:0:
320,192,137228,1,0,0:0:0:0:
64,192,137394,1,0,0:0:0:0:
448,192,137506,1,0,0:0:0:0:
192,192,137617,1,0,0:0:0:0:
320,192,137728,1,0,0:0:0:0:
64,192,137894,1,0,0:0:0:0:
448,192,138061,1,0,0:0:0:0:
192,192,138339,1,0,0:0:0:0:
320,192,138617,128,0,138894:0:0:0:0:
64,192,138894,1,0,0:0:0:0:
448,192,139061,1,0,0:0:0:0:
192,192,139144,1,0,0:0:0:0:
64,192,139228,1,0,0:0:0:0:
320,192,139394,1,0,0:0:0:0:
192,192,139561,1,0,0:0:0:0:
64,192,139728,1,0,0:0:0:0:
448,192,139894,1,0,0:0:0:0:
192,192,140061,128,0,141186:0:0:0:0:
448,192,141186,1,0,0:0:0:0:
