osu file format v14

[General]
AudioFilename: audio.mp3
AudioLeadIn: 0
PreviewTime: 118560
Countdown: 0
SampleSet: Normal
StackLeniency: 0.7
Mode: 1
LetterboxInBreaks: 0
WidescreenStoryboard: 0

[Editor]
Bookmarks: 20128,20301,32209,110830,126865,127899,128244,129537,129623,132382,133761,134278,138934,143749,146778,147640,213072,213675,219537,222727,226175,255830,261950,263330,265731,266766,268490,269869,273847,282456,332283,334697,335904,336249,336593,336938,337283,341593
DistanceSpacing: 1
BeatDivisor: 4
GridSize: 32
TimelineZoom: 3.399999

[Metadata]
Title:"Daughter of the Dark God" Metal Cover (feat. Adriana Figueroa)
TitleUnicode:"Daughter of the Dark God" Metal Cover (feat. Adriana Figueroa)
Artist:FamilyJules
ArtistUnicode:FamilyJules
Creator:tatatat
Version:Daemonum Proelium
Source:OCTOPATH TRAVELER
Tags:西木康智 nishiki yasunori square enix nintendo video game opera symphonic metal remix latin Conroy 魔神の血を継ぐ者 The Eightfold Road OST Original Soundtrack
BeatmapID:2423533
BeatmapSetID:1161682

[Difficulty]
HPDrainRate:6.6
CircleSize:2
OverallDifficulty:7.4
ApproachRate:10
SliderMultiplier:1.6
SliderTickRate:1

[Events]
//Background and Video events
0,0,"NEW.jpg",0,20
//Break Periods
//Storyboard Layer 0 (Background)
//Storyboard Layer 1 (Fail)
//Storyboard Layer 2 (Pass)
//Storyboard Layer 3 (Foreground)
//Storyboard Layer 4 (Overlay)
//Storyboard Sound Samples

[TimingPoints]
5560,344.827586206897,4,1,0,75,1,0
22801,-105.263157894737,4,1,0,75,0,0
23060,-111.111111111111,4,1,0,75,0,0
23318,-117.647058823529,4,1,0,75,0,0
23491,-125,4,1,0,75,0,0
26077,-111.111111111111,4,1,0,75,0,0
26249,-100,4,1,0,75,0,0
38318,-99.009900990099,4,1,0,75,0,0
38404,-98.0392156862745,4,1,0,75,0,0
38491,-97.0873786407767,4,1,0,75,0,0
38577,-96.1538461538461,4,1,0,75,0,0
38663,-95.2380952380952,4,1,0,75,0,1
44180,-95.2380952380952,4,1,0,75,0,0
44266,-100,4,1,0,75,0,0
63491,-125,4,1,0,50,0,0
84180,-111.111111111111,4,1,0,65,0,0
85560,-100,4,1,0,75,0,0
118318,-99.009900990099,4,1,0,75,0,0
118404,-98.0392156862745,4,1,0,75,0,0
118491,-97.0873786407767,4,1,0,75,0,0
118577,-96.1538461538461,4,1,0,75,0,0
118663,-95.2380952380952,4,1,0,75,0,1
124180,-95.2380952380952,4,1,0,75,0,0
124353,-97.5609756097561,4,1,0,75,0,0
124525,-100,4,1,0,75,0,0
126939,-100,4,1,0,75,0,1
149008,-100,4,1,0,75,0,0
150387,-142.857142857143,4,1,0,50,0,0
162111,-125,4,1,0,50,0,0
183491,-121.951219512195,4,1,0,60,0,0
183577,-119.047619047619,4,1,0,60,0,0
183663,-116.279069767442,4,1,0,60,0,0
183749,-113.636363636364,4,1,0,60,0,0
183835,-111.111111111111,4,1,0,60,0,0
184008,-108.695652173913,4,1,0,60,0,0
184094,-106.382978723404,4,1,0,60,0,0
184180,-104.166666666667,4,1,0,75,0,0
184266,-102.040816326531,4,1,0,75,0,0
184353,-100,4,1,0,75,0,0
253835,344.827586206897,4,1,0,75,1,8
254525,344.827586206897,4,1,0,75,1,0
298662,-90.9090909090909,4,1,0,75,0,0
300042,-83.3333333333333,4,1,0,75,0,0
301249,-93.7500000000001,4,1,0,75,0,0
301421,-104.166666666667,4,1,0,75,0,0
301938,-125,4,1,0,75,0,0
304180,-100,4,1,0,75,0,0
325731,-99.009900990099,4,1,0,75,0,0
325818,-98.5221674876847,4,1,0,75,0,0
325904,-98.0392156862745,4,1,0,75,0,0
326076,-97.0873786407767,4,1,0,75,0,0
326162,-96.1538461538461,4,1,0,75,0,0
326249,-95.2380952380952,4,1,0,75,0,1
331766,-95.2380952380952,4,1,0,75,0,0
331852,-100,4,1,0,75,0,0
352628,-100,4,1,0,60,0,0
353835,-100,4,1,0,55,0,0
355214,-100,4,1,0,50,0,0
356593,-100,4,1,0,40,0,0
359352,-100,4,1,0,35,0,0
363490,-125,4,1,0,25,0,0

[HitObjects]
256,192,5560,5,4,0:0:0:0:
256,192,5732,1,4,0:0:0:0:
256,192,5904,1,4,0:0:0:0:
256,192,6594,1,4,0:0:0:0:
256,192,6766,1,4,0:0:0:0:
256,192,6939,1,12,0:0:0:0:
256,192,7628,1,0,0:0:0:0:
256,192,7801,1,0,0:0:0:0:
256,192,7887,1,0,0:0:0:0:
256,192,7973,1,8,0:0:0:0:
256,192,8146,1,8,0:0:0:0:
256,192,8318,1,0,0:0:0:0:
256,192,8491,1,0,0:0:0:0:
256,192,8663,1,8,0:0:0:0:
256,192,8835,1,0,0:0:0:0:
256,192,9008,1,0,0:0:0:0:
256,192,9180,1,0,0:0:0:0:
256,192,9353,1,8,0:0:0:0:
256,192,9525,1,8,0:0:0:0:
256,192,9697,1,0,0:0:0:0:
256,192,9870,1,0,0:0:0:0:
256,192,10042,1,0,0:0:0:0:
256,192,10215,1,0,0:0:0:0:
256,192,10387,1,8,0:0:0:0:
256,192,10473,1,8,0:0:0:0:
256,192,10560,1,8,0:0:0:0:
256,192,10732,1,8,0:0:0:0:
256,192,11077,1,4,0:0:0:0:
256,192,11249,1,4,0:0:0:0:
256,192,11422,1,4,0:0:0:0:
256,192,12111,1,4,0:0:0:0:
256,192,12284,1,4,0:0:0:0:
256,192,12456,1,12,0:0:0:0:
256,192,13146,1,0,0:0:0:0:
256,192,13318,1,0,0:0:0:0:
256,192,13404,1,0,0:0:0:0:
256,192,13491,1,8,0:0:0:0:
256,192,13663,1,8,0:0:0:0:
256,192,13835,1,0,0:0:0:0:
256,192,14008,1,0,0:0:0:0:
256,192,14180,1,8,0:0:0:0:
256,192,14353,1,0,0:0:0:0:
256,192,14525,1,0,0:0:0:0:
256,192,14697,1,0,0:0:0:0:
256,192,14870,1,8,0:0:0:0:
256,192,15042,1,8,0:0:0:0:
256,192,15215,1,0,0:0:0:0:
256,192,15387,1,0,0:0:0:0:
256,192,15560,1,0,0:0:0:0:
256,192,15732,1,0,0:0:0:0:
256,192,15904,1,0,0:0:0:0:
256,192,15991,1,0,0:0:0:0:
256,192,16077,1,8,0:0:0:0:
256,192,16163,1,8,0:0:0:0:
256,192,16249,1,8,0:0:0:0:
256,192,16335,1,0,0:0:0:0:
256,192,16422,1,0,0:0:0:0:
256,192,16508,1,0,0:0:0:0:
256,192,16594,1,12,0:0:0:0:
256,192,16766,1,8,0:0:0:0:
256,192,16939,1,0,0:0:0:0:
256,192,17111,1,0,0:0:0:0:
256,192,17197,1,0,0:0:0:0:
256,192,17284,1,8,0:0:0:0:
256,192,17370,1,8,0:0:0:0:
256,192,17456,1,0,0:0:0:0:
256,192,17542,1,0,0:0:0:0:
256,192,17628,1,8,0:0:0:0:
256,192,17715,1,8,0:0:0:0:
256,192,17801,1,8,0:0:0:0:
256,192,17887,1,0,0:0:0:0:
256,192,17973,1,0,0:0:0:0:
256,192,18060,1,0,0:0:0:0:
256,192,18146,1,8,0:0:0:0:
256,192,18232,1,8,0:0:0:0:
256,192,18318,1,0,0:0:0:0:
256,192,18404,1,0,0:0:0:0:
256,192,18491,1,8,0:0:0:0:
256,192,18577,1,8,0:0:0:0:
256,192,18663,1,4,0:0:0:0:
256,192,19008,1,0,0:0:0:0:
256,192,19353,1,12,0:0:0:0:
256,192,19697,1,8,0:0:0:0:
256,192,19870,1,0,0:0:0:0:
256,192,19956,1,0,0:0:0:0:
256,192,20042,1,8,0:0:0:0:
256,192,20128,1,8,0:0:0:0:
256,192,20215,1,8,0:0:0:0:
256,192,20301,1,0,0:0:0:0:
256,192,20387,1,8,0:0:0:0:
256,192,20473,1,8,0:0:0:0:
256,192,20560,1,0,0:0:0:0:
256,192,20646,1,0,0:0:0:0:
256,192,20732,1,12,0:0:0:0:
256,192,20904,1,0,0:0:0:0:
256,192,21077,1,12,0:0:0:0:
256,192,21249,1,0,0:0:0:0:
256,192,21422,1,12,0:0:0:0:
256,192,21594,1,0,0:0:0:0:
256,192,21766,1,8,0:0:0:0:
256,192,21853,1,0,0:0:0:0:
256,192,21939,1,8,0:0:0:0:
256,192,22025,1,8,0:0:0:0:
256,192,22111,1,4,0:0:0:0:
256,192,22801,1,0,0:0:0:0:
256,192,23060,1,0,0:0:0:0:
256,192,23318,1,8,0:0:0:0:
256,192,23491,1,8,0:0:0:0:
256,192,24180,1,0,0:0:0:0:
256,192,24439,1,0,0:0:0:0:
256,192,24697,1,8,0:0:0:0:
256,192,24870,1,0,0:0:0:0:
256,192,25560,1,0,0:0:0:0:
256,192,25818,1,0,0:0:0:0:
256,192,26077,1,8,0:0:0:0:
256,192,26249,1,8,0:0:0:0:
256,192,26335,1,8,0:0:0:0:
256,192,26422,1,0,0:0:0:0:
256,192,26508,1,0,0:0:0:0:
256,192,26594,1,8,0:0:0:0:
256,192,26680,1,0,0:0:0:0:
256,192,26766,1,8,0:0:0:0:
256,192,26853,1,0,0:0:0:0:
256,192,26939,1,0,0:0:0:0:
256,192,27025,1,0,0:0:0:0:
256,192,27111,1,8,0:0:0:0:
256,192,27197,1,0,0:0:0:0:
256,192,27284,1,8,0:0:0:0:
256,192,27370,1,0,0:0:0:0:
256,192,27456,1,8,0:0:0:0:
256,192,27542,1,8,0:0:0:0:
256,192,27628,1,4,0:0:0:0:
256,192,27801,1,0,0:0:0:0:
256,192,27887,1,0,0:0:0:0:
256,192,27973,1,8,0:0:0:0:
256,192,28146,1,8,0:0:0:0:
256,192,28232,1,0,0:0:0:0:
256,192,28318,1,0,0:0:0:0:
256,192,28491,1,0,0:0:0:0:
256,192,28577,1,0,0:0:0:0:
256,192,28663,1,8,0:0:0:0:
256,192,28835,1,8,0:0:0:0:
256,192,28922,1,8,0:0:0:0:
256,192,29008,1,8,0:0:0:0:
256,192,29180,1,0,0:0:0:0:
256,192,29266,1,0,0:0:0:0:
256,192,29353,1,8,0:0:0:0:
256,192,29525,1,8,0:0:0:0:
256,192,29611,1,0,0:0:0:0:
256,192,29697,1,0,0:0:0:0:
256,192,29870,1,0,0:0:0:0:
256,192,29956,1,0,0:0:0:0:
256,192,30042,1,8,0:0:0:0:
256,192,30215,1,8,0:0:0:0:
256,192,30301,1,0,0:0:0:0:
256,192,30387,1,0,0:0:0:0:
256,192,30560,1,0,0:0:0:0:
256,192,30646,1,0,0:0:0:0:
256,192,30732,1,8,0:0:0:0:
256,192,30904,1,8,0:0:0:0:
256,192,30991,1,0,0:0:0:0:
256,192,31077,1,0,0:0:0:0:
256,192,31249,1,0,0:0:0:0:
256,192,31335,1,0,0:0:0:0:
256,192,31422,1,8,0:0:0:0:
256,192,31594,1,0,0:0:0:0:
256,192,31680,1,8,0:0:0:0:
256,192,31766,1,4,0:0:0:0:
256,192,31939,1,8,0:0:0:0:
256,192,32025,1,8,0:0:0:0:
256,192,32111,1,0,0:0:0:0:
256,192,32197,1,0,0:0:0:0:
256,192,32284,1,0,0:0:0:0:
256,192,32370,1,0,0:0:0:0:
256,192,32456,1,12,0:0:0:0:
256,192,32628,1,8,0:0:0:0:
256,192,32715,1,8,0:0:0:0:
256,192,32801,1,8,0:0:0:0:
256,192,32973,1,0,0:0:0:0:
256,192,33060,1,8,0:0:0:0:
256,192,33146,1,4,0:0:0:0:
256,192,33318,1,0,0:0:0:0:
256,192,33404,1,0,0:0:0:0:
256,192,33491,1,8,0:0:0:0:
256,192,33663,1,8,0:0:0:0:
256,192,33749,1,0,0:0:0:0:
256,192,33835,1,0,0:0:0:0:
256,192,34008,1,0,0:0:0:0:
256,192,34094,1,0,0:0:0:0:
256,192,34180,1,8,0:0:0:0:
256,192,34353,1,8,0:0:0:0:
256,192,34439,1,8,0:0:0:0:
256,192,34525,1,8,0:0:0:0:
256,192,34697,1,0,0:0:0:0:
256,192,34784,1,0,0:0:0:0:
256,192,34870,1,8,0:0:0:0:
256,192,35042,1,8,0:0:0:0:
256,192,35128,1,8,0:0:0:0:
256,192,35215,1,8,0:0:0:0:
256,192,35387,1,0,0:0:0:0:
256,192,35473,1,0,0:0:0:0:
256,192,35560,1,8,0:0:0:0:
256,192,35646,1,8,0:0:0:0:
256,192,35732,1,0,0:0:0:0:
256,192,35904,1,12,0:0:0:0:
256,192,36077,1,0,0:0:0:0:
256,192,36163,1,0,0:0:0:0:
256,192,36249,1,0,0:0:0:0:
256,192,36422,1,12,0:0:0:0:
256,192,36594,1,0,0:0:0:0:
256,192,36766,1,0,0:0:0:0:
256,192,36939,1,12,0:0:0:0:
256,192,37111,1,8,0:0:0:0:
256,192,37197,1,0,0:0:0:0:
256,192,37284,1,0,0:0:0:0:
256,192,37456,1,8,0:0:0:0:
256,192,37542,1,8,0:0:0:0:
256,192,37628,1,0,0:0:0:0:
256,192,37715,1,0,0:0:0:0:
256,192,37801,1,0,0:0:0:0:
256,192,37973,1,12,0:0:0:0:
256,192,38146,1,0,0:0:0:0:
256,192,38232,1,0,0:0:0:0:
256,192,38318,1,8,0:0:0:0:
256,192,38404,1,8,0:0:0:0:
256,192,38491,1,8,0:0:0:0:
256,192,38577,1,8,0:0:0:0:
256,192,38663,1,0,0:0:0:0:
256,192,38749,1,0,0:0:0:0:
256,192,38835,1,0,0:0:0:0:
256,192,38922,1,8,0:0:0:0:
256,192,39008,1,8,0:0:0:0:
256,192,39094,1,0,0:0:0:0:
256,192,39180,1,8,0:0:0:0:
256,192,39266,1,8,0:0:0:0:
256,192,39353,1,0,0:0:0:0:
256,192,39439,1,0,0:0:0:0:
256,192,39525,1,0,0:0:0:0:
256,192,39611,1,0,0:0:0:0:
256,192,39697,1,8,0:0:0:0:
256,192,39784,1,0,0:0:0:0:
256,192,39870,1,8,0:0:0:0:
256,192,39956,1,8,0:0:0:0:
256,192,40042,1,8,0:0:0:0:
256,192,40128,1,0,0:0:0:0:
256,192,40215,1,0,0:0:0:0:
256,192,40301,1,0,0:0:0:0:
256,192,40387,1,8,0:0:0:0:
256,192,40473,1,0,0:0:0:0:
256,192,40560,1,8,0:0:0:0:
256,192,40646,1,8,0:0:0:0:
256,192,40732,1,0,0:0:0:0:
256,192,40818,1,0,0:0:0:0:
256,192,40904,1,0,0:0:0:0:
256,192,40991,1,0,0:0:0:0:
256,192,41077,1,8,0:0:0:0:
256,192,41163,1,0,0:0:0:0:
256,192,41249,1,8,0:0:0:0:
256,192,41335,1,8,0:0:0:0:
256,192,41422,1,0,0:0:0:0:
256,192,41508,1,0,0:0:0:0:
256,192,41594,1,0,0:0:0:0:
256,192,41680,1,0,0:0:0:0:
256,192,41766,1,8,0:0:0:0:
256,192,41853,1,0,0:0:0:0:
256,192,41939,1,8,0:0:0:0:
256,192,42025,1,8,0:0:0:0:
256,192,42111,1,0,0:0:0:0:
256,192,42197,1,0,0:0:0:0:
256,192,42284,1,0,0:0:0:0:
256,192,42370,1,0,0:0:0:0:
256,192,42456,1,8,0:0:0:0:
256,192,42542,1,0,0:0:0:0:
256,192,42628,1,0,0:0:0:0:
256,192,42715,1,8,0:0:0:0:
256,192,42801,1,8,0:0:0:0:
256,192,42887,1,0,0:0:0:0:
256,192,42973,1,0,0:0:0:0:
256,192,43060,1,0,0:0:0:0:
256,192,43146,1,8,0:0:0:0:
256,192,43232,1,0,0:0:0:0:
256,192,43318,1,8,0:0:0:0:
256,192,43376,1,0,0:0:0:0:
256,192,43433,1,0,0:0:0:0:
256,192,43491,1,8,0:0:0:0:
256,192,43577,1,8,0:0:0:0:
256,192,43663,1,0,0:0:0:0:
256,192,43749,1,0,0:0:0:0:
256,192,43835,1,8,0:0:0:0:
256,192,43922,1,8,0:0:0:0:
256,192,44008,1,8,0:0:0:0:
256,192,44094,1,0,0:0:0:0:
256,192,44180,1,12,0:0:0:0:
256,192,44525,1,0,0:0:0:0:
256,192,44870,1,8,0:0:0:0:
256,192,45215,1,8,0:0:0:0:
256,192,45387,1,0,0:0:0:0:
256,192,45560,1,0,0:0:0:0:
256,192,45904,1,0,0:0:0:0:
256,192,46249,1,8,0:0:0:0:
256,192,46594,1,0,0:0:0:0:
256,192,46939,1,12,0:0:0:0:
256,192,47284,1,0,0:0:0:0:
256,192,47628,1,8,0:0:0:0:
256,192,47801,1,0,0:0:0:0:
256,192,47973,1,8,0:0:0:0:
256,192,48060,1,8,0:0:0:0:
256,192,48146,1,0,0:0:0:0:
256,192,48232,1,0,0:0:0:0:
256,192,48318,1,12,0:0:0:0:
256,192,48663,1,12,0:0:0:0:
256,192,49008,1,12,0:0:0:0:
256,192,49238,1,12,0:0:0:0:
256,192,49468,1,12,0:0:0:0:
256,192,49697,1,4,0:0:0:0:
256,192,50042,1,8,0:0:0:0:
256,192,50215,1,0,0:0:0:0:
256,192,50387,1,8,0:0:0:0:
256,192,50560,1,0,0:0:0:0:
256,192,50732,1,0,0:0:0:0:
256,192,50904,1,0,0:0:0:0:
256,192,51077,1,8,0:0:0:0:
256,192,51249,1,0,0:0:0:0:
256,192,51422,1,0,0:0:0:0:
256,192,51594,1,0,0:0:0:0:
256,192,51766,1,8,0:0:0:0:
256,192,51939,1,4,0:0:0:0:
256,192,52111,1,0,0:0:0:0:
256,192,52284,1,8,0:0:0:0:
256,192,52370,1,8,0:0:0:0:
256,192,52456,1,4,0:0:0:0:
256,192,52628,1,0,0:0:0:0:
256,192,52801,1,8,0:0:0:0:
256,192,52973,1,12,0:0:0:0:
256,192,53146,1,4,0:0:0:0:
256,192,53318,1,0,0:0:0:0:
256,192,53491,1,12,0:0:0:0:
256,192,53663,1,0,0:0:0:0:
256,192,53835,1,8,0:0:0:0:
256,192,54008,1,0,0:0:0:0:
256,192,54180,1,8,0:0:0:0:
256,192,54353,1,8,0:0:0:0:
256,192,54525,1,8,0:0:0:0:
256,192,54697,1,0,0:0:0:0:
256,192,54870,1,8,0:0:0:0:
256,192,54956,1,8,0:0:0:0:
256,192,55042,1,8,0:0:0:0:
256,192,55128,1,8,0:0:0:0:
256,192,55215,1,4,0:0:0:0:
256,192,55387,1,0,0:0:0:0:
256,192,55473,1,0,0:0:0:0:
256,192,55560,1,0,0:0:0:0:
256,192,55732,1,0,0:0:0:0:
256,192,55818,1,0,0:0:0:0:
256,192,55904,1,8,0:0:0:0:
256,192,56077,1,0,0:0:0:0:
256,192,56163,1,8,0:0:0:0:
256,192,56249,1,8,0:0:0:0:
256,192,56422,1,0,0:0:0:0:
256,192,56508,1,0,0:0:0:0:
256,192,56594,1,8,0:0:0:0:
256,192,56766,1,8,0:0:0:0:
256,192,56853,1,0,0:0:0:0:
256,192,56939,1,0,0:0:0:0:
256,192,57111,1,0,0:0:0:0:
256,192,57197,1,0,0:0:0:0:
256,192,57284,1,8,0:0:0:0:
256,192,57456,1,0,0:0:0:0:
256,192,57542,1,8,0:0:0:0:
256,192,57628,1,8,0:0:0:0:
256,192,57801,1,0,0:0:0:0:
256,192,57887,1,0,0:0:0:0:
256,192,57973,1,8,0:0:0:0:
256,192,58146,1,8,0:0:0:0:
256,192,58232,1,0,0:0:0:0:
256,192,58318,1,0,0:0:0:0:
256,192,58491,1,8,0:0:0:0:
256,192,58663,1,8,0:0:0:0:
256,192,58835,1,8,0:0:0:0:
256,192,58922,1,0,0:0:0:0:
256,192,59008,1,8,0:0:0:0:
256,192,59180,1,8,0:0:0:0:
256,192,59266,1,8,0:0:0:0:
256,192,59353,1,8,0:0:0:0:
256,192,59525,1,0,0:0:0:0:
256,192,59611,1,0,0:0:0:0:
256,192,59697,1,8,0:0:0:0:
256,192,59870,1,0,0:0:0:0:
256,192,60042,1,8,0:0:0:0:
256,192,60128,1,8,0:0:0:0:
256,192,60215,1,0,0:0:0:0:
256,192,60301,1,0,0:0:0:0:
256,192,60387,1,0,0:0:0:0:
256,192,60473,1,8,0:0:0:0:
256,192,60560,1,8,0:0:0:0:
256,192,60646,1,8,0:0:0:0:
256,192,60732,1,4,0:0:0:0:
256,192,60904,12,0,62111,0:0:0:0:
256,192,63491,5,8,0:0:0:0:
256,192,64180,1,0,0:0:0:0:
256,192,64870,1,0,0:0:0:0:
256,192,65560,1,8,0:0:0:0:
256,192,66249,1,8,0:0:0:0:
256,192,66594,1,0,0:0:0:0:
256,192,66939,1,0,0:0:0:0:
256,192,67628,1,0,0:0:0:0:
256,192,67801,1,0,0:0:0:0:
256,192,67973,1,8,0:0:0:0:
256,192,68146,1,0,0:0:0:0:
256,192,68318,1,8,0:0:0:0:
256,192,68491,1,8,0:0:0:0:
256,192,68663,1,0,0:0:0:0:
256,192,68835,1,8,0:0:0:0:
256,192,69008,1,8,0:0:0:0:
256,192,69697,1,8,0:0:0:0:
256,192,70387,1,0,0:0:0:0:
256,192,70904,1,0,0:0:0:0:
256,192,71422,1,0,0:0:0:0:
256,192,71766,1,8,0:0:0:0:
256,192,72801,1,8,0:0:0:0:
256,192,73146,1,8,0:0:0:0:
256,192,73404,1,0,0:0:0:0:
256,192,73447,1,8,0:0:0:0:
256,192,73491,1,0,0:0:0:0:
256,192,73835,1,0,0:0:0:0:
256,192,74180,1,8,0:0:0:0:
256,192,74525,1,8,0:0:0:0:
256,192,75215,1,0,0:0:0:0:
256,192,75646,1,8,0:0:0:0:
256,192,75732,1,0,0:0:0:0:
256,192,75904,1,0,0:0:0:0:
256,192,76249,1,0,0:0:0:0:
256,192,76594,1,8,0:0:0:0:
256,192,76939,1,8,0:0:0:0:
256,192,77284,1,8,0:0:0:0:
256,192,77801,1,0,0:0:0:0:
256,192,78318,1,0,0:0:0:0:
256,192,78663,1,0,0:0:0:0:
256,192,79180,1,8,0:0:0:0:
256,192,79353,1,8,0:0:0:0:
256,192,80042,1,8,0:0:0:0:
256,192,80387,1,0,0:0:0:0:
256,192,80732,1,8,0:0:0:0:
256,192,81077,1,8,0:0:0:0:
256,192,81422,1,0,0:0:0:0:
256,192,81939,1,0,0:0:0:0:
256,192,82111,1,0,0:0:0:0:
256,192,82284,1,0,0:0:0:0:
256,192,82456,1,8,0:0:0:0:
256,192,82801,1,8,0:0:0:0:
256,192,83318,1,8,0:0:0:0:
256,192,83835,1,0,0:0:0:0:
256,192,84180,1,4,0:0:0:0:
256,192,84697,1,12,0:0:0:0:
256,192,85215,1,4,0:0:0:0:
256,192,85560,1,4,0:0:0:0:
256,192,85732,1,0,0:0:0:0:
256,192,86077,1,0,0:0:0:0:
256,192,86249,1,12,0:0:0:0:
256,192,86422,1,0,0:0:0:0:
256,192,86594,1,0,0:0:0:0:
256,192,86939,1,12,0:0:0:0:
256,192,87111,1,0,0:0:0:0:
256,192,87456,1,0,0:0:0:0:
256,192,87628,1,12,0:0:0:0:
256,192,87801,1,0,0:0:0:0:
256,192,87973,1,8,0:0:0:0:
256,192,88146,1,0,0:0:0:0:
256,192,88318,1,12,0:0:0:0:
256,192,88491,1,0,0:0:0:0:
256,192,88835,1,0,0:0:0:0:
256,192,89008,1,12,0:0:0:0:
256,192,89353,1,0,0:0:0:0:
256,192,89697,1,4,0:0:0:0:
256,192,89870,1,0,0:0:0:0:
256,192,90042,1,8,0:0:0:0:
256,192,90215,1,0,0:0:0:0:
256,192,90387,1,12,0:0:0:0:
256,192,90560,1,8,0:0:0:0:
256,192,90732,1,0,0:0:0:0:
256,192,90904,1,8,0:0:0:0:
256,192,91077,1,12,0:0:0:0:
256,192,91249,1,0,0:0:0:0:
256,192,91594,1,0,0:0:0:0:
256,192,91766,1,12,0:0:0:0:
256,192,91939,1,8,0:0:0:0:
256,192,92111,1,0,0:0:0:0:
256,192,92456,1,4,0:0:0:0:
256,192,92628,1,0,0:0:0:0:
256,192,92973,1,0,0:0:0:0:
256,192,93146,1,12,0:0:0:0:
256,192,93318,1,0,0:0:0:0:
256,192,93491,1,8,0:0:0:0:
256,192,93663,1,0,0:0:0:0:
256,192,93835,1,12,0:0:0:0:
256,192,94008,1,0,0:0:0:0:
256,192,94353,1,0,0:0:0:0:
256,192,94525,1,12,0:0:0:0:
256,192,94870,1,0,0:0:0:0:
256,192,95215,1,12,0:0:0:0:
256,192,95387,1,0,0:0:0:0:
256,192,95473,1,0,0:0:0:0:
256,192,95560,1,8,0:0:0:0:
256,192,95732,1,0,0:0:0:0:
256,192,95818,1,0,0:0:0:0:
256,192,95904,1,8,0:0:0:0:
256,192,95991,1,8,0:0:0:0:
256,192,96077,1,0,0:0:0:0:
256,192,96163,1,0,0:0:0:0:
256,192,96249,1,0,0:0:0:0:
256,192,96335,1,0,0:0:0:0:
256,192,96422,1,8,0:0:0:0:
256,192,96508,1,8,0:0:0:0:
256,192,96594,1,4,0:0:0:0:
256,192,96939,1,0,0:0:0:0:
256,192,97111,1,8,0:0:0:0:
256,192,97284,1,8,0:0:0:0:
256,192,97456,1,0,0:0:0:0:
256,192,97628,1,8,0:0:0:0:
256,192,97973,1,12,0:0:0:0:
256,192,98146,1,0,0:0:0:0:
256,192,98318,1,8,0:0:0:0:
256,192,98663,1,0,0:0:0:0:
256,192,98749,1,0,0:0:0:0:
256,192,98835,1,0,0:0:0:0:
256,192,98922,1,0,0:0:0:0:
256,192,99008,1,8,0:0:0:0:
256,192,99180,1,0,0:0:0:0:
256,192,99266,1,0,0:0:0:0:
256,192,99353,1,8,0:0:0:0:
256,192,99439,1,8,0:0:0:0:
256,192,99525,1,0,0:0:0:0:
256,192,99697,1,0,0:0:0:0:
256,192,99870,1,0,0:0:0:0:
256,192,100042,1,12,0:0:0:0:
256,192,100215,1,0,0:0:0:0:
256,192,100387,1,0,0:0:0:0:
256,192,100560,1,0,0:0:0:0:
256,192,100732,1,12,0:0:0:0:
256,192,100904,1,0,0:0:0:0:
256,192,101077,1,0,0:0:0:0:
256,192,101249,1,0,0:0:0:0:
256,192,101422,1,12,0:0:0:0:
256,192,101594,1,0,0:0:0:0:
256,192,101680,1,0,0:0:0:0:
256,192,101766,1,8,0:0:0:0:
256,192,101939,1,0,0:0:0:0:
256,192,102111,1,12,0:0:0:0:
256,192,102456,1,8,0:0:0:0:
256,192,102628,1,0,0:0:0:0:
256,192,102801,1,8,0:0:0:0:
256,192,102973,1,0,0:0:0:0:
256,192,103146,1,8,0:0:0:0:
256,192,103491,1,0,0:0:0:0:
256,192,103663,1,0,0:0:0:0:
256,192,103835,1,8,0:0:0:0:
256,192,104180,1,0,0:0:0:0:
256,192,104266,1,0,0:0:0:0:
256,192,104353,1,0,0:0:0:0:
256,192,104439,1,0,0:0:0:0:
256,192,104525,1,8,0:0:0:0:
256,192,104697,1,8,0:0:0:0:
256,192,104870,1,4,0:0:0:0:
256,192,105215,1,8,0:0:0:0:
256,192,105387,1,0,0:0:0:0:
256,192,105732,1,0,0:0:0:0:
256,192,105904,1,8,0:0:0:0:
256,192,106077,1,0,0:0:0:0:
256,192,106249,5,4,0:0:0:0:
256,192,106422,1,4,0:0:0:0:
256,192,106766,1,4,0:0:0:0:
256,192,107111,5,12,0:0:0:0:
256,192,107628,1,4,0:0:0:0:
256,192,107973,1,0,0:0:0:0:
256,192,108060,1,8,0:0:0:0:
256,192,108318,1,8,0:0:0:0:
256,192,108491,1,0,0:0:0:0:
256,192,108663,1,0,0:0:0:0:
256,192,109008,1,12,0:0:0:0:
256,192,109353,1,8,0:0:0:0:
256,192,109525,1,0,0:0:0:0:
256,192,109697,1,0,0:0:0:0:
256,192,109870,1,0,0:0:0:0:
256,192,110042,1,8,0:0:0:0:
256,192,110387,1,4,0:0:0:0:
256,192,110732,1,8,0:0:0:0:
256,192,110818,1,8,0:0:0:0:
256,192,111077,1,8,0:0:0:0:
256,192,111249,1,0,0:0:0:0:
256,192,111422,1,8,0:0:0:0:
256,192,111766,1,12,0:0:0:0:
256,192,112111,1,8,0:0:0:0:
256,192,112284,1,0,0:0:0:0:
256,192,112456,1,0,0:0:0:0:
256,192,112628,1,0,0:0:0:0:
256,192,112801,1,8,0:0:0:0:
256,192,112973,1,0,0:0:0:0:
256,192,113146,1,4,0:0:0:0:
256,192,113491,1,0,0:0:0:0:
256,192,113577,1,8,0:0:0:0:
256,192,113835,1,8,0:0:0:0:
256,192,114008,1,0,0:0:0:0:
256,192,114180,1,0,0:0:0:0:
256,192,114525,1,12,0:0:0:0:
256,192,114870,1,8,0:0:0:0:
256,192,115042,1,0,0:0:0:0:
256,192,115215,1,0,0:0:0:0:
256,192,115387,1,0,0:0:0:0:
256,192,115560,1,8,0:0:0:0:
256,192,115904,1,12,0:0:0:0:
256,192,116249,1,0,0:0:0:0:
256,192,116594,1,12,0:0:0:0:
256,192,116766,1,0,0:0:0:0:
256,192,116939,1,4,0:0:0:0:
256,192,117284,1,8,0:0:0:0:
256,192,117456,1,0,0:0:0:0:
256,192,117542,1,0,0:0:0:0:
256,192,117628,1,8,0:0:0:0:
256,192,117715,1,8,0:0:0:0:
256,192,117801,1,0,0:0:0:0:
256,192,117887,1,0,0:0:0:0:
256,192,117973,1,0,0:0:0:0:
256,192,118060,1,8,0:0:0:0:
256,192,118146,1,0,0:0:0:0:
256,192,118232,1,0,0:0:0:0:
256,192,118318,1,8,0:0:0:0:
256,192,118404,1,8,0:0:0:0:
256,192,118491,1,0,0:0:0:0:
256,192,118577,1,0,0:0:0:0:
256,192,118663,1,8,0:0:0:0:
256,192,118749,1,0,0:0:0:0:
256,192,118835,1,8,0:0:0:0:
256,192,118922,1,8,0:0:0:0:
256,192,119008,1,0,0:0:0:0:
256,192,119094,1,0,0:0:0:0:
256,192,119180,1,0,0:0:0:0:
256,192,119266,1,0,0:0:0:0:
256,192,119353,1,8,0:0:0:0:
256,192,119439,1,8,0:0:0:0:
256,192,119525,1,0,0:0:0:0:
256,192,119611,1,0,0:0:0:0:
256,192,119697,1,8,0:0:0:0:
256,192,119784,1,8,0:0:0:0:
256,192,119870,1,8,0:0:0:0:
256,192,119956,1,0,0:0:0:0:
256,192,120042,1,8,0:0:0:0:
256,192,120128,1,8,0:0:0:0:
256,192,120215,1,0,0:0:0:0:
256,192,120301,1,0,0:0:0:0:
256,192,120387,1,8,0:0:0:0:
256,192,120473,1,0,0:0:0:0:
256,192,120560,1,0,0:0:0:0:
256,192,120646,1,0,0:0:0:0:
256,192,120732,1,8,0:0:0:0:
256,192,120818,1,8,0:0:0:0:
256,192,120904,1,0,0:0:0:0:
256,192,120991,1,0,0:0:0:0:
256,192,121077,1,0,0:0:0:0:
256,192,121163,1,0,0:0:0:0:
256,192,121249,1,8,0:0:0:0:
256,192,121335,1,0,0:0:0:0:
256,192,121422,1,0,0:0:0:0:
256,192,121508,1,8,0:0:0:0:
256,192,121594,1,0,0:0:0:0:
256,192,121680,1,0,0:0:0:0:
256,192,121766,1,8,0:0:0:0:
256,192,121853,1,8,0:0:0:0:
256,192,121939,1,8,0:0:0:0:
256,192,122025,1,0,0:0:0:0:
256,192,122111,1,8,0:0:0:0:
256,192,122197,1,8,0:0:0:0:
256,192,122284,1,0,0:0:0:0:
256,192,122370,1,0,0:0:0:0:
256,192,122456,1,8,0:0:0:0:
256,192,122542,1,0,0:0:0:0:
256,192,122628,1,8,0:0:0:0:
256,192,122715,1,0,0:0:0:0:
256,192,122801,1,8,0:0:0:0:
256,192,122887,1,8,0:0:0:0:
256,192,122973,1,8,0:0:0:0:
256,192,123060,1,8,0:0:0:0:
256,192,123146,1,0,0:0:0:0:
256,192,123232,1,0,0:0:0:0:
256,192,123318,1,0,0:0:0:0:
256,192,123404,1,0,0:0:0:0:
256,192,123491,1,8,0:0:0:0:
256,192,123577,1,0,0:0:0:0:
256,192,123663,1,0,0:0:0:0:
256,192,123749,1,8,0:0:0:0:
256,192,123835,1,0,0:0:0:0:
256,192,123922,1,0,0:0:0:0:
256,192,124008,1,8,0:0:0:0:
256,192,124094,1,0,0:0:0:0:
256,192,124180,1,0,0:0:0:0:
256,192,124353,1,0,0:0:0:0:
256,192,124525,1,8,0:0:0:0:
256,192,124697,1,0,0:0:0:0:
256,192,124870,1,0,0:0:0:0:
256,192,125042,1,0,0:0:0:0:
256,192,125215,1,8,0:0:0:0:
256,192,125560,1,4,0:0:0:0:
256,192,125732,1,0,0:0:0:0:
256,192,125904,1,8,0:0:0:0:
256,192,126077,1,0,0:0:0:0:
256,192,126249,1,8,0:0:0:0:
256,192,126335,1,8,0:0:0:0:
256,192,126422,1,0,0:0:0:0:
256,192,126508,1,0,0:0:0:0:
256,192,126594,1,8,0:0:0:0:
256,192,126680,1,0,0:0:0:0:
256,192,126766,1,0,0:0:0:0:
256,192,126853,1,0,0:0:0:0:
256,192,126939,1,8,0:0:0:0:
256,192,126996,1,8,0:0:0:0:
256,192,127054,1,8,0:0:0:0:
256,192,127111,1,0,0:0:0:0:
256,192,127197,1,0,0:0:0:0:
256,192,127284,1,8,0:0:0:0:
256,192,127341,1,8,0:0:0:0:
256,192,127399,1,8,0:0:0:0:
256,192,127456,1,0,0:0:0:0:
256,192,127628,1,0,0:0:0:0:
256,192,127686,1,0,0:0:0:0:
256,192,127743,1,0,0:0:0:0:
256,192,127801,1,8,0:0:0:0:
256,192,127887,1,0,0:0:0:0:
256,192,127973,1,8,0:0:0:0:
256,192,128031,1,8,0:0:0:0:
256,192,128088,1,8,0:0:0:0:
256,192,128146,1,0,0:0:0:0:
256,192,128232,1,0,0:0:0:0:
256,192,128318,1,0,0:0:0:0:
256,192,128491,1,0,0:0:0:0:
256,192,128663,1,8,0:0:0:0:
256,192,128749,1,8,0:0:0:0:
256,192,128835,1,0,0:0:0:0:
256,192,128922,1,0,0:0:0:0:
256,192,129008,1,0,0:0:0:0:
256,192,129180,1,0,0:0:0:0:
256,192,129266,1,0,0:0:0:0:
256,192,129353,1,8,0:0:0:0:
256,192,129525,1,8,0:0:0:0:
256,192,129611,1,0,0:0:0:0:
256,192,129697,1,8,0:0:0:0:
256,192,129755,1,8,0:0:0:0:
256,192,129812,1,8,0:0:0:0:
256,192,129870,1,0,0:0:0:0:
256,192,129956,1,0,0:0:0:0:
256,192,130042,1,8,0:0:0:0:
256,192,130215,1,0,0:0:0:0:
256,192,130301,1,0,0:0:0:0:
256,192,130387,1,8,0:0:0:0:
256,192,130445,1,8,0:0:0:0:
256,192,130502,1,8,0:0:0:0:
256,192,130560,1,0,0:0:0:0:
256,192,130646,1,0,0:0:0:0:
256,192,130732,1,8,0:0:0:0:
256,192,130904,1,0,0:0:0:0:
256,192,131077,1,8,0:0:0:0:
256,192,131134,1,8,0:0:0:0:
256,192,131192,1,8,0:0:0:0:
256,192,131249,1,0,0:0:0:0:
256,192,131335,1,0,0:0:0:0:
256,192,131422,1,8,0:0:0:0:
256,192,131479,1,8,0:0:0:0:
256,192,131537,1,8,0:0:0:0:
256,192,131594,1,0,0:0:0:0:
256,192,131680,1,0,0:0:0:0:
256,192,131766,1,8,0:0:0:0:
256,192,131824,1,8,0:0:0:0:
256,192,131881,1,8,0:0:0:0:
256,192,131939,1,0,0:0:0:0:
256,192,132025,1,0,0:0:0:0:
256,192,132111,1,8,0:0:0:0:
256,192,132197,1,8,0:0:0:0:
256,192,132284,1,0,0:0:0:0:
256,192,132456,1,0,0:0:0:0:
256,192,132542,1,0,0:0:0:0:
256,192,132628,1,8,0:0:0:0:
256,192,132686,1,0,0:0:0:0:
256,192,132743,1,0,0:0:0:0:
256,192,132801,1,8,0:0:0:0:
256,192,132887,1,8,0:0:0:0:
256,192,132973,1,8,0:0:0:0:
256,192,133060,1,8,0:0:0:0:
256,192,133146,1,0,0:0:0:0:
256,192,133232,1,0,0:0:0:0:
256,192,133318,1,8,0:0:0:0:
256,192,133376,1,0,0:0:0:0:
256,192,133433,1,0,0:0:0:0:
256,192,133491,1,8,0:0:0:0:
256,192,133577,1,0,0:0:0:0:
256,192,133663,1,8,0:0:0:0:
256,192,133835,1,0,0:0:0:0:
256,192,133893,1,0,0:0:0:0:
256,192,133950,1,0,0:0:0:0:
256,192,134008,1,8,0:0:0:0:
256,192,134065,1,8,0:0:0:0:
256,192,134123,1,8,0:0:0:0:
256,192,134180,1,0,0:0:0:0:
256,192,134266,1,0,0:0:0:0:
256,192,134353,1,8,0:0:0:0:
256,192,134410,1,0,0:0:0:0:
256,192,134468,1,0,0:0:0:0:
256,192,134525,1,8,0:0:0:0:
256,192,134582,1,8,0:0:0:0:
256,192,134640,1,8,0:0:0:0:
256,192,134697,1,0,0:0:0:0:
256,192,134870,1,8,0:0:0:0:
256,192,134956,1,8,0:0:0:0:
256,192,135042,1,0,0:0:0:0:
256,192,135128,1,0,0:0:0:0:
256,192,135215,1,8,0:0:0:0:
256,192,135272,1,0,0:0:0:0:
256,192,135330,1,0,0:0:0:0:
256,192,135387,1,8,0:0:0:0:
256,192,135445,1,0,0:0:0:0:
256,192,135502,1,0,0:0:0:0:
256,192,135560,1,8,0:0:0:0:
256,192,135646,1,0,0:0:0:0:
256,192,135732,1,0,0:0:0:0:
256,192,135818,1,0,0:0:0:0:
256,192,135904,1,8,0:0:0:0:
256,192,135962,1,8,0:0:0:0:
256,192,136019,1,8,0:0:0:0:
256,192,136077,1,0,0:0:0:0:
256,192,136249,1,8,0:0:0:0:
256,192,136335,1,8,0:0:0:0:
256,192,136422,1,0,0:0:0:0:
256,192,136479,1,0,0:0:0:0:
256,192,136537,1,0,0:0:0:0:
256,192,136594,1,8,0:0:0:0:
256,192,136680,1,8,0:0:0:0:
256,192,136766,1,0,0:0:0:0:
256,192,136853,1,0,0:0:0:0:
256,192,136939,1,8,0:0:0:0:
256,192,136996,1,0,0:0:0:0:
256,192,137054,1,0,0:0:0:0:
256,192,137111,1,8,0:0:0:0:
256,192,137169,1,8,0:0:0:0:
256,192,137226,1,8,0:0:0:0:
256,192,137284,1,0,0:0:0:0:
256,192,137370,1,0,0:0:0:0:
256,192,137456,1,8,0:0:0:0:
256,192,137542,1,0,0:0:0:0:
256,192,137628,1,8,0:0:0:0:
256,192,137686,1,8,0:0:0:0:
256,192,137743,1,0,0:0:0:0:
256,192,137801,1,0,0:0:0:0:
256,192,137887,1,8,0:0:0:0:
256,192,137973,1,0,0:0:0:0:
256,192,138060,1,8,0:0:0:0:
256,192,138146,1,8,0:0:0:0:
256,192,138232,1,0,0:0:0:0:
256,192,138318,1,8,0:0:0:0:
256,192,138404,1,8,0:0:0:0:
256,192,138491,1,0,0:0:0:0:
256,192,138577,1,8,0:0:0:0:
256,192,138663,1,0,0:0:0:0:
256,192,138749,1,0,0:0:0:0:
256,192,138835,1,8,0:0:0:0:
257,183,138922,1,8,0:0:0:0:
256,192,139008,1,0,0:0:0:0:
256,192,139094,1,8,0:0:0:0:
256,192,139180,1,0,0:0:0:0:
256,192,139266,1,0,0:0:0:0:
256,192,139353,1,8,0:0:0:0:
256,192,139439,1,8,0:0:0:0:
256,192,139525,1,0,0:0:0:0:
256,192,139611,1,0,0:0:0:0:
256,192,139697,1,8,0:0:0:0:
256,192,139784,1,8,0:0:0:0:
256,192,139870,1,0,0:0:0:0:
256,192,139956,1,0,0:0:0:0:
256,192,140042,1,0,0:0:0:0:
256,192,140128,1,0,0:0:0:0:
256,192,140215,1,8,0:0:0:0:
256,192,140387,1,0,0:0:0:0:
256,192,140473,1,0,0:0:0:0:
256,192,140560,1,8,0:0:0:0:
256,192,140646,1,0,0:0:0:0:
256,192,140732,1,0,0:0:0:0:
256,192,140904,1,0,0:0:0:0:
256,192,141077,1,8,0:0:0:0:
256,192,141249,1,0,0:0:0:0:
256,192,141422,1,0,0:0:0:0:
256,192,141594,1,8,0:0:0:0:
256,192,141766,1,8,0:0:0:0:
256,192,141853,1,8,0:0:0:0:
256,192,141939,1,0,0:0:0:0:
256,192,142111,1,8,0:0:0:0:
256,192,142284,1,0,0:0:0:0:
256,192,142456,1,8,0:0:0:0:
256,192,142628,1,0,0:0:0:0:
256,192,142801,1,8,0:0:0:0:
256,192,142887,1,8,0:0:0:0:
256,192,142973,1,0,0:0:0:0:
256,192,143146,1,0,0:0:0:0:
256,192,143232,1,0,0:0:0:0:
256,192,143318,1,8,0:0:0:0:
256,192,143404,1,0,0:0:0:0:
256,192,143491,1,8,0:0:0:0:
256,192,143577,1,8,0:0:0:0:
256,192,143663,1,0,0:0:0:0:
256,192,143749,1,0,0:0:0:0:
256,192,143835,1,0,0:0:0:0:
256,192,143922,1,0,0:0:0:0:
256,192,144008,1,8,0:0:0:0:
256,192,144180,1,8,0:0:0:0:
256,192,144266,1,8,0:0:0:0:
256,192,144353,1,0,0:0:0:0:
256,192,144439,1,0,0:0:0:0:
256,192,144525,1,8,0:0:0:0:
256,192,144611,1,8,0:0:0:0:
256,192,144697,1,0,0:0:0:0:
256,192,144870,1,8,0:0:0:0:
256,192,144927,1,8,0:0:0:0:
256,192,144985,1,8,0:0:0:0:
256,192,145042,1,0,0:0:0:0:
256,192,145128,1,0,0:0:0:0:
256,192,145215,1,8,0:0:0:0:
256,192,145272,1,0,0:0:0:0:
256,192,145330,1,0,0:0:0:0:
256,192,145387,1,0,0:0:0:0:
256,192,145560,1,8,0:0:0:0:
256,192,145617,1,8,0:0:0:0:
256,192,145674,1,8,0:0:0:0:
256,192,145732,1,0,0:0:0:0:
256,192,145818,1,0,0:0:0:0:
256,192,145904,1,8,0:0:0:0:
256,192,145991,1,8,0:0:0:0:
256,192,146077,1,0,0:0:0:0:
256,192,146249,1,8,0:0:0:0:
256,192,146307,1,8,0:0:0:0:
256,192,146364,1,8,0:0:0:0:
256,192,146422,1,0,0:0:0:0:
256,192,146508,1,0,0:0:0:0:
256,192,146594,1,8,0:0:0:0:
256,192,146680,1,8,0:0:0:0:
256,192,146766,1,8,0:0:0:0:
256,192,146853,1,0,0:0:0:0:
256,192,146939,1,8,0:0:0:0:
256,192,146996,1,8,0:0:0:0:
256,192,147054,1,8,0:0:0:0:
256,192,147111,1,0,0:0:0:0:
256,192,147197,1,0,0:0:0:0:
256,192,147284,1,8,0:0:0:0:
256,192,147370,1,0,0:0:0:0:
256,192,147456,1,8,0:0:0:0:
256,192,147542,1,8,0:0:0:0:
256,192,147628,1,4,0:0:0:0:
256,192,147801,1,8,0:0:0:0:
256,192,147973,1,0,0:0:0:0:
256,192,148060,1,0,0:0:0:0:
256,192,148146,1,8,0:0:0:0:
256,192,148232,1,0,0:0:0:0:
256,192,148318,1,12,0:0:0:0:
256,192,148491,1,0,0:0:0:0:
256,192,148663,1,0,0:0:0:0:
256,192,148749,1,0,0:0:0:0:
256,192,148835,1,8,0:0:0:0:
256,192,149008,1,4,0:0:0:0:
256,192,151651,1,0,0:0:0:0:
256,192,151709,1,0,0:0:0:0:
256,192,151766,1,8,0:0:0:0:
256,192,152456,1,8,0:0:0:0:
256,192,153031,1,0,0:0:0:0:
256,192,153088,1,0,0:0:0:0:
256,192,153146,1,0,0:0:0:0:
256,192,153835,1,0,0:0:0:0:
256,192,154525,1,8,0:0:0:0:
256,192,155042,1,0,0:0:0:0:
256,192,155215,1,0,0:0:0:0:
256,192,155904,1,8,0:0:0:0:
256,192,156422,1,8,0:0:0:0:
256,192,157284,1,0,0:0:0:0:
256,192,157973,1,8,0:0:0:0:
256,192,158663,1,0,0:0:0:0:
256,192,159353,1,0,0:0:0:0:
256,192,160042,1,8,0:0:0:0:
256,192,160560,1,8,0:0:0:0:
256,192,160904,1,0,0:0:0:0:
256,192,161249,1,8,0:0:0:0:
256,192,162284,1,0,0:0:0:0:
256,192,162456,1,8,0:0:0:0:
256,192,162628,1,8,0:0:0:0:
256,192,162801,1,8,0:0:0:0:
256,192,163663,1,0,0:0:0:0:
256,192,164008,1,8,0:0:0:0:
256,192,164180,1,8,0:0:0:0:
256,192,164525,1,0,0:0:0:0:
256,192,164870,1,0,0:0:0:0:
256,192,165215,1,8,0:0:0:0:
256,192,165560,1,8,0:0:0:0:
256,192,166077,1,8,0:0:0:0:
256,192,166163,1,0,0:0:0:0:
256,192,166249,1,8,0:0:0:0:
256,192,166766,1,0,0:0:0:0:
256,192,166824,1,0,0:0:0:0:
256,192,166881,1,8,0:0:0:0:
256,192,166939,1,8,0:0:0:0:
256,192,167197,1,8,0:0:0:0:
256,192,167456,1,0,0:0:0:0:
256,192,167628,1,0,0:0:0:0:
256,192,167887,1,8,0:0:0:0:
256,192,168088,1,0,0:0:0:0:
256,192,168318,1,8,0:0:0:0:
256,192,169180,1,8,0:0:0:0:
256,192,169525,1,8,0:0:0:0:
256,192,169697,1,8,0:0:0:0:
256,192,170042,1,0,0:0:0:0:
256,192,170387,1,8,0:0:0:0:
256,192,170732,1,8,0:0:0:0:
256,192,171077,1,8,0:0:0:0:
256,192,171594,1,8,0:0:0:0:
256,192,171680,1,0,0:0:0:0:
256,192,171805,1,8,0:0:0:0:
256,192,172284,1,0,0:0:0:0:
256,192,172370,1,8,0:0:0:0:
256,192,172456,1,8,0:0:0:0:
256,192,172715,1,8,0:0:0:0:
256,192,172973,1,0,0:0:0:0:
256,192,173146,1,8,0:0:0:0:
256,192,173404,1,0,0:0:0:0:
256,192,173663,1,0,0:0:0:0:
256,192,173835,1,0,0:0:0:0:
256,192,174353,1,8,0:0:0:0:
256,192,174870,1,0,0:0:0:0:
256,192,175042,1,0,0:0:0:0:
256,192,175215,1,8,0:0:0:0:
256,192,175732,1,8,0:0:0:0:
256,192,176249,1,8,0:0:0:0:
256,192,176422,1,8,0:0:0:0:
256,192,176594,1,8,0:0:0:0:
256,192,176939,1,0,0:0:0:0:
256,192,176996,1,0,0:0:0:0:
256,192,177111,1,8,0:0:0:0:
256,192,177284,1,8,0:0:0:0:
256,192,177585,1,8,0:0:0:0:
256,192,177650,1,0,0:0:0:0:
256,192,177935,1,0,0:0:0:0:
256,192,178060,1,8,0:0:0:0:
256,192,178146,1,8,0:0:0:0:
256,192,178318,1,8,0:0:0:0:
256,192,178663,1,8,0:0:0:0:
256,192,179008,5,8,0:0:0:0:
256,192,179353,5,8,0:0:0:0:
256,192,179697,1,0,0:0:0:0:
256,192,180042,1,0,0:0:0:0:
256,192,180387,1,0,0:0:0:0:
256,192,180732,1,0,0:0:0:0:
256,192,181077,1,0,0:0:0:0:
256,192,181422,1,0,0:0:0:0:
256,192,181766,1,0,0:0:0:0:
256,192,182111,1,0,0:0:0:0:
256,192,182456,1,0,0:0:0:0:
256,192,182628,1,0,0:0:0:0:
256,192,182801,1,0,0:0:0:0:
256,192,182973,1,0,0:0:0:0:
256,192,183146,1,0,0:0:0:0:
256,192,183232,1,0,0:0:0:0:
256,192,183318,1,0,0:0:0:0:
256,192,183491,1,0,0:0:0:0:
256,192,183577,1,0,0:0:0:0:
256,192,183663,1,0,0:0:0:0:
256,192,183749,1,0,0:0:0:0:
256,192,183835,1,0,0:0:0:0:
256,192,184008,1,0,0:0:0:0:
256,192,184094,1,0,0:0:0:0:
256,192,184180,1,0,0:0:0:0:
256,192,184266,1,8,0:0:0:0:
256,192,184353,1,0,0:0:0:0:
256,192,184439,1,0,0:0:0:0:
256,192,184525,1,8,0:0:0:0:
256,192,184611,1,8,0:0:0:0:
256,192,184697,1,0,0:0:0:0:
256,192,184784,1,0,0:0:0:0:
256,192,184870,1,12,0:0:0:0:
256,192,185387,1,0,0:0:0:0:
256,192,185473,1,0,0:0:0:0:
256,192,185560,1,8,0:0:0:0:
256,192,185646,1,0,0:0:0:0:
256,192,185732,1,0,0:0:0:0:
256,192,185818,1,0,0:0:0:0:
256,192,185904,1,8,0:0:0:0:
256,192,185991,1,8,0:0:0:0:
256,192,186077,1,0,0:0:0:0:
256,192,186163,1,0,0:0:0:0:
256,192,186249,1,0,0:0:0:0:
256,192,186335,1,0,0:0:0:0:
256,192,186422,1,8,0:0:0:0:
256,192,186508,1,8,0:0:0:0:
256,192,186594,1,0,0:0:0:0:
256,192,186680,1,0,0:0:0:0:
256,192,186766,1,8,0:0:0:0:
256,192,186853,1,8,0:0:0:0:
256,192,186939,1,4,0:0:0:0:
256,192,187284,1,0,0:0:0:0:
256,192,187628,1,12,0:0:0:0:
256,192,188146,1,0,0:0:0:0:
256,192,188232,1,0,0:0:0:0:
256,192,188318,1,8,0:0:0:0:
256,192,188404,1,8,0:0:0:0:
256,192,188491,1,0,0:0:0:0:
256,192,188577,1,0,0:0:0:0:
256,192,188663,1,8,0:0:0:0:
256,192,188749,1,8,0:0:0:0:
256,192,188835,1,8,0:0:0:0:
256,192,188922,1,8,0:0:0:0:
256,192,189008,1,4,0:0:0:0:
256,192,189180,1,0,0:0:0:0:
256,192,189353,1,12,0:0:0:0:
256,192,189525,1,0,0:0:0:0:
256,192,189697,1,12,0:0:0:0:
256,192,189870,1,0,0:0:0:0:
256,192,190042,1,12,0:0:0:0:
256,192,190215,1,8,0:0:0:0:
256,192,190387,1,0,0:0:0:0:
256,192,190473,1,0,0:0:0:0:
256,192,190560,1,8,0:0:0:0:
256,192,190646,1,0,0:0:0:0:
256,192,190732,1,8,0:0:0:0:
256,192,191077,1,12,0:0:0:0:
256,192,191249,1,8,0:0:0:0:
256,192,191594,1,8,0:0:0:0:
256,192,191766,1,12,0:0:0:0:
256,192,191939,1,8,0:0:0:0:
256,192,192111,1,0,0:0:0:0:
256,192,192284,1,0,0:0:0:0:
256,192,192370,1,0,0:0:0:0:
256,192,192456,1,12,0:0:0:0:
256,192,192628,1,8,0:0:0:0:
256,192,192801,1,0,0:0:0:0:
256,192,192973,1,8,0:0:0:0:
256,192,193146,1,8,0:0:0:0:
256,192,193232,1,8,0:0:0:0:
256,192,193318,1,0,0:0:0:0:
256,192,193404,1,0,0:0:0:0:
256,192,193491,1,8,0:0:0:0:
256,192,193835,1,12,0:0:0:0:
256,192,194008,1,8,0:0:0:0:
256,192,194353,1,8,0:0:0:0:
256,192,194525,1,12,0:0:0:0:
256,192,194697,1,0,0:0:0:0:
256,192,194870,1,8,0:0:0:0:
256,192,195042,1,0,0:0:0:0:
256,192,195128,1,0,0:0:0:0:
256,192,195215,1,12,0:0:0:0:
256,192,195387,1,0,0:0:0:0:
256,192,195560,1,12,0:0:0:0:
256,192,195732,1,0,0:0:0:0:
256,192,195904,1,8,0:0:0:0:
256,192,195991,1,0,0:0:0:0:
256,192,196077,1,8,0:0:0:0:
256,192,196163,1,0,0:0:0:0:
256,192,196249,1,8,0:0:0:0:
256,192,196594,1,12,0:0:0:0:
256,192,196766,1,8,0:0:0:0:
256,192,197111,1,8,0:0:0:0:
256,192,197284,1,12,0:0:0:0:
256,192,197456,1,0,0:0:0:0:
256,192,197628,1,0,0:0:0:0:
256,192,197801,1,0,0:0:0:0:
256,192,197887,1,0,0:0:0:0:
256,192,197973,1,12,0:0:0:0:
256,192,198146,1,8,0:0:0:0:
256,192,198318,1,0,0:0:0:0:
256,192,198491,1,8,0:0:0:0:
256,192,198663,1,8,0:0:0:0:
256,192,198749,1,8,0:0:0:0:
256,192,198835,1,0,0:0:0:0:
256,192,198922,1,0,0:0:0:0:
256,192,199008,1,8,0:0:0:0:
256,192,199353,1,12,0:0:0:0:
256,192,199525,1,8,0:0:0:0:
256,192,199697,1,0,0:0:0:0:
256,192,199870,1,12,0:0:0:0:
256,192,200042,1,0,0:0:0:0:
256,192,200128,1,0,0:0:0:0:
256,192,200215,1,12,0:0:0:0:
256,192,200387,1,4,0:0:0:0:
256,192,200560,1,12,0:0:0:0:
256,192,200732,1,4,0:0:0:0:
256,192,201077,1,12,0:0:0:0:
256,192,201422,1,4,0:0:0:0:
256,192,201594,1,0,0:0:0:0:
256,192,201766,1,0,0:0:0:0:
256,192,201939,1,0,0:0:0:0:
256,192,202111,1,8,0:0:0:0:
256,192,202284,1,8,0:0:0:0:
256,192,202456,1,0,0:0:0:0:
256,192,202628,1,8,0:0:0:0:
256,192,202801,1,0,0:0:0:0:
256,192,202973,1,8,0:0:0:0:
256,192,203146,1,8,0:0:0:0:
256,192,203318,1,0,0:0:0:0:
256,192,203491,1,8,0:0:0:0:
256,192,203577,1,8,0:0:0:0:
256,192,203663,1,0,0:0:0:0:
256,192,203835,1,8,0:0:0:0:
256,192,204008,1,0,0:0:0:0:
256,192,204180,1,12,0:0:0:0:
256,192,204353,1,0,0:0:0:0:
256,192,204525,1,0,0:0:0:0:
256,192,204697,1,8,0:0:0:0:
256,192,204870,1,8,0:0:0:0:
256,192,205042,1,0,0:0:0:0:
256,192,205215,1,0,0:0:0:0:
256,192,205387,1,8,0:0:0:0:
256,192,205560,1,0,0:0:0:0:
256,192,205732,1,8,0:0:0:0:
256,192,205904,1,0,0:0:0:0:
256,192,206077,1,8,0:0:0:0:
256,192,206249,1,12,0:0:0:0:
256,192,206422,1,0,0:0:0:0:
256,192,206508,1,0,0:0:0:0:
256,192,206594,1,8,0:0:0:0:
256,192,206680,1,0,0:0:0:0:
256,192,206766,1,8,0:0:0:0:
256,192,206853,1,8,0:0:0:0:
256,192,206939,1,4,0:0:0:0:
256,192,207111,1,0,0:0:0:0:
256,192,207284,1,0,0:0:0:0:
256,192,207456,1,0,0:0:0:0:
256,192,207628,1,0,0:0:0:0:
256,192,207801,1,0,0:0:0:0:
256,192,207973,1,0,0:0:0:0:
256,192,208146,1,0,0:0:0:0:
256,192,208318,1,0,0:0:0:0:
256,192,208491,1,0,0:0:0:0:
256,192,208663,1,0,0:0:0:0:
256,192,208835,1,0,0:0:0:0:
256,192,209008,1,0,0:0:0:0:
256,192,209180,1,0,0:0:0:0:
256,192,209353,1,0,0:0:0:0:
256,192,209525,1,0,0:0:0:0:
256,192,209697,1,12,0:0:0:0:
256,192,209870,1,0,0:0:0:0:
256,192,210042,1,0,0:0:0:0:
256,192,210215,1,0,0:0:0:0:
256,192,210387,1,0,0:0:0:0:
256,192,210560,1,0,0:0:0:0:
256,192,210732,1,0,0:0:0:0:
256,192,210904,1,0,0:0:0:0:
256,192,211077,1,0,0:0:0:0:
256,192,211249,1,0,0:0:0:0:
256,192,211422,1,0,0:0:0:0:
256,192,211508,1,8,0:0:0:0:
256,192,211594,1,8,0:0:0:0:
256,192,211680,1,0,0:0:0:0:
256,192,211766,1,0,0:0:0:0:
256,192,211853,1,0,0:0:0:0:
256,192,211939,1,8,0:0:0:0:
256,192,212025,1,8,0:0:0:0:
256,192,212111,1,8,0:0:0:0:
256,192,212197,1,0,0:0:0:0:
256,192,212284,1,8,0:0:0:0:
256,192,212370,1,8,0:0:0:0:
256,192,212456,1,4,0:0:0:0:
256,192,212801,1,8,0:0:0:0:
256,192,212973,1,0,0:0:0:0:
256,192,213146,1,8,0:0:0:0:
256,192,213318,1,0,0:0:0:0:
256,192,213491,1,8,0:0:0:0:
256,192,213663,1,0,0:0:0:0:
256,192,213835,1,12,0:0:0:0:
256,192,214180,1,8,0:0:0:0:
256,192,214353,1,0,0:0:0:0:
256,192,214525,1,0,0:0:0:0:
256,192,214697,1,0,0:0:0:0:
256,192,214870,1,8,0:0:0:0:
256,192,215215,1,4,0:0:0:0:
256,192,215560,1,8,0:0:0:0:
256,192,215904,1,0,0:0:0:0:
256,192,216077,1,0,0:0:0:0:
256,192,216249,1,8,0:0:0:0:
256,192,216594,1,4,0:0:0:0:
256,192,216766,1,0,0:0:0:0:
256,192,216939,1,12,0:0:0:0:
256,192,217111,1,0,0:0:0:0:
256,192,217284,1,12,0:0:0:0:
256,192,217456,1,0,0:0:0:0:
256,192,217628,1,12,0:0:0:0:
256,192,217801,1,0,0:0:0:0:
256,192,217973,1,12,0:0:0:0:
256,192,218318,1,8,0:0:0:0:
256,192,218491,1,8,0:0:0:0:
256,192,218663,1,0,0:0:0:0:
256,192,218835,1,0,0:0:0:0:
256,192,219008,1,8,0:0:0:0:
256,192,219353,1,4,0:0:0:0:
256,192,219525,1,0,0:0:0:0:
256,192,219697,1,0,0:0:0:0:
256,192,219870,1,0,0:0:0:0:
256,192,220215,1,0,0:0:0:0:
256,192,220387,1,8,0:0:0:0:
256,192,220732,1,12,0:0:0:0:
256,192,221077,1,8,0:0:0:0:
256,192,221249,1,0,0:0:0:0:
256,192,221422,1,0,0:0:0:0:
256,192,221594,1,0,0:0:0:0:
256,192,221766,1,8,0:0:0:0:
256,192,222111,1,12,0:0:0:0:
256,192,222284,1,0,0:0:0:0:
256,192,222456,1,8,0:0:0:0:
256,192,222628,1,0,0:0:0:0:
256,192,222715,1,0,0:0:0:0:
256,192,222801,1,8,0:0:0:0:
256,192,222887,1,8,0:0:0:0:
256,192,222973,1,0,0:0:0:0:
256,192,223060,1,0,0:0:0:0:
256,192,223146,1,0,0:0:0:0:
256,192,223232,1,0,0:0:0:0:
256,192,223318,1,8,0:0:0:0:
256,192,223404,1,0,0:0:0:0:
256,192,223491,1,12,0:0:0:0:
256,192,223835,1,8,0:0:0:0:
256,192,224008,1,0,0:0:0:0:
256,192,224180,1,8,0:0:0:0:
256,192,224353,1,0,0:0:0:0:
256,192,224525,1,8,0:0:0:0:
256,192,224870,1,12,0:0:0:0:
256,192,225215,1,0,0:0:0:0:
256,192,225387,1,0,0:0:0:0:
256,192,225560,1,8,0:0:0:0:
256,192,225732,1,0,0:0:0:0:
256,192,225904,1,12,0:0:0:0:
256,192,226077,1,8,0:0:0:0:
256,192,226163,1,8,0:0:0:0:
256,192,226249,1,4,0:0:0:0:
256,192,226594,1,8,0:0:0:0:
256,192,226766,1,0,0:0:0:0:
256,192,226939,1,0,0:0:0:0:
256,192,227111,1,0,0:0:0:0:
256,192,227284,1,8,0:0:0:0:
256,192,227628,1,4,0:0:0:0:
256,192,227973,1,8,0:0:0:0:
256,192,228146,1,4,0:0:0:0:
256,192,228318,1,4,0:0:0:0:
256,192,228491,1,0,0:0:0:0:
256,192,228663,1,8,0:0:0:0:
256,192,228835,1,0,0:0:0:0:
256,192,229008,1,12,0:0:0:0:
256,192,229353,1,12,0:0:0:0:
256,192,229525,1,0,0:0:0:0:
256,192,229697,1,12,0:0:0:0:
256,192,229870,1,0,0:0:0:0:
256,192,230042,1,12,0:0:0:0:
256,192,230215,1,0,0:0:0:0:
256,192,230387,1,12,0:0:0:0:
256,192,230732,1,0,0:0:0:0:
256,192,230904,1,8,0:0:0:0:
256,192,231077,1,8,0:0:0:0:
256,192,231249,1,0,0:0:0:0:
256,192,231422,1,8,0:0:0:0:
256,192,231766,1,12,0:0:0:0:
256,192,231939,1,0,0:0:0:0:
256,192,232025,1,0,0:0:0:0:
256,192,232111,1,0,0:0:0:0:
256,192,232284,1,12,0:0:0:0:
256,192,232456,1,0,0:0:0:0:
256,192,232542,1,0,0:0:0:0:
256,192,232628,1,0,0:0:0:0:
256,192,232801,1,4,0:0:0:0:
256,192,233146,1,8,0:0:0:0:
256,192,233232,1,8,0:0:0:0:
256,192,233318,1,0,0:0:0:0:
256,192,233404,1,0,0:0:0:0:
256,192,233491,1,0,0:0:0:0:
256,192,233577,1,0,0:0:0:0:
256,192,233663,1,8,0:0:0:0:
256,192,233749,1,8,0:0:0:0:
256,192,233835,1,8,0:0:0:0:
256,192,233922,1,0,0:0:0:0:
256,192,234008,1,0,0:0:0:0:
256,192,234094,1,0,0:0:0:0:
256,192,234180,1,8,0:0:0:0:
256,192,234353,1,8,0:0:0:0:
256,192,234525,1,4,0:0:0:0:
256,192,234697,1,8,0:0:0:0:
256,192,234784,1,0,0:0:0:0:
256,192,234870,1,0,0:0:0:0:
256,192,235042,1,0,0:0:0:0:
256,192,235128,1,0,0:0:0:0:
256,192,235215,1,0,0:0:0:0:
256,192,235387,1,0,0:0:0:0:
256,192,235473,1,0,0:0:0:0:
256,192,235560,1,8,0:0:0:0:
256,192,235732,1,0,0:0:0:0:
256,192,235818,1,0,0:0:0:0:
256,192,235904,1,0,0:0:0:0:
256,192,236077,1,0,0:0:0:0:
256,192,236163,1,0,0:0:0:0:
256,192,236249,1,8,0:0:0:0:
256,192,236422,1,8,0:0:0:0:
256,192,236508,1,0,0:0:0:0:
256,192,236594,1,0,0:0:0:0:
256,192,236766,1,0,0:0:0:0:
256,192,236853,1,0,0:0:0:0:
256,192,236939,1,8,0:0:0:0:
256,192,237111,1,0,0:0:0:0:
256,192,237197,1,0,0:0:0:0:
256,192,237284,1,0,0:0:0:0:
256,192,237456,1,0,0:0:0:0:
256,192,237542,1,0,0:0:0:0:
256,192,237628,1,8,0:0:0:0:
256,192,237801,1,8,0:0:0:0:
256,192,237887,1,0,0:0:0:0:
256,192,237973,1,0,0:0:0:0:
256,192,238146,1,0,0:0:0:0:
256,192,238232,1,0,0:0:0:0:
256,192,238318,1,8,0:0:0:0:
256,192,238491,1,8,0:0:0:0:
256,192,238577,1,0,0:0:0:0:
256,192,238663,1,0,0:0:0:0:
256,192,238835,1,8,0:0:0:0:
256,192,238922,1,8,0:0:0:0:
256,192,239008,1,0,0:0:0:0:
256,192,239180,1,0,0:0:0:0:
256,192,239266,1,0,0:0:0:0:
256,192,239353,1,8,0:0:0:0:
256,192,239525,1,8,0:0:0:0:
256,192,239611,1,8,0:0:0:0:
256,192,239697,1,8,0:0:0:0:
256,192,239870,1,8,0:0:0:0:
256,192,239956,1,8,0:0:0:0:
256,192,240042,1,4,0:0:0:0:
256,192,240215,1,0,0:0:0:0:
256,192,240301,1,0,0:0:0:0:
256,192,240387,1,8,0:0:0:0:
256,192,240560,1,0,0:0:0:0:
256,192,240646,1,0,0:0:0:0:
256,192,240732,1,0,0:0:0:0:
256,192,240904,1,0,0:0:0:0:
256,192,240991,1,0,0:0:0:0:
256,192,241077,1,8,0:0:0:0:
256,192,241249,1,8,0:0:0:0:
256,192,241335,1,0,0:0:0:0:
256,192,241422,1,0,0:0:0:0:
256,192,241594,1,0,0:0:0:0:
256,192,241680,1,0,0:0:0:0:
256,192,241766,1,8,0:0:0:0:
256,192,241939,1,0,0:0:0:0:
256,192,242025,1,0,0:0:0:0:
256,192,242111,1,0,0:0:0:0:
256,192,242284,1,0,0:0:0:0:
256,192,242370,1,0,0:0:0:0:
256,192,242456,1,8,0:0:0:0:
256,192,242628,1,0,0:0:0:0:
256,192,242715,1,0,0:0:0:0:
256,192,242801,1,0,0:0:0:0:
256,192,242973,1,0,0:0:0:0:
256,192,243060,1,0,0:0:0:0:
256,192,243146,1,8,0:0:0:0:
256,192,243318,1,8,0:0:0:0:
256,192,243404,1,0,0:0:0:0:
256,192,243491,1,0,0:0:0:0:
256,192,243663,1,0,0:0:0:0:
256,192,243749,1,8,0:0:0:0:
256,192,243835,1,8,0:0:0:0:
256,192,244008,1,0,0:0:0:0:
256,192,244094,1,0,0:0:0:0:
256,192,244180,1,12,0:0:0:0:
256,192,244353,1,0,0:0:0:0:
256,192,244439,1,0,0:0:0:0:
256,192,244525,1,8,0:0:0:0:
256,192,244697,1,0,0:0:0:0:
256,192,244784,1,0,0:0:0:0:
256,192,244870,1,8,0:0:0:0:
256,192,244956,1,8,0:0:0:0:
256,192,245042,1,0,0:0:0:0:
256,192,245128,1,0,0:0:0:0:
256,192,245215,1,8,0:0:0:0:
256,192,245301,1,8,0:0:0:0:
256,192,245387,1,8,0:0:0:0:
256,192,245473,1,0,0:0:0:0:
256,192,245560,1,12,0:0:0:0:
256,192,245904,1,8,0:0:0:0:
256,192,246077,1,0,0:0:0:0:
256,192,246249,1,8,0:0:0:0:
256,192,246422,1,0,0:0:0:0:
256,192,246594,1,8,0:0:0:0:
256,192,246939,1,12,0:0:0:0:
256,192,247111,1,0,0:0:0:0:
256,192,247284,1,0,0:0:0:0:
256,192,247456,1,0,0:0:0:0:
256,192,247628,1,8,0:0:0:0:
256,192,247715,1,8,0:0:0:0:
256,192,247801,1,0,0:0:0:0:
256,192,247887,1,0,0:0:0:0:
256,192,247973,1,8,0:0:0:0:
256,192,248146,1,0,0:0:0:0:
256,192,248318,1,12,0:0:0:0:
256,192,248491,1,8,0:0:0:0:
256,192,248663,1,0,0:0:0:0:
256,192,248835,1,0,0:0:0:0:
256,192,249008,1,12,0:0:0:0:
256,192,249180,1,0,0:0:0:0:
256,192,249353,1,0,0:0:0:0:
256,192,249525,1,0,0:0:0:0:
256,192,249697,1,12,0:0:0:0:
256,192,249870,1,0,0:0:0:0:
256,192,250042,1,0,0:0:0:0:
256,192,250215,1,8,0:0:0:0:
256,192,250387,1,4,0:0:0:0:
256,192,250560,1,8,0:0:0:0:
256,192,250732,1,0,0:0:0:0:
256,192,250904,1,0,0:0:0:0:
256,192,250991,1,0,0:0:0:0:
256,192,251077,1,12,0:0:0:0:
256,192,251422,1,8,0:0:0:0:
256,192,251594,1,0,0:0:0:0:
256,192,251766,1,0,0:0:0:0:
256,192,251939,1,0,0:0:0:0:
256,192,252111,1,8,0:0:0:0:
256,192,252456,1,12,0:0:0:0:
256,192,252628,1,0,0:0:0:0:
256,192,252801,1,8,0:0:0:0:
256,192,253146,1,0,0:0:0:0:
256,192,253232,1,0,0:0:0:0:
256,192,253318,1,0,0:0:0:0:
256,192,253404,1,0,0:0:0:0:
256,192,253491,1,8,0:0:0:0:
256,192,253577,1,8,0:0:0:0:
256,192,253663,1,0,0:0:0:0:
256,192,253749,1,0,0:0:0:0:
256,192,253835,1,8,0:0:0:0:
256,192,254524,1,4,0:0:0:0:
256,192,254697,1,0,0:0:0:0:
256,192,254869,1,8,0:0:0:0:
256,192,255042,1,8,0:0:0:0:
256,192,255128,1,8,0:0:0:0:
256,192,255214,1,8,0:0:0:0:
256,192,255387,1,0,0:0:0:0:
256,192,255559,1,0,0:0:0:0:
256,192,255731,1,0,0:0:0:0:
256,192,255904,1,0,0:0:0:0:
256,192,256076,1,0,0:0:0:0:
256,192,256162,1,8,0:0:0:0:
256,192,256249,1,8,0:0:0:0:
256,192,256421,1,8,0:0:0:0:
256,192,256593,1,8,0:0:0:0:
256,192,256680,1,8,0:0:0:0:
256,192,256766,1,0,0:0:0:0:
256,192,256938,1,0,0:0:0:0:
256,192,257111,1,0,0:0:0:0:
256,192,257283,1,4,0:0:0:0:
256,192,257456,1,0,0:0:0:0:
256,192,257628,1,8,0:0:0:0:
256,192,257800,1,8,0:0:0:0:
256,192,257887,1,8,0:0:0:0:
256,192,257973,1,8,0:0:0:0:
256,192,258145,1,0,0:0:0:0:
256,192,258318,1,0,0:0:0:0:
256,192,258490,1,0,0:0:0:0:
256,192,258662,1,0,0:0:0:0:
256,192,258835,1,8,0:0:0:0:
256,192,258921,1,8,0:0:0:0:
256,192,259007,1,0,0:0:0:0:
256,192,259180,1,0,0:0:0:0:
256,192,259352,1,8,0:0:0:0:
256,192,259438,1,8,0:0:0:0:
256,192,259525,1,0,0:0:0:0:
256,192,259611,1,0,0:0:0:0:
256,192,259697,1,8,0:0:0:0:
256,192,259783,1,8,0:0:0:0:
256,192,259869,1,8,0:0:0:0:
256,192,259956,1,8,0:0:0:0:
256,192,260042,1,4,0:0:0:0:
256,192,260214,1,0,0:0:0:0:
256,192,260300,1,0,0:0:0:0:
256,192,260387,1,8,0:0:0:0:
256,192,260559,1,0,0:0:0:0:
256,192,260645,1,0,0:0:0:0:
256,192,260731,1,0,0:0:0:0:
256,192,260904,1,0,0:0:0:0:
256,192,260990,1,0,0:0:0:0:
256,192,261076,1,8,0:0:0:0:
256,192,261249,1,0,0:0:0:0:
256,192,261335,1,8,0:0:0:0:
256,192,261421,1,8,0:0:0:0:
256,192,261593,1,0,0:0:0:0:
256,192,261680,1,0,0:0:0:0:
256,192,261766,1,8,0:0:0:0:
256,192,261938,1,8,0:0:0:0:
256,192,262025,1,0,0:0:0:0:
256,192,262111,1,0,0:0:0:0:
256,192,262283,1,0,0:0:0:0:
256,192,262369,1,0,0:0:0:0:
256,192,262456,1,8,0:0:0:0:
256,192,262628,1,0,0:0:0:0:
256,192,262714,1,8,0:0:0:0:
256,192,262800,1,4,0:0:0:0:
256,192,262973,1,0,0:0:0:0:
256,192,263059,1,0,0:0:0:0:
256,192,263145,1,8,0:0:0:0:
256,192,263318,1,8,0:0:0:0:
256,192,263404,1,0,0:0:0:0:
256,192,263490,1,0,0:0:0:0:
256,192,263662,1,0,0:0:0:0:
256,192,263749,1,0,0:0:0:0:
256,192,263835,1,8,0:0:0:0:
256,192,264007,1,0,0:0:0:0:
256,192,264093,1,8,0:0:0:0:
256,192,264180,1,4,0:0:0:0:
256,192,264352,1,8,0:0:0:0:
256,192,264438,1,8,0:0:0:0:
256,192,264525,1,0,0:0:0:0:
256,192,264697,1,8,0:0:0:0:
256,192,264783,1,8,0:0:0:0:
256,192,264869,1,8,0:0:0:0:
256,192,265042,1,0,0:0:0:0:
256,192,265128,1,8,0:0:0:0:
256,192,265214,1,8,0:0:0:0:
256,192,265387,1,0,0:0:0:0:
256,192,265473,1,0,0:0:0:0:
256,192,265559,1,12,0:0:0:0:
256,192,265731,1,0,0:0:0:0:
256,192,265904,1,8,0:0:0:0:
256,192,266076,1,0,0:0:0:0:
256,192,266249,1,0,0:0:0:0:
256,192,266593,1,0,0:0:0:0:
256,192,266766,1,0,0:0:0:0:
256,192,266938,1,8,0:0:0:0:
256,192,267111,1,0,0:0:0:0:
256,192,267283,1,0,0:0:0:0:
256,192,267628,1,8,0:0:0:0:
256,192,267800,1,0,0:0:0:0:
256,192,267887,1,8,0:0:0:0:
256,192,268059,1,0,0:0:0:0:
256,192,268145,1,8,0:0:0:0:
256,192,268318,1,4,0:0:0:0:
256,192,268490,1,0,0:0:0:0:
256,192,268662,1,8,0:0:0:0:
256,192,268835,1,0,0:0:0:0:
256,192,269007,1,0,0:0:0:0:
256,192,269180,1,0,0:0:0:0:
256,192,269352,1,0,0:0:0:0:
256,192,269697,1,12,0:0:0:0:
256,192,269869,1,0,0:0:0:0:
256,192,270042,1,8,0:0:0:0:
256,192,270214,1,0,0:0:0:0:
256,192,270300,1,0,0:0:0:0:
256,192,270387,1,8,0:0:0:0:
256,192,270473,1,8,0:0:0:0:
256,192,270559,1,8,0:0:0:0:
256,192,270645,1,0,0:0:0:0:
256,192,270731,1,8,0:0:0:0:
256,192,270818,1,8,0:0:0:0:
256,192,270904,1,8,0:0:0:0:
256,192,270990,1,0,0:0:0:0:
256,192,271076,1,12,0:0:0:0:
256,192,271249,1,0,0:0:0:0:
256,192,271335,1,0,0:0:0:0:
256,192,271421,1,8,0:0:0:0:
256,192,271593,1,8,0:0:0:0:
256,192,271680,1,8,0:0:0:0:
256,192,271766,1,0,0:0:0:0:
256,192,271938,1,0,0:0:0:0:
256,192,272025,1,0,0:0:0:0:
256,192,272111,1,8,0:0:0:0:
256,192,272283,1,0,0:0:0:0:
256,192,272369,1,8,0:0:0:0:
256,192,272456,1,4,0:0:0:0:
256,192,272628,1,0,0:0:0:0:
256,192,272714,1,0,0:0:0:0:
256,192,272800,1,8,0:0:0:0:
256,192,272887,1,8,0:0:0:0:
256,192,272973,1,0,0:0:0:0:
256,192,273059,1,0,0:0:0:0:
256,192,273145,1,0,0:0:0:0:
256,192,273318,1,0,0:0:0:0:
256,192,273404,1,0,0:0:0:0:
256,192,273490,1,8,0:0:0:0:
256,192,273662,1,0,0:0:0:0:
256,192,273749,1,8,0:0:0:0:
256,192,273835,1,4,0:0:0:0:
256,192,274007,1,0,0:0:0:0:
256,192,274093,1,0,0:0:0:0:
256,192,274180,1,8,0:0:0:0:
256,192,274352,1,8,0:0:0:0:
256,192,274438,1,0,0:0:0:0:
256,192,274525,1,0,0:0:0:0:
256,192,274697,1,0,0:0:0:0:
256,192,274783,1,0,0:0:0:0:
256,192,274869,1,8,0:0:0:0:
256,192,275042,1,0,0:0:0:0:
256,192,275128,1,8,0:0:0:0:
256,192,275214,5,4,0:0:0:0:
256,192,275387,1,8,0:0:0:0:
256,192,275559,1,8,0:0:0:0:
256,192,275731,1,8,0:0:0:0:
256,192,275818,1,8,0:0:0:0:
256,192,275904,1,4,0:0:0:0:
256,192,276076,1,8,0:0:0:0:
256,192,276249,1,0,0:0:0:0:
256,192,276335,1,0,0:0:0:0:
256,192,276421,1,0,0:0:0:0:
256,192,276507,1,0,0:0:0:0:
256,192,276593,5,12,0:0:0:0:
256,192,276766,1,0,0:0:0:0:
256,192,276938,1,4,0:0:0:0:
256,192,277111,1,0,0:0:0:0:
256,192,277283,1,12,0:0:0:0:
256,192,277456,1,0,0:0:0:0:
256,192,277628,1,12,0:0:0:0:
256,192,277800,1,0,0:0:0:0:
256,192,277973,1,12,0:0:0:0:
256,192,278145,1,0,0:0:0:0:
256,192,278318,1,4,0:0:0:0:
256,192,278490,1,0,0:0:0:0:
256,192,278662,1,12,0:0:0:0:
256,192,278835,1,0,0:0:0:0:
256,192,279007,1,12,0:0:0:0:
256,192,279180,1,0,0:0:0:0:
256,192,279352,1,4,0:0:0:0:
256,192,279869,1,0,0:0:0:0:
256,192,280042,1,8,0:0:0:0:
256,192,280387,1,0,0:0:0:0:
256,192,280731,1,8,0:0:0:0:
256,192,281249,1,0,0:0:0:0:
256,192,281421,1,8,0:0:0:0:
256,192,281593,1,0,0:0:0:0:
256,192,281766,1,8,0:0:0:0:
256,192,281938,1,8,0:0:0:0:
256,192,282111,1,4,0:0:0:0:
256,192,282456,1,8,0:0:0:0:
256,192,282628,1,0,0:0:0:0:
256,192,282800,1,8,0:0:0:0:
256,192,283145,1,0,0:0:0:0:
256,192,283318,1,0,0:0:0:0:
256,192,283490,1,0,0:0:0:0:
256,192,283662,1,8,0:0:0:0:
256,192,284007,1,0,0:0:0:0:
256,192,284180,1,8,0:0:0:0:
256,192,284352,1,0,0:0:0:0:
256,192,284525,1,8,0:0:0:0:
256,192,284697,1,8,0:0:0:0:
256,192,284869,1,4,0:0:0:0:
256,192,285214,1,0,0:0:0:0:
256,192,285387,1,0,0:0:0:0:
256,192,285559,1,8,0:0:0:0:
256,192,285904,1,0,0:0:0:0:
256,192,286249,1,0,0:0:0:0:
256,192,286421,1,0,0:0:0:0:
256,192,286593,1,0,0:0:0:0:
256,192,286766,1,0,0:0:0:0:
256,192,286938,1,8,0:0:0:0:
256,192,287111,1,0,0:0:0:0:
256,192,287283,1,8,0:0:0:0:
256,192,287456,1,0,0:0:0:0:
256,192,287628,1,12,0:0:0:0:
256,192,287800,1,8,0:0:0:0:
256,192,287973,1,0,0:0:0:0:
256,192,288145,1,0,0:0:0:0:
256,192,288318,1,8,0:0:0:0:
256,192,288662,1,0,0:0:0:0:
256,192,289007,1,8,0:0:0:0:
256,192,289180,1,0,0:0:0:0:
256,192,289266,1,0,0:0:0:0:
256,192,289352,1,8,0:0:0:0:
256,192,289525,1,0,0:0:0:0:
256,192,289611,1,0,0:0:0:0:
256,192,289697,1,8,0:0:0:0:
256,192,289783,1,8,0:0:0:0:
256,192,289869,1,8,0:0:0:0:
256,192,289956,1,0,0:0:0:0:
256,192,290042,1,0,0:0:0:0:
256,192,290128,1,8,0:0:0:0:
256,192,290214,1,0,0:0:0:0:
256,192,290300,1,0,0:0:0:0:
256,192,290387,1,12,0:0:0:0:
256,192,290559,1,0,0:0:0:0:
256,192,290645,1,0,0:0:0:0:
256,192,290731,1,8,0:0:0:0:
256,192,290904,1,8,0:0:0:0:
256,192,290990,1,8,0:0:0:0:
256,192,291076,1,8,0:0:0:0:
256,192,291249,1,0,0:0:0:0:
256,192,291335,1,0,0:0:0:0:
256,192,291421,1,8,0:0:0:0:
256,192,291593,1,0,0:0:0:0:
256,192,291680,1,8,0:0:0:0:
256,192,291766,1,8,0:0:0:0:
256,192,291938,1,0,0:0:0:0:
256,192,292025,1,0,0:0:0:0:
256,192,292111,1,8,0:0:0:0:
256,192,292283,1,8,0:0:0:0:
256,192,292369,1,0,0:0:0:0:
256,192,292456,1,0,0:0:0:0:
256,192,292628,1,0,0:0:0:0:
256,192,292714,1,8,0:0:0:0:
256,192,292800,1,8,0:0:0:0:
256,192,292973,1,8,0:0:0:0:
256,192,293059,1,8,0:0:0:0:
256,192,293145,1,8,0:0:0:0:
256,192,293318,1,0,0:0:0:0:
256,192,293404,1,0,0:0:0:0:
256,192,293490,1,8,0:0:0:0:
256,192,293662,1,8,0:0:0:0:
256,192,293749,1,0,0:0:0:0:
256,192,293835,1,0,0:0:0:0:
256,192,294007,1,0,0:0:0:0:
256,192,294093,1,0,0:0:0:0:
256,192,294180,1,8,0:0:0:0:
256,192,294352,1,8,0:0:0:0:
256,192,294438,1,8,0:0:0:0:
256,192,294525,1,8,0:0:0:0:
256,192,294697,1,0,0:0:0:0:
256,192,294783,1,0,0:0:0:0:
256,192,294869,1,8,0:0:0:0:
256,192,295042,1,8,0:0:0:0:
256,192,295128,1,0,0:0:0:0:
256,192,295214,1,0,0:0:0:0:
256,192,295387,1,0,0:0:0:0:
256,192,295473,1,0,0:0:0:0:
256,192,295559,1,8,0:0:0:0:
256,192,295731,1,0,0:0:0:0:
256,192,295818,1,8,0:0:0:0:
256,192,295904,1,4,0:0:0:0:
256,192,296076,1,0,0:0:0:0:
256,192,296249,1,8,0:0:0:0:
256,192,296421,1,0,0:0:0:0:
256,192,296507,1,0,0:0:0:0:
256,192,296593,1,8,0:0:0:0:
256,192,296766,1,0,0:0:0:0:
256,192,296938,1,0,0:0:0:0:
256,192,297111,1,0,0:0:0:0:
256,192,297283,1,12,0:0:0:0:
256,192,297542,1,0,0:0:0:0:
256,192,297800,1,0,0:0:0:0:
256,192,297973,1,4,0:0:0:0:
256,192,298145,1,0,0:0:0:0:
256,192,298231,1,0,0:0:0:0:
256,192,298318,1,8,0:0:0:0:
256,192,298490,1,8,0:0:0:0:
256,192,298662,5,4,0:0:0:0:
256,192,298835,5,0,0:0:0:0:
256,192,298921,5,0,0:0:0:0:
256,192,299007,5,0,0:0:0:0:
256,192,299180,1,0,0:0:0:0:
256,192,299266,1,0,0:0:0:0:
256,192,299352,1,8,0:0:0:0:
256,192,299438,1,8,0:0:0:0:
256,192,299525,1,0,0:0:0:0:
256,192,299697,1,8,0:0:0:0:
256,192,299869,1,0,0:0:0:0:
256,192,300042,1,12,0:0:0:0:
256,192,300214,1,0,0:0:0:0:
256,192,300300,1,0,0:0:0:0:
256,192,300387,1,8,0:0:0:0:
256,192,300559,1,0,0:0:0:0:
256,192,300645,1,0,0:0:0:0:
256,192,300731,1,8,0:0:0:0:
256,192,300818,1,8,0:0:0:0:
256,192,300904,1,0,0:0:0:0:
256,192,300990,1,0,0:0:0:0:
256,192,301076,1,8,0:0:0:0:
256,192,301249,1,8,0:0:0:0:
256,192,301421,5,12,0:0:0:0:
256,192,301938,1,4,0:0:0:0:
256,192,302456,5,12,0:0:0:0:
256,192,302800,1,4,0:0:0:0:
256,192,304180,1,4,0:0:0:0:
256,192,304525,1,8,0:0:0:0:
256,192,304869,1,0,0:0:0:0:
256,192,305042,1,0,0:0:0:0:
256,192,305214,1,8,0:0:0:0:
256,192,305559,1,12,0:0:0:0:
256,192,305904,1,8,0:0:0:0:
256,192,306076,1,0,0:0:0:0:
256,192,306249,1,0,0:0:0:0:
256,192,306421,1,0,0:0:0:0:
256,192,306593,1,8,0:0:0:0:
256,192,306938,1,12,0:0:0:0:
256,192,307283,1,8,0:0:0:0:
256,192,307628,1,8,0:0:0:0:
256,192,307800,1,0,0:0:0:0:
256,192,307973,1,8,0:0:0:0:
256,192,308318,1,12,0:0:0:0:
256,192,308662,1,8,0:0:0:0:
256,192,308835,1,0,0:0:0:0:
256,192,309007,1,4,0:0:0:0:
256,192,309180,1,0,0:0:0:0:
256,192,309352,1,8,0:0:0:0:
256,192,309525,1,8,0:0:0:0:
256,192,309697,1,4,0:0:0:0:
256,192,310042,1,8,0:0:0:0:
256,192,310387,1,0,0:0:0:0:
256,192,310559,1,0,0:0:0:0:
256,192,310731,1,0,0:0:0:0:
256,192,311076,1,12,0:0:0:0:
256,192,311421,1,8,0:0:0:0:
256,192,311593,1,8,0:0:0:0:
256,192,311766,1,0,0:0:0:0:
256,192,311938,1,0,0:0:0:0:
256,192,312111,1,8,0:0:0:0:
256,192,312456,5,4,0:0:0:0:
256,192,312800,1,4,0:0:0:0:
256,192,313145,1,12,0:0:0:0:
256,192,313318,1,0,0:0:0:0:
256,192,313490,1,12,0:0:0:0:
256,192,313835,1,12,0:0:0:0:
256,192,314007,1,0,0:0:0:0:
256,192,314093,1,0,0:0:0:0:
256,192,314180,1,8,0:0:0:0:
256,192,314352,1,0,0:0:0:0:
256,192,314438,1,0,0:0:0:0:
256,192,314525,1,8,0:0:0:0:
256,192,314611,1,0,0:0:0:0:
256,192,314697,1,8,0:0:0:0:
256,192,314783,1,0,0:0:0:0:
256,192,314869,1,0,0:0:0:0:
256,192,314956,1,0,0:0:0:0:
256,192,315042,1,8,0:0:0:0:
256,192,315128,1,8,0:0:0:0:
256,192,315214,5,4,0:0:0:0:
256,192,315559,1,8,0:0:0:0:
256,192,315904,1,8,0:0:0:0:
256,192,316076,1,0,0:0:0:0:
256,192,316249,1,8,0:0:0:0:
256,192,316593,1,0,0:0:0:0:
256,192,316938,1,8,0:0:0:0:
256,192,317111,1,0,0:0:0:0:
256,192,317283,1,0,0:0:0:0:
256,192,317456,1,0,0:0:0:0:
256,192,317628,1,8,0:0:0:0:
256,192,317973,1,4,0:0:0:0:
256,192,318318,1,8,0:0:0:0:
256,192,318662,1,0,0:0:0:0:
256,192,318835,1,0,0:0:0:0:
256,192,319007,1,8,0:0:0:0:
256,192,319352,1,8,0:0:0:0:
256,192,319697,1,0,0:0:0:0:
256,192,319869,1,0,0:0:0:0:
256,192,319956,1,0,0:0:0:0:
256,192,320042,1,8,0:0:0:0:
256,192,320214,1,0,0:0:0:0:
256,192,320300,1,8,0:0:0:0:
256,192,320387,1,8,0:0:0:0:
256,192,320559,1,8,0:0:0:0:
256,192,320731,1,12,0:0:0:0:
256,192,320904,1,0,0:0:0:0:
256,192,320990,1,0,0:0:0:0:
256,192,321076,1,8,0:0:0:0:
256,192,321249,1,0,0:0:0:0:
256,192,321335,1,0,0:0:0:0:
256,192,321421,1,0,0:0:0:0:
256,192,321593,1,0,0:0:0:0:
256,192,321680,1,0,0:0:0:0:
256,192,321766,1,8,0:0:0:0:
256,192,321938,1,8,0:0:0:0:
256,192,322025,1,8,0:0:0:0:
256,192,322111,1,4,0:0:0:0:
256,192,322283,1,0,0:0:0:0:
256,192,322369,1,0,0:0:0:0:
256,192,322456,1,8,0:0:0:0:
256,192,322628,1,0,0:0:0:0:
256,192,322714,1,0,0:0:0:0:
256,192,322800,1,0,0:0:0:0:
256,192,322973,1,0,0:0:0:0:
256,192,323059,1,8,0:0:0:0:
256,192,323145,1,8,0:0:0:0:
256,192,323318,1,8,0:0:0:0:
256,192,323404,1,8,0:0:0:0:
256,192,323490,1,4,0:0:0:0:
256,192,323662,1,0,0:0:0:0:
256,192,323749,1,0,0:0:0:0:
256,192,323835,1,8,0:0:0:0:
256,192,324007,1,0,0:0:0:0:
256,192,324093,1,0,0:0:0:0:
256,192,324180,1,0,0:0:0:0:
256,192,324352,1,8,0:0:0:0:
256,192,324438,1,0,0:0:0:0:
256,192,324525,1,0,0:0:0:0:
256,192,324697,1,8,0:0:0:0:
256,192,324783,1,8,0:0:0:0:
256,192,324869,1,8,0:0:0:0:
256,192,325042,1,0,0:0:0:0:
256,192,325128,1,0,0:0:0:0:
256,192,325214,1,8,0:0:0:0:
256,192,325387,1,0,0:0:0:0:
256,192,325473,1,0,0:0:0:0:
256,192,325559,1,0,0:0:0:0:
256,192,325731,1,0,0:0:0:0:
256,192,325818,1,8,0:0:0:0:
256,192,325904,1,8,0:0:0:0:
256,192,326076,1,0,0:0:0:0:
256,192,326162,1,0,0:0:0:0:
256,192,326249,1,8,0:0:0:0:
256,192,326335,1,0,0:0:0:0:
256,192,326421,1,0,0:0:0:0:
256,192,326507,1,0,0:0:0:0:
256,192,326593,1,8,0:0:0:0:
256,192,326680,1,8,0:0:0:0:
256,192,326766,1,0,0:0:0:0:
256,192,326852,1,0,0:0:0:0:
256,192,326938,1,8,0:0:0:0:
256,192,327025,1,8,0:0:0:0:
256,192,327111,1,8,0:0:0:0:
256,192,327197,1,0,0:0:0:0:
256,192,327283,1,8,0:0:0:0:
256,192,327369,1,0,0:0:0:0:
256,192,327456,1,0,0:0:0:0:
256,192,327542,1,0,0:0:0:0:
256,192,327628,1,8,0:0:0:0:
256,192,327714,1,8,0:0:0:0:
256,192,327800,1,8,0:0:0:0:
256,192,327887,1,0,0:0:0:0:
256,192,327973,1,8,0:0:0:0:
256,192,328059,1,0,0:0:0:0:
256,192,328145,1,0,0:0:0:0:
256,192,328231,1,0,0:0:0:0:
256,192,328318,1,8,0:0:0:0:
256,192,328404,1,0,0:0:0:0:
256,192,328490,1,0,0:0:0:0:
256,192,328576,1,8,0:0:0:0:
256,192,328662,1,8,0:0:0:0:
256,192,328749,1,8,0:0:0:0:
256,192,328835,1,0,0:0:0:0:
256,192,328921,1,0,0:0:0:0:
256,192,329007,1,8,0:0:0:0:
256,192,329093,1,0,0:0:0:0:
256,192,329180,1,0,0:0:0:0:
256,192,329266,1,0,0:0:0:0:
256,192,329352,1,8,0:0:0:0:
256,192,329438,1,8,0:0:0:0:
256,192,329525,1,8,0:0:0:0:
256,192,329611,1,8,0:0:0:0:
256,192,329697,1,0,0:0:0:0:
256,192,329783,1,0,0:0:0:0:
256,192,329869,1,8,0:0:0:0:
256,192,329956,1,0,0:0:0:0:
256,192,330042,1,8,0:0:0:0:
256,192,330128,1,0,0:0:0:0:
256,192,330214,1,8,0:0:0:0:
256,192,330300,1,8,0:0:0:0:
256,192,330387,1,8,0:0:0:0:
256,192,330473,1,0,0:0:0:0:
256,192,330559,1,0,0:0:0:0:
256,192,330645,1,0,0:0:0:0:
256,192,330731,1,8,0:0:0:0:
256,192,330818,1,8,0:0:0:0:
256,192,330904,1,0,0:0:0:0:
256,192,330990,1,0,0:0:0:0:
256,192,331076,1,0,0:0:0:0:
256,192,331162,1,0,0:0:0:0:
256,192,331249,1,8,0:0:0:0:
256,192,331335,1,8,0:0:0:0:
256,192,331421,1,0,0:0:0:0:
256,192,331507,1,0,0:0:0:0:
256,192,331593,1,8,0:0:0:0:
256,192,331680,1,8,0:0:0:0:
256,192,331766,1,4,0:0:0:0:
256,192,332111,1,8,0:0:0:0:
256,192,332283,1,8,0:0:0:0:
256,192,332456,1,0,0:0:0:0:
256,192,332628,1,0,0:0:0:0:
256,192,332800,1,8,0:0:0:0:
256,192,332973,1,0,0:0:0:0:
256,192,333318,1,0,0:0:0:0:
256,192,333490,1,0,0:0:0:0:
256,192,333662,1,8,0:0:0:0:
256,192,333835,1,0,0:0:0:0:
256,192,333921,1,0,0:0:0:0:
256,192,334007,1,0,0:0:0:0:
256,192,334093,1,0,0:0:0:0:
256,192,334180,1,8,0:0:0:0:
256,192,334525,1,12,0:0:0:0:
256,192,334869,1,8,0:0:0:0:
256,192,335214,1,8,0:0:0:0:
256,192,335387,1,0,0:0:0:0:
256,192,335559,1,8,0:0:0:0:
256,192,335904,5,8,0:0:0:0:
256,192,335961,1,8,0:0:0:0:
256,192,336019,1,8,0:0:0:0:
256,192,336076,1,0,0:0:0:0:
256,192,336162,1,0,0:0:0:0:
256,192,336249,1,8,0:0:0:0:
256,192,336306,1,8,0:0:0:0:
256,192,336364,1,8,0:0:0:0:
256,192,336421,1,0,0:0:0:0:
256,192,336507,1,0,0:0:0:0:
256,192,336593,1,8,0:0:0:0:
256,192,336651,1,8,0:0:0:0:
256,192,336708,1,8,0:0:0:0:
256,192,336766,1,0,0:0:0:0:
256,192,336852,1,0,0:0:0:0:
256,192,336938,1,8,0:0:0:0:
256,192,336996,1,8,0:0:0:0:
256,192,337053,1,8,0:0:0:0:
256,192,337111,1,0,0:0:0:0:
256,192,337197,1,0,0:0:0:0:
256,192,337283,1,0,0:0:0:0:
256,192,337456,1,0,0:0:0:0:
256,192,337628,1,8,0:0:0:0:
256,192,337973,1,4,0:0:0:0:
256,192,338145,1,8,0:0:0:0:
256,192,338490,1,0,0:0:0:0:
256,192,338835,1,8,0:0:0:0:
256,192,339007,1,0,0:0:0:0:
256,192,339180,1,0,0:0:0:0:
256,192,339266,1,0,0:0:0:0:
256,192,339352,1,12,0:0:0:0:
256,192,339525,1,8,0:0:0:0:
256,192,339697,1,0,0:0:0:0:
256,192,339869,1,0,0:0:0:0:
256,192,340042,1,8,0:0:0:0:
256,192,340128,1,0,0:0:0:0:
256,192,340214,1,0,0:0:0:0:
256,192,340300,1,0,0:0:0:0:
256,192,340387,1,8,0:0:0:0:
256,192,340731,1,4,0:0:0:0:
256,192,340904,1,8,0:0:0:0:
256,192,341249,1,8,0:0:0:0:
256,192,341421,1,12,0:0:0:0:
256,192,341766,1,0,0:0:0:0:
256,192,341938,1,0,0:0:0:0:
256,192,342025,1,0,0:0:0:0:
256,192,342111,1,12,0:0:0:0:
256,192,342283,1,0,0:0:0:0:
256,192,342456,1,12,0:0:0:0:
256,192,342628,1,8,0:0:0:0:
256,192,342800,1,0,0:0:0:0:
256,192,342887,1,0,0:0:0:0:
256,192,342973,1,0,0:0:0:0:
256,192,343059,1,0,0:0:0:0:
256,192,343145,1,8,0:0:0:0:
256,192,343490,1,4,0:0:0:0:
256,192,343662,1,8,0:0:0:0:
256,192,344007,1,8,0:0:0:0:
256,192,344180,1,12,0:0:0:0:
256,192,344352,1,8,0:0:0:0:
256,192,344525,1,0,0:0:0:0:
256,192,344697,1,0,0:0:0:0:
256,192,344783,1,0,0:0:0:0:
256,192,344869,1,12,0:0:0:0:
256,192,345042,1,8,0:0:0:0:
256,192,345214,1,0,0:0:0:0:
256,192,345387,1,0,0:0:0:0:
256,192,345559,1,8,0:0:0:0:
256,192,345645,1,0,0:0:0:0:
256,192,345731,1,0,0:0:0:0:
256,192,345818,1,0,0:0:0:0:
256,192,345904,1,8,0:0:0:0:
256,192,346249,1,4,0:0:0:0:
256,192,346421,1,4,0:0:0:0:
256,192,346593,1,0,0:0:0:0:
256,192,346766,1,12,0:0:0:0:
256,192,346938,1,0,0:0:0:0:
256,192,347025,1,0,0:0:0:0:
256,192,347111,1,12,0:0:0:0:
256,192,347283,1,4,0:0:0:0:
256,192,347456,1,12,0:0:0:0:
256,192,347628,1,4,0:0:0:0:
256,192,347973,1,12,0:0:0:0:
256,192,348318,1,0,0:0:0:0:
256,192,348404,1,0,0:0:0:0:
256,192,348490,1,12,0:0:0:0:
256,192,348662,1,4,0:0:0:0:
256,192,348835,1,12,0:0:0:0:
256,192,349007,1,12,0:0:0:0:
256,192,349180,1,0,0:0:0:0:
256,192,349266,1,0,0:0:0:0:
256,192,349352,1,12,0:0:0:0:
256,192,349525,1,0,0:0:0:0:
256,192,349697,1,8,0:0:0:0:
256,192,349783,1,0,0:0:0:0:
256,192,349869,1,12,0:0:0:0:
256,192,350042,1,0,0:0:0:0:
256,192,350128,1,0,0:0:0:0:
256,192,350214,1,8,0:0:0:0:
256,192,350300,1,8,0:0:0:0:
256,192,350387,1,4,0:0:0:0:
256,192,350731,1,12,0:0:0:0:
256,192,351076,1,4,0:0:0:0:
256,192,351249,1,8,0:0:0:0:
256,192,351421,1,8,0:0:0:0:
256,192,351593,1,0,0:0:0:0:
256,192,351766,1,8,0:0:0:0:
256,192,351938,1,8,0:0:0:0:
256,192,352111,1,0,0:0:0:0:
256,192,352283,1,8,0:0:0:0:
256,192,352456,1,12,0:0:0:0:
256,192,352628,12,0,363490,0:0:0:0:
