osu file format v14

[General]
AudioFilename: audio.mp3
AudioLeadIn: 0
PreviewTime: -1
Countdown: 1
SampleSet: Normal
StackLeniency: 0.7
Mode: 0
LetterboxInBreaks: 0
WidescreenStoryboard: 0

[Editor]
DistanceSpacing: 1
BeatDivisor: 4
GridSize: 8
TimelineZoom: 1

[Metadata]
Title:NANI?!
TitleUnicode:NANI?!
Artist:Family Feud
ArtistUnicode:Family Feud
Creator:despicablealex
Version:OMAE WA MOU SHINDEIRU
Source:
Tags:
BeatmapID:1507601
BeatmapSetID:713344

[Difficulty]
HPDrainRate:0
CircleSize:5.5
OverallDifficulty:7.9
ApproachRate:10
SliderMultiplier:1.4
SliderTickRate:1

[Events]
//Background and Video events
Video,0,"Nani!.mp4"
0,0,"maxresdefault (1).jpg",0,0
//Break Periods
//Storyboard Layer 0 (Background)
//Storyboard Layer 1 (Fail)
//Storyboard Layer 2 (Pass)
//Storyboard Layer 3 (Foreground)
//Storyboard Sound Samples

[TimingPoints]
0,259.74025974026,4,1,0,100,1,0
39094,85.4700854700855,4,1,0,100,1,0
40588,259.74025974026,4,1,0,100,1,0

[HitObjects]
56,136,0,5,0,0:0:0:0:
69,168,129,1,0,0:0:0:0:
88,197,259,1,0,0:0:0:0:
111,223,389,1,0,0:0:0:0:
139,245,519,1,0,0:0:0:0:
169,262,649,1,0,0:0:0:0:
202,273,779,1,0,0:0:0:0:
237,279,908,1,0,0:0:0:0:
272,279,1038,1,0,0:0:0:0:
306,274,1168,1,0,0:0:0:0:
339,263,1298,1,0,0:0:0:0:
370,246,1428,1,0,0:0:0:0:
398,224,1558,1,0,0:0:0:0:
120,184,3116,5,0,0:0:0:0:
127,217,3246,1,0,0:0:0:0:
154,238,3376,1,0,0:0:0:0:
188,238,3506,1,0,0:0:0:0:
214,216,3636,1,0,0:0:0:0:
221,182,3766,1,0,0:0:0:0:
204,152,3896,1,0,0:0:0:0:
152,208,5324,5,0,0:0:0:0:
182,224,5454,1,0,0:0:0:0:
182,224,7012,5,0,0:0:0:0:
209,245,7142,1,0,0:0:0:0:
241,257,7272,1,0,0:0:0:0:
276,257,7402,1,0,0:0:0:0:
309,245,7532,1,0,0:0:0:0:
335,222,7662,1,0,0:0:0:0:
353,192,7792,1,0,0:0:0:0:
359,158,7921,1,0,0:0:0:0:
353,124,8051,1,0,0:0:0:0:
336,93,8181,1,0,0:0:0:0:
310,71,8311,1,0,0:0:0:0:
277,58,8441,1,0,0:0:0:0:
242,58,8571,1,0,0:0:0:0:
203,78,8701,1,0,0:0:0:0:
178,108,8831,1,0,0:0:0:0:
210,136,8961,5,0,0:0:0:0:
244,130,9090,1,0,0:0:0:0:
278,137,9220,1,0,0:0:0:0:
306,157,9350,1,0,0:0:0:0:
325,186,9480,1,0,0:0:0:0:
332,220,9610,1,0,0:0:0:0:
325,255,9740,1,0,0:0:0:0:
305,283,9870,1,0,0:0:0:0:
276,303,9999,1,0,0:0:0:0:
242,310,10129,1,0,0:0:0:0:
208,303,10259,1,0,0:0:0:0:
179,285,10389,1,0,0:0:0:0:
159,256,10519,1,0,0:0:0:0:
192,231,10649,5,0,0:0:0:0:
223,246,10779,1,0,0:0:0:0:
257,246,10908,1,0,0:0:0:0:
289,231,11038,1,0,0:0:0:0:
310,203,11168,1,0,0:0:0:0:
317,169,11298,1,0,0:0:0:0:
309,136,11428,1,0,0:0:0:0:
287,109,11558,1,0,0:0:0:0:
255,95,11688,1,0,0:0:0:0:
220,96,11818,1,0,0:0:0:0:
190,112,11947,1,0,0:0:0:0:
169,140,12077,1,0,0:0:0:0:
163,174,12207,1,0,0:0:0:0:
200,200,12337,5,0,0:0:0:0:
229,181,12467,1,0,0:0:0:0:
263,178,12597,1,0,0:0:0:0:
295,191,12727,1,0,0:0:0:0:
317,218,12856,1,0,0:0:0:0:
324,252,12986,1,0,0:0:0:0:
314,285,13116,1,0,0:0:0:0:
290,310,13246,1,0,0:0:0:0:
257,321,13376,1,0,0:0:0:0:
223,315,13506,1,0,0:0:0:0:
195,294,13636,1,0,0:0:0:0:
160,192,14155,5,0,0:0:0:0:
216,208,14415,2,0,L|392:280,1,175
160,224,15779,6,0,L|344:240,1,175
224,136,17142,5,0,0:0:0:0:
280,160,17467,1,0,0:0:0:0:
328,184,17922,2,0,P|360:208|256:248,1,210
296,232,18831,5,0,0:0:0:0:
266,214,18960,1,0,0:0:0:0:
231,216,19090,1,0,0:0:0:0:
203,235,19220,1,0,0:0:0:0:
190,267,19350,1,0,0:0:0:0:
196,301,19480,1,0,0:0:0:0:
219,327,19610,1,0,0:0:0:0:
253,335,19740,1,0,0:0:0:0:
286,324,19870,1,0,0:0:0:0:
307,298,19999,1,0,0:0:0:0:
311,263,20129,1,0,0:0:0:0:
312,208,20714,2,0,L|312:64,1,140
248,72,21623,5,0,0:0:0:0:
213,74,21753,1,0,0:0:0:0:
182,91,21882,1,0,0:0:0:0:
160,117,22012,1,0,0:0:0:0:
150,151,22142,1,0,0:0:0:0:
154,185,22272,1,0,0:0:0:0:
171,216,22402,1,0,0:0:0:0:
199,237,22532,1,0,0:0:0:0:
233,245,22662,1,0,0:0:0:0:
267,240,22792,1,0,0:0:0:0:
304,224,22922,5,0,0:0:0:0:
333,206,23051,1,0,0:0:0:0:
368,208,23181,1,0,0:0:0:0:
395,228,23311,1,0,0:0:0:0:
407,261,23441,1,0,0:0:0:0:
398,294,23571,1,0,0:0:0:0:
373,317,23701,1,0,0:0:0:0:
339,322,23831,1,0,0:0:0:0:
308,307,23961,1,0,0:0:0:0:
296,272,24090,5,0,0:0:0:0:
311,241,24220,1,0,0:0:0:0:
299,210,24350,1,0,0:0:0:0:
267,199,24480,1,0,0:0:0:0:
208,224,25389,5,0,0:0:0:0:
236,242,25519,1,0,0:0:0:0:
271,243,25649,1,0,0:0:0:0:
301,226,25779,1,0,0:0:0:0:
317,196,25908,1,0,0:0:0:0:
315,161,26038,1,0,0:0:0:0:
295,133,26168,1,0,0:0:0:0:
264,119,26298,1,0,0:0:0:0:
230,124,26428,1,0,0:0:0:0:
112,336,26623,1,0,0:0:0:0:
432,80,26818,1,0,0:0:0:0:
64,80,27012,1,0,0:0:0:0:
432,328,27272,1,0,0:0:0:0:
232,192,27532,1,0,0:0:0:0:
64,72,29870,5,0,0:0:0:0:
424,336,30064,1,0,0:0:0:0:
416,64,31493,1,0,0:0:0:0:
64,336,31623,1,0,0:0:0:0:
56,48,33506,2,0,L|232:176,1,210
456,336,34090,1,0,0:0:0:0:
168,248,34350,6,0,P|264:288|256:296,1,210
64,48,35259,1,0,0:0:0:0:
408,280,35519,1,0,0:0:0:0:
104,248,37012,1,0,0:0:0:0:
99,282,37142,1,0,0:0:0:0:
110,315,37272,1,0,0:0:0:0:
134,340,37402,1,0,0:0:0:0:
166,352,37532,1,0,0:0:0:0:
201,349,37662,1,0,0:0:0:0:
231,332,37792,1,0,0:0:0:0:
250,303,37921,1,0,0:0:0:0:
255,269,38051,1,0,0:0:0:0:
245,236,38181,1,0,0:0:0:0:
222,210,38311,1,0,0:0:0:0:
96,176,39222,6,0,L|168:248,25,70
72,96,40782,6,0,L|352:320,1,350
256,192,42730,12,0,45925,0:0:0:70:The Quick Brown Fox - BRUTAL RHYTHM RIDER - 07 YEAR OF THE BAD DRAGON.mp3
