osu file format v14

[General]
AudioFilename: Oni Kanojo.mp3
AudioLeadIn: 1500
PreviewTime: 60139
Countdown: 0
SampleSet: Soft
StackLeniency: 0.7
Mode: 0
LetterboxInBreaks: 1
WidescreenStoryboard: 0

[Editor]
Bookmarks: 21526,41724,60733,61476,79743,89248,109446,128456,147466,156971
DistanceSpacing: 1.7
BeatDivisor: 4
GridSize: 4
TimelineZoom: 3.199999

[Metadata]
Title:Oni Kanojo
TitleUnicode:鬼彼女
Artist:FamiRockP
ArtistUnicode:ファミロックP
Creator:Reisen Udongein
Version:Oni
Source:
Tags:Vocaloid Kagamine Rin rui Neta
BeatmapID:506884
BeatmapSetID:215865

[Difficulty]
HPDrainRate:8
CircleSize:4
OverallDifficulty:9
ApproachRate:9.5
SliderMultiplier:1.7
SliderTickRate:2

[Events]
//Background and Video events
0,0,"BG.jpg",0,0
//Break Periods
//Storyboard Layer 0 (Background)
//Storyboard Layer 1 (Fail)
//Storyboard Layer 2 (Pass)
//Storyboard Layer 3 (Foreground)
//Storyboard Layer 4 (Overlay)
//Storyboard Sound Samples

[TimingPoints]
1328,297.029702970297,4,2,0,60,1,0
9347,-83.3333333333333,4,2,0,60,0,0
9570,-100,4,2,0,60,0,0
60139,-133.333333333333,4,2,0,60,0,0
60733,-90.9090909090909,4,2,0,60,0,1
64446,-133.333333333333,4,2,0,60,0,1
64521,-90.9090909090909,4,2,0,60,0,1
69050,-90.9090909090909,4,2,0,60,0,0
70238,-90.9090909090909,4,2,0,60,0,1
76773,-66.6666666666667,4,2,0,60,0,1
77219,-90.9090909090909,4,2,0,20,0,0
79149,-90.9090909090909,4,2,0,60,0,0
79446,-66.6666666666667,4,2,0,60,0,0
79595,-100,4,2,0,60,0,0
84496,-76.9230769230769,4,2,0,60,0,0
84941,-100,4,2,0,60,0,0
107367,-66.6666666666667,4,2,0,60,0,0
107590,-100,4,2,0,60,0,0
128456,-90.9090909090909,4,2,0,60,0,1
136773,-90.9090909090909,4,2,0,60,0,0
137961,-90.9090909090909,4,2,0,60,0,1
142417,-66.6666666666667,4,2,0,60,0,1
142639,-90.9090909090909,4,2,0,60,0,1
144496,-66.6666666666667,4,2,0,60,0,1
144941,-90.9090909090909,4,2,0,60,0,0
147169,-66.6666666666667,4,2,0,60,0,0
147318,-133.333333333333,4,2,0,60,0,0
155560,-66.6666666666667,4,2,0,60,0,0
155634,-133.333333333333,4,2,0,60,0,0

[Colours]
Combo1 : 232,64,0
Combo2 : 253,2,90
Combo3 : 182,22,250
Combo4 : 253,165,2

[HitObjects]
52,24,1328,6,0,L|44:-4,4,21.25,0|0|0|0|0,0:0|0:0|0:0|0:0|0:0,0:0:0:0:
36,132,1625,2,0,L|15:152,4,21.25,0|0|0|0|0,0:0|0:0|0:0|0:0|0:0,0:0:0:0:
136,92,1922,2,0,L|164:99,4,21.25,0|0|0|0|0,0:0|0:0|0:0|0:0|0:0,0:0:0:0:
48,316,2219,1,0,0:0:0:0:
140,364,2367,5,0,0:0:0:0:
172,276,2516,1,0,0:0:0:0:
108,208,2664,1,0,0:0:0:0:
76,296,2813,1,0,0:0:0:0:
392,288,3110,5,0,0:0:0:0:
336,104,3258,1,0,0:0:0:0:
512,140,3407,1,0,0:0:0:0:
392,288,3555,5,0,0:0:0:0:
360,200,3704,1,0,0:0:0:0:
424,132,3852,1,0,0:0:0:0:
456,220,4001,1,0,0:0:0:0:
120,184,4298,5,0,0:0:0:0:
176,0,4446,1,0,0:0:0:0:
0,36,4595,1,0,0:0:0:0:
120,184,4743,5,0,0:0:0:0:
152,96,4892,1,0,0:0:0:0:
88,28,5040,1,0,0:0:0:0:
56,116,5189,1,0,0:0:0:0:
464,344,5486,5,0,0:0:0:0:
408,204,5634,2,0,B|396:228|396:228|408:288,1,85
420,292,5931,6,0,B|408:228|408:228|416:192|416:192|412:164,1,127.5
396,152,6228,2,0,L|480:160,1,85
404,8,6526,2,0,L|360:12,1,42.5
288,20,6674,5,0,0:0:0:0:
264,52,6748,1,0,0:0:0:0:
260,92,6823,1,0,0:0:0:0:
272,128,6897,1,0,0:0:0:0:
304,152,6971,1,0,0:0:0:0:
344,304,7120,5,0,0:0:0:0:
344,304,7194,1,0,0:0:0:0:
344,304,7268,2,0,L|428:311,1,85
264,252,7565,2,0,P|200:240|140:272,1,127.5
132,284,7862,2,0,L|116:200,1,85
4,16,8159,2,0,L|12:60,1,42.5
72,108,8308,6,0,P|152:128|224:84,1,170
376,40,8753,2,0,L|464:48,1,85
488,128,8976,1,0,0:0:0:0:
488,128,9051,2,0,L|400:120,1,85
376,136,9273,1,0,0:0:0:0:
360,160,9347,6,0,B|355:196|355:196|373:219|373:219|359:248|359:248|382:274|376:303,1,152.999995330811
344,364,9644,6,0,P|328:320|300:288,1,85,0|0,0:0|0:0,0:0:0:0:
27,263,9941,2,0,P|69:272|111:265,1,85,0|0,0:0|0:0,0:0:0:0:
276,39,10238,2,0,P|248:71|233:111,1,85,0|0,0:0|0:0,0:0:0:0:
244,136,10461,1,0,0:0:0:0:
264,152,10535,2,0,L|352:148,1,85
488,312,10832,6,0,L|400:316,1,85
308,279,11129,2,0,P|300:321|313:360,1,85
211,244,11427,2,0,P|219:202|206:163,1,85
28,84,11724,1,0,0:0:0:0:
65,100,11798,1,0,0:0:0:0:
109,100,11872,1,0,0:0:0:0:
148,81,11946,1,0,0:0:0:0:
173,47,12021,6,0,L|84:56,1,85
16,160,12318,2,0,P|12:204|24:244,1,85
96,324,12615,1,0,0:0:0:0:
124,328,12689,1,0,0:0:0:0:
152,332,12763,1,0,0:0:0:0:
352,248,12912,2,0,P|310:263|279:295,1,85,0|0,0:0|0:0,3:0:0:0:
336,80,13209,5,0,0:0:0:0:
360,112,13283,1,0,0:0:0:0:
396,128,13357,1,0,0:0:0:0:
436,128,13431,1,0,0:0:0:0:
472,112,13506,2,0,L|464:28,1,85
396,252,13803,2,0,L|404:336,1,85
424,344,14026,1,0,0:0:0:0:
444,352,14100,1,0,0:0:0:0:
276,332,14248,5,0,0:0:0:0:
276,332,14323,1,0,0:0:0:0:
276,332,14397,2,0,P|236:324|192:332,1,85
24,80,14694,2,0,B|33:131|33:131|24:152|24:152|34:208,1,127.5
124,264,14991,2,0,L|108:172,1,85
191,39,15288,1,0,0:0:0:0:
230,22,15362,1,0,0:0:0:0:
271,21,15436,1,0,0:0:0:0:
313,37,15511,1,0,0:0:0:0:
339,70,15585,5,0,0:0:0:0:
347,165,15733,1,0,0:0:0:0:
272,220,15882,1,0,0:0:0:0:
265,126,16030,1,0,0:0:0:0:
468,44,16179,6,0,L|472:88,1,42.5
456,160,16327,2,0,L|460:204,1,42.5
364,368,16476,6,0,L|368:324,1,42.5
352,252,16624,2,0,L|356:208,1,42.5
336,124,16773,5,0,0:0:0:0:
304,100,16847,1,0,0:0:0:0:
268,88,16922,1,0,0:0:0:0:
232,92,16996,1,0,0:0:0:0:
200,112,17070,1,0,0:0:0:0:
164,128,17144,1,0,0:0:0:0:
124,128,17219,1,0,0:0:0:0:
92,108,17293,1,0,0:0:0:0:
84,72,17367,5,0,0:0:0:0:
104,40,17441,1,0,0:0:0:0:
140,28,17516,1,0,0:0:0:0:
176,40,17590,1,0,0:0:0:0:
192,76,17664,1,0,0:0:0:0:
180,112,17738,1,0,0:0:0:0:
156,144,17813,1,0,0:0:0:0:
140,180,17887,1,0,0:0:0:0:
140,220,17961,6,0,L|92:232,3,42.5,0|0|0|0,0:0|0:0|0:0|0:0,0:0:0:0:
80,324,18258,2,0,L|128:312,3,42.5,0|0|0|0,0:0|0:0|0:0|0:0,0:0:0:0:
196,324,18555,5,0,0:0:0:0:
232,340,18629,1,0,0:0:0:0:
272,344,18704,1,0,0:0:0:0:
308,332,18778,1,0,0:0:0:0:
340,312,18852,1,0,0:0:0:0:
376,300,18927,1,0,0:0:0:0:
412,308,19001,1,0,0:0:0:0:
444,328,19075,1,0,0:0:0:0:
476,352,19149,5,0,0:0:0:0:
456,308,19224,1,0,0:0:0:0:
452,260,19298,1,0,0:0:0:0:
464,216,19372,1,0,0:0:0:0:
496,184,19446,1,0,0:0:0:0:
504,136,19521,1,0,0:0:0:0:
492,92,19595,1,0,0:0:0:0:
460,60,19669,1,0,0:0:0:0:
416,44,19743,6,0,L|424:88,3,42.5,0|0|0|0,0:0|0:0|0:0|0:0,0:0:0:0:
336,136,20040,2,0,L|344:92,3,42.5,0|0|0|0,0:0|0:0|0:0|0:0,0:0:0:0:
276,44,20337,5,0,0:0:0:0:
240,28,20412,1,0,0:0:0:0:
200,24,20486,1,0,0:0:0:0:
164,36,20560,1,0,0:0:0:0:
136,60,20634,2,0,L|148:100,3,42.5,0|0|0|0,0:0|0:0|0:0|0:0,0:0:0:0:
68,108,20931,5,0,0:0:0:0:
60,136,21006,1,0,0:0:0:0:
52,164,21080,1,0,0:0:0:0:
44,192,21154,1,0,0:0:0:0:
36,220,21228,1,0,0:0:0:0:
28,248,21303,1,0,0:0:0:0:
20,276,21377,1,0,0:0:0:0:
12,304,21451,1,0,0:0:0:0:
4,332,21526,5,0,0:0:0:0:
162,305,21674,1,0,0:0:0:0:
57,184,21823,1,0,0:0:0:0:
56,352,21971,5,0,0:0:0:0:
196,308,22120,1,0,0:0:0:0:
324,372,22268,1,0,0:0:0:0:
460,324,22417,1,0,0:0:0:0:
384,248,22565,6,0,P|360:192|376:128,1,127.5
388,112,22862,2,0,L|476:104,1,85
300,44,23159,2,0,L|252:40,1,42.5
180,32,23308,1,0,0:0:0:0:
152,192,23456,1,0,0:0:0:0:
304,136,23605,1,0,0:0:0:0:
52,160,23753,6,0,B|72:200|56:248|56:248|100:260,1,127.5
112,268,24050,2,0,P|116:312|96:360,1,85
256,344,24347,2,0,L|304:340,1,42.5
372,360,24496,5,0,0:0:0:0:
372,360,24570,1,0,0:0:0:0:
372,360,24644,1,0,0:0:0:0:
411,349,24719,1,0,0:0:0:0:
443,325,24793,1,0,0:0:0:0:
460,288,24867,1,0,0:0:0:0:
456,244,24941,6,0,B|432:184|432:184|448:120,1,127.5
456,104,25238,2,0,L|364:108,1,85
168,176,25535,1,0,0:0:0:0:
168,176,25610,1,0,0:0:0:0:
168,176,25684,2,0,L|260:172,1,85
328,132,25981,1,0,0:0:0:0:
132,96,26129,6,0,B|93:115|69:156|76:207|109:239,1,170
108,239,26501,1,0,0:0:0:0:
108,239,26575,1,0,0:0:0:0:
216,352,26724,2,0,L|304:348,1,85
496,272,27021,1,0,0:0:0:0:
288,228,27169,1,0,0:0:0:0:
404,20,27318,1,0,0:0:0:0:
472,68,27466,6,0,L|464:156,1,85
332,328,27763,2,0,L|324:240,1,85
64,192,28060,1,0,0:0:0:0:
88,156,28134,1,0,0:0:0:0:
124,136,28209,1,0,0:0:0:0:
168,136,28283,1,0,0:0:0:0:
204,160,28357,1,0,0:0:0:0:
184,280,28506,6,0,B|166:308|166:308|124:292|74:316,1,127.5
56,312,28803,2,0,P|40:272|52:232,1,85
144,84,29100,1,0,0:0:0:0:
144,84,29174,1,0,0:0:0:0:
144,84,29248,2,0,L|236:88,1,85
456,12,29545,1,0,0:0:0:0:
372,32,29694,6,0,B|308:28|308:28|273:6|273:6|205:3,2,170,0|0|0,0:0|0:0|0:0,0:0:0:0:
228,87,30436,2,0,L|144:84,1,85
68,120,30733,1,0,0:0:0:0:
176,288,30882,6,0,B|239:291|239:291|274:313|274:313|342:316,1,170,0|0,0:0|0:0,0:0:0:0:
368,236,31328,2,0,L|316:236,1,42.5
196,368,31476,2,0,L|144:368,1,42.5
56,336,31625,5,0,0:0:0:0:
36,304,31699,1,0,0:0:0:0:
32,264,31773,1,0,0:0:0:0:
44,228,31847,1,0,0:0:0:0:
72,204,31922,1,0,0:0:0:0:
200,8,32070,6,0,P|224:64|212:128,1,127.5
200,144,32367,2,0,L|288:136,1,85
484,36,32664,1,0,0:0:0:0:
484,36,32738,1,0,0:0:0:0:
484,36,32813,2,0,L|396:44,1,85
348,124,33110,1,0,0:0:0:0:
356,216,33258,6,0,B|352:252|368:280|368:280|388:308|384:344,1,127.5
376,360,33555,2,0,P|334:369|292:365,1,85
184,316,33852,5,0,0:0:0:0:
164,312,33927,1,0,0:0:0:0:
144,308,34001,2,0,L|100:300,1,42.5
0,212,34149,2,0,L|44:204,1,42.5
112,112,34298,2,0,L|68:104,1,42.5
176,36,34446,6,0,B|220:24|260:36|260:36|296:68,1,127.5
304,84,34743,2,0,P|348:88|388:80,1,85
472,140,35040,1,0,0:0:0:0:
472,140,35115,1,0,0:0:0:0:
472,140,35189,2,0,L|480:228,1,85
424,312,35486,1,0,0:0:0:0:
162,295,35634,6,0,B|244:272|244:272|292:288,1,127.5
304,292,35931,2,0,L|288:208,1,85
96,72,36228,1,0,0:0:0:0:
96,72,36302,1,0,0:0:0:0:
96,72,36377,1,0,0:0:0:0:
28,324,36526,1,0,0:0:0:0:
256,376,36674,1,0,0:0:0:0:
216,212,36823,1,0,0:0:0:0:
228,44,36971,6,0,P|268:36|316:48,1,85
488,160,37268,2,0,P|448:168|400:156,1,85
384,120,37491,1,0,0:0:0:0:
404,84,37565,5,0,0:0:0:0:
484,216,37714,1,0,0:0:0:0:
408,348,37862,1,0,0:0:0:0:
308,304,38011,6,0,P|224:292|144:320,1,170
34,239,38456,2,0,B|24:184|24:184|40:160,1,85
156,32,38753,2,0,B|172:56|172:56|160:120,1,85
20,144,39050,1,0,0:0:0:0:
288,76,39199,6,0,P|376:64|448:104,1,170
396,220,39644,1,0,0:0:0:0:
436,340,39793,1,0,0:0:0:0:
436,340,39867,1,0,0:0:0:0:
436,340,39941,2,0,L|448:256,1,85
384,136,40238,2,0,P|344:128|296:140,1,85
76,212,40535,5,0,0:0:0:0:
60,252,40610,1,0,0:0:0:0:
72,292,40684,1,0,0:0:0:0:
108,316,40758,1,0,0:0:0:0:
152,312,40832,1,0,0:0:0:0:
180,280,40907,1,0,0:0:0:0:
180,236,40981,1,0,0:0:0:0:
160,196,41055,1,0,0:0:0:0:
132,164,41129,6,0,L|88:172,1,42.5
24,256,41278,6,0,L|32:300,1,42.5
124,352,41427,6,0,L|168:344,1,42.5,0|0,0:0|0:0,0:0:0:0:
224,256,41575,6,0,L|216:212,1,42.5,0|0,0:0|0:0,0:0:0:0:
192,68,41724,6,0,B|152:84|124:68|124:68|104:92|104:92|72:72|32:84,1,170
116,192,42169,1,0,0:0:0:0:
272,28,42318,1,0,0:0:0:0:
96,12,42466,1,0,0:0:0:0:
24,316,42615,1,0,0:0:0:0:
208,292,42763,1,0,0:0:0:0:
320,316,42912,6,0,B|360:300|388:316|388:316|408:292|408:292|440:312|480:300,1,170
396,192,43357,1,0,0:0:0:0:
240,356,43506,1,0,0:0:0:0:
416,372,43654,1,0,0:0:0:0:
488,68,43803,1,0,0:0:0:0:
304,92,43951,1,0,0:0:0:0:
140,40,44100,5,0,0:0:0:0:
168,212,44248,1,0,0:0:0:0:
324,112,44397,2,0,L|232:104,1,85
132,236,44694,5,0,0:0:0:0:
112,356,44842,1,0,0:0:0:0:
3,286,44991,2,0,L|90:273,1,85
252,332,45288,5,0,0:0:0:0:
288,308,45362,1,0,0:0:0:0:
332,304,45436,1,0,0:0:0:0:
372,320,45511,1,0,0:0:0:0:
396,352,45585,1,0,0:0:0:0:
468,248,45733,1,0,0:0:0:0:
468,248,45808,1,0,0:0:0:0:
468,248,45882,2,0,L|460:164,1,85
459,163,46179,6,0,L|416:166,1,42.5
237,33,46328,2,0,L|279:29,1,42.5
424,81,46476,6,0,B|360:86|360:86|326:109|326:109|254:115,1,170
116,104,46922,1,0,0:0:0:0:
116,104,46996,1,0,0:0:0:0:
116,104,47070,2,0,B|116:160|116:160|132:188,1,85
78,345,47367,2,0,B|78:289|78:289|64:264,1,85
192,304,47664,5,0,0:0:0:0:
488,320,47813,1,0,0:0:0:0:
384,380,47961,1,0,0:0:0:0:
432,192,48110,1,0,0:0:0:0:
432,192,48184,1,0,0:0:0:0:
432,192,48258,2,0,L|424:104,1,85
87,107,48555,2,0,L|80:192,1,85
72,276,48778,5,0,0:0:0:0:
72,276,48852,2,0,P|112:288|152:276,1,85
440,276,49149,2,0,P|400:288|360:276,1,85
124,144,49446,1,0,0:0:0:0:
320,64,49595,1,0,0:0:0:0:
192,64,49743,1,0,0:0:0:0:
388,144,49892,1,0,0:0:0:0:
396,288,50040,5,0,0:0:0:0:
360,308,50115,1,0,0:0:0:0:
316,312,50189,1,0,0:0:0:0:
276,300,50263,1,0,0:0:0:0:
248,272,50337,1,0,0:0:0:0:
208,260,50412,1,0,0:0:0:0:
164,264,50486,1,0,0:0:0:0:
124,280,50560,1,0,0:0:0:0:
96,312,50634,6,0,L|144:304,1,42.5
200,232,50783,2,0,L|248:224,1,42.5
280,340,50931,2,0,L|328:332,1,42.5
380,268,51080,2,0,L|428:260,1,42.5
484,200,51228,6,0,P|500:136|480:80,1,127.5
464,64,51526,2,0,L|380:60,1,85
340,136,51748,1,0,0:0:0:0:
340,136,51823,2,0,L|424:140,1,85
268,72,52120,1,0,0:0:0:0:
104,248,52268,1,0,0:0:0:0:
28,200,52417,6,0,P|12:136|32:80,1,127.5
48,64,52715,2,0,L|132:60,1,85
172,136,52937,1,0,0:0:0:0:
172,136,53012,2,0,L|88:140,1,85
188,224,53308,1,0,0:0:0:0:
204,308,53456,1,0,0:0:0:0:
132,356,53605,5,0,0:0:0:0:
200,200,53753,1,0,0:0:0:0:
304,336,53902,1,0,0:0:0:0:
184,288,54050,1,0,0:0:0:0:
132,124,54199,5,0,0:0:0:0:
232,20,54347,1,0,0:0:0:0:
324,208,54496,1,0,0:0:0:0:
416,120,54644,1,0,0:0:0:0:
496,200,54793,6,0,L|504:288,1,85
408,232,55090,2,0,L|416:320,1,85
404,336,55313,1,0,0:0:0:0:
392,352,55387,2,0,L|348:348,1,42.5
272,364,55535,2,0,L|228:360,1,42.5
152,372,55684,1,0,0:0:0:0:
116,340,55758,1,0,0:0:0:0:
104,296,55832,1,0,0:0:0:0:
116,252,55907,1,0,0:0:0:0:
152,220,55981,5,0,0:0:0:0:
244,240,56129,1,0,0:0:0:0:
180,308,56278,1,0,0:0:0:0:
152,220,56427,1,0,0:0:0:0:
276,336,56575,5,0,0:0:0:0:
368,328,56724,1,0,0:0:0:0:
444,272,56872,1,0,0:0:0:0:
472,184,57021,1,0,0:0:0:0:
452,92,57169,5,0,0:0:0:0:
333,10,57318,2,0,L|336:32,1,21.25
344,160,57466,1,0,0:0:0:0:
452,92,57615,1,0,0:0:0:0:
320,168,57763,5,0,0:0:0:0:
244,132,57912,1,0,0:0:0:0:
160,136,58060,1,0,0:0:0:0:
96,192,58209,1,0,0:0:0:0:
60,268,58357,6,0,L|72:356,1,85
176,384,58654,2,0,L|164:296,1,85
236,216,58951,1,0,0:0:0:0:
268,196,59026,1,0,0:0:0:0:
304,188,59100,1,0,0:0:0:0:
344,188,59174,1,0,0:0:0:0:
380,196,59248,1,0,0:0:0:0:
412,216,59323,1,0,0:0:0:0:
440,244,59397,1,0,0:0:0:0:
456,280,59471,1,0,0:0:0:0:
464,316,59545,1,0,0:0:0:0:
464,316,60139,6,0,B|465:267|488:242|488:242|455:224|455:224|469:195|471:151,1,191.250007295609
432,52,60733,6,0,L|336:56,1,93.5000028533936
80,180,61030,1,0,0:0:0:0:
180,151,61179,2,0,P|184:105|169:61,1,93.5000028533936
104,224,61476,2,0,P|192:248|272:204,1,187.000005706787
292,188,61847,1,0,0:0:0:0:
312,172,61922,6,0,L|300:268,1,93.5000028533936
220,344,62219,1,0,0:0:0:0:
340,72,62367,2,0,P|388:72|432:88,1,93.5000028533936
485,370,62664,2,0,B|508:300|456:260|456:260|464:196,1,187.000005706787
460,172,63035,1,0,0:0:0:0:
456,148,63110,6,0,P|412:144|364:156,1,93.5000028533936
296,356,63407,2,0,L|284:260,1,93.5000028533936,0|0,0:0|0:0,0:0:0:0:
192,244,63629,1,0,0:0:0:0:
192,244,63704,2,0,L|204:340,1,93.5000028533936,0|0,0:0|0:0,0:0:0:0:
203,336,64001,6,0,L|144:344,1,46.7500014266968
296,356,64149,2,0,L|355:348,1,46.7500014266968
428,308,64298,5,0,0:0:0:0:
432,284,64372,1,0,0:0:0:0:
436,260,64446,2,0,L|456:236,1,31.8750012159348
484,152,64595,5,0,0:0:0:0:
468,116,64669,1,0,0:0:0:0:
452,80,64743,2,0,L|404:72,1,46.7500014266968
328,112,64892,5,0,0:0:0:0:
288,136,64966,1,0,0:0:0:0:
244,148,65040,1,0,0:0:0:0:
200,136,65115,1,0,0:0:0:0:
168,100,65189,1,0,0:0:0:0:
124,84,65263,1,0,0:0:0:0:
76,92,65337,1,0,0:0:0:0:
36,116,65412,1,0,0:0:0:0:
12,156,65486,6,0,L|24:248,1,93.5000028533936
32,332,65783,1,0,0:0:0:0:
100,24,65931,2,0,B|120:60|120:60|100:160,1,140.25000428009
92,180,66228,1,0,0:0:0:0:
220,304,66377,1,0,0:0:0:0:
256,316,66451,1,0,0:0:0:0:
292,304,66526,1,0,0:0:0:0:
500,156,66674,6,0,L|488:248,1,93.5000028533936
480,332,66971,1,0,0:0:0:0:
412,24,67119,2,0,B|392:60|392:60|412:160,1,140.25000428009
420,180,67416,1,0,0:0:0:0:
252,104,67565,1,0,0:0:0:0:
220,88,67639,1,0,0:0:0:0:
184,84,67714,1,0,0:0:0:0:
148,92,67788,1,0,0:0:0:0:
120,120,67862,6,0,L|128:216,1,93.5000028533936
172,40,68159,2,0,P|128:28|76:40,1,93.5000028533936
252,104,68456,2,0,P|296:116|342:106,1,93.5000028533936
364,96,68679,1,0,0:0:0:0:
384,84,68753,2,0,L|372:180,1,93.5000028533936
48,212,69050,5,0,0:0:0:0:
44,232,69125,1,0,0:0:0:0:
40,252,69199,1,0,0:0:0:0:
36,272,69273,1,0,0:0:0:0:
120,260,69347,5,0,0:0:0:0:
116,280,69422,1,0,0:0:0:0:
112,300,69496,1,0,0:0:0:0:
108,320,69570,1,0,0:0:0:0:
180,364,69644,5,0,0:0:0:0:
220,376,69719,1,0,0:0:0:0:
264,376,69793,1,0,0:0:0:0:
304,368,69867,1,0,0:0:0:0:
344,352,69941,1,0,0:0:0:0:
376,324,70016,1,0,0:0:0:0:
400,288,70090,1,0,0:0:0:0:
408,248,70164,1,0,0:0:0:0:
408,204,70238,6,0,L|316:220,1,93.5000028533936
224,264,70535,1,0,0:0:0:0:
480,284,70684,2,0,P|512:200|472:116,1,187.000005706787
456,104,71055,1,0,0:0:0:0:
436,96,71129,2,0,L|340:104,1,93.5000028533936
112,232,71427,6,0,L|208:224,1,93.5000028533936
396,68,71724,1,0,0:0:0:0:
336,140,71872,2,0,B|264:146|264:146|223:133|223:133|147:140,1,187.000005706787
128,144,72243,1,0,0:0:0:0:
104,148,72318,2,0,L|84:196,1,46.7500014266968
64,268,72466,2,0,L|44:316,1,46.7500014266968
112,356,72615,6,0,P|160:356|200:332,1,93.5000028533936
400,356,72912,2,0,P|352:356|312:332,1,93.5000028533936
292,260,73134,1,0,0:0:0:0:
344,208,73209,5,0,0:0:0:0:
443,239,73357,1,0,0:0:0:0:
444,346,73505,1,0,0:0:0:0:
343,378,73654,1,0,0:0:0:0:
281,292,73802,5,0,0:0:0:0:
256,296,73877,1,0,0:0:0:0:
232,300,73951,2,0,L|216:344,1,46.7500014266968
52,244,74100,5,0,0:0:0:0:
77,248,74175,1,0,0:0:0:0:
101,252,74249,2,0,L|117:296,1,46.7500014266968
176,208,74397,5,0,0:0:0:0:
204,172,74471,1,0,0:0:0:0:
216,128,74545,1,0,0:0:0:0:
212,80,74620,1,0,0:0:0:0:
184,40,74694,1,0,0:0:0:0:
52,244,74842,6,0,L|56:292,1,46.7500014266968
112,348,74991,2,0,P|156:360|204:352,1,93.5000028533936
328,172,75288,2,0,L|320:268,1,93.5000028533936
300,280,75511,1,0,0:0:0:0:
280,292,75585,1,0,0:0:0:0:
240,136,75733,5,0,0:0:0:0:
316,80,75881,1,0,0:0:0:0:
404,116,76030,1,0,0:0:0:0:
404,116,76105,1,0,0:0:0:0:
404,116,76179,2,0,L|500:120,1,93.5000028533936
480,260,76476,2,0,B|484:324|484:324|500:348,1,93.5000028533936
376,340,76773,6,0,P|352:312|328:296,1,63.7500024318696
260,268,76922,6,0,P|228:264|196:264,1,63.7500024318696
120,276,77070,6,0,P|88:284|60:304,1,63.7500024318696
4,348,77219,6,0,B|0:319|0:319|18:305|18:305|-2:282|-2:282|24:261|24:261|12:232|22:189,1,187.000005706787,0|0,0:0|0:0,0:0:0:0:
168,40,77664,2,0,P|164:84|176:136,1,93.5000028533936
244,196,77961,2,0,L|344:192,1,93.5000028533936
440,40,78258,1,0,0:0:0:0:
344,292,78407,1,0,0:0:0:0:
408,360,78555,6,0,P|452:364|500:352,1,93.5000028533936
296,324,78852,2,0,P|252:320|204:332,1,93.5000028533936
76,360,79149,2,0,B|92:300|92:300|84:268,1,93.5000028533936
40,200,79372,1,0,0:0:0:0:
24,212,79446,6,0,B|20:168|20:168|40:128|40:128|36:88,1,127.500004863739
256,48,79892,6,0,L|344:56,1,85
448,212,80337,1,0,0:0:0:0:
480,292,80486,1,0,0:0:0:0:
420,352,80634,1,0,0:0:0:0:
288,176,80783,6,0,L|372:172,1,85
504,376,81080,1,0,0:0:0:0:
388,272,81228,1,0,0:0:0:0:
56,156,81526,1,0,0:0:0:0:
24,236,81675,1,0,0:0:0:0:
84,296,81823,1,0,0:0:0:0:
216,120,81972,6,0,L|132:116,1,85
0,320,82269,1,0,0:0:0:0:
116,216,82417,1,0,0:0:0:0:
456,60,82714,1,0,0:0:0:0:
488,140,82863,1,0,0:0:0:0:
428,200,83011,1,0,0:0:0:0:
396,120,83159,1,0,0:0:0:0:
512,224,83308,6,0,L|504:312,1,85
428,200,83605,2,0,L|420:288,1,85,0|0,0:0|0:0,0:0:0:0:
256,376,83902,2,0,L|248:288,1,85,0|0,0:0|0:0,0:0:0:0:
40,256,84199,2,0,P|84:260|124:248,1,85
220,40,84496,6,0,B|184:52|184:52|144:48|144:48|176:72,1,110.499994941712
45,143,84793,2,0,B|81:131|81:131|121:135|121:135|96:116,1,110.499994941712
56,40,85090,1,0,0:0:0:0:
32,244,85238,2,0,P|64:320|148:336,1,170
232,340,85684,5,0,0:0:0:0:
248,324,85758,1,0,0:0:0:0:
272,308,85832,1,0,0:0:0:0:
308,292,85907,1,0,0:0:0:0:
348,284,85981,1,0,0:0:0:0:
400,284,86055,1,0,0:0:0:0:
456,304,86129,1,0,0:0:0:0:
508,352,86204,1,0,0:0:0:0:
508,352,86278,6,0,L|516:308,1,42.5,0|0,0:0|0:0,0:0:0:0:
400,284,86427,6,0,L|392:239,1,42.5,0|0,0:0|0:0,0:0:0:0:
308,292,86575,6,0,L|285:253,1,42.5,0|0,0:0|0:0,0:0:0:0:
232,340,86724,6,0,L|197:311,1,42.5,0|0,0:0|0:0,3:0:0:0:
104,264,86872,6,0,L|116:176,1,85
196,156,87169,2,0,P|115:177|44:136,1,170
216,68,87615,1,0,0:0:0:0:
104,264,87763,1,0,0:0:0:0:
4,68,87912,2,0,L|20:112,1,42.5
44,180,88060,5,0,0:0:0:0:
92,160,88134,1,0,0:0:0:0:
144,160,88209,1,0,0:0:0:0:
192,180,88283,1,0,0:0:0:0:
220,212,88357,5,0,0:0:0:0:
256,236,88431,1,0,0:0:0:0:
300,244,88506,1,0,0:0:0:0:
344,240,88580,1,0,0:0:0:0:
376,224,88654,5,0,0:0:0:0:
380,192,88728,1,0,0:0:0:0:
384,160,88803,1,0,0:0:0:0:
388,128,88877,1,0,0:0:0:0:
392,104,88951,5,0,0:0:0:0:
416,100,89026,1,0,0:0:0:0:
440,96,89100,1,0,0:0:0:0:
464,92,89174,1,0,0:0:0:0:
488,88,89248,6,0,L|484:172,1,85
408,348,89545,1,0,0:0:0:0:
336,300,89694,2,0,B|316:272|316:272|316:168|316:168|296:140,1,170
140,60,90139,1,0,0:0:0:0:
140,60,90288,6,0,P|152:120|120:184,1,127.5
125,178,90585,2,0,L|39:171,1,85
112,344,90882,1,0,0:0:0:0:
112,344,90956,1,0,0:0:0:0:
112,344,91030,2,0,L|197:337,1,85
268,292,91327,1,0,0:0:0:0:
232,216,91476,6,0,B|248:88|248:88|264:128,1,170
312,292,91922,1,0,0:0:0:0:
384,336,92070,1,0,0:0:0:0:
512,264,92219,5,0,0:0:0:0:
312,292,92367,1,0,0:0:0:0:
112,324,92516,1,0,0:0:0:0:
40,280,92664,6,0,B|64:216|64:216|48:156,1,127.5
44,140,92961,2,0,L|132:148,1,85
432,76,93258,2,0,B|360:52|300:80|300:80|336:88,1,170
488,244,93704,2,0,B|480:216|480:216|484:192|484:192|480:160,1,85
316,88,94001,5,0,0:0:0:0:
324,64,94075,1,0,0:0:0:0:
332,40,94149,2,0,L|288:52,1,42.5
212,100,94298,5,0,0:0:0:0:
191,84,94372,1,0,0:0:0:0:
171,69,94446,2,0,L|168:114,1,42.5
196,204,94595,5,0,0:0:0:0:
174,219,94669,1,0,0:0:0:0:
153,233,94743,2,0,L|195:249,1,42.5,0|0,0:0|0:0,0:0:0:0:
288,252,94892,5,0,0:0:0:0:
295,277,94966,1,0,0:0:0:0:
302,301,95040,2,0,L|330:265,1,42.5,0|0,0:0|0:0,0:0:0:0:
360,180,95189,5,0,0:0:0:0:
302,301,95337,1,0,0:0:0:0:
152,232,95486,1,0,0:0:0:0:
172,68,95634,1,0,0:0:0:0:
332,40,95783,5,0,0:0:0:0:
368,32,95857,1,0,0:0:0:0:
408,32,95931,1,0,0:0:0:0:
444,44,96006,1,0,0:0:0:0:
472,68,96080,1,0,0:0:0:0:
248,92,96228,6,0,B|184:96|184:96|152:120|152:120|84:124,1,170
40,120,96600,1,0,0:0:0:0:
12,84,96674,2,0,L|24:0,1,85
112,232,96971,2,0,P|115:274|104:316,1,85
24,348,97268,1,0,0:0:0:0:
188,336,97417,6,0,B|216:343|252:335|252:335|284:311|284:311|316:303|348:311,2,170,0|0|0,0:0|0:0|0:0,0:0:0:0:
120,248,98159,2,0,P|164:244|208:252,1,85
416,368,98456,1,0,0:0:0:0:
424,220,98605,6,0,B|431:191|423:155|423:155|399:123|399:123|391:91|399:59,1,170,0|0,0:0|0:0,0:0:0:0:
480,32,99050,2,0,L|476:100,1,42.5
344,200,99199,2,0,L|340:268,1,42.5
288,324,99347,5,0,0:0:0:0:
248,344,99422,1,0,0:0:0:0:
208,352,99496,1,0,0:0:0:0:
164,348,99570,1,0,0:0:0:0:
124,332,99644,1,0,0:0:0:0:
20,104,99793,6,0,B|31:167|31:167|22:209|22:209|33:271,1,170
208,352,100238,1,0,0:0:0:0:
298,328,100387,1,0,0:0:0:0:
304,235,100535,1,0,0:0:0:0:
217,200,100684,1,0,0:0:0:0:
157,272,100832,1,0,0:0:0:0:
236,376,100981,5,0,0:0:0:0:
340,315,101130,1,0,0:0:0:0:
317,196,101278,1,0,0:0:0:0:
196,182,101427,1,0,0:0:0:0:
145,292,101575,1,0,0:0:0:0:
298,328,101724,5,0,0:0:0:0:
320,220,101872,1,0,0:0:0:0:
344,112,102021,1,0,0:0:0:0:
366,4,102169,6,0,L|340:132,1,127.5
340,128,102466,2,0,P|376:148|420:148,1,85
500,120,102763,1,0,0:0:0:0:
204,84,102912,1,0,0:0:0:0:
164,72,102986,1,0,0:0:0:0:
120,72,103060,1,0,0:0:0:0:
80,88,103134,1,0,0:0:0:0:
48,120,103209,1,0,0:0:0:0:
72,232,103357,6,0,B|80:304|80:304|120:344|172:320,1,170
332,290,103803,2,0,P|290:283|248:288,1,85
384,356,104100,1,0,0:0:0:0:
408,324,104174,1,0,0:0:0:0:
416,284,104248,1,0,0:0:0:0:
404,244,104323,1,0,0:0:0:0:
372,216,104397,1,0,0:0:0:0:
332,208,104471,1,0,0:0:0:0:
292,220,104545,1,0,0:0:0:0:
264,252,104620,1,0,0:0:0:0:
252,292,104694,6,0,L|340:284,1,85
464,228,104991,1,0,0:0:0:0:
484,192,105065,1,0,0:0:0:0:
484,148,105139,1,0,0:0:0:0:
472,108,105214,1,0,0:0:0:0:
436,84,105288,6,0,L|440:136,1,42.5
460,208,105436,2,0,L|464:260,1,42.5
488,332,105585,1,0,0:0:0:0:
320,348,105733,6,0,B|268:348|236:368|236:368|204:352|152:356,1,170
80,316,106179,2,0,L|72:232,1,85
136,172,106476,1,0,0:0:0:0:
68,336,106625,1,0,0:0:0:0:
16,92,106773,1,0,0:0:0:0:
88,44,106922,6,0,B|92:52|92:52|96:44|96:44|100:52|100:52|104:44|104:44|160:56|160:56|236:32,1,170
484,112,107367,6,0,B|460:144|460:144|440:104|440:104|424:152|424:152|400:104|400:104|392:108,1,191.250007295609
352,40,107664,5,0,0:0:0:0:
300,140,107813,1,0,0:0:0:0:
312,248,107961,1,0,0:0:0:0:
384,332,108110,1,0,0:0:0:0:
484,376,108258,6,0,L|492:292,1,85
388,192,108555,2,0,P|348:188|304:200,1,85
145,307,108852,2,0,P|187:311|228:300,1,85
200,272,109075,1,0,0:0:0:0:
164,260,109149,1,0,0:0:0:0:
124,260,109224,1,0,0:0:0:0:
88,272,109298,1,0,0:0:0:0:
60,300,109372,1,0,0:0:0:0:
48,336,109446,6,0,L|36:164,1,170
172,32,109892,2,0,B|160:100|160:100|196:136|188:192,1,170
328,316,110337,1,0,0:0:0:0:
364,300,110412,1,0,0:0:0:0:
400,296,110486,1,0,0:0:0:0:
436,308,110560,1,0,0:0:0:0:
464,336,110634,6,0,L|476:164,1,170
340,32,111080,2,0,B|352:100|352:100|316:136|324:192,1,170
184,316,111526,1,0,0:0:0:0:
148,300,111601,1,0,0:0:0:0:
112,296,111675,1,0,0:0:0:0:
76,308,111749,1,0,0:0:0:0:
48,336,111823,5,0,0:0:0:0:
12,108,111971,1,0,0:0:0:0:
232,184,112120,2,0,L|148:192,1,85
444,188,112417,5,0,0:0:0:0:
469,28,112565,1,0,0:0:0:0:
315,81,112714,2,0,L|402:90,1,85
444,188,113011,5,0,0:0:0:0:
448,216,113085,1,0,0:0:0:0:
452,244,113159,1,0,0:0:0:0:
456,272,113233,1,0,0:0:0:0:
460,300,113308,1,0,0:0:0:0:
340,368,113456,1,0,0:0:0:0:
340,368,113530,1,0,0:0:0:0:
340,368,113605,2,0,P|328:324|340:288,1,85
452,164,113902,2,0,P|464:208|452:244,1,85
304,224,114199,6,0,B|260:228|220:212|220:212|180:236,1,127.5
164,248,114496,2,0,L|148:156,1,85
160,144,114719,1,0,0:0:0:0:
168,124,114793,2,0,L|152:32,1,85
36,112,115090,6,0,L|28:160,1,42.5
24,240,115238,2,0,L|16:288,1,42.5
64,352,115387,6,0,P|104:360|152:348,1,85
216,300,115684,1,0,0:0:0:0:
460,240,115832,2,0,B|392:216|328:252|328:252|368:260,1,170
392,252,116204,1,0,0:0:0:0:
412,224,116278,1,0,0:0:0:0:
416,192,116352,1,0,0:0:0:0:
408,160,116427,1,0,0:0:0:0:
388,132,116501,1,0,0:0:0:0:
356,120,116575,6,0,L|272:128,1,85
156,264,116872,2,0,L|240:256,1,85
156,24,117169,2,0,L|164:112,1,85
356,360,117466,2,0,L|348:272,1,85
344,200,117689,5,0,0:0:0:0:
344,200,117763,1,0,0:0:0:0:
480,268,117912,1,0,0:0:0:0:
356,360,118060,1,0,0:0:0:0:
216,292,118209,1,0,0:0:0:0:
76,352,118357,1,0,0:0:0:0:
24,236,118506,5,0,0:0:0:0:
12,196,118580,1,0,0:0:0:0:
8,152,118654,1,0,0:0:0:0:
16,112,118728,1,0,0:0:0:0:
36,76,118803,1,0,0:0:0:0:
68,48,118877,1,0,0:0:0:0:
108,32,118951,6,0,P|124:92|100:152,1,127.5
84,164,119248,2,0,L|0:156,1,85
156,116,119471,1,0,0:0:0:0:
156,116,119545,2,0,L|240:124,1,85
340,172,119842,1,0,0:0:0:0:
408,260,119991,1,0,0:0:0:0:
404,352,120139,6,0,P|388:292|412:232,1,127.5
428,220,120436,2,0,L|512:228,1,85
356,268,120659,1,0,0:0:0:0:
356,268,120733,2,0,L|272:260,1,85
248,176,121030,1,0,0:0:0:0:
228,92,121179,1,0,0:0:0:0:
296,40,121327,5,0,0:0:0:0:
232,100,121476,1,0,0:0:0:0:
152,124,121625,1,0,0:0:0:0:
68,112,121773,1,0,0:0:0:0:
8,52,121922,5,0,0:0:0:0:
152,4,122070,1,0,0:0:0:0:
304,24,122219,1,0,0:0:0:0:
420,120,122367,1,0,0:0:0:0:
440,272,122516,6,0,L|448:360,1,85
356,384,122813,2,0,L|348:296,1,85
336,280,123035,1,0,0:0:0:0:
324,264,123110,2,0,L|276:268,1,42.5
204,236,123258,2,0,L|156:240,1,42.5
92,192,123407,1,0,0:0:0:0:
72,156,123481,1,0,0:0:0:0:
68,112,123555,1,0,0:0:0:0:
80,72,123629,1,0,0:0:0:0:
112,44,123704,5,0,0:0:0:0:
96,144,123852,1,0,0:0:0:0:
84,244,124001,1,0,0:0:0:0:
44,152,124149,1,0,0:0:0:0:
8,56,124298,5,0,0:0:0:0:
201,126,124446,1,0,0:0:0:0:
3,183,124595,1,0,0:0:0:0:
130,20,124743,1,0,0:0:0:0:
123,227,124892,6,0,L|104:268,2,28.3333333333333
32,88,125115,6,0,L|8:56,2,28.3333333333333
184,80,125337,6,0,L|232:72,2,28.3333333333333
312,84,125486,5,0,0:0:0:0:
380,136,125634,1,0,0:0:0:0:
412,216,125783,1,0,0:0:0:0:
396,300,125931,1,0,0:0:0:0:
340,364,126080,5,0,0:0:0:0:
328,324,126154,1,0,0:0:0:0:
336,284,126228,1,0,0:0:0:0:
360,248,126303,1,0,0:0:0:0:
400,236,126377,1,0,0:0:0:0:
308,32,126526,5,0,0:0:0:0:
312,52,126600,1,0,0:0:0:0:
312,72,126674,2,0,P|304:96|292:112,1,42.5
232,152,126823,2,0,P|212:164|188:168,1,42.5
120,180,126971,2,0,P|96:180|76:176,1,42.5
8,148,127120,1,0,0:0:0:0:
32,76,127194,1,0,0:0:0:0:
60,4,127268,5,0,0:0:0:0:
72,176,127417,1,0,0:0:0:0:
80,344,127565,2,0,L|56:364,4,21.25,0|0|0|0|0,0:0|0:0|0:0|0:0|0:0,0:0:0:0:
368,256,127862,6,0,P|392:308|386:248,1,148.75
344,232,128159,5,0,0:0:0:0:
330,306,128234,1,0,0:0:0:0:
397,342,128308,1,0,0:0:0:0:
452,289,128382,1,0,0:0:0:0:
419,221,128456,6,0,L|408:128,1,93.5000028533936
448,44,128753,1,0,0:0:0:0:
312,160,128902,2,0,B|300:236|300:236|280:260|280:260|264:344,1,187.000005706787
176,360,129347,1,0,0:0:0:0:
132,376,129422,1,0,0:0:0:0:
84,380,129496,1,0,0:0:0:0:
40,360,129570,1,0,0:0:0:0:
16,320,129644,6,0,L|112:332,1,93.5000028533936
192,288,129941,1,0,0:0:0:0:
416,92,130090,2,0,L|404:140,1,46.7500014266968
336,188,130238,6,0,P|320:144|332:100,1,93.5000028533936
472,184,130535,2,0,P|488:228|476:272,1,93.5000028533936
416,316,130758,1,0,0:0:0:0:
344,300,130832,6,0,B|296:316|256:284|256:284|220:316|168:300,1,187.000005706787
84,212,131278,1,0,0:0:0:0:
212,116,131427,2,0,L|196:212,1,93.5000028533936
324,364,131724,2,0,L|308:268,1,93.5000028533936
344,204,131946,5,0,0:0:0:0:
344,204,132021,1,0,0:0:0:0:
472,44,132169,1,0,0:0:0:0:
484,280,132318,2,0,L|492:376,1,93.5000028533936
472,364,132540,1,0,0:0:0:0:
452,356,132615,6,0,L|448:288,1,46.7500014266968,0|0,0:0|0:0,0:0:0:0:
488,236,132763,2,0,L|484:168,1,46.7500014266968,0|0,0:0|0:0,0:0:0:0:
476,104,132912,1,0,0:0:0:0:
432,120,132986,1,0,0:0:0:0:
384,120,133060,1,0,0:0:0:0:
340,100,133134,1,0,0:0:0:0:
316,60,133209,6,0,L|408:76,1,93.5000028533936
296,32,133506,1,0,0:0:0:0:
372,16,133580,1,0,0:0:0:0:
440,56,133654,1,0,0:0:0:0:
192,16,133803,5,0,0:0:0:0:
168,24,133877,1,0,0:0:0:0:
148,32,133951,1,0,0:0:0:0:
124,40,134026,1,0,0:0:0:0:
104,48,134100,1,0,0:0:0:0:
140,200,134248,1,0,0:0:0:0:
172,348,134397,6,0,L|80:364,1,93.5000028533936
192,320,134694,1,0,0:0:0:0:
116,300,134768,1,0,0:0:0:0:
48,344,134842,1,0,0:0:0:0:
280,280,134991,5,0,0:0:0:0:
308,268,135065,1,0,0:0:0:0:
340,264,135139,1,0,0:0:0:0:
372,268,135214,1,0,0:0:0:0:
404,280,135288,1,0,0:0:0:0:
488,196,135436,1,0,0:0:0:0:
488,196,135511,1,0,0:0:0:0:
488,196,135585,6,0,P|492:152|480:104,1,93.5000028533936
388,112,135882,2,0,P|344:128|296:120,1,93.5000028533936
236,76,136105,1,0,0:0:0:0:
216,60,136179,2,0,L|228:152,1,93.5000028533936
280,208,136402,1,0,0:0:0:0:
300,192,136476,2,0,L|288:284,1,93.5000028533936
464,172,136773,5,0,0:0:0:0:
468,152,136848,1,0,0:0:0:0:
472,132,136922,1,0,0:0:0:0:
476,112,136996,1,0,0:0:0:0:
392,124,137070,5,0,0:0:0:0:
396,104,137145,1,0,0:0:0:0:
400,84,137219,1,0,0:0:0:0:
404,64,137293,1,0,0:0:0:0:
332,20,137367,5,0,0:0:0:0:
292,8,137442,1,0,0:0:0:0:
248,8,137516,1,0,0:0:0:0:
208,16,137590,1,0,0:0:0:0:
168,32,137664,1,0,0:0:0:0:
136,60,137739,1,0,0:0:0:0:
112,96,137813,1,0,0:0:0:0:
104,136,137887,1,0,0:0:0:0:
104,180,137961,6,0,L|196:164,1,93.5000028533936
288,120,138258,1,0,0:0:0:0:
32,100,138407,2,0,P|0:184|40:268,1,187.000005706787
56,280,138778,1,0,0:0:0:0:
76,288,138852,2,0,L|172:280,1,93.5000028533936
428,104,139149,6,0,L|336:88,1,93.5000028533936
244,44,139446,1,0,0:0:0:0:
500,24,139595,2,0,P|532:108|492:192,1,187.000005706787
476,204,139966,1,0,0:0:0:0:
456,212,140040,2,0,L|408:208,1,46.7500014266968
336,228,140189,2,0,L|288:224,1,46.7500014266968
216,244,140337,6,0,P|212:292|228:340,1,93.5000028533936
44,176,140634,2,0,P|112:184|160:132,1,140.25000428009
176,120,140931,2,0,B|160:76|160:76|172:28,1,93.5000028533936
348,56,141228,1,0,0:0:0:0:
256,72,141377,1,0,0:0:0:0:
112,304,141526,5,0,0:0:0:0:
20,288,141674,1,0,0:0:0:0:
200,252,141823,2,0,B|216:296|216:296|204:344,1,93.5000028533936
188,328,142045,1,0,0:0:0:0:
172,312,142120,6,0,L|124:316,1,46.7500014266968
16,232,142268,2,0,L|62:228,1,46.7500014266968
344,172,142417,6,0,P|272:116|176:144,1,191.250007295609
156,140,142714,6,0,B|144:168|144:168|154:230,1,93.5000028533936
64,128,143011,2,0,B|76:100|76:100|64:32,1,93.5000028533936
136,20,143233,1,0,0:0:0:0:
156,8,143308,2,0,P|201:-1|247:6,1,93.5000028533936
312,40,143530,1,0,0:0:0:0:
380,72,143605,2,0,P|425:79|471:70,1,93.5000028533936
464,48,143828,1,0,0:0:0:0:
456,28,143902,6,0,L|444:128,1,93.5000028533936
480,208,144199,2,0,L|468:308,1,93.5000028533936
136,340,144496,6,0,P|160:312|184:296,1,63.7500024318696
252,268,144645,6,0,P|284:264|316:264,1,63.7500024318696
392,276,144793,6,0,P|424:284|452:304,1,63.7500024318696
508,348,144942,6,0,B|512:319|512:319|494:305|494:305|514:282|514:282|488:261|488:261|500:232|490:189,1,187.000005706787,0|0,0:0|0:0,0:0:0:0:
344,40,145387,2,0,P|348:84|336:136,1,93.5000028533936
268,196,145684,2,0,L|168:192,1,93.5000028533936
72,40,145981,1,0,0:0:0:0:
168,292,146130,1,0,0:0:0:0:
104,360,146278,6,0,P|60:364|12:352,1,93.5000028533936
216,324,146575,2,0,P|260:320|308:332,1,93.5000028533936
436,360,146872,2,0,B|420:300|420:300|428:268,1,93.5000028533936
472,200,147095,1,0,0:0:0:0:
488,212,147169,6,0,B|492:168|492:168|472:128|472:128|476:88,1,127.500004863739
72,328,147615,6,0,L|140:328,1,63.7500024318696
444,256,148060,2,0,L|376:256,1,63.7500024318696
328,200,148357,1,0,0:0:0:0:
372,136,148506,6,0,B|388:164|388:164|412:184,1,63.7500024318696
468,264,148803,6,0,B|435:263|435:263|406:274,1,63.7500024318696
312,284,149100,6,0,B|328:256|328:256|333:225,2,63.7500024318696,0|0|0,0:0|0:0|3:0,0:0:0:0:
216,344,149545,1,0,0:0:0:0:
192,340,149620,1,0,0:0:0:0:
168,336,149694,1,0,0:0:0:0:
64,268,149842,5,0,0:0:0:0:
52,192,149991,1,0,0:0:0:0:
40,116,150139,1,0,0:0:0:0:
128,220,150288,5,0,0:0:0:0:
116,144,150437,1,0,0:0:0:0:
104,68,150585,1,0,0:0:0:0:
188,172,150733,5,0,0:0:0:0:
64,268,150882,1,0,0:0:0:0:
40,116,151030,5,0,0:0:0:0:
64,112,151105,1,0,0:0:0:0:
88,108,151179,1,0,0:0:0:0:
112,104,151253,1,0,0:0:0:0:
136,100,151328,2,0,L|156:40,1,63.7500024318696
272,24,151625,5,0,0:0:0:0:
304,12,151699,1,0,0:0:0:0:
340,8,151773,1,0,0:0:0:0:
376,16,151847,1,0,0:0:0:0:
404,36,151922,2,0,L|392:104,1,63.7500024318696
416,192,152219,6,0,L|480:188,1,63.7500024318696,0|0,0:0|0:0,0:0:0:0:
356,360,152516,2,0,P|331:301|344:240,1,127.500004863739
416,192,152961,2,0,L|480:188,1,63.7500024318696,0|0,0:0|0:0,0:0:0:0:
167,240,153258,6,0,P|180:301|156:360,1,127.500004863739
32,188,153704,2,0,L|96:192,1,63.7500024318696,0|0,0:0|0:0,0:0:0:0:
272,144,154001,1,0,0:0:0:0:
400,132,154149,1,0,0:0:0:0:
388,4,154298,1,0,0:0:0:0:
260,16,154446,1,0,0:0:0:0:
456,232,154595,6,0,L|464:296,1,63.7500024318696
372,264,154892,1,0,0:0:0:0:
373,279,154966,1,0,0:0:0:0:
375,295,155040,1,0,0:0:0:0:
377,311,155114,1,0,0:0:0:0:
379,327,155189,6,0,B|332:340|332:340|284:332,1,95.6250036478044
216,276,155486,1,0,0:0:0:0:
204,292,155560,6,0,L|140:284,1,63.7500024318696
256,192,155783,12,0,156971,0:0:0:0:
