osu file format v14

[General]
AudioFilename: audio.mp3
AudioLeadIn: 0
PreviewTime: 87471
Countdown: 0
SampleSet: Soft
StackLeniency: 0.5
Mode: 0
LetterboxInBreaks: 0
EpilepsyWarning: 1
WidescreenStoryboard: 1

[Editor]
Bookmarks: 0,22325,44651,66976,78140,89302,111628,133953,156279,178605,189767,200930,223256,234420,245582,267908,290233,312559
DistanceSpacing: 1.4
BeatDivisor: 3
GridSize: 32
TimelineZoom: 1.699999

[Metadata]
Title:Skyshards
TitleUnicode:Skyshards
Artist:False Noise
ArtistUnicode:False Noise
Creator:Shiirn
Version:Shroud
Source:
Tags:Hyperlight EP Mir dnb ambient cinematic dnb drum and bass electronic experimental garage neuro Boulder nanobuilder
BeatmapID:1282209
BeatmapSetID:606995

[Difficulty]
HPDrainRate:7.4
CircleSize:4
OverallDifficulty:9
ApproachRate:9.4
SliderMultiplier:2
SliderTickRate:1

[Events]
//Background and Video events
0,0,"zeriphen.png",0,0
//Break Periods
//Storyboard Layer 0 (Background)
//Storyboard Layer 1 (Fail)
//Storyboard Layer 2 (Pass)
//Storyboard Layer 3 (Foreground)
//Storyboard Sound Samples

[TimingPoints]
0,348.837209302326,3,2,1,5,1,0
0,-200,3,2,1,5,0,0
697,-200,3,2,1,15,0,0
3023,-200,3,2,1,25,0,0
9186,-250,3,2,1,40,0,0
9709,-333.333333333333,3,2,1,40,0,0
16744,348.837209302326,3,2,1,40,1,0
16744,-333.333333333333,3,2,1,40,0,0
22325,348.837209302326,3,2,1,40,1,0
22325,-333.333333333333,3,2,1,40,0,0
27906,348.837209302326,3,2,1,40,1,0
27906,-333.333333333333,3,2,1,40,0,0
33487,348.837209302326,3,2,1,40,1,0
33487,-333.333333333333,3,2,1,40,0,0
39068,348.837209302326,3,2,1,40,1,0
39068,-333.333333333333,3,2,1,40,0,0
44649,348.837209302326,4,3,1,40,1,0
44649,-200,4,3,1,40,0,0
60521,-66.6666666666667,4,3,1,40,0,1
60608,-66.6666666666667,4,3,1,40,0,0
61044,-66.6666666666667,4,3,1,40,0,1
61742,-200,4,3,1,40,0,0
67325,377.358490566038,4,2,1,40,1,0
67702,400,4,2,1,40,1,0
68102,402.684563758389,4,2,1,40,1,0
68504,434.782608695652,4,2,1,40,1,0
68938,461.538461538462,4,2,1,40,1,0
69399,466.926070038911,4,2,1,40,1,0
69865,582.52427184466,4,2,1,40,1,0
70447,641.711229946524,4,2,1,40,1,0
71088,659.340659340659,4,2,1,40,1,0
71747,895.522388059701,4,2,1,40,1,0
72642,1016.94915254237,4,2,1,40,1,0
73150,1071.42857142857,4,2,1,40,1,0
73685,1363.63636363636,4,2,1,40,1,0
74366,1818.18181818181,4,2,1,40,1,0
75275,2866.01385240029,4,2,1,40,1,0
78140,348.837209302326,4,3,1,40,1,0
87907,-76.9230769230769,4,3,1,40,0,0
88256,-181.818181818181,4,3,1,40,0,0
88605,-66.6666666666667,4,3,1,40,0,0
88953,-181.818181818181,4,3,1,40,0,0
89128,-181.818181818181,4,3,1,5,0,0
89215,-181.818181818181,4,3,1,40,0,0
89302,-83.3333333333333,4,3,1,40,0,0
89651,-125,4,3,1,40,0,0
90000,-100,4,3,1,40,0,0
91744,-125,4,3,1,40,0,0
91919,-83.3333333333333,4,3,1,40,0,0
92442,-100,4,3,1,40,0,0
94884,-83.3333333333333,4,3,1,40,0,0
95233,-125,4,3,1,40,0,0
95581,-100,4,3,1,40,0,0
97326,-125,4,3,1,40,0,0
97500,-83.3333333333333,4,3,1,40,0,0
98023,-100,4,3,1,40,0,0
100465,-83.3333333333333,4,3,1,40,0,0
100814,-125,4,3,1,40,0,0
101163,-100,4,3,1,40,0,0
102907,-125,4,3,1,40,0,0
103081,-83.3333333333333,4,3,1,40,0,0
103605,-100,4,3,1,40,0,0
106046,-83.3333333333333,4,3,1,40,0,0
106395,-125,4,3,1,40,0,0
106744,-100,4,3,1,40,0,0
108488,-125,4,3,1,40,0,0
108662,-83.3333333333333,4,3,1,40,0,0
110233,-125,4,3,1,40,0,0
110581,-200,4,3,1,40,0,0
111628,-66.6666666666667,4,3,1,40,0,0
112151,-125,4,3,1,40,0,0
112762,-100,4,3,1,40,0,0
113023,-66.6666666666667,4,3,1,40,0,0
113634,-200,4,3,1,40,0,0
114419,-66.6666666666667,4,3,1,40,0,0
114942,-125,4,3,1,40,0,0
115814,-66.6666666666667,4,3,1,40,0,0
116250,-83.3333333333333,4,3,1,40,0,0
116512,-100,4,3,1,40,0,0
116860,-133.333333333333,4,3,1,40,0,0
117209,-66.6666666666667,4,3,1,40,0,0
117733,-125,4,3,1,40,0,0
118343,-100,4,3,1,40,0,0
118605,-66.6666666666667,4,3,1,40,0,0
119215,-200,4,3,1,40,0,0
120000,-66.6666666666667,4,3,1,40,0,0
120523,-125,4,3,1,40,0,0
121395,-66.6666666666667,4,3,1,40,0,0
121831,-83.3333333333333,4,3,1,40,0,0
122093,-100,4,3,1,40,0,0
122442,-133.333333333333,4,3,1,40,0,0
122791,-66.6666666666667,4,3,1,40,0,0
123314,-125,4,3,1,40,0,0
123924,-100,4,3,1,40,0,0
124186,-66.6666666666667,4,3,1,40,0,0
124796,-200,4,3,1,40,0,0
125581,-66.6666666666667,4,3,1,40,0,0
126105,-125,4,3,1,40,0,0
126715,-100,4,3,1,40,0,0
126977,-66.6666666666667,4,3,1,40,0,0
127326,-83.3333333333333,4,3,1,40,0,0
127674,-100,4,3,1,40,0,0
128023,-133.333333333333,4,3,1,40,0,0
128372,-66.6666666666667,4,3,1,40,0,0
128895,-125,4,3,1,40,0,0
129506,-100,4,3,1,40,0,0
129767,-66.6666666666667,4,3,1,40,0,0
130378,-200,4,3,1,40,0,0
131163,-66.6666666666667,4,3,1,40,0,0
131686,-200,4,3,1,40,0,0
132558,-250,4,2,1,40,0,0
133953,-100,4,2,1,40,0,0
134767,-100,4,2,1,40,0,1
135698,-100,4,3,1,40,0,0
135959,-200,4,3,1,40,0,0
136744,-100,4,3,1,40,0,0
141541,-200,4,3,1,40,0,0
141977,-100,4,3,1,40,0,0
147122,-200,4,3,1,40,0,0
147558,-100,4,3,1,40,0,0
152703,-200,4,3,1,40,0,0
153140,-100,4,3,1,40,0,0
155233,-68.9655172413793,4,3,1,40,0,0
155363,-76.9230769230769,4,3,1,40,0,0
155494,-86.9565217391304,4,3,1,40,0,0
155625,-100,4,3,1,40,0,0
155756,-117.647058823529,4,3,1,40,0,0
155887,-142.857142857143,4,3,1,40,0,0
156017,-181.818181818182,4,3,1,40,0,0
156148,-250,4,3,1,40,0,0
156279,-1000,4,2,0,40,0,0
156366,-1000,4,2,0,10,0,0
176163,-333.333333333333,4,2,0,40,0,0
178605,-200,4,3,1,40,0,0
178953,-100,4,3,1,40,0,0
180436,-50,4,3,1,40,0,1
180698,-66.6666666666667,4,3,1,40,0,1
181395,-133.333333333333,4,3,1,40,0,0
182093,-100,4,3,1,40,0,1
183488,-100,4,3,1,40,0,0
184186,-133.333333333333,4,3,1,40,0,0
184535,-100,4,3,1,40,0,0
186017,-50,4,3,1,40,0,1
186279,-66.6666666666667,4,3,1,40,0,1
186977,-133.333333333333,4,3,1,40,0,0
187674,-100,4,3,1,40,0,0
189767,-200,4,3,1,40,0,0
190116,-100,4,3,1,40,0,0
191599,-50,4,3,1,40,0,1
191860,-66.6666666666667,4,3,1,40,0,1
192558,-125,4,3,1,40,0,0
193256,-50,4,3,1,40,0,1
194651,-100,4,3,1,40,0,0
195349,-200,4,3,1,40,0,0
195698,-100,4,3,1,40,0,0
196744,-66.6666666666667,4,3,1,40,0,0
197267,-50,4,3,1,40,0,1
197616,-100,4,3,1,40,0,1
197791,-66.6666666666667,4,3,1,40,0,1
198140,-66.6666666666667,4,3,1,40,0,0
198837,-100,4,3,1,40,0,0
199535,-142.857142857143,4,3,1,40,0,0
200058,-200,4,3,1,40,0,0
200930,348.837209302326,3,2,1,10,1,0
200930,-333.333333333333,4,2,1,10,0,0
206511,348.837209302326,3,2,1,15,1,0
206511,-333.333333333333,3,2,1,15,0,0
212092,348.837209302326,3,2,1,20,1,0
212092,-303.030303030303,4,2,1,20,0,0
217673,348.837209302326,3,2,1,25,1,0
217673,-263.157894736842,4,2,1,25,0,0
223254,348.837209302326,4,3,1,40,1,0
223605,377.358490566038,4,2,1,40,1,0
223982,400,4,2,1,40,1,0
224382,402.684563758389,4,2,1,40,1,0
224784,434.782608695652,4,2,1,40,1,0
225218,461.538461538462,4,2,1,40,1,0
225679,466.926070038911,4,2,1,40,1,0
226145,582.52427184466,4,2,1,40,1,0
226727,641.711229946524,4,2,1,40,1,0
227368,659.340659340659,4,2,1,40,1,0
228027,895.522388059701,4,2,1,40,1,0
228922,1016.94915254237,4,2,1,40,1,0
229430,1071.42857142857,4,2,1,40,1,0
229965,1363.63636363636,4,2,1,40,1,0
230646,1818.18181818182,4,2,1,40,1,0
231555,2866.01385240029,4,2,1,40,1,0
234420,348.837209302326,4,3,1,40,1,0
234420,-100,4,3,1,40,0,0
244187,-76.9230769230769,4,3,1,40,0,0
244536,-181.818181818181,4,3,1,40,0,0
244885,-66.6666666666667,4,3,1,40,0,0
245233,-181.818181818181,4,3,1,40,0,0
245408,-181.818181818181,4,3,1,5,0,0
245495,-181.818181818181,4,3,1,40,0,0
245582,-83.3333333333333,4,3,1,40,0,0
245931,-125,4,3,1,40,0,0
246280,-100,4,3,1,40,0,0
248024,-125,4,3,1,40,0,0
248199,-83.3333333333333,4,3,1,40,0,0
248722,-100,4,3,1,40,0,0
251164,-83.3333333333333,4,3,1,40,0,0
251513,-125,4,3,1,40,0,0
251861,-100,4,3,1,40,0,0
253606,-125,4,3,1,40,0,0
253780,-83.3333333333333,4,3,1,40,0,0
254303,-100,4,3,1,40,0,0
256745,-83.3333333333333,4,3,1,40,0,0
257094,-125,4,3,1,40,0,0
257443,-100,4,3,1,40,0,0
259187,-125,4,3,1,40,0,0
259361,-83.3333333333333,4,3,1,40,0,0
259885,-100,4,3,1,40,0,0
262326,-83.3333333333333,4,3,1,40,0,0
262675,-125,4,3,1,40,0,0
263024,-100,4,3,1,40,0,0
264768,-125,4,3,1,40,0,0
264942,-83.3333333333333,4,3,1,40,0,0
267559,-125,4,3,1,40,0,0
267908,-66.6666666666667,4,3,1,40,0,0
268431,-125,4,3,1,40,0,0
269042,-100,4,3,1,40,0,0
269303,-66.6666666666667,4,3,1,40,0,0
269914,-200,4,3,1,40,0,0
270699,-66.6666666666667,4,3,1,40,0,0
271222,-125,4,3,1,40,0,0
272094,-66.6666666666667,4,3,1,40,0,0
272530,-83.3333333333333,4,3,1,40,0,0
272792,-100,4,3,1,40,0,0
273140,-133.333333333333,4,3,1,40,0,0
273489,-66.6666666666667,4,3,1,40,0,0
274013,-125,4,3,1,40,0,0
274623,-100,4,3,1,40,0,0
274885,-66.6666666666667,4,3,1,40,0,0
275495,-200,4,3,1,40,0,0
276280,-66.6666666666667,4,3,1,40,0,0
276803,-125,4,3,1,40,0,0
277675,-66.6666666666667,4,3,1,40,0,0
278111,-83.3333333333333,4,3,1,40,0,0
278373,-100,4,3,1,40,0,0
278722,-133.333333333333,4,3,1,40,0,0
279071,-66.6666666666667,4,3,1,40,0,0
279594,-125,4,3,1,40,0,0
280204,-100,4,3,1,40,0,0
280466,-66.6666666666667,4,3,1,40,0,0
281076,-200,4,3,1,40,0,0
281861,-66.6666666666667,4,3,1,40,0,0
282385,-125,4,3,1,40,0,0
282995,-100,4,3,1,40,0,0
283257,-66.6666666666667,4,3,1,40,0,0
283606,-83.3333333333333,4,3,1,40,0,0
283954,-100,4,3,1,40,0,0
284303,-133.333333333333,4,3,1,40,0,0
284652,-66.6666666666667,4,3,1,40,0,0
285175,-125,4,3,1,40,0,0
285786,-100,4,3,1,40,0,0
286047,-66.6666666666667,4,3,1,40,0,0
286658,-200,4,3,1,40,0,0
287443,-66.6666666666667,4,3,1,40,0,0
287966,-200,4,3,1,40,0,0
288838,-250,4,2,1,40,0,0
290233,-100,4,2,1,40,0,0
291106,-100,4,2,1,40,0,1
291978,-100,4,3,1,40,0,0
292239,-200,4,3,1,40,0,0
293111,-66.6666666666667,4,3,1,40,0,0
293809,-100,4,3,1,40,0,0
295902,-66.6666666666667,4,3,1,40,0,0
296076,-71.4285714285714,4,3,1,40,0,0
296251,-76.9230769230769,4,3,1,40,0,0
296425,-83.3333333333333,4,3,1,40,0,0
296600,-100,4,3,1,40,0,0
297821,-200,4,3,1,40,0,0
298693,-66.6666666666667,4,3,1,40,0,0
299390,-100,4,3,1,40,0,0
301483,-66.6666666666667,4,3,1,40,0,0
301658,-71.4285714285714,4,3,1,40,0,0
301832,-76.9230769230769,4,3,1,40,0,0
302007,-83.3333333333333,4,3,1,40,0,0
302181,-100,4,3,1,40,0,0
303402,-200,4,3,1,40,0,0
304274,-66.6666666666667,4,3,1,40,0,0
304972,-100,4,3,1,40,0,0
307065,-66.6666666666667,4,3,1,40,0,0
307240,-71.4285714285714,4,3,1,40,0,0
307414,-76.9230769230769,4,3,1,40,0,0
307589,-83.3333333333333,4,3,1,40,0,0
307763,-100,4,3,1,40,0,0
308983,-200,4,3,1,40,0,0
309856,-66.6666666666667,4,3,1,40,0,0
310553,-100,4,3,1,40,0,0
311513,-68.9655172413793,4,3,1,40,0,0
311643,-76.9230769230769,4,3,1,40,0,0
311774,-86.9565217391304,4,3,1,40,0,0
311905,-100,4,3,1,40,0,0
312036,-117.647058823529,4,3,1,40,0,0
312167,-142.857142857143,4,3,1,40,0,0
312297,-181.818181818182,4,3,1,40,0,0
312428,-250,4,3,1,40,0,0

[Colours]
Combo1 : 221,221,221
Combo2 : 124,219,224
Combo3 : 85,162,255
Combo4 : 255,225,240

[HitObjects]
93,106,0,6,0,B|142:106|179:94|214:29|214:29|285:27|285:27|278:83|248:120|248:120|305:92|354:104|354:104|405:149|495:110|495:110|446:171|398:135|361:156|361:156|336:168,1,750
381,251,3023,6,0,B|339:265|306:259|270:221|270:221|297:290|298:314|267:348|267:348|238:311|189:257|93:267|93:267|126:270|147:285,1,500
144,283,6104,5,0,0:0:0:0:
154,293,7093,1,0,0:0:0:0:
163,309,8604,6,0,B|228:293|227:332|305:309,1,125
356,260,9186,2,0,P|356:223|319:177,1,80
379,277,9709,2,0,P|379:240|369:215,1,59.9999981689454
407,307,10174,2,0,P|416:271|415:255,1,44.999998626709
411,341,10639,1,0,0:0:0:0:
256,192,11162,12,0,16569,0:0:0:0:
333,281,16744,6,0,P|332:295|337:310,2,29.9999990844727
381,126,17267,2,0,P|386:108|382:85,2,29.9999990844727
357,204,17790,5,0,0:0:0:0:
320,185,17964,1,0,0:0:0:0:
302,147,18139,1,0,0:0:0:0:
292,108,18313,1,0,0:0:0:0:
274,70,18488,1,0,0:0:0:0:
237,51,18662,1,0,0:0:0:0:
164,36,18837,5,0,0:0:0:0:
197,61,19011,1,0,0:0:0:0:
233,81,19185,1,0,0:0:0:0:
274,81,19360,1,0,0:0:0:0:
312,64,19534,1,0,0:0:0:0:
342,35,19709,1,0,0:0:0:0:
416,95,19883,5,0,0:0:0:0:
375,87,20058,1,0,0:0:0:0:
334,78,20232,1,0,0:0:0:0:
477,106,20406,5,0,0:0:0:0:
436,115,20580,1,0,0:0:0:0:
395,123,20755,1,0,0:0:0:0:
409,227,20930,5,0,0:0:0:0:
368,218,21104,1,0,0:0:0:0:
327,210,21279,1,0,0:0:0:0:
266,199,21453,1,0,0:0:0:0:
307,190,21627,1,0,0:0:0:0:
348,182,21802,1,0,0:0:0:0:
320,100,21976,5,0,0:0:0:0:
332,59,22151,1,0,0:0:0:0:
171,264,22325,6,0,P|179:250|194:243,1,29.9999990844727
236,82,22673,2,0,P|244:96|242:112,1,29.9999990844727
360,229,23022,2,0,P|344:229|331:220,1,29.9999990844727
361,133,23371,5,0,0:0:0:0:
424,69,23545,1,0,0:0:0:0:
447,156,23720,1,0,0:0:0:0:
333,222,23894,5,0,0:0:0:0:
252,218,24069,1,0,0:0:0:0:
183,261,24243,1,0,0:0:0:0:
375,300,24418,6,0,L|380:262,1,29.9999990844727
252,218,24766,2,0,L|255:247,1,29.9999990844727
383,308,25115,1,0,0:0:0:0:
383,308,25290,1,0,0:0:0:0:
357,185,25464,5,0,0:0:0:0:
294,249,25638,1,0,0:0:0:0:
271,162,25813,1,0,0:0:0:0:
212,85,25987,5,0,0:0:0:0:
260,145,26162,1,0,0:0:0:0:
268,222,26336,1,0,0:0:0:0:
182,313,26511,6,0,L|170:273,1,29.9999990844727
260,145,26859,2,0,L|248:182,1,29.9999990844727
197,75,27208,1,0,0:0:0:0:
197,75,27383,1,0,0:0:0:0:
48,154,27557,5,0,0:0:0:0:
111,90,27731,1,0,0:0:0:0:
41,147,27906,5,0,0:0:0:0:
117,99,28080,1,0,0:0:0:0:
121,189,28254,1,0,0:0:0:0:
70,303,28429,2,0,P|60:284|58:264,1,29.9999990844727
112,199,28778,1,0,0:0:0:0:
145,322,28952,5,0,0:0:0:0:
214,287,29126,1,0,0:0:0:0:
248,216,29301,1,0,0:0:0:0:
299,152,29475,1,0,0:0:0:0:
333,81,29650,1,0,0:0:0:0:
402,46,29824,1,0,0:0:0:0:
485,201,29999,6,0,P|495:211|510:215,1,29.9999990844727
427,69,30347,2,0,P|431:54|427:40,1,29.9999990844727
342,184,30696,2,0,P|327:187|317:199,1,29.9999990844727
181,163,31045,5,0,0:0:0:0:
147,234,31219,1,0,0:0:0:0:
78,269,31394,1,0,0:0:0:0:
224,270,31568,5,0,0:0:0:0:
155,235,31743,1,0,0:0:0:0:
121,164,31917,1,0,0:0:0:0:
153,72,32092,5,0,0:0:0:0:
228,89,32266,1,0,0:0:0:0:
303,108,32440,1,0,0:0:0:0:
382,86,32615,1,0,0:0:0:0:
363,161,32789,1,0,0:0:0:0:
345,236,32964,1,0,0:0:0:0:
457,162,33138,5,0,0:0:0:0:
380,154,33312,1,0,0:0:0:0:
470,155,33487,5,0,0:0:0:0:
392,149,33661,1,0,0:0:0:0:
320,180,33835,1,0,0:0:0:0:
275,243,34010,1,0,0:0:0:0:
199,262,34184,1,0,0:0:0:0:
123,242,34359,1,0,0:0:0:0:
253,170,34533,5,0,0:0:0:0:
284,242,34707,1,0,0:0:0:0:
278,320,34882,1,0,0:0:0:0:
114,249,35056,5,0,0:0:0:0:
190,269,35231,1,0,0:0:0:0:
266,250,35405,1,0,0:0:0:0:
471,189,35580,5,0,0:0:0:0:
397,165,35754,1,0,0:0:0:0:
320,180,35928,1,0,0:0:0:0:
275,243,36103,1,0,0:0:0:0:
196,244,36277,1,0,0:0:0:0:
127,207,36452,1,0,0:0:0:0:
339,101,36626,5,0,0:0:0:0:
313,175,36800,1,0,0:0:0:0:
390,160,36975,1,0,0:0:0:0:
232,95,37149,5,0,0:0:0:0:
195,165,37324,1,0,0:0:0:0:
196,244,37498,1,0,0:0:0:0:
331,305,37673,5,0,0:0:0:0:
317,228,37847,1,0,0:0:0:0:
304,150,38021,1,0,0:0:0:0:
344,77,38196,1,0,0:0:0:0:
421,91,38370,1,0,0:0:0:0:
499,104,38545,1,0,0:0:0:0:
343,318,38719,5,0,0:0:0:0:
329,241,38893,1,0,0:0:0:0:
351,324,39068,5,0,0:0:0:0:
279,293,39242,1,0,0:0:0:0:
205,317,39416,1,0,0:0:0:0:
127,330,39591,1,0,0:0:0:0:
54,301,39765,1,0,0:0:0:0:
8,237,39940,1,0,0:0:0:0:
57,91,40114,5,0,0:0:0:0:
132,72,40288,1,0,0:0:0:0:
207,93,40463,1,0,0:0:0:0:
267,141,40637,1,0,0:0:0:0:
317,199,40812,1,0,0:0:0:0:
392,216,40986,1,0,0:0:0:0:
330,45,41161,5,0,0:0:0:0:
259,79,41335,1,0,0:0:0:0:
232,152,41509,1,0,0:0:0:0:
168,197,41684,1,0,0:0:0:0:
93,219,41858,1,0,0:0:0:0:
16,205,42033,1,0,0:0:0:0:
73,337,42207,5,0,0:0:0:0:
133,288,42381,1,0,0:0:0:0:
149,211,42556,1,0,0:0:0:0:
376,171,42730,5,0,0:0:0:0:
300,153,42905,1,0,0:0:0:0:
227,180,43079,1,0,0:0:0:0:
376,321,43254,5,0,0:0:0:0:
286,310,43428,1,0,0:0:0:0:
196,300,43602,1,0,0:0:0:0:
106,290,43777,1,0,0:0:0:0:
365,333,43951,6,0,B|358:318|358:318|359:283|359:283|353:248|353:248|365:247|363:259,1,104.999996795654,8|0,0:3|0:0,0:0:0:0:
374,268,44649,5,4,0:2:0:0:
199,36,44997,2,0,P|172:74|168:110,1,75,8|0,0:1|0:0,0:0:0:0:
213,208,45346,2,0,P|205:171|182:143,1,75,8|0,0:0|0:0,0:0:0:0:
196,250,45695,2,0,P|169:288|165:324,1,75
176,359,46044,1,0,0:0:0:0:
173,223,46218,5,0,0:0:0:0:
147,222,46305,1,0,0:0:0:0:
122,221,46393,1,8,0:1:0:0:
43,183,46567,1,0,0:0:0:0:
151,211,46742,1,8,0:0:0:0:
185,119,46916,2,0,B|176:90|180:77|180:77|196:46|196:46|203:80,1,100
304,96,47439,5,4,0:2:0:0:
333,86,47962,1,0,0:0:0:0:
343,270,48137,2,0,L|344:220,1,50,8|0,0:0|0:0,0:0:0:0:
312,94,48486,2,0,L|313:143,1,50
127,270,49009,5,0,0:0:0:0:
122,245,49096,1,0,0:0:0:0:
117,220,49183,1,8,0:1:0:0:
99,137,49358,1,0,0:0:0:0:
136,243,49532,2,0,L|200:243,1,50,8|0,0:0|0:0,0:0:0:0:
272,218,49881,1,0,0:0:0:0:
318,140,50055,1,0,0:0:0:0:
279,229,50230,6,0,L|281:319,1,75,4|0,0:2|0:0,0:0:0:0:
356,345,50579,2,0,P|319:337|283:345,1,75,4|0,0:0|0:0,0:0:0:0:
399,358,50928,2,0,L|457:363,1,50,8|0,0:0|0:0,0:0:0:0:
345,225,51276,2,0,L|287:230,1,50
174,45,51800,5,0,0:0:0:0:
173,69,51887,1,0,0:0:0:0:
172,93,51974,2,0,B|172:112|172:112|168:127|168:127|169:163,1,50,8|0,0:1|0:0,0:0:0:0:
130,250,52323,2,0,L|127:275,4,16.6666666666667,8|2|0|2|0,0:0|0:0|0:0|0:0|0:0,0:0:0:0:
175,176,52672,2,0,L|172:151,4,16.6666666666667,8|2|0|2|0,0:0|0:0|0:0|0:0|0:0,0:0:0:0:
226,236,53021,5,4,0:2:0:0:
160,175,53195,2,0,B|136:165|136:165|135:171|135:171|92:156|53:177,1,100
95,297,53718,2,0,B|99:277|99:277|95:264|95:264|101:231,1,50,8|0,0:0|0:0,0:0:0:0:
95,89,54067,6,0,L|93:69,7,16.6666666666667,0|2|0|2|0|2|0|2,0:0|0:0|0:0|0:0|0:0|0:0|0:0|0:0,0:0:0:0:
178,113,54590,5,0,0:0:0:0:
202,115,54678,1,0,0:0:0:0:
226,119,54765,2,0,L|274:124,1,25,8|0,0:1|0:0,0:0:0:0:
331,36,54939,1,0,0:0:0:0:
201,138,55114,2,0,P|194:176|206:206,1,50,8|0,0:0|0:0,0:0:0:0:
241,264,55462,1,0,0:0:0:0:
326,292,55637,1,0,0:0:0:0:
229,276,55811,6,0,B|191:271|191:271|140:279,1,75,4|0,0:2|0:0,0:0:0:0:
48,308,56160,2,0,B|85:314|85:314|123:309,1,75,4|0,0:0|0:0,0:0:0:0:
28,278,56509,2,0,B|49:196|41:135|-21:141|-38:163|-26:214|17:198,1,200,8|0,0:0|0:0,0:0:0:0:
245,139,57381,5,0,0:0:0:0:
244,163,57468,1,0,0:0:0:0:
242,185,57556,1,4,0:0:0:0:
411,169,57730,1,0,0:0:0:0:
224,164,57904,2,0,P|174:168|157:158,1,50,8|0,0:0|0:0,0:0:0:0:
130,56,58253,1,0,0:0:0:0:
39,56,58428,1,0,0:0:0:0:
126,80,58602,5,4,0:2:0:0:
124,106,59125,1,0,0:0:0:0:
90,259,59300,1,8,0:0:0:0:
149,98,59474,2,0,L|191:96,1,25,0|0,0:0|0:0,0:0:0:0:
281,165,59649,2,0,L|216:163,1,50,0|0,0:0|0:0,0:0:0:0:
181,90,59998,1,0,0:0:0:0:
437,46,60172,5,0,0:0:0:0:
449,89,60259,1,0,0:0:0:0:
443,134,60346,1,0,0:0:0:0:
380,237,60521,6,0,P|296:262|240:214,1,150.000005722046,0|8,0:0|0:0,0:0:0:0:
226,137,60870,2,0,P|247:185|202:253,1,75.0000028610231,0|0,0:0|0:0,0:0:0:0:
12,245,61044,2,0,B|86:196|86:196|168:217|168:217|70:254,1,225.000008583069,0|0,0:0|0:0,0:0:0:0:
113,250,61393,6,0,B|264:192|264:192|245:297,1,225.000008583069,4|0,0:2|0:0,0:0:0:0:
333,289,61742,6,0,B|296:274|296:274|241:277,1,75,4|0,0:0|0:0,0:0:0:0:
162,328,62091,2,0,L|237:319,1,75,8|0,0:0|0:0,0:0:0:0:
141,368,62439,2,0,L|66:358,1,75,0|0,0:0|0:0,0:0:0:0:
22,346,62788,5,0,0:0:0:0:
94,82,62963,1,0,0:0:0:0:
95,106,63050,1,0,0:0:0:0:
97,130,63137,2,0,B|104:152|104:152|97:162|97:162|99:197,1,50,4|0,0:0|0:0,0:0:0:0:
242,243,63486,2,0,P|200:231|179:232,1,50,8|0,0:0|0:0,0:0:0:0:
213,48,63835,1,4,0:0:0:0:
273,119,64009,1,0,0:0:0:0:
194,312,64184,6,0,B|229:286|229:286|315:286|315:286|355:321,1,175,4|0,0:2|0:0,0:0:0:0:
271,368,64881,1,8,0:0:0:0:
169,162,65230,6,0,L|142:155,7,16.6666666666667,0|0|0|0|0|0|0|0,0:0|0:2|0:0|0:2|0:0|0:2|0:0|0:2,0:0:0:0:
259,80,65753,1,0,0:0:0:0:
284,78,65841,1,0,0:0:0:0:
308,75,65928,2,0,L|353:71,1,25,4|0,0:0|0:0,0:0:0:0:
425,150,66102,1,0,0:0:0:0:
282,52,66277,2,0,L|215:52,1,50,8|0,0:0|0:0,0:0:0:0:
144,71,66625,1,0,0:0:0:0:
86,140,66800,1,0,0:0:0:0:
77,151,66974,6,0,P|66:177|84:221,1,75,4|4,0:0|0:0,0:0:0:0:
168,199,67325,5,0,0:0:0:0:
248,194,67513,1,0,0:0:0:0:
302,254,67702,1,0,0:0:0:0:
268,325,67902,1,0,0:0:0:0:
40,337,68102,5,0,0:0:0:0:
112,306,68303,1,0,0:0:0:0:
186,330,68504,1,0,0:0:0:0:
383,250,68721,5,0,0:0:0:0:
337,314,68938,1,0,0:0:0:0:
264,343,69168,1,0,0:0:0:0:
381,101,69399,5,0,0:0:0:0:
310,135,69632,1,0,0:0:0:0:
283,208,69865,1,0,0:0:0:0:
219,253,70156,1,0,0:0:0:0:
144,275,70447,1,0,0:0:0:0:
67,261,70767,1,0,0:0:0:0:
161,351,71088,5,0,0:0:0:0:
221,302,71417,1,0,0:0:0:0:
237,225,71747,1,0,0:0:0:0:
278,159,72194,1,0,0:0:0:0:
351,132,72642,1,0,0:0:0:0:
427,150,73150,1,0,0:0:0:0:
421,261,73685,5,0,0:0:0:0:
346,233,74366,1,0,0:0:0:0:
267,249,75275,6,0,B|255:236|255:236|213:239|184:264|184:264|151:285|116:276|116:276|127:261|178:229,1,200
161,243,78488,1,0,0:0:0:0:
182,231,78837,1,0,0:0:0:0:
203,219,79186,1,0,0:0:0:0:
244,123,79535,5,4,0:0:0:0:
147,179,79884,1,0,0:0:0:0:
141,133,80232,1,0,0:0:0:0:
135,87,80581,1,0,0:0:0:0:
253,206,80930,5,4,0:0:0:0:
173,105,81279,1,0,0:0:0:0:
254,107,81628,1,0,0:0:0:0:
335,109,81977,1,0,0:0:0:0:
297,212,82326,5,4,0:0:0:0:
421,169,82674,1,0,0:0:0:0:
306,201,83023,1,0,0:0:0:0:
191,233,83372,1,0,0:0:0:0:
200,146,83721,5,4,0:0:0:0:
254,94,83895,1,0,0:0:0:0:
127,123,84070,1,0,0:0:0:0:
216,219,84244,1,0,0:0:0:0:
145,198,84419,5,4,0:0:0:0:
90,249,84593,1,0,0:0:0:0:
217,220,84768,1,0,0:0:0:0:
127,123,84942,1,0,0:0:0:0:
74,176,85116,5,4,0:0:0:0:
2,156,85290,1,0,0:0:0:0:
90,249,85465,1,0,0:0:0:0:
127,123,85639,1,0,0:0:0:0:
58,103,85814,5,4,0:0:0:0:
41,30,85988,1,0,0:0:0:0:
2,156,86163,1,0,0:0:0:0:
128,125,86337,1,0,0:0:0:0:
116,53,86512,5,4,0:0:0:0:
142,72,86599,1,0,0:0:0:0:
165,78,86686,1,0,0:0:0:0:
190,80,86773,1,0,0:0:0:0:
207,104,86860,5,4,0:0:0:0:
232,85,86947,1,0,0:0:0:0:
255,78,87034,1,0,0:0:0:0:
280,76,87121,1,0,0:0:0:0:
288,52,87209,5,4,0:0:0:0:
312,69,87296,1,0,0:0:0:0:
335,76,87383,1,0,0:0:0:0:
360,78,87470,1,0,0:0:0:0:
394,64,87558,5,4,0:0:0:0:
423,137,87645,2,0,P|426:209|390:258,1,100,0|0,0:0|0:0,0:0:0:0:
287,296,87907,6,0,B|288:245|288:245|307:210|307:210|292:156|292:156|336:176,1,194.999991073609,4|0,0:0|0:0,0:0:0:0:
179,217,88256,6,0,B|143:217|143:217|139:212|139:212|74:215,1,82.5000025177003
51,140,88605,6,0,B|46:126|49:104|49:104|42:87|42:87|43:65|27:10,2,100.000003814697
133,103,88953,2,0,P|156:88|216:95,1,82.5000025177003
213,237,89302,6,0,B|182:201|183:160|183:160|195:188|223:186,1,119.999996337891,2|0,0:2|0:0,0:0:0:0:
294,77,89564,1,4,0:0:0:0:
284,82,89651,2,0,P|272:124|284:176,1,80,8|0,0:0|0:0,0:0:0:0:
370,257,89913,1,4,0:0:0:0:
371,192,90000,2,0,P|377:234|363:264,1,50,2|0,0:0|0:0,0:0:0:0:
130,214,90174,1,4,0:0:0:0:
295,221,90349,6,0,B|282:227|282:227|176:194|176:194|142:209,1,150,8|0,0:0|0:0,0:0:0:0:
349,285,90698,2,0,P|376:233|337:151,1,150,4|0,0:0|0:0,0:0:0:0:
212,256,91046,2,0,B|231:262|231:262|245:269|277:349|276:258|284:244|284:244|295:221,1,150,8|0,0:0|0:0,0:0:0:0:
146,172,91395,5,0,0:2:0:0:
136,168,91483,1,0,0:2:0:0:
126,164,91570,1,0,0:2:0:0:
116,161,91657,1,4,0:0:0:0:
35,132,91744,6,0,P|29:160|33:177,1,40,8|0,0:0|0:0,0:0:0:0:
29,246,91919,2,0,B|36:220|3:172,1,59.9999981689454
0,317,92093,6,0,B|49:339|117:309|117:309|89:322|67:387,1,179.999994506836,2|0,0:2|0:0,0:0:0:0:
222,361,92442,1,8,0:0:0:0:
239,343,92529,2,0,P|250:310|235:286,1,50,0|0,0:0|0:0,0:0:0:0:
148,246,92703,1,0,0:0:0:0:
84,248,92791,2,0,P|104:239|131:239,1,50,2|0,0:0|0:0,0:0:0:0:
250,71,92965,1,2,0:1:0:0:
79,252,93140,6,0,B|105:232|130:240|130:240|175:259|214:270|250:222,1,150,8|0,0:0|0:0,0:0:0:0:
297,154,93488,6,0,P|235:177|268:259,1,150,4|0,0:0|0:0,0:0:0:0:
350,98,93837,2,0,P|300:109|254:68,1,100,8|0,0:0|0:0,0:0:0:0:
250,71,94099,1,4,0:0:0:0:
145,80,94186,2,0,P|119:130|186:182,1,150,0|0,0:0|0:0,0:0:0:0:
299,229,94535,2,0,P|268:239|254:260,1,50,8|0,0:0|0:0,0:0:0:0:
272,259,94709,2,0,P|261:281|240:293,1,50
14,240,94884,6,0,B|27:249|22:276|22:276|50:262|91:257|111:304,1,119.999996337891,2|0,0:2|0:0,0:0:0:0:
181,330,95145,1,0,0:0:0:0:
190,341,95233,2,0,P|212:313|205:267,1,80,8|0,0:0|0:0,0:0:0:0:
220,163,95494,1,0,0:0:0:0:
138,145,95581,2,0,L|189:155,1,50,0|0,0:0|0:0,0:0:0:0:
382,99,95756,1,4,0:0:0:0:
132,147,95930,6,0,B|180:137|180:137|230:147|230:147|281:132,1,150,8|0,0:0|0:0,0:0:0:0:
153,232,96279,2,0,P|132:167|50:191,1,150,4|0,0:0|0:0,0:0:0:0:
118,306,96628,2,0,B|161:278|161:278|211:274|211:274|263:290,1,150,8|0,0:0|0:0,0:0:0:0:
376,312,96977,5,0,0:0:0:0:
373,302,97064,1,0,0:0:0:0:
370,292,97151,1,0,0:0:0:0:
367,282,97238,1,4,0:0:0:0:
344,201,97326,6,0,P|371:211|406:205,1,40,8|0,0:0|0:0,0:0:0:0:
464,328,97500,2,0,B|434:328|409:309,1,59.9999981689454
187,334,97674,6,0,B|216:321|247:328|247:328|274:336|307:332|307:332|273:327|253:293,1,179.999994506836,2|0,0:2|0:0,0:0:0:0:
161,252,98023,1,8,0:0:0:0:
164,262,98110,2,0,P|179:215|202:203,1,50,0|0,0:0|0:0,0:0:0:0:
303,249,98285,1,0,0:0:0:0:
364,251,98372,2,0,P|315:255|287:236,1,50,2|0,0:0|0:0,0:0:0:0:
118,173,98546,1,2,0:1:0:0:
370,264,98721,2,0,P|322:220|231:239,1,150,8|0,0:0|0:0,0:0:0:0:
27,294,99070,6,0,B|75:288|114:300|114:300|173:317|222:301,1,150,4|0,0:0|0:0,0:0:0:0:
288,293,99419,2,0,B|286:315|286:315|278:370|340:368,1,100,8|0,0:0|0:0,0:0:0:0:
359,374,99680,1,0,0:0:0:0:
441,300,99767,2,0,B|388:311|361:264|361:264|328:240|283:276,1,150,4|0,0:0|0:0,0:0:0:0:
216,362,100116,2,0,P|255:322|200:233,1,150,8|0,0:0|0:0,0:0:0:0:
122,272,100465,6,0,B|77:275|59:237|59:237|96:239|144:229,1,119.999996337891,2|0,0:2|0:0,0:0:0:0:
251,159,100727,1,4,0:0:0:0:
260,175,100814,2,0,P|218:187|166:175,1,80,8|0,0:0|0:0,0:0:0:0:
102,98,101076,1,4,0:0:0:0:
44,89,101163,2,0,P|69:87|93:94,1,50,2|0,0:0|0:0,0:0:0:0:
228,256,101337,1,0,0:0:0:0:
56,265,101512,6,0,B|26:214|26:214|62:174|62:174|68:224,1,150,8|0,0:0|0:0,0:0:0:0:
130,123,101861,2,0,P|67:88|0:116,1,150,4|0,0:0|0:0,0:0:0:0:
216,125,102209,2,0,B|169:127|169:127|136:172|136:172|146:220,1,150,8|0,0:0|0:0,0:0:0:0:
49,285,102558,5,0,0:0:0:0:
52,275,102645,1,0,0:0:0:0:
56,265,102732,1,0,0:0:0:0:
60,255,102820,1,4,0:0:0:0:
108,195,102907,6,0,P|105:223|110:257,1,40,8|0,0:0|0:0,0:0:0:0:
169,358,103081,2,0,P|183:328|182:272,1,59.9999981689454,0|0,0:0|0:0,0:0:0:0:
101,191,103256,6,0,B|115:122|184:95|184:95|156:108|134:173,1,179.999994506836,2|0,0:2|0:0,0:0:0:0:
214,236,103605,1,8,0:0:0:0:
231,248,103692,2,0,P|218:217|227:191,1,50
339,159,103866,1,0,0:0:0:0:
402,154,103953,2,0,P|353:161|331:152,1,50,2|0,0:0|0:0,0:0:0:0:
159,133,104128,1,2,0:1:0:0:
244,263,104302,6,0,P|166:226|99:256,1,150,8|0,0:0|0:0,0:0:0:0:
242,354,104651,6,0,B|232:328|248:306|248:306|291:288|291:288|320:295|327:335,1,150,4|0,0:0|0:0,0:0:0:0:
403,217,105000,2,0,B|357:235|357:235|307:213,1,100,8|0,0:0|0:0,0:0:0:0:
300,211,105262,1,4,0:0:0:0:
218,124,105349,2,0,B|224:95|259:97|265:130|240:156|240:156|205:197|232:249,1,150
80,330,105698,2,0,P|104:322|129:322,1,50,8|0,0:0|0:0,0:0:0:0:
101,307,105872,2,0,P|127:306|165:319,1,50,0|0,0:0|0:0,0:0:0:0:
303,356,106046,6,0,B|307:338|307:338|272:349|218:334|218:334|224:320,1,119.999996337891,2|0,0:2|0:0,0:0:0:0:
212,221,106308,1,4,0:0:0:0:
199,230,106395,2,0,P|244:245|286:223,1,80,8|0,0:0|0:0,0:0:0:0:
359,171,106657,1,0,0:0:0:0:
423,147,106744,2,0,P|383:154|351:175,1,50,2|0,0:0|0:0,0:0:0:0:
422,312,106919,1,0,0:0:0:0:
463,161,107093,6,0,P|406:148|333:228,1,150,8|0,0:0|0:0,0:0:0:0:
365,361,107442,2,0,B|395:323|395:323|390:269|390:269|424:225,1,150,4|0,0:0|0:0,0:0:0:0:
283,69,107791,2,0,B|302:96|288:143|288:143|335:108|370:141,1,150,8|0,0:0|0:0,0:0:0:0:
273,253,108140,5,0,0:0:0:0:
283,250,108227,1,0,0:0:0:0:
293,246,108314,1,0,0:0:0:0:
303,242,108402,1,4,0:0:0:0:
328,296,108489,6,0,P|322:268|326:251,1,40,8|0,0:0|0:0,0:0:0:0:
453,185,108664,2,0,B|451:215|451:215|436:241,1,59.9999981689454,0|0,0:0|0:0,0:0:0:0:
189,180,108837,6,0,B|252:162|295:181|295:181|332:200|385:180,1,179.999994506836,2|0,0:2|0:0,0:0:0:0:
421,91,109186,1,8,0:0:0:0:
438,80,109273,2,0,P|430:115|442:153,1,59.9999981689454,0|0,0:0|0:0,0:0:0:0:
360,276,109448,1,0,0:0:0:0:
457,255,109535,2,0,L|367:247,1,59.9999981689454,2|0,0:0|0:0,0:0:0:0:
138,286,109709,1,8,0:0:0:0:
133,299,110058,1,0,0:0:0:0:
391,256,110233,2,0,P|331:279|271:246,1,120,8|0,0:0|0:0,0:0:0:0:
140,161,110581,6,0,P|163:194|168:196,1,33.3333333333333
135,192,110756,2,0,P|166:215|172:219,1,33.3333333333333
235,254,110930,2,0,L|244:207,1,33.3333333333333
293,166,111105,2,0,P|279:146|259:131,1,50
176,148,111395,2,0,P|163:174|164:209,1,50,0|0,0:0|0:0,0:0:0:0:
83,202,111628,6,0,B|126:195|126:195|181:205|181:205|255:197,1,150.000005722046,2|0,0:2|0:0,0:0:0:0:
332,231,111890,1,4,0:0:0:0:
318,153,111977,2,0,L|312:236,1,75.0000028610231,8|0,0:2|0:0,0:0:0:0:
231,298,112151,6,0,B|284:300|315:339|315:339|355:305|414:307,1,200,4|0,0:0|0:0,0:0:0:0:
396,190,112674,5,8,0:0:0:0:
321,142,112762,2,0,P|308:193|331:247,1,100,0|0,0:0|0:0,0:0:0:0:
216,249,113023,6,0,B|182:235|182:235|133:255,1,75.0000028610231,2|0,0:2|0:0,0:0:0:0:
131,339,113198,2,0,B|165:353|165:353|214:333,1,75.0000028610231,2|0,0:2|0:0,0:0:0:0:
371,314,113372,5,8,0:0:0:0:
322,381,113459,2,0,P|296:353|291:298,1,75.0000028610231,4|0,0:0|0:0,0:0:0:0:
297,145,113634,6,0,B|308:140|308:140|270:132|209:140,1,100,8|0,0:1|0:0,0:0:0:0:
203,142,114070,1,8,0:0:0:0:
186,137,114157,1,0,0:0:0:0:
170,128,114244,1,0,0:0:0:0:
158,115,114331,1,0,0:0:0:0:
166,68,114419,6,0,B|194:118|194:118|168:164|168:164|190:199|201:237|157:315,1,225.000008583069,4|0,0:0|0:0,0:0:0:0:
36,253,114767,1,8,0:2:0:0:
29,240,114855,1,0,0:0:0:0:
20,227,114942,6,0,B|60:152|-7:123|-7:123|13:106|13:106|42:120|87:107,1,200
53,26,115465,5,8,0:0:0:0:
138,65,115552,2,0,L|251:63,1,80,4|0,0:0|0:0,0:0:0:0:
300,11,115814,6,0,B|345:-2|380:33|380:33|346:57|316:116|354:170,1,225.000008583069,4|0,0:0|0:0,0:0:0:0:
328,246,116163,5,8,0:0:0:0:
427,210,116250,2,0,B|408:263|408:263|426:363,1,119.999996337891,2|2,0:2|0:1,0:0:0:0:
489,346,116512,6,0,P|425:320|338:357,1,150
242,329,116860,2,0,P|312:336|354:304,1,112.500004291535,8|0,0:0|0:0,0:0:0:0:
283,255,117209,6,0,B|242:233|242:233|94:231,1,150.000005722046,2|0,0:2|0:0,0:0:0:0:
104,307,117471,1,4,0:0:0:0:
36,353,117558,2,0,P|22:313|29:279,1,75.0000028610231,8|0,0:2|0:0,0:0:0:0:
0,188,117733,6,0,B|41:174|96:175|73:214|156:214|215:175,1,200,4|0,0:0|0:0,0:0:0:0:
209,65,118256,5,8,0:0:0:0:
200,165,118343,2,0,P|264:171|319:130,1,100,0|0,0:0|0:0,0:0:0:0:
418,82,118605,6,0,B|431:46|431:46|416:7,1,75.0000028610231,2|0,0:2|0:0,0:0:0:0:
318,116,118779,2,0,B|304:150|304:150|317:186,1,75.0000028610231,2|0,0:2|0:0,0:0:0:0:
398,334,118953,5,8,0:0:0:0:
445,261,119041,2,0,P|413:248|337:264,1,75.0000028610231,4|0,0:0|0:0,0:0:0:0:
156,298,119215,6,0,B|147:288|147:288|178:284|191:297|251:288,1,100,8|0,0:1|0:0,0:0:0:0:
259,292,119651,1,8,0:0:0:0:
273,281,119738,1,0,0:0:0:0:
278,264,119825,1,0,0:0:0:0:
270,248,119912,1,0,0:0:0:0:
301,208,120000,6,0,B|289:173|289:173|299:151|299:151|292:132|292:132|341:79|327:11|273:-27,1,225.000008583069,4|0,0:0|0:0,0:0:0:0:
189,123,120349,1,8,0:2:0:0:
169,134,120436,1,0,0:0:0:0:
151,148,120523,6,0,B|100:164|63:129|63:129|17:116|-17:151|-17:151|-1:160|16:195,1,200,4|0,0:0|0:0,0:0:0:0:
49,227,121046,5,8,0:0:0:0:
9,316,121134,2,0,L|121:311,1,80,4|0,0:0|0:0,0:0:0:0:
196,275,121395,6,0,B|201:252|201:252|197:236|197:236|261:200|273:107|194:54,1,225.000008583069,2|0,0:2|0:0,0:0:0:0:
161,12,121744,5,8,0:0:0:0:
241,83,121831,2,0,P|332:88|366:47,1,119.999996337891,2|2,0:2|0:1,0:0:0:0:
446,130,122093,6,0,P|393:103|303:160,1,150
433,234,122442,2,0,P|436:179|404:133,1,112.500004291535,8|0,0:0|0:0,0:0:0:0:
313,208,122791,6,0,L|347:211,6,25.0000009536744
277,293,123052,1,0,0:0:0:0:
187,271,123140,2,0,B|223:263|223:263|267:272,1,75.0000028610231,8|0,0:2|0:0,0:0:0:0:
201,384,123314,6,0,B|193:353|206:328|206:328|183:297|183:297|179:245|179:245|218:171,1,200,0|0,0:2|0:0,0:0:0:0:
219,119,123837,5,8,0:0:0:0:
160,210,123924,2,0,P|109:217|49:185,1,100,2|0,0:2|0:0,0:0:0:0:
110,36,124186,6,0,B|117:70|117:70|106:108,1,75.0000028610231,2|0,0:2|0:0,0:0:0:0:
15,231,124360,1,2,0:2:0:0:
11,208,124448,1,0,0:0:0:0:
18,186,124535,1,8,0:0:0:0:
32,168,124622,2,0,B|21:130|21:130|37:57,1,75.0000028610231,4|0,0:0|0:0,0:0:0:0:
219,119,124796,6,0,B|208:110|208:110|252:117|311:107,1,100,8|0,0:1|0:0,0:0:0:0:
311,110,125233,1,8,0:0:0:0:
328,107,125320,1,0,0:0:0:0:
345,108,125407,1,0,0:0:0:0:
361,104,125494,1,0,0:0:0:0:
355,135,125581,6,0,B|372:172|354:210|354:210|377:211|436:241|417:310|417:310|412:296|382:275,1,225.000008583069,4|0,0:0|0:0,0:0:0:0:
298,278,125930,1,8,0:2:0:0:
275,278,126017,1,0,0:0:0:0:
251,278,126105,6,0,B|214:302|214:302|151:302|151:302|120:273|120:273|44:270,1,200,4|0,0:0|0:0,0:0:0:0:
77,355,126628,5,8,0:0:0:0:
3,318,126715,2,0,P|-8:252|29:203,1,100,4|0,0:0|0:0,0:0:0:0:
170,212,126977,6,0,B|193:231|193:231|139:224|139:224|106:240|106:240|70:225|70:225|-24:223,1,225.000008583069,4|0,0:0|0:0,0:0:0:0:
107,145,127326,5,8,0:0:0:0:
60,68,127413,2,0,P|132:57|182:100,1,119.999996337891,0|2,0:0|0:1,0:0:0:0:
326,108,127674,6,0,P|213:133|172:112,1,150
303,13,128023,2,0,P|322:66|287:126,1,112.500004291535,8|0,0:0|0:0,0:0:0:0:
244,61,128372,6,0,B|276:46|296:37|296:37|351:54|351:54|399:32,1,150.000005722046,4|0,0:0|0:0,0:0:0:0:
482,111,128634,1,0,0:0:0:0:
462,187,128721,2,0,L|387:193,1,75.0000028610231,8|0,0:2|0:0,0:0:0:0:
328,247,128895,6,0,B|318:274|318:274|324:233|303:199|303:199|319:150|319:150|300:114,1,200,4|0,0:0|0:0,0:0:0:0:
199,174,129419,5,8,0:0:0:0:
231,254,129506,2,0,P|178:260|120:207,1,100,4|0,0:0|0:0,0:0:0:0:
214,97,129767,6,0,B|217:135|217:135|205:169,1,75.0000028610231,2|0,0:2|0:0,0:0:0:0:
187,353,129942,2,0,B|175:319|175:319|178:280,1,75.0000028610231,2|0,0:2|0:0,0:0:0:0:
107,211,130116,5,8,0:0:0:0:
44,276,130203,2,0,P|16:224|26:181,1,75.0000028610231,4|0,0:0|0:0,0:0:0:0:
92,127,130378,6,0,B|82:116|82:116|129:126|146:129|182:121,1,100,8|0,0:1|0:0,0:0:0:0:
183,122,130814,1,8,0:0:0:0:
199,114,130902,1,0,0:0:0:0:
209,106,130989,1,0,0:0:0:0:
218,98,131076,1,0,0:0:0:0:
202,79,131163,6,0,B|160:125|160:125|333:127,1,225.000008583069,4|0,0:0|0:0,0:0:0:0:
425,60,131512,1,8,0:2:0:0:
441,75,131599,1,0,0:0:0:0:
455,91,131686,6,0,B|482:131|482:131|468:166|468:166|483:205|483:205|481:285,1,200,4|4,0:0|0:0,0:0:0:0:
420,328,132558,6,0,B|368:328|368:328|340:312|340:312|300:340|300:340|272:328|272:328|208:328,1,220,8|0,3:1|0:0,0:0:0:0:
178,347,133605,5,8,0:2:0:0:
307,314,133779,1,0,0:0:0:0:
332,197,133953,6,0,L|381:172,1,50,0|0,0:0|0:0,0:0:0:0:
388,151,134070,6,0,P|376:133|325:124,1,50,0|0,0:0|0:0,0:0:0:0:
378,111,134215,2,0,P|360:99|310:112,1,50,0|0,0:0|0:0,0:0:0:0:
359,87,134360,2,0,P|339:80|292:102,1,50,0|0,0:0|0:0,0:0:0:0:
335,68,134506,2,0,P|314:65|272:96,1,50,0|0,0:0|0:0,0:0:0:0:
303,61,134651,2,0,P|281:59|242:94,1,50,0|0,0:0|0:0,0:0:0:0:
216,52,134767,6,0,P|216:101|247:140,1,100
318,161,135000,2,0,B|345:84|254:39|199:82|199:82|167:102|130:137|93:111|93:59|136:51|143:70,1,350
246,139,135698,5,8,0:0:0:0:
238,147,135785,2,0,P|235:171|243:201,1,50,0|0,0:0|0:0,0:0:0:0:
284,281,135959,6,0,B|289:274|289:274|231:283|174:280,1,100,8|0,0:1|0:0,0:0:0:0:
180,281,136395,5,8,0:0:0:0:
173,274,136483,1,0,0:0:0:0:
171,266,136570,1,0,0:0:0:0:
169,258,136657,1,0,0:0:0:0:
127,242,136744,5,4,0:0:0:0:
130,232,136831,2,0,P|172:195|168:168,1,50,0|0,0:0|0:0,0:0:0:0:
160,102,137006,2,0,P|135:103|114:116,1,50,0|8,0:0|0:0,0:0:0:0:
225,147,137180,2,0,P|261:189|297:187,1,50,0|4,0:0|0:0,0:0:0:0:
312,245,137355,2,0,P|326:224|327:200,1,50,0|0,0:0|0:0,0:0:0:0:
249,196,137529,2,0,L|229:295,1,100,2|0,0:2|0:0,0:0:0:0:
223,316,137791,5,8,0:0:0:0:
337,328,137878,2,0,L|323:263,1,50,0|0,0:0|0:0,0:0:0:0:
253,185,138052,2,0,P|199:180|142:222,1,100,4|0,0:0|0:0,0:0:0:0:
43,368,138314,5,0,0:0:0:0:
38,345,138401,1,4,0:0:0:0:
23,328,138488,1,8,0:0:0:0:
66,345,138576,2,0,P|98:328|136:320,1,50,4|0,0:0|0:0,0:0:0:0:
252,362,138750,6,0,P|214:315|321:302,1,200,2|0,0:1|0:0,0:0:0:0:
317,271,139186,2,0,P|248:251|204:307,1,150,8|0,0:0|0:0,0:0:0:0:
35,334,139535,5,4,0:0:0:0:
46,346,139622,2,0,P|65:354|96:355,1,50,0|0,0:0|0:0,0:0:0:0:
136,278,139796,2,0,P|117:270|86:269,1,50,0|8,0:0|0:0,0:0:0:0:
173,355,139971,2,0,P|193:350|218:332,1,50,0|4,0:0|0:0,0:0:0:0:
230,240,140145,2,0,P|209:244|184:262,1,50
297,301,140320,2,0,P|324:249|291:177,1,100,2|0,0:0|0:0,0:0:0:0:
308,187,140581,5,8,0:0:0:0:
210,119,140669,2,0,L|277:117,1,50,0|0,0:0|0:0,0:0:0:0:
386,73,140843,2,0,L|379:195,1,100,4|0,0:0|0:0,0:0:0:0:
286,204,141105,5,0,0:0:0:0:
281,227,141192,1,4,0:0:0:0:
266,244,141279,1,8,0:0:0:0:
309,227,141367,2,0,P|341:244|379:252,1,50,4|0,0:0|0:0,0:0:0:0:
400,313,141541,6,0,B|418:303|418:303|360:281|310:319,1,125,8|8,0:1|0:0,0:0:0:0:
304,321,142064,1,0,0:0:0:0:
290,326,142151,1,0,0:0:0:0:
275,328,142238,1,0,0:0:0:0:
245,352,142326,5,4,0:0:0:0:
230,344,142413,2,0,P|207:319|203:290,1,50,0|0,0:0|0:0,0:0:0:0:
257,242,142587,2,0,P|280:267|284:296,1,50,0|8,0:0|0:0,0:0:0:0:
177,180,142762,2,0,P|173:146|186:120,1,50,0|4,0:0|0:0,0:0:0:0:
258,113,142936,2,0,P|261:146|248:172,1,50,0|0,0:0|0:0,0:0:0:0:
207,45,143110,2,0,P|254:31|317:52,1,100,2|0,0:2|0:0,0:0:0:0:
324,61,143372,5,8,0:0:0:0:
280,164,143459,2,0,P|265:144|259:119,1,50
330,234,143634,2,0,P|377:245|422:225,1,100,4|0,0:0|0:0,0:0:0:0:
401,99,143895,5,0,0:0:0:0:
408,113,143982,1,4,0:0:0:0:
415,127,144070,1,8,0:0:0:0:
466,124,144157,2,0,B|421:145,1,50,4|0,0:0|0:0,0:0:0:0:
498,163,144331,6,0,B|421:145|421:145|371:166|371:166|265:143,1,200,2|0,0:1|0:0,0:0:0:0:
382,86,144767,2,0,B|384:122|421:146|421:146|442:182|412:244,1,150,8|0,0:0|0:0,0:0:0:0:
347,290,145116,5,4,0:0:0:0:
331,298,145203,2,0,P|296:311|266:301,1,50,0|0,0:0|0:0,0:0:0:0:
229,218,145378,2,0,P|258:223|283:242,1,50,0|8,0:0|0:0,0:0:0:0:
185,306,145552,2,0,P|163:300|151:270,1,50,0|4,0:0|0:0,0:0:0:0:
140,141,145727,2,0,P|155:172|146:197,1,50
85,89,145901,2,0,L|229:78,1,100,2|0,0:0|0:0,0:0:0:0:
198,87,146163,5,8,0:0:0:0:
280,164,146250,2,0,L|293:114,1,50,0|0,0:0|0:0,0:0:0:0:
363,45,146424,2,0,B|381:97|381:97|366:148,1,100,4|0,0:0|0:0,0:0:0:0:
269,288,146686,5,0,0:0:0:0:
266,273,146773,1,4,0:0:0:0:
263,258,146860,1,8,0:0:0:0:
233,198,146948,2,0,L|263:264,1,50,4|0,0:0|0:0,0:0:0:0:
209,325,147122,6,0,B|204:315|204:315|228:328|228:328|257:339|296:337|315:313,1,125,8|8,0:1|0:0,0:0:0:0:
322,310,147646,1,0,0:0:0:0:
327,296,147733,1,0,0:0:0:0:
328,281,147821,1,0,0:0:0:0:
306,263,147908,5,4,0:0:0:0:
298,240,147994,2,0,P|330:248|365:242,1,50,0|0,0:0|0:0,0:0:0:0:
454,244,148169,2,0,P|443:216|417:202,1,50,0|8,0:0|0:0,0:0:0:0:
323,163,148343,2,0,P|352:161|378:125,1,50,0|0,0:0|0:0,0:0:0:0:
451,74,148518,2,0,P|428:61|396:61,1,50,0|0,0:0|0:0,0:0:0:0:
229,77,148692,2,0,L|337:82,1,100,2|0,0:2|0:0,0:0:0:0:
336,91,148953,5,8,0:0:0:0:
238,159,149041,2,0,L|305:161,1,50,0|0,0:0|0:0,0:0:0:0:
414,205,149215,2,0,L|407:83,1,100,4|0,0:0|0:0,0:0:0:0:
296,172,149477,5,0,0:0:0:0:
301,195,149564,1,4,0:0:0:0:
316,212,149651,1,8,0:0:0:0:
279,262,149739,2,0,L|324:240,1,50,4|0,0:0|0:0,0:0:0:0:
228,327,149913,6,0,B|260:356|300:350|332:328|332:328|377:297|377:297|398:286|408:291,1,200,2|0,0:1|0:0,0:0:0:0:
279,262,150349,2,0,P|180:258|143:331,1,150,8|0,0:0|0:0,0:0:0:0:
68,284,150698,5,4,0:0:0:0:
73,296,150785,2,0,P|90:313|114:320,1,50
127,229,150959,2,0,P|110:212|86:205,1,50,0|8,0:0|0:0,0:0:0:0:
1,164,151134,2,0,P|7:187|24:205,1,50
82,121,151308,2,0,P|79:96|64:76,1,50
166,115,151483,2,0,P|206:134|275:105,1,100,2|0,0:0|0:0,0:0:0:0:
280,103,151744,5,8,0:0:0:0:
221,12,151831,2,0,L|216:69,1,50,0|0,0:0|0:0,0:0:0:0:
264,225,152006,2,0,P|296:187|294:139,1,100,4|0,0:0|0:0,0:0:0:0:
173,75,152267,5,0,0:0:0:0:
180,89,152355,1,4,0:0:0:0:
187,103,152442,1,8,0:0:0:0:
120,136,152529,2,0,B|165:115,1,50,4|0,0:0|0:0,0:0:0:0:
101,89,152703,6,0,B|93:99|93:99|165:115|165:115|215:94,1,125,8|8,0:1|0:0,0:0:0:0:
220,90,153227,1,0,0:0:0:0:
233,83,153314,1,0,0:0:0:0:
246,76,153401,1,0,0:0:0:0:
267,96,153488,5,4,0:0:0:0:
279,110,153576,2,0,L|272:164,1,50,0|0,0:0|0:0,0:0:0:0:
361,205,153750,2,0,L|354:155,1,50,0|8,0:0|0:0,0:0:0:0:
262,175,153924,2,0,L|278:222,1,50,0|4,0:0|0:0,0:0:0:0:
355,260,154099,2,0,L|371:213,1,50,0|0,0:0|0:0,0:0:0:0:
392,71,154273,2,0,L|269:83,1,100,2|0,0:2|0:0,0:0:0:0:
272,82,154535,5,8,0:0:0:0:
317,169,154622,2,0,L|240:163,1,50,0|0,0:0|0:0,0:0:0:0:
203,266,154796,2,0,L|189:149,1,100,4|0,0:0|0:0,0:0:0:0:
82,57,155058,6,0,L|68:118,1,50,8|0,0:1|0:0,0:0:0:0:
147,221,155233,6,0,P|160:180|150:133,1,72.5000022125245,8|0,0:0|0:0,0:0:0:0:
141,215,155363,2,0,P|117:250|115:299,1,64.9999970245363
132,202,155494,6,0,P|134:165|114:126,1,57.5000010967255
123,195,155624,2,0,P|111:230|120:272,1,57.5000010967255
108,193,155756,6,0,P|114:172|109:149,1,42.5000008106232
99,189,155886,2,0,P|87:206|86:231,1,42.5000008106232
89,182,156017,6,0,P|89:166|81:149,1,27.5000008392334
79,186,156147,2,0,P|74:201|77:219,1,27.5000008392334
65,182,156279,6,0,B|138:213|204:170|204:170|261:182|271:234|271:234|340:208|402:254,1,380
393,94,163256,6,0,B|381:64|351:57|326:74|323:110|345:130|392:123|392:123|440:112|488:137|488:137|451:141|424:166,1,320
163,150,169186,6,0,B|147:141|112:137|96:187|124:201|156:213|206:173|256:172|296:196,1,240
418,231,173721,6,0,P|429:311|408:345,1,125
256,192,176163,12,0,178430,0:0:0:0:
222,208,178605,6,0,P|248:180|289:175,1,75,4|0,0:2|0:0,0:0:0:0:
282,243,178953,6,0,P|224:212|135:231,1,150,4|0,0:0|0:0,0:0:0:0:
132,236,179302,1,8,0:0:0:0:
381,302,179477,2,0,P|315:268|311:179,1,150,4|0,0:0|0:0,0:0:0:0:
307,176,179826,2,0,P|279:226|239:248,1,100,8|0,0:0|0:0,0:0:0:0:
383,220,180087,2,0,P|417:242|483:234,1,100,4|0,0:0|0:0,0:0:0:0:
389,312,180349,5,8,0:0:0:0:
378,314,180436,2,0,B|327:328|268:312|268:312|332:292|388:303,1,200,0|0,0:2|0:0,0:0:0:0:
380,320,180698,6,0,B|415:341|428:378|428:378|401:359|408:231|479:196,1,225.000008583069,4|0,0:0|0:0,0:0:0:0:
481,143,181046,2,0,P|393:198|294:121,1,225.000008583069,2|0,0:2|0:0,0:0:0:0:
249,47,181395,6,0,B|206:107|206:107|219:222,1,187.500007152558,4|0,0:2|0:0,0:0:0:0:
221,226,181919,1,4,0:0:0:0:
295,132,182093,6,0,P|254:101|207:106,1,100,8|0,0:0|0:0,0:0:0:0:
222,233,182355,2,0,L|233:171,1,50
157,284,182616,6,0,P|191:311|246:309,1,100,8|0,0:0|0:0,0:0:0:0:
316,175,182878,2,0,L|305:237,1,50,0|0,0:0|0:0,0:0:0:0:
150,49,183140,6,0,P|127:90|135:145,1,100,8|0,0:0|0:0,0:0:0:0:
288,101,183401,1,0,0:0:0:0:
283,86,183488,2,0,P|244:85|220:98,1,50,2|0,0:0|0:0,0:0:0:0:
213,211,183663,2,0,L|261:162,1,50,2|0,0:0|0:0,0:0:0:0:
353,264,183837,6,0,P|331:215|329:194,2,66.6666666666667,2|2|2,0:0|0:0|0:0,0:0:0:0:
387,156,184186,6,0,P|342:127|278:149,1,112.500004291535,4|0,0:2|0:0,0:0:0:0:
278,152,184535,2,0,P|220:177|125:144,1,150,4|0,0:0|0:0,0:0:0:0:
122,145,184884,1,8,0:0:0:0:
224,284,185058,2,0,P|225:214|288:153,1,150,4|0,0:0|0:0,0:0:0:0:
293,154,185407,1,8,0:0:0:0:
116,316,185581,1,4,0:0:0:0:
112,326,185669,2,0,B|116:272|116:272|143:233,1,100,8|0,0:1|0:0,0:0:0:0:
283,223,185930,5,8,0:0:0:0:
278,242,186017,2,0,B|260:291|221:325|221:325|234:272|239:224,1,200,0|0,0:0|0:0,0:0:0:0:
225,218,186279,6,0,B|257:195|303:185|337:250|404:272|450:201,1,225.000008583069,4|0,0:0|0:0,0:0:0:0:
418,35,186628,2,0,B|386:71|386:71|352:112|389:172,1,150.000005722046,2|0,0:2|0:0,0:0:0:0:
449,118,186890,1,4,0:0:0:0:
460,125,186977,6,0,B|379:89|379:89|258:95,1,187.500007152558,4|0,0:2|0:0,0:0:0:0:
258,93,187500,1,4,0:0:0:0:
133,125,187674,6,0,P|141:190|159:125,1,150,8|0,0:0|0:0,0:0:0:0:
134,108,188023,6,0,P|99:154|181:119,1,250,0|0,0:0|0:0,0:0:0:0:
125,90,188546,6,0,P|83:137|189:99,1,350,0|0,0:0|0:0,0:0:0:0:
173,231,189244,6,0,P|73:178|123:77,1,250,0|0,0:0|0:0,0:0:0:0:
175,50,189767,6,0,P|160:83|180:130,1,75,4|0,0:2|0:0,0:0:0:0:
240,88,190116,6,0,B|361:83|361:83|301:101,1,150,4|0,0:0|0:0,0:0:0:0:
241,197,190465,1,8,0:0:0:0:
380,216,190640,2,0,P|324:170|254:187,1,150,4|0,0:0|0:0,0:0:0:0:
304,250,190988,2,0,P|277:290|289:338,1,100,8|0,0:0|0:0,0:0:0:0:
433,161,191250,2,0,P|460:201|448:248,1,100,4|0,0:0|0:0,0:0:0:0:
326,158,191512,5,8,0:0:0:0:
326,134,191599,2,0,B|330:91|291:63|272:9|341:11|373:16|380:52|307:89,1,200,0|0,0:0|0:0,0:0:0:0:
230,133,191860,6,0,B|166:148|103:87|75:125|75:125|64:147|108:174|122:127,1,225.000008583069,4|0,0:0|0:0,0:0:0:0:
14,193,192209,2,0,P|8:87|103:37,1,225.000008583069,0|0,0:0|0:0,0:0:0:0:
122,37,192558,5,4,0:2:0:0:
126,218,192733,2,0,P|131:186|99:130,1,80,0|0,0:0|0:0,0:0:0:0:
193,54,192965,2,0,P|189:80|196:118,1,53.3333333333333
399,155,193256,6,0,B|423:158|423:158|395:170|395:170|324:151|324:151|224:172,1,200,8|0,0:0|0:0,0:0:0:0:
253,165,193517,2,0,B|232:175|232:175|221:201,4,50
428,183,193779,6,0,B|452:186|452:186|424:198|424:198|353:179|353:179|253:200,1,200,8|0,0:0|0:0,0:0:0:0:
282,193,194041,2,0,B|260:202|260:202|249:228,4,50
452,209,194302,6,0,B|476:212|476:212|448:224|448:224|377:205|377:205|277:226,1,200,8|0,0:0|0:0,0:0:0:0:
237,337,194564,1,4,0:0:0:0:
185,268,194651,6,0,P|158:260|109:269,1,50,2|0,0:0|0:0,0:0:0:0:
66,358,194826,2,0,P|90:357|114:350,1,50,2|0,0:0|0:0,0:0:0:0:
188,248,195000,2,0,P|161:240|112:249,1,50,2|0,0:0|0:0,0:0:0:0:
69,338,195175,2,0,P|93:337|117:330,1,50,2|0,0:0|0:0,0:0:0:0:
166,153,195349,6,0,P|163:113|168:67,1,75,4|0,0:2|0:0,0:0:0:0:
90,44,195698,6,0,B|163:25|163:25|279:49,1,150,4|0,0:0|0:0,0:0:0:0:
250,44,196046,1,8,0:0:0:0:
269,250,196221,2,0,P|239:203|282:113,1,150,4|0,0:0|0:0,0:0:0:0:
287,119,196570,1,8,0:0:0:0:
345,314,196744,5,4,0:0:0:0:
310,315,196831,2,4,B|271:315|271:315|243:330|243:330|218:319|218:319|161:320,1,150.000005722046,4|4,0:0|0:0,0:0:0:0:
144,322,197093,1,8,0:0:0:0:
83,122,197267,6,0,B|66:168|66:168|67:255,1,100,0|0,0:0|0:0,0:0:0:0:
123,321,197442,1,8,0:1:0:0:
203,197,197616,2,0,L|118:187,1,50,0|0,0:0|0:0,0:0:0:0:
48,52,197791,6,0,B|40:42|26:39|26:39|73:37|73:37|119:34|150:59|164:88,1,150.000005722046
220,193,198052,1,8,0:1:0:0:
238,189,198140,5,4,0:2:0:0:
222,95,198837,5,8,0:0:0:0:
387,82,199012,2,0,B|345:57|269:56|228:91|228:91|251:124|318:116,1,250
311,122,199535,6,0,P|261:150|260:230,1,139.999995727539
253,350,200058,2,0,P|255:282|215:244,1,125,0|0,0:0|0:0,0:0:0:0:
104,315,200581,6,0,B|141:308|141:308|181:315,1,75
190,321,200930,6,0,L|225:322,5,29.9999990844727,2|0|0|0|0|0,0:0|0:0|0:0|0:0|0:0|0:0,0:0:0:0:
199,234,201977,6,0,L|233:242,5,29.9999990844727,0|0|0|0|0|0,0:0|0:0|0:0|0:0|0:0|0:0,0:0:0:0:
225,150,203023,6,0,L|256:165,5,29.9999990844727,0|0|0|0|0|0,0:0|0:0|0:0|0:0|0:0|0:0,0:0:0:0:
268,74,204070,6,0,L|295:95,5,29.9999990844727,0|0|0|0|0|0,0:0|0:0|0:0|0:0|0:0|0:0,0:0:0:0:
326,8,205116,6,0,L|348:34,5,29.9999990844727,0|0|0|0|0|0,0:0|0:0|0:0|0:0|0:0|0:0,0:0:0:0:
412,78,206163,2,0,L|405:117,1,29.9999990844727,0|0,0:0|0:0,0:0:0:0:
441,175,206511,6,0,L|434:214,5,29.9999990844727,2|0|0|0|0|0,0:0|0:0|0:0|0:0|0:0|0:0,0:0:0:0:
360,130,207558,6,0,L|367:169,5,29.9999990844727,0|0|0|0|0|0,0:0|0:0|0:0|0:0|0:0|0:0,0:0:0:0:
286,195,208605,6,0,L|292:166,5,29.9999990844727,0|0|0|0|2|0,0:0|0:0|0:0|0:0|0:0|0:0,0:0:0:0:
215,240,209651,6,0,L|209:210,5,29.9999990844727,0|0|0|0|0|0,0:0|0:0|0:0|0:0|0:0|0:0,0:0:0:0:
322,274,210698,6,0,L|327:303,5,29.9999990844727,2|0|0|0|0|0,0:0|0:0|0:0|0:0|0:0|0:0,0:0:0:0:
182,340,211744,2,0,L|187:310,1,29.9999990844727,0|0,0:0|0:0,0:0:0:0:
101,202,212092,6,0,P|78:192|66:192,5,32.999999899292,2|0|0|0|0|0,0:0|0:0|0:0|0:0|0:0|0:0,0:0:0:0:
190,249,213138,6,0,P|212:259|224:259,2,32.999999899292
230,178,213661,2,0,P|233:163|250:140,2,32.999999899292
344,200,214184,6,0,P|321:190|310:190,5,32.999999899292,0|0|0|0|0|0,0:0|0:0|0:0|0:0|0:0|0:0,0:0:0:0:
303,273,215231,6,0,P|295:287|293:303,2,32.999999899292,0|0|0,0:0|0:0|0:0,0:0:0:0:
282,383,215754,2,0,P|266:381|252:373,2,32.999999899292,0|0|0,0:0|0:0|0:0,0:0:0:0:
405,325,216277,6,0,P|380:326|358:320,5,32.999999899292,0|0|0|0|0|0,0:0|0:0|0:0|0:0|0:0|0:0,0:0:0:0:
399,216,217324,2,0,P|398:232|395:249,1,32.999999899292
274,224,217674,6,0,L|327:227,5,37.9999995361328,2|0|0|0|0|0,0:0|0:0|0:0|0:0|0:0|0:0,0:0:0:0:
149,159,218719,6,0,L|152:106,5,37.9999995361328,0|0|0|0|0|0,0:0|0:0|0:0|0:0|0:0|0:0,0:0:0:0:
84,284,219765,6,0,L|31:281,5,37.9999995361328,0|0|0|0|0|0,0:0|0:0|0:0|0:0|0:0|0:0,0:0:0:0:
208,344,220812,6,0,L|205:397,5,37.9999995361328,0|0|0|0|0|0,0:0|0:0|0:0|0:0|0:0|0:0,0:0:0:0:
274,224,221858,6,0,L|327:227,5,37.9999995361328,0|0|0|0|0|0,0:0|0:0|0:0|0:0|0:0|0:0,0:0:0:0:
150,122,222905,2,0,L|148:160,1,37.9999995361328,0|0,0:0|0:0,0:0:0:0:
272,77,223254,5,4,0:3:0:0:
349,60,223428,1,0,0:0:0:0:
421,94,223605,1,0,0:0:0:0:
446,172,223793,1,0,0:0:0:0:
407,248,223982,1,0,0:0:0:0:
416,332,224182,1,0,0:0:0:0:
256,319,224382,5,0,0:0:0:0:
245,238,224583,1,0,0:0:0:0:
276,153,224784,1,0,0:0:0:0:
141,52,225001,5,0,0:0:0:0:
169,135,225218,1,0,0:0:0:0:
261,151,225448,1,0,0:0:0:0:
117,66,225679,5,0,0:0:0:0:
87,150,225912,1,0,0:0:0:0:
146,216,226145,1,0,0:0:0:0:
129,305,226436,1,0,0:0:0:0:
188,368,226727,1,0,0:0:0:0:
265,329,227047,1,0,0:0:0:0:
451,238,227368,5,0,0:0:0:0:
374,186,227697,1,0,0:0:0:0:
359,101,228027,1,0,0:0:0:0:
294,39,228474,1,0,0:0:0:0:
203,45,228922,1,0,0:0:0:0:
151,117,229430,1,0,0:0:0:0:
218,304,229965,5,0,0:0:0:0:
173,232,230646,1,0,0:0:0:0:
231,164,231555,6,0,B|264:140|293:63|252:34|252:34|257:82|229:111,1,200,0|4,0:0|0:0,0:0:0:0:
202,104,234768,1,0,0:0:0:0:
161,103,235117,1,0,0:0:0:0:
122,90,235466,1,0,0:0:0:0:
131,340,235815,5,4,0:0:0:0:
110,256,236164,1,0,0:0:0:0:
189,260,236513,1,0,0:0:0:0:
260,296,236861,1,0,0:0:0:0:
435,195,237210,5,4,0:0:0:0:
355,284,237559,1,0,0:0:0:0:
301,199,237908,1,0,0:0:0:0:
293,99,238257,1,0,0:0:0:0:
483,249,238606,5,4,0:0:0:0:
398,372,238954,1,0,0:0:0:0:
278,365,239303,1,0,0:0:0:0:
175,302,239652,1,0,0:0:0:0:
305,265,240001,5,4,0:0:0:0:
253,319,240175,1,0,0:0:0:0:
282,192,240350,1,0,0:0:0:0:
378,281,240524,1,0,0:0:0:0:
357,210,240699,5,4,0:0:0:0:
408,155,240873,1,0,0:0:0:0:
379,282,241048,1,0,0:0:0:0:
282,192,241222,1,0,0:0:0:0:
335,139,241396,5,4,0:0:0:0:
315,67,241570,1,0,0:0:0:0:
408,155,241745,1,0,0:0:0:0:
282,192,241919,1,0,0:0:0:0:
262,123,242094,5,4,0:0:0:0:
189,106,242268,1,0,0:0:0:0:
315,67,242443,1,0,0:0:0:0:
284,193,242617,1,0,0:0:0:0:
211,178,242792,5,4,0:0:0:0:
192,211,242879,1,0,0:0:0:0:
161,232,242966,1,0,0:0:0:0:
124,239,243053,1,0,0:0:0:0:
76,223,243140,5,4,0:0:0:0:
92,251,243227,1,0,0:0:0:0:
118,268,243314,1,0,0:0:0:0:
149,274,243401,1,0,0:0:0:0:
189,260,243490,5,4,0:0:0:0:
176,284,243577,1,0,0:0:0:0:
154,298,243664,1,0,0:0:0:0:
127,303,243751,1,0,0:0:0:0:
89,288,243838,5,4,0:0:0:0:
79,305,243925,2,0,B|83:251|83:251|36:292,1,100,4|0,0:0|0:0,0:0:0:0:
12,359,244187,6,0,B|52:380|52:380|116:380|116:380|136:367|136:367|185:367|185:367|203:380,1,194.999991073609
284,376,244536,6,0,L|288:276,1,82.5000025177003,0|0,0:0|0:0,0:0:0:0:
247,222,244885,6,0,P|276:184|272:112,2,100.000003814697
166,247,245233,2,0,P|116:252|73:236,1,82.5000025177003
28,298,245582,6,0,P|99:280|167:340,1,119.999996337891,2|0,0:2|0:0,0:0:0:0:
208,361,245844,1,4,0:0:0:0:
223,355,245931,2,0,L|228:259,1,80,8|0,0:0|0:0,0:0:0:0:
292,226,246193,1,4,0:0:0:0:
311,297,246280,2,0,L|306:202,1,50,2|0,0:0|0:0,0:0:0:0:
88,216,246454,1,0,0:0:0:0:
167,92,246629,6,0,P|168:163|66:208,1,150,8|0,0:0|0:0,0:0:0:0:
34,355,246978,2,0,B|65:346|85:316|85:316|111:330|111:330|137:293|179:281,1,150,4|0,0:0|0:0,0:0:0:0:
321,292,247326,2,0,B|280:270|236:300|236:300|246:278|244:258|234:242,1,150,8|0,0:0|0:0,0:0:0:0:
76,201,247675,5,0,0:2:0:0:
85,203,247763,1,0,0:2:0:0:
94,205,247850,1,0,0:2:0:0:
103,207,247937,1,4,0:0:0:0:
148,181,248024,6,0,P|147:207|153:233,1,40,8|0,0:0|0:0,0:0:0:0:
235,300,248199,2,0,P|240:270|234:242,1,59.9999981689454,0|0,0:0|0:0,0:0:0:0:
139,75,248373,6,0,B|126:94|100:101|100:101|142:90|189:120|247:100,1,179.999994506836,2|0,0:2|0:0,0:0:0:0:
323,80,248722,1,8,0:0:0:0:
331,95,248809,2,0,P|306:119|307:153,1,50,0|0,0:0|0:0,0:0:0:0:
356,195,248983,1,0,0:0:0:0:
427,197,249071,2,0,L|373:204,1,50,2|0,0:0|0:0,0:0:0:0:
242,254,249245,1,2,0:1:0:0:
474,249,249420,6,0,B|397:234|397:234|310:251,1,150,8|0,0:0|0:0,0:0:0:0:
179,330,249768,6,0,P|236:289|178:280,1,150,4|0,0:0|0:0,0:0:0:0:
133,142,250117,2,0,P|112:177|166:181,1,100,8|0,0:0|0:0,0:0:0:0:
172,188,250379,1,4,0:0:0:0:
238,109,250466,2,0,B|223:126|197:99|234:69|257:78|276:141|276:142|276:142|293:172|342:183,1,150,0|0,0:0|0:0,0:0:0:0:
391,197,250815,2,0,P|379:228|380:261,1,50,8|0,0:0|0:0,0:0:0:0:
395,234,250989,2,0,P|391:267|409:294,1,50,0|0,0:0|0:0,0:0:0:0:
466,147,251164,6,0,P|380:171|344:134,1,119.999996337891,2|0,0:2|0:0,0:0:0:0:
283,85,251425,1,0,0:0:0:0:
263,78,251513,2,0,P|285:125|274:166,1,80,8|0,0:0|0:0,0:0:0:0:
242,237,251774,1,0,0:0:0:0:
181,261,251861,2,0,P|239:233|267:239,1,50,2|0,0:0|0:0,0:0:0:0:
357,277,252036,1,4,0:0:0:0:
140,248,252210,6,0,P|185:291|274:232,1,150,8|0,0:0|0:0,0:0:0:0:
384,116,252559,2,0,B|359:164|359:164|375:218|375:218|351:278,1,150,4|0,0:0|0:0,0:0:0:0:
320,355,252908,2,0,B|293:355|239:331|239:331|210:342|170:353,1,150,8|0,0:0|0:0,0:0:0:0:
68,329,253257,5,0,0:0:0:0:
71,319,253344,1,0,0:0:0:0:
74,309,253431,1,0,0:0:0:0:
77,299,253518,1,4,0:0:0:0:
50,246,253606,6,0,P|71:255|105:249,1,40,8|0,0:0|0:0,0:0:0:0:
216,204,253780,2,0,B|190:195|190:195|151:201,1,59.9999981689454,0|0,0:0|0:0,0:0:0:0:
176,350,253954,6,0,P|244:303|206:208,1,179.999994506836,2|0,0:2|0:0,0:0:0:0:
132,192,254303,1,8,0:0:0:0:
149,180,254390,2,0,P|136:211|145:237,1,50
252,132,254564,1,0,0:0:0:0:
305,115,254651,2,0,P|275:133|253:142,1,50,2|0,0:0|0:0,0:0:0:0:
172,276,254826,1,2,0:1:0:0:
321,264,255001,6,0,P|243:301|176:271,1,150,8|0,0:0|0:0,0:0:0:0:
55,104,255350,6,0,B|100:127|100:127|148:151|141:221,1,150,4|0,0:0|0:0,0:0:0:0:
22,317,255699,2,0,B|41:295|41:295|85:288|85:288|139:311,1,100,8|0,0:0|0:0,0:0:0:0:
118,307,255960,1,0,0:0:0:0:
229,332,256047,2,0,P|174:306|207:235,1,150,4|0,0:0|0:0,0:0:0:0:
313,168,256396,2,0,B|357:184|357:184|344:216|344:216|355:244|355:244|322:268,1,150,8|0,0:0|0:0,0:0:0:0:
159,216,256745,6,0,B|180:272|180:272|198:196,1,119.999996337891,2|0,0:2|0:0,0:0:0:0:
194,112,257007,1,4,0:0:0:0:
177,114,257094,2,0,P|215:142|258:122,1,80,8|0,0:0|0:0,0:0:0:0:
331,84,257356,1,4,0:0:0:0:
411,95,257443,2,0,L|343:75,1,50,2|0,0:0|0:0,0:0:0:0:
196,29,257617,1,0,0:0:0:0:
427,111,257792,6,0,B|377:126|377:126|331:110|331:110|284:124,1,150,8|0,0:0|0:0,0:0:0:0:
241,276,258140,2,0,P|298:280|293:179,1,150,4|0,0:0|0:0,0:0:0:0:
193,60,258489,2,0,B|205:159|205:159|244:193,1,150,8|0,0:0|0:0,0:0:0:0:
393,199,258838,5,0,0:0:0:0:
386,206,258925,1,0,0:0:0:0:
379,213,259013,1,0,0:0:0:0:
372,220,259100,1,4,0:0:0:0:
339,273,259187,6,0,L|380:279,1,40,8|0,0:0|0:0,0:0:0:0:
480,194,259361,2,0,L|407:211,1,59.9999981689454,0|0,0:0|0:0,0:0:0:0:
277,318,259536,6,0,B|285:298|285:298|315:284|315:284|281:284|281:284|253:274|223:248|236:216,1,179.999994506836,2|0,0:2|0:0,0:0:0:0:
271,91,259885,1,8,0:0:0:0:
287,86,259972,2,0,P|302:108|303:134,1,50
155,212,260146,1,0,0:0:0:0:
81,203,260233,2,0,P|120:213|149:207,1,50,2|0,0:0|0:0,0:0:0:0:
317,208,260408,1,2,0:1:0:0:
120,140,260582,6,0,P|106:198|131:290,1,150,8|0,0:0|0:0,0:0:0:0:
205,346,260931,6,0,B|171:349|171:349|202:311|202:311|274:326,1,150,4|0,0:0|0:0,0:0:0:0:
360,304,261280,2,0,B|367:332|392:338|392:338|427:333|449:275,1,100,8|0,0:0|0:0,0:0:0:0:
447,293,261542,1,4,0:0:0:0:
480,197,261629,2,0,B|479:220|460:231|460:231|444:216|444:216|472:179|444:124,1,150,0|0,0:0|0:0,0:0:0:0:
355,74,261978,2,0,P|326:68|304:70,1,50,8|0,0:0|0:0,0:0:0:0:
308,47,262152,2,0,P|264:56|248:69,1,50,0|0,0:0|0:0,0:0:0:0:
107,157,262326,6,0,B|92:153|92:153|129:140|162:183|215:151,1,119.999996337891,2|0,0:2|0:0,0:0:0:0:
270,129,262588,1,4,0:0:0:0:
284,140,262675,2,0,P|271:171|286:242,1,80,8|0,0:0|0:0,0:0:0:0:
272,289,262937,1,0,0:0:0:0:
345,291,263024,2,0,P|302:284|266:293,1,50,2|0,0:0|0:0,0:0:0:0:
123,347,263199,1,0,0:0:0:0:
387,316,263373,6,0,P|322:337|258:264,1,150,8|0,0:0|0:0,0:0:0:0:
51,300,263722,2,0,B|96:249|152:287|218:243,1,150,4|0,0:0|0:0,0:0:0:0:
227,164,264071,2,0,B|237:197|237:197|282:91,1,150,8|0,0:0|0:0,0:0:0:0:
153,58,264420,5,0,0:0:0:0:
149,67,264507,1,0,0:0:0:0:
145,76,264594,1,0,0:0:0:0:
141,85,264681,1,4,0:0:0:0:
98,130,264768,6,0,L|157:126,1,40,8|0,0:0|0:0,0:0:0:0:
221,205,264943,2,0,B|194:218|194:218|145:216,1,59.9999981689454,0|0,0:0|0:0,0:0:0:0:
22,255,265117,6,0,B|84:246|84:246|146:276|146:276|71:295,1,179.999994506836,2|0,0:2|0:0,0:0:0:0:
31,355,265466,1,8,0:0:0:0:
35,372,265553,2,0,L|104:365,1,59.9999981689454,0|0,0:0|0:0,0:0:0:0:
248,368,265728,1,0,0:0:0:0:
325,365,265815,2,0,P|261:376|231:355,1,59.9999981689454,2|0,0:0|0:0,0:0:0:0:
380,228,265989,1,8,0:0:0:0:
223,281,266164,6,0,B|183:283|183:283|146:268,1,79.9999975585938
218,301,266396,2,0,B|179:292|179:292|147:268,1,79.9999975585938
207,318,266629,2,0,B|171:300|171:300|147:268,1,79.9999975585938
182,164,266861,6,0,B|188:151|188:151|184:143|184:143|188:121,14,29.9999990844727
214,191,267559,6,0,P|172:161|95:186,1,120
145,355,267908,6,0,B|191:330|191:330|141:274|141:274|101:296,1,150.000005722046,2|0,0:2|0:0,0:0:0:0:
34,233,268170,1,4,0:0:0:0:
38,311,268257,2,0,L|57:214,1,75.0000028610231,8|0,0:2|0:0,0:0:0:0:
38,141,268431,6,0,B|112:140|153:177|153:177|191:133|251:156,1,200,4|0,0:0|0:0,0:0:0:0:
293,181,268954,5,8,0:0:0:0:
228,224,269042,2,0,P|256:253|318:255,1,100
388,146,269303,6,0,B|422:132|422:132|471:152,1,75.0000028610231,2|0,0:2|0:0,0:0:0:0:
473,236,269478,2,0,B|439:250|439:250|390:230,1,75.0000028610231,2|0,0:2|0:0,0:0:0:0:
216,226,269652,5,8,0:0:0:0:
258,314,269739,2,0,P|288:292|310:261,1,75.0000028610231,4|0,0:0|0:0,0:0:0:0:
209,149,269914,6,0,B|219:135|219:135|174:147|117:135,1,100,8|0,0:1|0:0,0:0:0:0:
99,115,270350,1,8,0:0:0:0:
111,103,270437,1,0,0:0:0:0:
122,90,270524,1,0,0:0:0:0:
134,79,270611,1,0,0:0:0:0:
116,64,270699,6,0,B|85:102|85:102|71:90|71:90|90:147|69:200|69:200|120:239,1,225.000008583069,4|0,0:0|0:0,0:0:0:0:
179,252,271047,1,8,0:2:0:0:
207,240,271135,1,0,0:0:0:0:
212,211,271222,6,0,B|184:224|179:252|179:252|121:225|131:160|189:128|227:146,1,200,0|0,0:0|0:0,0:0:0:0:
296,269,271745,5,8,0:0:0:0:
241,325,271832,2,0,P|199:303|141:313,1,80,4|0,0:0|0:0,0:0:0:0:
26,320,272094,6,0,B|58:348|107:330|107:330|158:305|208:310|244:335,1,225.000008583069,4|0,0:0|0:0,0:0:0:0:
341,337,272443,5,8,0:0:0:0:
296,269,272530,2,0,B|315:322|315:322|297:422,1,119.999996337891,2|2,0:2|0:1,0:0:0:0:
357,188,272792,6,0,P|282:169|209:217,1,150
239,332,273140,2,0,P|309:353|358:320,1,112.500004291535,8|0,0:0|0:0,0:0:0:0:
422,258,273489,6,0,B|393:245|362:262|362:262|319:230|269:257,1,150.000005722046,2|0,0:2|0:0,0:0:0:0:
347,164,273751,1,4,0:0:0:0:
266,169,273838,2,0,P|303:161|359:164,1,75.0000028610231,8|0,0:2|0:0,0:0:0:0:
506,139,274013,6,0,B|460:98|399:96|375:128|375:128|350:165|390:202,1,200,4|0,0:0|0:0,0:0:0:0:
422,258,274536,5,8,0:0:0:0:
319,272,274623,2,0,P|383:278|438:237,1,100,0|0,0:0|0:0,0:0:0:0:
387,102,274885,6,0,B|400:136|370:181,1,75.0000028610231,2|0,0:2|0:0,0:0:0:0:
468,108,275059,2,0,B|455:72|480:26,1,75.0000028610231,2|0,0:2|0:0,0:0:0:0:
316,123,275233,5,8,0:0:0:0:
219,148,275321,2,0,L|109:148,1,75.0000028610231,4|0,0:0|0:0,0:0:0:0:
81,173,275495,6,0,B|72:163|72:163|182:164,1,100,8|0,0:1|0:0,0:0:0:0:
168,174,275932,1,8,0:0:0:0:
160,189,276019,1,0,0:0:0:0:
152,204,276106,1,0,0:0:0:0:
145,219,276193,1,0,0:0:0:0:
102,245,276280,6,0,B|167:268|226:232|226:232|276:197|349:203|367:207,1,225.000008583069,4|0,0:0|0:0,0:0:0:0:
389,264,276629,1,8,0:2:0:0:
409,253,276716,1,0,0:0:0:0:
422,236,276803,6,0,B|379:198|334:217|334:217|288:204|231:241,1,200,4|0,0:0|0:0,0:0:0:0:
161,274,277326,5,8,0:0:0:0:
232,329,277414,2,0,L|311:325,1,80,4|0,0:0|0:0,0:0:0:0:
415,324,277675,6,0,B|384:362|342:341|343:282|372:244|372:244|404:205|480:195|496:231,1,225.000008583069,2|0,0:2|0:0,0:0:0:0:
457,204,278024,5,8,0:0:0:0:
512,154,278111,2,0,P|421:159|387:118,1,119.999996337891,2|2,0:2|0:1,0:0:0:0:
275,64,278373,6,0,P|328:37|418:94,1,150
324,234,278722,2,0,L|342:104,1,112.500004291535,8|0,0:0|0:0,0:0:0:0:
275,52,279071,2,0,P|292:33|332:23,4,37.5000014305115
406,71,279332,1,0,0:0:0:0:
486,69,279420,2,0,P|449:84|406:70,1,75.0000028610231,8|0,0:2|0:0,0:0:0:0:
317,45,279594,6,0,B|300:48|271:59|267:91|267:91|289:141|270:216|208:205,1,200,0|0,0:2|0:0,0:0:0:0:
197,122,280117,5,8,0:0:0:0:
120,121,280204,2,0,P|158:167|149:225,1,100,2|0,0:2|0:0,0:0:0:0:
65,258,280466,6,0,B|99:247|99:247|173:268,1,75.0000028610231,2|0,0:2|0:0,0:0:0:0:
245,324,280640,1,2,0:2:0:0:
236,311,280728,1,0,0:0:0:0:
226,299,280815,1,8,0:0:0:0:
234,286,280902,2,0,B|268:297|268:297|342:276,1,75.0000028610231,4|0,0:0|0:0,0:0:0:0:
362,221,281076,6,0,B|368:230|368:230|320:245|282:208,1,100,8|0,0:1|0:0,0:0:0:0:
244,132,281513,1,8,0:0:0:0:
253,127,281600,1,0,0:0:0:0:
262,123,281687,1,0,0:0:0:0:
271,121,281774,1,0,0:0:0:0:
291,123,281861,6,0,B|244:136|197:115|197:115|143:87|64:127,1,225.000008583069,4|0,0:0|0:0,0:0:0:0:
47,228,282210,1,8,0:2:0:0:
69,226,282297,1,0,0:0:0:0:
92,225,282385,6,0,B|134:221|134:221|170:236|170:236|202:164|202:164|259:197,1,200,4|0,0:0|0:0,0:0:0:0:
304,230,282908,5,8,0:0:0:0:
268,277,282995,2,0,P|270:227|243:186,1,100,4|0,0:0|0:0,0:0:0:0:
47,228,283257,2,0,B|134:221|134:221|171:236|171:236|177:300|126:313,1,225.000008583069,4|0,0:0|0:0,0:0:0:0:
21,296,283606,5,8,0:0:0:0:
69,360,283693,2,0,B|122:347|122:347|197:361,1,119.999996337891,0|2,0:0|0:1,0:0:0:0:
267,372,283954,6,0,P|243:309|289:221,1,150,0|0,0:0|0:0,0:0:0:0:
369,176,284303,2,0,P|368:241|328:303,1,112.500004291535,8|0,0:0|0:0,0:0:0:0:
179,190,284652,6,0,B|161:175|161:175|202:162|202:162|278:212,1,150.000005722046,4|0,0:0|0:0,0:0:0:0:
349,295,284914,1,0,0:0:0:0:
384,217,285001,2,0,P|377:253|359:286,1,75.0000028610231,8|0,0:2|0:0,0:0:0:0:
160,326,285175,6,0,B|126:339|126:339|160:296|160:296|196:296|196:296|208:300|208:300|228:300|228:300|240:296|240:296|280:296,1,200,4|0,0:0|0:0,0:0:0:0:
347,277,285699,5,8,0:0:0:0:
422,297,285786,2,0,P|388:247|420:189,1,100,4|0,0:0|0:0,0:0:0:0:
494,172,286047,6,0,B|459:165|459:165|440:130,1,75.0000028610231,2|0,0:2|0:0,0:0:0:0:
395,25,286222,2,0,B|436:35|436:35|457:61,1,75.0000028610231,2|0,0:2|0:0,0:0:0:0:
322,38,286396,5,8,0:0:0:0:
249,75,286483,2,0,P|253:129|272:169,1,75.0000028610231,4|0,0:0|0:0,0:0:0:0:
382,199,286658,6,0,B|397:205|397:205|359:222|308:192,1,100,8|0,0:1|0:0,0:0:0:0:
307,191,287094,1,8,0:0:0:0:
299,184,287181,1,0,0:0:0:0:
293,175,287268,1,0,0:0:0:0:
287,166,287356,1,0,0:0:0:0:
259,145,287443,6,0,B|278:213|215:253|254:190|283:223|242:285|242:285|198:337|138:320,1,225.000008583069,4|0,0:0|0:0,0:0:0:0:
47,299,287792,1,8,0:2:0:0:
45,269,287879,1,0,0:0:0:0:
42,243,287966,2,0,B|79:240|122:216|105:138|105:138|138:121|181:149,1,200,4|4,0:0|0:0,0:0:0:0:
218,192,288838,6,0,B|200:216|216:229|216:229|249:255|291:257|291:257|305:250|305:250|305:222|305:222|325:206|325:206|353:206|353:206|369:218,1,240,8|8,3:1|0:2,0:0:0:0:
175,29,290233,6,0,P|147:73|156:112,1,50,0|0,0:0|0:0,0:0:0:0:
124,50,290408,2,0,P|124:111|216:157,1,150
231,201,290757,2,0,P|163:219|141:265,1,100
143,320,290989,6,0,P|152:297|83:217,1,100
24,274,291280,2,0,B|2:311|-25:305|-52:279|-42:231|22:222|67:258|67:258|108:285|167:318|234:238|212:210,1,350
144,145,291978,5,8,0:0:0:0:
136,153,292065,2,0,P|133:177|141:207,1,50,0|0,0:0|0:0,0:0:0:0:
290,241,292239,6,0,B|296:255|296:255|316:208|280:134,1,125,8|8,0:1|0:0,0:0:0:0:
282,131,292763,1,0,0:0:0:0:
279,113,292850,1,0,0:0:0:0:
276,96,292937,1,0,0:0:0:0:
285,78,293024,5,4,0:0:0:0:
284,63,293111,2,0,B|318:51|318:51|392:66,1,75.0000028610231
421,132,293286,2,0,B|387:144|387:144|313:129,1,75.0000028610231,0|8,0:0|0:0,0:0:0:0:
462,60,293460,2,0,P|496:90|503:131,1,75.0000028610231,0|0,0:0|0:0,0:0:0:0:
304,199,293635,2,0,P|316:164|345:141,1,75.0000028610231
422,230,293809,2,0,L|419:337,1,100,2|0,0:2|0:0,0:0:0:0:
305,354,294071,5,8,0:0:0:0:
224,323,294158,2,0,L|210:258,1,50
249,196,294332,2,0,P|195:191|138:233,1,100,4|0,0:0|0:0,0:0:0:0:
221,330,294594,5,0,0:0:0:0:
254,340,294681,1,4,0:0:0:0:
287,347,294768,2,0,L|324:338,4,25,8|0|0|0|0,0:0|0:0|0:0|0:0|0:0,0:0:0:0:
345,255,295030,6,0,P|344:201|319:269,1,200,2|0,0:1|0:0,0:0:0:0:
238,219,295466,2,0,P|273:167|376:176,1,150,8|0,0:0|0:0,0:0:0:0:
386,84,295815,5,4,0:0:0:0:
354,79,295902,2,0,B|318:74|318:74|250:86,1,75.0000028610231,0|0,0:0|0:0,0:0:0:0:
114,136,296076,2,0,B|145:148|145:148|182:146,1,69.9999978637696,0|8,0:0|0:0,0:0:0:0:
339,58,296251,2,0,B|303:53|303:53|235:65,1,64.9999970245363
99,115,296425,2,0,B|130:127|130:127|167:125,1,59.9999981689454
227,263,296600,2,0,B|176:266|176:266|103:243,1,100,2|0,0:0|0:0,0:0:0:0:
30,164,296861,5,8,0:0:0:0:
96,103,296949,2,0,P|110:129|107:171,1,50
47,271,297123,2,0,B|35:306|65:344|65:344|68:322,1,100,4|0,0:0|0:0,0:0:0:0:
33,157,297385,5,0,0:0:0:0:
25,123,297472,1,4,0:0:0:0:
18,105,297559,2,0,L|9:68,4,25,8|0|0|0|0,0:0|0:0|0:0|0:0|0:0,0:0:0:0:
12,54,297821,6,0,B|9:39|9:39|71:57|129:30,1,125,8|8,0:1|0:0,0:0:0:0:
137,29,298344,1,0,0:0:0:0:
153,23,298431,1,0,0:0:0:0:
170,22,298518,1,0,0:0:0:0:
205,26,298606,5,4,0:0:0:0:
214,33,298693,2,0,B|231:76|231:76|223:124,1,75.0000028610231,0|0,0:0|0:0,0:0:0:0:
163,243,298867,2,0,B|158:214|158:214|175:171,1,75.0000028610231,0|8,0:0|0:0,0:0:0:0:
269,223,299042,2,0,B|286:266|286:266|281:294,1,75.0000028610231,0|0,0:0|0:0,0:0:0:0:
190,384,299216,2,0,B|185:355|185:355|202:312,1,75.0000028610231,0|0,0:0|0:0,0:0:0:0:
155,245,299390,2,0,B|127:237|127:237|32:238,1,100,2|0,0:2|0:0,0:0:0:0:
40,58,299652,5,8,0:0:0:0:
74,140,299739,2,0,P|112:109|124:73,1,50,0|0,0:0|0:0,0:0:0:0:
150,37,299914,2,0,B|201:22|201:22|266:38,1,100,4|0,0:0|0:0,0:0:0:0:
367,32,300175,5,0,0:0:0:0:
368,67,300263,1,4,0:0:0:0:
388,101,300350,2,0,L|382:125,4,25,8|0|0|0|0,0:0|0:0|0:0|0:0|0:0,0:0:0:0:
315,163,300611,6,0,P|375:147|471:241,1,200,2|0,0:1|0:0,0:0:0:0:
372,351,301047,2,0,B|361:304|361:304|384:266|384:266|372:234|372:234|354:262,1,150,8|0,0:0|0:0,0:0:0:0:
247,309,301396,5,4,0:0:0:0:
215,335,301483,2,0,B|177:338|177:338|116:330,1,75.0000028610231,0|0,0:0|0:0,0:0:0:0:
119,238,301658,2,0,B|155:233|155:233|193:236,1,69.9999978637696,0|8,0:0|0:0,0:0:0:0:
48,286,301832,2,0,P|33:246|43:197,1,64.9999970245363,0|0,0:0|0:0,0:0:0:0:
157,79,302007,2,0,P|155:111|142:140,1,59.9999981689454,0|0,0:0|0:0,0:0:0:0:
17,19,302181,2,0,B|63:3|63:3|161:8,1,100,2|0,0:0|0:0,0:0:0:0:
216,11,302443,5,8,0:0:0:0:
264,139,302530,2,0,L|257:86,1,50,0|0,0:0|0:0,0:0:0:0:
364,95,302704,2,0,B|374:145|374:145|343:222,1,100,4|0,0:0|0:0,0:0:0:0:
291,274,302966,5,0,0:0:0:0:
285,308,303053,1,4,0:0:0:0:
289,342,303140,2,0,L|326:351,4,25,8|0|0|0|0,0:0|0:0|0:0|0:0|0:0,0:0:0:0:
375,284,303402,6,0,B|370:274|370:274|399:258|439:293|487:267,1,125,8|8,0:1|0:0,0:0:0:0:
485,252,303925,1,0,0:0:0:0:
485,234,304013,1,0,0:0:0:0:
485,216,304100,1,0,0:0:0:0:
474,196,304187,5,4,0:0:0:0:
468,189,304274,2,0,B|433:184|433:184|386:190,1,75.0000028610231,0|0,0:0|0:0,0:0:0:0:
246,211,304449,2,0,B|285:216|285:216|320:211,1,75.0000028610231,0|8,0:0|0:0,0:0:0:0:
186,151,304623,2,0,P|163:189|166:226,1,75.0000028610231,0|0,0:0|0:0,0:0:0:0:
350,285,304797,2,0,P|348:248|327:217,1,75.0000028610231
206,66,304972,2,0,P|136:75|103:120,1,100,2|0,0:2|0:0,0:0:0:0:
62,233,305233,5,8,0:0:0:0:
21,163,305321,2,0,P|73:156|102:169,1,50,0|0,0:0|0:0,0:0:0:0:
123,291,305495,2,0,P|196:296|232:268,1,100,4|0,0:0|0:0,0:0:0:0:
314,150,305757,5,0,0:0:0:0:
279,157,305844,1,4,0:0:0:0:
253,180,305931,2,0,L|223:203,4,25,8|0|0|0|0,0:0|0:0|0:0|0:0|0:0,0:0:0:0:
324,228,306193,6,0,B|359:242|359:242|476:232|476:232|519:247,1,200,2|0,0:1|0:0,0:0:0:0:
459,324,306629,2,0,B|419:329|419:329|389:348|389:348|359:337|359:337|304:337,1,150,8|0,0:0|0:0,0:0:0:0:
167,307,306978,5,4,0:0:0:0:
155,280,307065,2,0,B|149:237|149:237|161:192,1,75.0000028610231,0|0,0:0|0:0,0:0:0:0:
263,151,307239,2,0,B|271:181|271:181|265:224,1,75.0000028610231,0|8,0:0|0:0,0:0:0:0:
162,110,307414,2,0,B|156:67|156:67|164:36,1,64.9999970245363,0|0,0:0|0:0,0:0:0:0:
251,0,307588,2,0,B|259:30|259:30|253:73,1,64.9999970245363,0|0,0:0|0:0,0:0:0:0:
84,151,307763,2,0,B|26:156|26:156|88:177,1,100,2|0,0:0|0:0,0:0:0:0:
202,240,308024,5,8,0:0:0:0:
121,296,308111,2,0,P|104:240|108:223,1,50,0|0,0:0|0:0,0:0:0:0:
213,334,308286,2,0,B|264:344|264:344|329:333,1,100,4|0,0:0|0:0,0:0:0:0:
360,176,308547,5,0,0:0:0:0:
368,212,308635,1,4,0:0:0:0:
379,249,308722,2,0,L|402:278,4,25,8|0|0|0|0,0:0|0:0|0:0|0:0|0:0,0:0:0:0:
399,355,308983,6,0,B|398:365|398:365|469:351|470:271,1,125,8|8,0:1|0:0,0:0:0:0:
470,268,309507,1,0,0:0:0:0:
470,250,309594,1,0,0:0:0:0:
468,232,309681,1,0,0:0:0:0:
448,212,309768,5,4,0:0:0:0:
441,194,309856,2,0,B|433:159|433:159|453:91,1,75.0000028610231,0|0,0:0|0:0,0:0:0:0:
356,25,310030,2,0,B|367:62|367:62|359:97,1,75.0000028610231,0|8,0:0|0:0,0:0:0:0:
199,132,310204,2,0,P|245:120|283:134,1,75.0000028610231,0|0,0:0|0:0,0:0:0:0:
372,223,310379,2,0,P|335:229|300:217,1,75.0000028610231,0|0,0:0|0:0,0:0:0:0:
203,228,310553,2,0,B|187:278|187:278|203:339,1,100,2|0,0:2|0:0,0:0:0:0:
99,338,310815,5,8,0:0:0:0:
112,252,310902,2,0,P|82:252|42:279,1,50,0|0,0:0|0:0,0:0:0:0:
42,149,311076,2,0,B|30:107|46:68|46:68|56:77|65:96,1,100,4|0,0:0|0:0,0:0:0:0:
122,133,311338,5,8,0:1:0:0:
251,105,311513,6,0,P|237:145|248:193,1,72.5000022125245,8|0,0:0|0:0,0:0:0:0:
257,111,311643,2,0,P|280:75|282:26,1,64.9999970245363
266,124,311774,6,0,P|263:160|283:199,1,57.5000010967255
275,131,311904,2,0,P|286:95|277:54,1,57.5000010967255
290,133,312036,6,0,P|283:153|288:177,1,42.5000008106232
299,137,312166,2,0,P|310:119|311:94,1,42.5000008106232
309,144,312297,6,0,P|308:159|316:176,1,27.5000008392334
319,140,312427,2,0,P|323:124|320:106,1,27.5000008392334
