osu file format v14

[General]
AudioFilename: audio.mp3
AudioLeadIn: 0
PreviewTime: -1
Countdown: 0
SampleSet: Normal
StackLeniency: 0.7
Mode: 0
LetterboxInBreaks: 0
WidescreenStoryboard: 0

[Editor]
DistanceSpacing: 4
BeatDivisor: 3
GridSize: 4
TimelineZoom: 1.7

[Metadata]
Title:Shiver (Short Ver.)
TitleUnicode:Shiver (Short Ver.)
Artist:False Noise
ArtistUnicode:False Noise
Creator:Ditroon
Version:???
Source:
Tags:Shiver False Noise Jumps Insane
BeatmapID:2668382
BeatmapSetID:1285162

[Difficulty]
HPDrainRate:4
CircleSize:4.2
OverallDifficulty:6
ApproachRate:10
SliderMultiplier:1.4
SliderTickRate:1

[Events]
//Background and Video events
0,0,"spiral_fractal_dark_137827_2048x1152.jpg",0,0
//Break Periods
//Storyboard Layer 0 (Background)
//Storyboard Layer 1 (Fail)
//Storyboard Layer 2 (Pass)
//Storyboard Layer 3 (Foreground)
//Storyboard Layer 4 (Overlay)
//Storyboard Sound Samples

[TimingPoints]
-60,314.13612565445,4,1,0,100,1,0
0,-500,4,1,0,100,0,0
19730,-100,4,1,0,100,0,0
29809,315.789473684211,4,1,0,100,1,0
39993,315.789473684211,4,1,0,100,1,0
39993,-333.333333333333,4,1,0,100,0,0
42531,315.789473684211,4,1,0,100,1,1
59478,-66.6666666666667,4,1,0,100,0,0
60215,-66.6666666666667,4,1,0,100,0,1
80425,-500,4,1,0,100,0,0

[HitObjects]
95,167,882,6,0,P|122:154|158:153,1,56
323,108,2138,6,0,L|310:162,1,56
129,296,3395,6,0,L|188:282,1,56
413,146,4652,6,0,L|374:193,1,56
178,72,5908,6,0,L|158:125,1,56
395,48,7165,6,0,L|411:103,1,56
130,304,8421,6,0,L|188:280,1,56
353,295,9678,6,0,L|330:240,1,56
98,208,10934,6,0,L|148:179,1,56
388,67,12191,6,0,L|373:126,1,56
314,297,13447,6,0,L|267:261,1,56
92,71,14704,6,0,L|146:105,1,56
350,79,15960,6,0,L|316:129,1,56
278,278,17217,6,0,L|242:237,1,51.3333333333333
240,235,17845,2,0,L|225:183,1,51.3333333333333
224,181,18474,2,0,L|172:164,1,51.3333333333333
171,162,19102,2,0,L|136:122,1,51.3333333333333
134,119,19730,6,0,L|183:106,6,46.6666666666667
134,119,20463,6,0,L|120:174,5,46.6666666666667
134,119,21091,6,0,L|92:62,5,46.6666666666667
152,85,21720,5,0,0:0:0:0:
188,72,21824,1,0,0:0:0:0:
225,75,21929,1,0,0:0:0:0:
257,97,22034,1,0,0:0:0:0:
280,128,22138,1,0,0:0:0:0:
289,168,22243,1,0,0:0:0:0:
291,208,22348,6,0,L|340:195,6,46.6666666666667
291,208,23081,6,0,L|263:166,5,46.6666666666667
291,208,23709,6,0,L|275:258,5,46.6666666666667
253,223,24337,5,0,0:0:0:0:
218,207,24442,1,0,0:0:0:0:
186,183,24547,1,0,0:0:0:0:
165,150,24652,1,0,0:0:0:0:
157,110,24756,1,0,0:0:0:0:
153,71,24861,6,0,L|202:58,6,46.6666666666667
153,71,25594,6,0,L|125:29,5,46.6666666666667
153,71,26222,6,0,L|137:121,5,46.6666666666667
174,104,26850,5,0,0:0:0:0:
210,120,26955,1,0,0:0:0:0:
242,144,27060,1,0,0:0:0:0:
260,177,27165,1,0,0:0:0:0:
288,203,27269,1,0,0:0:0:0:
325,219,27374,1,0,0:0:0:0:
366,224,27479,6,0,L|379:273,6,46.6666666666667
366,224,28212,6,0,L|408:196,5,46.6666666666667
366,224,28840,6,0,L|316:208,5,46.6666666666667
291,201,29469,5,0,0:0:0:0:
283,203,29574,1,0,0:0:0:0:
277,205,29678,1,0,0:0:0:0:
160,228,29809,5,0,0:0:0:0:
181,161,29914,1,0,0:0:0:0:
240,122,30019,1,0,0:0:0:0:
307,106,30123,1,0,0:0:0:0:
372,131,30228,1,0,0:0:0:0:
408,191,30333,1,0,0:0:0:0:
318,202,30437,5,0,0:0:0:0:
268,227,30542,1,0,0:0:0:0:
213,212,30647,1,0,0:0:0:0:
156,208,30752,1,0,0:0:0:0:
104,229,30856,1,0,0:0:0:0:
53,254,30961,1,0,0:0:0:0:
49,140,31066,5,0,0:0:0:0:
113,94,31170,1,0,0:0:0:0:
189,117,31275,1,0,0:0:0:0:
221,189,31380,1,0,0:0:0:0:
262,257,31485,1,0,0:0:0:0:
331,293,31589,1,0,0:0:0:0:
448,259,31694,5,0,0:0:0:0:
402,235,31799,1,0,0:0:0:0:
366,198,31903,1,0,0:0:0:0:
353,148,32008,1,0,0:0:0:0:
343,97,32113,1,0,0:0:0:0:
352,46,32218,1,0,0:0:0:0:
438,52,32322,5,0,0:0:0:0:
413,141,32426,1,0,0:0:0:0:
341,201,32531,1,0,0:0:0:0:
251,227,32636,1,0,0:0:0:0:
159,210,32740,1,0,0:0:0:0:
89,147,32845,1,0,0:0:0:0:
64,42,32966,5,0,0:0:0:0:
90,68,33072,1,0,0:0:0:0:
122,86,33177,1,0,0:0:0:0:
159,89,33282,1,0,0:0:0:0:
195,80,33387,1,0,0:0:0:0:
224,56,33493,1,0,0:0:0:0:
323,62,33598,5,0,0:0:0:0:
296,126,33703,1,0,0:0:0:0:
246,175,33809,1,0,0:0:0:0:
180,199,33914,1,0,0:0:0:0:
111,186,34019,1,0,0:0:0:0:
55,144,34124,1,0,0:0:0:0:
106,76,34230,5,0,0:0:0:0:
178,117,34335,1,0,0:0:0:0:
261,124,34440,1,0,0:0:0:0:
341,146,34545,1,0,0:0:0:0:
409,195,34651,1,0,0:0:0:0:
414,278,34756,1,0,0:0:0:0:
316,311,34861,5,0,0:0:0:0:
274,249,34966,1,0,0:0:0:0:
266,174,35072,1,0,0:0:0:0:
312,115,35177,1,0,0:0:0:0:
383,95,35282,1,0,0:0:0:0:
442,139,35387,1,0,0:0:0:0:
385,230,35493,5,0,0:0:0:0:
373,237,35598,1,0,0:0:0:0:
359,239,35703,1,0,0:0:0:0:
345,235,35809,1,0,0:0:0:0:
332,228,35914,1,0,0:0:0:0:
322,218,36019,1,0,0:0:0:0:
409,156,36124,5,0,0:0:0:0:
369,122,36230,1,0,0:0:0:0:
320,106,36335,1,0,0:0:0:0:
268,104,36440,1,0,0:0:0:0:
219,121,36545,1,0,0:0:0:0:
180,155,36651,1,0,0:0:0:0:
95,208,36756,5,0,0:0:0:0:
152,262,36861,1,0,0:0:0:0:
228,283,36966,1,0,0:0:0:0:
306,267,37072,1,0,0:0:0:0:
365,214,37177,1,0,0:0:0:0:
390,138,37282,1,0,0:0:0:0:
309,62,37387,5,0,0:0:0:0:
288,119,37493,1,0,0:0:0:0:
245,162,37598,1,0,0:0:0:0:
187,180,37703,1,0,0:0:0:0:
126,174,37809,1,0,0:0:0:0:
72,145,37914,1,0,0:0:0:0:
101,58,38019,5,0,0:0:0:0:
127,77,38124,1,0,0:0:0:0:
157,89,38230,1,0,0:0:0:0:
189,89,38335,1,0,0:0:0:0:
220,82,38440,1,0,0:0:0:0:
250,69,38545,1,0,0:0:0:0:
354,67,38651,5,0,0:0:0:0:
340,111,38756,1,0,0:0:0:0:
313,154,38861,1,0,0:0:0:0:
275,195,38966,1,0,0:0:0:0:
219,221,39072,1,0,0:0:0:0:
154,229,39177,1,0,0:0:0:0:
88,204,39282,1,0,0:0:0:0:
70,131,39387,1,0,0:0:0:0:
130,79,39493,1,0,0:0:0:0:
201,122,39598,1,0,0:0:0:0:
203,210,39703,1,0,0:0:0:0:
188,298,39809,1,0,0:0:0:0:
113,276,39993,6,0,B|157:215|237:193|303:194|359:142|395:88,1,335.999989746094
219,168,42531,5,0,0:0:0:0:
260,224,42636,1,0,0:0:0:0:
324,249,42741,1,0,0:0:0:0:
387,217,42847,1,0,0:0:0:0:
400,148,42952,1,0,0:0:0:0:
364,87,43057,1,0,0:0:0:0:
295,75,43162,1,0,0:0:0:0:
226,90,43268,1,0,0:0:0:0:
159,112,43373,5,0,0:0:0:0:
104,155,43478,1,0,0:0:0:0:
94,224,43583,1,0,0:0:0:0:
146,271,43689,1,0,0:0:0:0:
214,257,43794,1,0,0:0:0:0:
220,187,43899,1,0,0:0:0:0:
239,119,44004,1,0,0:0:0:0:
297,79,44110,1,0,0:0:0:0:
362,103,44215,5,0,0:0:0:0:
385,168,44320,1,0,0:0:0:0:
383,237,44425,1,0,0:0:0:0:
336,290,44531,1,0,0:0:0:0:
267,303,44636,1,0,0:0:0:0:
201,279,44741,1,0,0:0:0:0:
153,226,44847,1,0,0:0:0:0:
127,161,44952,1,0,0:0:0:0:
181,71,45057,5,0,0:0:0:0:
256,106,45162,1,0,0:0:0:0:
310,170,45268,1,0,0:0:0:0:
282,249,45373,1,0,0:0:0:0:
200,267,45478,1,0,0:0:0:0:
132,217,45583,1,0,0:0:0:0:
100,138,45689,1,0,0:0:0:0:
121,57,45794,1,0,0:0:0:0:
202,75,45899,5,0,0:0:0:0:
185,157,46004,1,0,0:0:0:0:
219,234,46110,1,0,0:0:0:0:
295,268,46215,1,0,0:0:0:0:
378,262,46320,1,0,0:0:0:0:
431,197,46425,1,0,0:0:0:0:
439,112,46531,1,0,0:0:0:0:
380,52,46636,1,0,0:0:0:0:
287,64,46741,5,0,0:0:0:0:
323,140,46847,1,0,0:0:0:0:
308,222,46952,1,0,0:0:0:0:
243,275,47057,1,0,0:0:0:0:
162,252,47162,1,0,0:0:0:0:
134,172,47268,1,0,0:0:0:0:
143,88,47373,1,0,0:0:0:0:
215,46,47478,1,0,0:0:0:0:
311,60,47583,5,0,0:0:0:0:
390,118,47689,1,0,0:0:0:0:
409,213,47794,1,0,0:0:0:0:
349,290,47899,1,0,0:0:0:0:
271,230,48004,1,0,0:0:0:0:
339,158,48110,1,0,0:0:0:0:
299,68,48215,1,0,0:0:0:0:
203,46,48320,1,0,0:0:0:0:
114,86,48425,5,0,0:0:0:0:
194,143,48531,1,0,0:0:0:0:
260,214,48636,1,0,0:0:0:0:
329,283,48741,1,0,0:0:0:0:
427,278,48847,1,0,0:0:0:0:
460,186,48952,1,0,0:0:0:0:
411,101,49057,1,0,0:0:0:0:
318,70,49162,1,0,0:0:0:0:
221,89,49268,5,0,0:0:0:0:
146,152,49373,1,0,0:0:0:0:
136,249,49478,1,0,0:0:0:0:
233,258,49583,1,0,0:0:0:0:
249,160,49689,1,0,0:0:0:0:
316,88,49794,1,0,0:0:0:0:
397,141,49899,1,0,0:0:0:0:
348,225,50004,1,0,0:0:0:0:
235,235,50110,5,0,0:0:0:0:
133,280,50215,1,0,0:0:0:0:
71,186,50320,1,0,0:0:0:0:
117,84,50425,1,0,0:0:0:0:
227,61,50531,1,0,0:0:0:0:
324,115,50636,1,0,0:0:0:0:
379,212,50741,1,0,0:0:0:0:
308,300,50847,1,0,0:0:0:0:
196,303,50952,5,0,0:0:0:0:
287,238,51057,1,0,0:0:0:0:
324,132,51162,1,0,0:0:0:0:
244,51,51268,1,0,0:0:0:0:
137,84,51373,1,0,0:0:0:0:
79,179,51478,1,0,0:0:0:0:
98,289,51583,1,0,0:0:0:0:
206,321,51689,1,0,0:0:0:0:
315,296,51794,5,0,0:0:0:0:
218,239,51899,1,0,0:0:0:0:
139,159,52004,1,0,0:0:0:0:
186,56,52110,1,0,0:0:0:0:
297,58,52215,1,0,0:0:0:0:
370,141,52320,1,0,0:0:0:0:
365,252,52425,1,0,0:0:0:0:
270,314,52531,1,0,0:0:0:0:
170,262,52636,5,0,0:0:0:0:
135,155,52741,1,0,0:0:0:0:
195,61,52846,1,0,0:0:0:0:
306,43,52952,1,0,0:0:0:0:
410,81,53057,1,0,0:0:0:0:
426,191,53162,1,0,0:0:0:0:
328,244,53267,1,0,0:0:0:0:
311,134,53373,5,0,0:0:0:0:
312,245,53478,1,0,0:0:0:0:
210,292,53583,1,0,0:0:0:0:
117,228,53689,1,0,0:0:0:0:
111,116,53794,1,0,0:0:0:0:
205,56,53899,1,0,0:0:0:0:
316,65,54004,1,0,0:0:0:0:
371,163,54110,1,0,0:0:0:0:
293,243,54215,5,0,0:0:0:0:
181,255,54320,1,0,0:0:0:0:
104,173,54425,1,0,0:0:0:0:
83,62,54531,1,0,0:0:0:0:
190,91,54636,1,0,0:0:0:0:
255,181,54741,1,0,0:0:0:0:
361,216,54847,1,0,0:0:0:0:
448,145,54952,1,0,0:0:0:0:
343,104,55057,1,0,0:0:0:0:
385,207,55162,5,0,0:0:0:0:
312,291,55267,1,0,0:0:0:0:
204,257,55373,1,0,0:0:0:0:
190,146,55478,1,0,0:0:0:0:
262,61,55583,1,0,0:0:0:0:
151,48,55688,1,0,0:0:0:0:
50,98,55794,1,0,0:0:0:0:
127,182,55899,5,0,0:0:0:0:
163,287,56004,1,0,0:0:0:0:
250,216,56110,1,0,0:0:0:0:
329,294,56215,1,0,0:0:0:0:
426,238,56320,1,0,0:0:0:0:
424,126,56425,1,0,0:0:0:0:
330,63,56531,1,0,0:0:0:0:
218,75,56636,1,0,0:0:0:0:
124,136,56741,5,0,0:0:0:0:
175,236,56847,1,0,0:0:0:0:
286,234,56952,1,0,0:0:0:0:
358,148,57057,1,0,0:0:0:0:
264,86,57162,1,0,0:0:0:0:
157,122,57268,1,0,0:0:0:0:
138,232,57373,1,0,0:0:0:0:
229,296,57478,1,0,0:0:0:0:
295,206,57583,5,0,0:0:0:0:
183,204,57688,5,0,0:0:0:0:
114,114,57794,1,0,0:0:0:0:
218,73,57899,1,0,0:0:0:0:
267,173,58004,1,0,0:0:0:0:
226,81,58109,1,0,0:0:0:0:
122,126,58215,1,0,0:0:0:0:
168,227,58320,1,0,0:0:0:0:
324,231,58425,5,0,0:0:0:0:
394,142,58531,1,0,0:0:0:0:
324,54,58636,1,0,0:0:0:0:
213,37,58741,1,0,0:0:0:0:
120,99,58846,1,0,0:0:0:0:
120,211,58952,1,0,0:0:0:0:
205,282,59057,1,0,0:0:0:0:
316,283,59162,1,0,0:0:0:0:
409,219,59268,5,0,0:0:0:0:
302,253,59373,1,0,0:0:0:0:
115,177,59628,6,0,L|143:150,5,30.0000011444092
105,145,59899,6,0,L|143:150,5,30.0000011444092
207,260,60215,5,0,0:0:0:0:
304,140,60320,1,0,0:0:0:0:
152,113,60425,1,0,0:0:0:0:
249,233,60531,1,0,0:0:0:0:
282,83,60636,1,0,0:0:0:0:
129,68,60741,1,0,0:0:0:0:
129,239,60846,5,0,0:0:0:0:
153,85,60952,1,0,0:0:0:0:
304,107,61057,1,0,0:0:0:0:
283,259,61162,1,0,0:0:0:0:
133,225,61267,1,0,0:0:0:0:
171,74,61373,1,0,0:0:0:0:
269,192,61478,5,0,0:0:0:0:
385,92,61583,1,0,0:0:0:0:
315,229,61688,1,0,0:0:0:0:
344,76,61794,1,0,0:0:0:0:
254,200,61899,1,0,0:0:0:0:
382,115,62004,1,0,0:0:0:0:
199,85,62109,5,0,0:0:0:0:
124,252,62215,1,0,0:0:0:0:
303,226,62320,1,0,0:0:0:0:
220,64,62425,1,0,0:0:0:0:
156,235,62531,1,0,0:0:0:0:
336,254,62636,1,0,0:0:0:0:
189,85,62741,5,0,0:0:0:0:
136,302,62846,1,0,0:0:0:0:
356,254,62952,1,0,0:0:0:0:
257,53,63057,1,0,0:0:0:0:
133,238,63162,1,0,0:0:0:0:
344,310,63267,1,0,0:0:0:0:
391,89,63373,5,0,0:0:0:0:
176,245,63478,1,0,0:0:0:0:
335,32,63583,1,0,0:0:0:0:
244,281,63688,1,0,0:0:0:0:
259,13,63794,1,0,0:0:0:0:
319,271,63899,1,0,0:0:0:0:
110,107,64004,5,0,0:0:0:0:
399,154,64109,1,0,0:0:0:0:
174,346,64215,1,0,0:0:0:0:
176,52,64320,1,0,0:0:0:0:
421,212,64425,1,0,0:0:0:0:
138,299,64531,1,0,0:0:0:0:
317,67,64636,5,0,0:0:0:0:
158,313,64741,1,0,0:0:0:0:
245,33,64846,1,0,0:0:0:0:
233,328,64952,1,0,0:0:0:0:
168,41,65057,1,0,0:0:0:0:
306,299,65162,1,0,0:0:0:0:
105,85,65267,5,0,0:0:0:0:
357,239,65373,1,0,0:0:0:0:
74,159,65478,1,0,0:0:0:0:
367,164,65583,1,0,0:0:0:0:
82,235,65688,1,0,0:0:0:0:
339,89,65794,1,0,0:0:0:0:
31,24,65899,5,0,0:0:0:0:
301,222,66004,1,0,0:0:0:0:
5,64,66109,1,0,0:0:0:0:
355,170,66215,1,0,0:0:0:0:
30,332,66320,1,0,0:0:0:0:
400,231,66425,1,0,0:0:0:0:
58,47,66531,5,0,0:0:0:0:
436,109,66636,1,0,0:0:0:0:
56,168,66741,1,0,0:0:0:0:
436,216,66846,1,0,0:0:0:0:
54,284,66952,1,0,0:0:0:0:
434,334,67057,1,0,0:0:0:0:
219,58,67162,5,0,0:0:0:0:
28,350,67267,1,0,0:0:0:0:
378,309,67373,1,0,0:0:0:0:
154,41,67478,1,0,0:0:0:0:
59,377,67583,1,0,0:0:0:0:
392,273,67688,1,0,0:0:0:0:
107,65,67794,5,0,0:0:0:0:
427,204,67899,1,0,0:0:0:0:
94,308,68004,1,0,0:0:0:0:
407,154,68109,1,0,0:0:0:0:
84,12,68215,1,0,0:0:0:0:
385,188,68320,1,0,0:0:0:0:
62,321,68425,5,0,0:0:0:0:
251,57,68531,1,0,0:0:0:0:
430,323,68636,1,0,0:0:0:0:
113,267,68741,1,0,0:0:0:0:
331,31,68846,1,0,0:0:0:0:
363,353,68952,1,0,0:0:0:0:
85,191,69057,5,0,0:0:0:0:
377,58,69162,1,0,0:0:0:0:
266,359,69267,1,0,0:0:0:0:
99,81,69373,1,0,0:0:0:0:
319,314,69478,1,0,0:0:0:0:
173,27,69583,1,0,0:0:0:0:
51,324,69688,5,0,0:0:0:0:
368,44,69794,1,0,0:0:0:0:
78,347,69899,1,0,0:0:0:0:
313,0,70004,1,0,0:0:0:0:
123,373,70109,1,0,0:0:0:0:
469,130,70215,1,0,0:0:0:0:
65,241,70320,6,0,L|79:213,14,30.0000011444092
457,83,71057,1,0,0:0:0:0:
118,330,71162,1,0,0:0:0:0:
418,38,71267,1,0,0:0:0:0:
27,201,71373,1,0,0:0:0:0:
444,238,71478,1,0,0:0:0:0:
67,54,71583,5,0,0:0:0:0:
391,319,71688,1,0,0:0:0:0:
20,114,71794,1,0,0:0:0:0:
436,67,71899,1,0,0:0:0:0:
98,315,72004,1,0,0:0:0:0:
482,149,72109,1,0,0:0:0:0:
67,63,72215,5,0,0:0:0:0:
415,295,72320,1,0,0:0:0:0:
28,132,72425,1,0,0:0:0:0:
441,222,72531,1,0,0:0:0:0:
22,213,72636,1,0,0:0:0:0:
435,147,72741,1,0,0:0:0:0:
382,97,72846,6,0,L|396:69,14,30.0000011444092
38,343,73583,5,0,0:0:0:0:
416,245,73688,1,0,0:0:0:0:
71,53,73794,1,0,0:0:0:0:
445,163,73899,1,0,0:0:0:0:
63,246,74004,1,0,0:0:0:0:
419,84,74109,1,0,0:0:0:0:
148,331,74215,5,0,0:0:0:0:
375,47,74320,1,0,0:0:0:0:
100,284,74425,1,0,0:0:0:0:
425,114,74531,1,0,0:0:0:0:
74,209,74636,1,0,0:0:0:0:
436,192,74741,1,0,0:0:0:0:
99,54,74846,5,0,0:0:0:0:
374,295,74952,1,0,0:0:0:0:
33,167,75057,1,0,0:0:0:0:
392,115,75162,1,0,0:0:0:0:
108,341,75267,1,0,0:0:0:0:
95,80,75373,6,0,L|121:100,14,30.0000011444092
383,251,76109,5,0,0:0:0:0:
45,276,76215,1,0,0:0:0:0:
307,67,76320,1,0,0:0:0:0:
115,342,76425,1,0,0:0:0:0:
443,262,76531,1,0,0:0:0:0:
128,146,76636,1,0,0:0:0:0:
453,66,76741,5,0,0:0:0:0:
206,293,76846,1,0,0:0:0:0:
23,8,76952,1,0,0:0:0:0:
349,81,77057,1,0,0:0:0:0:
87,290,77162,1,0,0:0:0:0:
420,252,77267,1,0,0:0:0:0:
135,68,77373,5,0,0:0:0:0:
371,304,77478,1,0,0:0:0:0:
112,90,77583,1,0,0:0:0:0:
348,326,77688,1,0,0:0:0:0:
76,124,77794,1,0,0:0:0:0:
228,161,77899,6,0,L|242:133,7,30.0000011444092
415,308,78320,1,0,0:0:0:0:
120,80,78531,1,0,0:0:0:0:
124,252,78756,6,0,L|93:239,7,30.0000011444092
307,229,79162,1,0,0:0:0:0:
81,81,79373,1,0,0:0:0:0:
353,119,79613,6,0,L|337:93,7,30.0000011444092
385,318,80004,1,0,0:0:0:0:
150,73,80215,1,0,0:0:0:0:
114,196,80488,6,0,L|114:199,2,3.11111111111111
259,139,81246,6,0,L|259:142,2,3.11111111111111
357,256,81688,6,0,L|357:259,2,3.11111111111111
227,257,82194,6,0,L|227:260,2,3.11111111111111
217,102,82557,6,0,L|217:105,2,3.11111111111111
387,86,83820,6,0,L|387:89,2,3.11111111111111
165,92,84215,6,0,L|165:95,2,3.11111111111111
191,280,84767,6,0,L|191:283,2,3.11111111111111
336,196,85083,6,0,L|336:199,2,3.11111111111111
256,98,85478,6,0,L|256:101,2,3.11111111111111
116,104,86267,6,0,L|116:107,2,3.11111111111111
407,301,86741,6,0,L|407:304,2,3.11111111111111
347,103,87294,6,0,L|347:106,2,3.11111111111111
379,209,87609,6,0,L|379:212,2,3.11111111111111
254,292,88873,6,0,L|254:295,2,3.11111111111111
158,108,89267,6,0,L|158:111,2,3.11111111111111
311,53,89741,6,0,L|311:56,2,3.11111111111111
326,216,90057,6,0,L|326:219,2,3.11111111111111
199,263,90531,6,0,L|199:266,2,3.11111111111111
122,108,91399,6,0,L|122:111,2,3.11111111111111
196,231,91873,6,0,L|196:234,2,3.11111111111111
303,92,92346,6,0,L|303:95,2,3.11111111111111
86,108,92583,6,0,L|86:111,2,3.11111111111111
345,273,93925,6,0,L|345:276,2,3.11111111111111
104,85,94320,6,0,L|104:88,2,3.11111111111111
412,69,94794,6,0,L|412:72,2,3.11111111111111
459,309,95109,6,0,L|459:312,2,3.11111111111111
83,302,95583,6,0,L|83:305,2,3.11111111111111
319,264,96425,5,0,0:0:0:0:
188,192,96846,1,0,0:0:0:0:
364,129,97373,1,0,0:0:0:0:
259,168,97688,1,0,0:0:0:0:
133,258,98952,5,0,0:0:0:0:
258,177,99373,1,0,0:0:0:0:
412,281,99899,1,0,0:0:0:0:
391,170,100215,1,0,0:0:0:0:
