osu file format v14

[General]
AudioFilename: audio.mp3
AudioLeadIn: 0
PreviewTime: 67127
Countdown: 0
SampleSet: Soft
StackLeniency: 0.7
Mode: 3
LetterboxInBreaks: 0
SpecialStyle: 0
WidescreenStoryboard: 0

[Editor]
Bookmarks: 20035,44803,67128,89454,111779,133058,156429,167593,178756,201081,223407,228988,251314,273639,284802
DistanceSpacing: 1.5
BeatDivisor: 4
GridSize: 32
TimelineZoom: 1.5

[Metadata]
Title:Serpentine
TitleUnicode:Serpentine
Artist:False Noise
ArtistUnicode:False Noise
Creator:-MysticEyes
Version:Ethereal
Source:
Tags:featured artist fa mappers' guild mpg mg neurofunk dnb drum and bass emerald green edm upscale electronic instrumental
BeatmapID:4471128
BeatmapSetID:2126878

[Difficulty]
HPDrainRate:8.5
CircleSize:4
OverallDifficulty:7.9
ApproachRate:5
SliderMultiplier:1.4
SliderTickRate:1

[Events]
//Background and Video events
0,0,"truesilence.jpg",0,0
//Break Periods
2,53068,54764
2,134718,138485
2,139950,155229
//Storyboard Layer 0 (Background)
//Storyboard Layer 1 (Fail)
//Storyboard Layer 2 (Pass)
//Storyboard Layer 3 (Foreground)
//Storyboard Layer 4 (Overlay)
//Storyboard Sound Samples

[TimingPoints]
22476,348.837209302326,4,2,1,40,1,0

[HitObjects]
192,192,22476,128,0,22650:0:0:0:0:
320,192,22476,128,0,22650:0:0:0:0:
64,192,22824,1,0,0:0:0:0:
448,192,22824,1,0,0:0:0:0:
64,192,22999,1,0,0:0:0:0:
320,192,23173,1,0,0:0:0:0:
320,192,23348,1,0,0:0:0:0:
64,192,23522,1,0,0:0:0:0:
64,192,23696,1,0,0:0:0:0:
320,192,23871,1,0,0:0:0:0:
448,192,23871,1,0,0:0:0:0:
320,192,24045,1,0,0:0:0:0:
64,192,24220,1,0,0:0:0:0:
64,192,24394,1,0,0:0:0:0:
320,192,24569,1,0,0:0:0:0:
320,192,24743,1,0,0:0:0:0:
64,192,24917,1,0,0:0:0:0:
64,192,25092,1,0,0:0:0:0:
320,192,25266,128,0,25382:0:0:0:0:
448,192,25266,128,0,25441:0:0:0:0:
448,192,25615,1,0,0:0:0:0:
64,192,25615,1,0,0:0:0:0:
448,192,25789,1,0,0:0:0:0:
192,192,25964,1,0,0:0:0:0:
192,192,26138,1,0,0:0:0:0:
448,192,26313,1,0,0:0:0:0:
448,192,26487,1,0,0:0:0:0:
192,192,26662,1,0,0:0:0:0:
64,192,26662,1,0,0:0:0:0:
192,192,26836,1,0,0:0:0:0:
448,192,27010,1,0,0:0:0:0:
448,192,27185,1,0,0:0:0:0:
192,192,27359,1,0,0:0:0:0:
192,192,27534,1,0,0:0:0:0:
448,192,27708,1,0,0:0:0:0:
448,192,27882,1,0,0:0:0:0:
64,192,28057,128,0,28144:0:0:0:0:
192,192,28057,128,0,28144:0:0:0:0:
320,192,28406,1,0,0:0:0:0:
64,192,28406,1,0,0:0:0:0:
320,192,28580,1,0,0:0:0:0:
192,192,28755,1,0,0:0:0:0:
192,192,28929,1,0,0:0:0:0:
320,192,29103,1,0,0:0:0:0:
320,192,29278,1,0,0:0:0:0:
192,192,29452,1,0,0:0:0:0:
64,192,29452,1,0,0:0:0:0:
192,192,29627,1,0,0:0:0:0:
320,192,29801,1,0,0:0:0:0:
320,192,29976,1,0,0:0:0:0:
192,192,30150,1,0,0:0:0:0:
192,192,30324,1,0,0:0:0:0:
320,192,30499,1,0,0:0:0:0:
64,192,30499,1,0,0:0:0:0:
448,192,30499,1,0,0:0:0:0:
192,192,30673,1,0,0:0:0:0:
320,192,30848,1,0,0:0:0:0:
192,192,30848,1,0,0:0:0:0:
192,192,31022,1,0,0:0:0:0:
448,192,31022,1,0,0:0:0:0:
64,192,31196,1,0,0:0:0:0:
448,192,31196,1,0,0:0:0:0:
320,192,31196,1,0,0:0:0:0:
64,192,31371,1,0,0:0:0:0:
320,192,31545,1,0,0:0:0:0:
320,192,31720,1,0,0:0:0:0:
64,192,31894,1,0,0:0:0:0:
64,192,32069,1,0,0:0:0:0:
320,192,32243,1,0,0:0:0:0:
448,192,32243,1,0,0:0:0:0:
192,192,32330,1,0,0:0:0:0:
320,192,32417,1,0,0:0:0:0:
192,192,32505,1,0,0:0:0:0:
64,192,32592,1,0,0:0:0:0:
448,192,32679,1,0,0:0:0:0:
64,192,32766,1,0,0:0:0:0:
448,192,32853,1,0,0:0:0:0:
320,192,32941,1,0,0:0:0:0:
192,192,32999,1,0,0:0:0:0:
64,192,33057,1,0,0:0:0:0:
320,192,33115,1,0,0:0:0:0:
192,192,33173,1,0,0:0:0:0:
448,192,33231,1,0,0:0:0:0:
64,192,33289,1,0,0:0:0:0:
320,192,33348,1,0,0:0:0:0:
448,192,33406,1,0,0:0:0:0:
64,192,33464,1,0,0:0:0:0:
192,192,33522,1,0,0:0:0:0:
448,192,33580,1,0,0:0:0:0:
192,192,33638,128,0,33813:0:0:0:0:
320,192,33638,128,0,33755:0:0:0:0:
192,192,33987,1,0,0:0:0:0:
320,192,33987,1,0,0:0:0:0:
448,192,34074,1,0,0:0:0:0:
192,192,34162,1,0,0:0:0:0:
320,192,34183,1,0,0:0:0:0:
192,192,34336,1,0,0:0:0:0:
64,192,34358,1,0,0:0:0:0:
320,192,34489,1,0,0:0:0:0:
192,192,34510,1,0,0:0:0:0:
320,192,34685,1,0,0:0:0:0:
448,192,34707,1,0,0:0:0:0:
192,192,34837,1,0,0:0:0:0:
320,192,34859,1,0,0:0:0:0:
192,192,35034,1,0,0:0:0:0:
448,192,35034,1,0,0:0:0:0:
64,192,35055,1,0,0:0:0:0:
320,192,35186,1,0,0:0:0:0:
192,192,35208,1,0,0:0:0:0:
320,192,35382,1,0,0:0:0:0:
448,192,35404,1,0,0:0:0:0:
192,192,35535,1,0,0:0:0:0:
320,192,35557,1,0,0:0:0:0:
192,192,35731,1,0,0:0:0:0:
64,192,35753,1,0,0:0:0:0:
320,192,35884,1,0,0:0:0:0:
192,192,35906,1,0,0:0:0:0:
320,192,36080,1,0,0:0:0:0:
64,192,36080,1,0,0:0:0:0:
448,192,36102,1,0,0:0:0:0:
192,192,36233,1,0,0:0:0:0:
320,192,36255,1,0,0:0:0:0:
64,192,36429,128,0,36603:0:0:0:0:
192,192,36429,128,0,36545:0:0:0:0:
64,192,36778,1,0,0:0:0:0:
448,192,36778,1,0,0:0:0:0:
64,192,36952,1,0,0:0:0:0:
320,192,37127,1,0,0:0:0:0:
320,192,37301,1,0,0:0:0:0:
64,192,37476,1,0,0:0:0:0:
64,192,37650,1,0,0:0:0:0:
320,192,37824,1,0,0:0:0:0:
192,192,37824,1,0,0:0:0:0:
320,192,37999,1,0,0:0:0:0:
64,192,38173,1,0,0:0:0:0:
64,192,38348,1,0,0:0:0:0:
320,192,38522,1,0,0:0:0:0:
320,192,38696,1,0,0:0:0:0:
64,192,38871,1,0,0:0:0:0:
64,192,39045,1,0,0:0:0:0:
320,192,39220,128,0,39307:0:0:0:0:
448,192,39220,128,0,39307:0:0:0:0:
192,192,39569,1,0,0:0:0:0:
448,192,39569,1,0,0:0:0:0:
192,192,39743,1,0,0:0:0:0:
320,192,39917,1,0,0:0:0:0:
320,192,40092,1,0,0:0:0:0:
192,192,40266,1,0,0:0:0:0:
192,192,40441,1,0,0:0:0:0:
320,192,40615,1,0,0:0:0:0:
448,192,40615,1,0,0:0:0:0:
320,192,40789,1,0,0:0:0:0:
192,192,40964,1,0,0:0:0:0:
192,192,41138,1,0,0:0:0:0:
320,192,41313,1,0,0:0:0:0:
192,192,41487,1,0,0:0:0:0:
64,192,41487,1,0,0:0:0:0:
448,192,41487,1,0,0:0:0:0:
448,192,41662,1,0,0:0:0:0:
192,192,41705,1,0,0:0:0:0:
320,192,41749,1,0,0:0:0:0:
64,192,41836,128,0,42010:0:0:0:0:
192,192,41923,128,0,42010:0:0:0:0:
320,192,42010,1,0,0:0:0:0:
192,192,42185,128,0,42272:0:0:0:0:
448,192,42185,128,0,42272:0:0:0:0:
448,192,42359,1,0,0:0:0:0:
192,192,42359,1,0,0:0:0:0:
64,192,42359,1,0,0:0:0:0:
448,192,42534,1,0,0:0:0:0:
64,192,42708,1,0,0:0:0:0:
64,192,42882,1,0,0:0:0:0:
448,192,43057,1,0,0:0:0:0:
448,192,43231,1,0,0:0:0:0:
192,192,43231,1,0,0:0:0:0:
64,192,43406,1,0,0:0:0:0:
320,192,43406,1,0,0:0:0:0:
64,192,43580,1,0,0:0:0:0:
448,192,43755,1,0,0:0:0:0:
192,192,43755,1,0,0:0:0:0:
448,192,43929,1,0,0:0:0:0:
64,192,44103,1,0,0:0:0:0:
64,192,44278,1,0,0:0:0:0:
320,192,44278,1,0,0:0:0:0:
448,192,44452,1,0,0:0:0:0:
448,192,44627,1,0,0:0:0:0:
320,192,44801,1,0,0:0:0:0:
64,192,44859,1,0,0:0:0:0:
192,192,44917,1,0,0:0:0:0:
448,192,44976,1,0,0:0:0:0:
64,192,45034,1,0,0:0:0:0:
448,192,45092,1,0,0:0:0:0:
320,192,45150,1,0,0:0:0:0:
192,192,45194,1,0,0:0:0:0:
192,192,46196,1,0,0:0:0:0:
448,192,46240,1,0,0:0:0:0:
320,192,47243,1,0,0:0:0:0:
64,192,47287,1,0,0:0:0:0:
192,192,50382,128,0,50688:0:0:0:0:
320,192,50426,128,0,50644:0:0:0:0:
320,192,50731,1,0,0:0:0:0:
192,192,50775,1,0,0:0:0:0:
192,192,51778,1,0,0:0:0:0:
448,192,51821,1,0,0:0:0:0:
320,192,52824,1,0,0:0:0:0:
64,192,52868,1,0,0:0:0:0:
320,192,55964,5,0,0:0:0:0:
64,192,56022,1,0,0:0:0:0:
192,192,56080,1,0,0:0:0:0:
448,192,56138,1,0,0:0:0:0:
64,192,56196,1,0,0:0:0:0:
448,192,56255,1,0,0:0:0:0:
320,192,56313,1,0,0:0:0:0:
192,192,56356,1,0,0:0:0:0:
320,192,56487,1,0,0:0:0:0:
64,192,56662,1,0,0:0:0:0:
64,192,56836,1,0,0:0:0:0:
320,192,57010,1,0,0:0:0:0:
320,192,57185,1,0,0:0:0:0:
192,192,57359,1,0,0:0:0:0:
448,192,57403,1,0,0:0:0:0:
192,192,57534,1,0,0:0:0:0:
448,192,57708,1,0,0:0:0:0:
448,192,57882,1,0,0:0:0:0:
192,192,58057,1,0,0:0:0:0:
192,192,58231,1,0,0:0:0:0:
320,192,58406,1,0,0:0:0:0:
64,192,58449,1,0,0:0:0:0:
320,192,58580,1,0,0:0:0:0:
64,192,58755,1,0,0:0:0:0:
64,192,58929,1,0,0:0:0:0:
320,192,59103,1,0,0:0:0:0:
192,192,59103,1,0,0:0:0:0:
320,192,59278,1,0,0:0:0:0:
64,192,59452,1,0,0:0:0:0:
64,192,59627,1,0,0:0:0:0:
320,192,59801,1,0,0:0:0:0:
192,192,59801,1,0,0:0:0:0:
320,192,59976,1,0,0:0:0:0:
448,192,60150,1,0,0:0:0:0:
448,192,60324,1,0,0:0:0:0:
192,192,60499,1,0,0:0:0:0:
320,192,60499,1,0,0:0:0:0:
192,192,60673,1,0,0:0:0:0:
448,192,60848,1,0,0:0:0:0:
448,192,61022,1,0,0:0:0:0:
320,192,61196,1,0,0:0:0:0:
192,192,61196,1,0,0:0:0:0:
192,192,61371,1,0,0:0:0:0:
64,192,61545,1,0,0:0:0:0:
64,192,61720,1,0,0:0:0:0:
320,192,61894,1,0,0:0:0:0:
192,192,61894,1,0,0:0:0:0:
320,192,62069,1,0,0:0:0:0:
64,192,62243,1,0,0:0:0:0:
64,192,62417,1,0,0:0:0:0:
320,192,62592,1,0,0:0:0:0:
192,192,62592,1,0,0:0:0:0:
320,192,62766,1,0,0:0:0:0:
448,192,62941,1,0,0:0:0:0:
448,192,63115,1,0,0:0:0:0:
192,192,63289,1,0,0:0:0:0:
320,192,63289,1,0,0:0:0:0:
192,192,63464,1,0,0:0:0:0:
448,192,63638,1,0,0:0:0:0:
448,192,63813,1,0,0:0:0:0:
320,192,63987,1,0,0:0:0:0:
192,192,63987,1,0,0:0:0:0:
192,192,64162,1,0,0:0:0:0:
64,192,64336,1,0,0:0:0:0:
320,192,64423,1,0,0:0:0:0:
64,192,64510,1,0,0:0:0:0:
192,192,64685,1,0,0:0:0:0:
320,192,64685,1,0,0:0:0:0:
448,192,64772,1,0,0:0:0:0:
192,192,64859,1,0,0:0:0:0:
64,192,65034,1,0,0:0:0:0:
320,192,65121,1,0,0:0:0:0:
64,192,65208,1,0,0:0:0:0:
192,192,65382,1,0,0:0:0:0:
320,192,65382,1,0,0:0:0:0:
448,192,65470,1,0,0:0:0:0:
192,192,65557,1,0,0:0:0:0:
448,192,65731,1,0,0:0:0:0:
192,192,65819,1,0,0:0:0:0:
448,192,65906,1,0,0:0:0:0:
64,192,65993,5,0,0:0:0:0:
320,192,66080,5,0,0:0:0:0:
192,192,66080,1,0,0:0:0:0:
64,192,66167,1,0,0:0:0:0:
320,192,66255,1,0,0:0:0:0:
192,192,66342,1,0,0:0:0:0:
448,192,66429,1,0,0:0:0:0:
192,192,66516,1,0,0:0:0:0:
448,192,66603,1,0,0:0:0:0:
64,192,66691,1,0,0:0:0:0:
320,192,66778,1,0,0:0:0:0:
192,192,66778,1,0,0:0:0:0:
64,192,66865,1,0,0:0:0:0:
320,192,66952,1,0,0:0:0:0:
192,192,67039,1,0,0:0:0:0:
448,192,67127,5,0,0:0:0:0:
320,192,67127,1,0,0:0:0:0:
64,192,67185,1,0,0:0:0:0:
192,192,67243,1,0,0:0:0:0:
448,192,67301,1,0,0:0:0:0:
320,192,67359,1,0,0:0:0:0:
448,192,67417,1,0,0:0:0:0:
192,192,67476,128,0,67534:0:0:0:0:
64,192,67476,128,0,67534:0:0:0:0:
320,192,67650,1,0,0:0:0:0:
448,192,67672,1,0,0:0:0:0:
64,192,67737,1,0,0:0:0:0:
192,192,67824,1,0,0:0:0:0:
320,192,67846,1,0,0:0:0:0:
448,192,67999,1,0,0:0:0:0:
64,192,67999,1,0,0:0:0:0:
320,192,68086,1,0,0:0:0:0:
192,192,68173,1,0,0:0:0:0:
64,192,68217,1,0,0:0:0:0:
448,192,68260,1,0,0:0:0:0:
320,192,68304,1,0,0:0:0:0:
192,192,68348,1,0,0:0:0:0:
64,192,68348,1,0,0:0:0:0:
320,192,68435,1,0,0:0:0:0:
192,192,68522,1,0,0:0:0:0:
320,192,68580,1,0,0:0:0:0:
192,192,68638,1,0,0:0:0:0:
320,192,68696,1,0,0:0:0:0:
64,192,68784,1,0,0:0:0:0:
448,192,68871,1,0,0:0:0:0:
320,192,68871,1,0,0:0:0:0:
64,192,69045,1,0,0:0:0:0:
192,192,69045,1,0,0:0:0:0:
320,192,69089,1,0,0:0:0:0:
64,192,69132,1,0,0:0:0:0:
448,192,69176,1,0,0:0:0:0:
320,192,69220,1,0,0:0:0:0:
192,192,69278,1,0,0:0:0:0:
448,192,69336,1,0,0:0:0:0:
192,192,69394,1,0,0:0:0:0:
64,192,69394,1,0,0:0:0:0:
320,192,69452,1,0,0:0:0:0:
64,192,69510,1,0,0:0:0:0:
448,192,69569,1,0,0:0:0:0:
192,192,69612,1,0,0:0:0:0:
448,192,69656,1,0,0:0:0:0:
64,192,69699,1,0,0:0:0:0:
192,192,69743,1,0,0:0:0:0:
320,192,69801,1,0,0:0:0:0:
64,192,69859,1,0,0:0:0:0:
320,192,69917,1,0,0:0:0:0:
448,192,69917,1,0,0:0:0:0:
192,192,69917,1,0,0:0:0:0:
448,192,70092,1,0,0:0:0:0:
320,192,70150,1,0,0:0:0:0:
64,192,70266,1,0,0:0:0:0:
192,192,70266,1,0,0:0:0:0:
192,192,70441,1,0,0:0:0:0:
64,192,70462,1,0,0:0:0:0:
448,192,70528,1,0,0:0:0:0:
320,192,70615,1,0,0:0:0:0:
192,192,70637,1,0,0:0:0:0:
64,192,70789,1,0,0:0:0:0:
448,192,70789,1,0,0:0:0:0:
320,192,70964,1,0,0:0:0:0:
448,192,71007,1,0,0:0:0:0:
64,192,71051,1,0,0:0:0:0:
192,192,71095,1,0,0:0:0:0:
320,192,71138,1,0,0:0:0:0:
448,192,71138,1,0,0:0:0:0:
64,192,71225,1,0,0:0:0:0:
320,192,71288,1,0,0:0:0:0:
64,192,71350,1,0,0:0:0:0:
448,192,71412,1,0,0:0:0:0:
192,192,71475,1,0,0:0:0:0:
448,192,71537,1,0,0:0:0:0:
64,192,71599,1,0,0:0:0:0:
320,192,71662,128,0,71720:0:0:0:0:
448,192,71662,128,0,71720:0:0:0:0:
64,192,71836,1,0,0:0:0:0:
192,192,71836,1,0,0:0:0:0:
448,192,71923,1,0,0:0:0:0:
320,192,71952,1,0,0:0:0:0:
192,192,71981,1,0,0:0:0:0:
64,192,72010,1,0,0:0:0:0:
448,192,72069,1,0,0:0:0:0:
192,192,72127,1,0,0:0:0:0:
320,192,72185,1,0,0:0:0:0:
448,192,72185,1,0,0:0:0:0:
64,192,72272,1,0,0:0:0:0:
192,192,72301,1,0,0:0:0:0:
320,192,72330,1,0,0:0:0:0:
448,192,72359,1,0,0:0:0:0:
192,192,72417,1,0,0:0:0:0:
320,192,72476,1,0,0:0:0:0:
192,192,72534,1,0,0:0:0:0:
448,192,72592,1,0,0:0:0:0:
64,192,72650,1,0,0:0:0:0:
448,192,72708,5,0,0:0:0:0:
320,192,72708,1,0,0:0:0:0:
64,192,72766,1,0,0:0:0:0:
192,192,72824,1,0,0:0:0:0:
448,192,72882,1,0,0:0:0:0:
320,192,72941,1,0,0:0:0:0:
448,192,72999,1,0,0:0:0:0:
64,192,73057,128,0,73115:0:0:0:0:
192,192,73057,128,0,73115:0:0:0:0:
448,192,73231,1,0,0:0:0:0:
320,192,73253,1,0,0:0:0:0:
64,192,73319,1,0,0:0:0:0:
320,192,73406,1,0,0:0:0:0:
192,192,73428,1,0,0:0:0:0:
448,192,73580,1,0,0:0:0:0:
64,192,73580,1,0,0:0:0:0:
448,192,73667,1,0,0:0:0:0:
192,192,73755,1,0,0:0:0:0:
64,192,73798,1,0,0:0:0:0:
448,192,73842,1,0,0:0:0:0:
320,192,73885,1,0,0:0:0:0:
192,192,73929,1,0,0:0:0:0:
64,192,73929,1,0,0:0:0:0:
448,192,74016,1,0,0:0:0:0:
320,192,74103,1,0,0:0:0:0:
64,192,74162,1,0,0:0:0:0:
320,192,74220,1,0,0:0:0:0:
64,192,74278,1,0,0:0:0:0:
192,192,74365,1,0,0:0:0:0:
448,192,74452,1,0,0:0:0:0:
320,192,74452,1,0,0:0:0:0:
192,192,74627,1,0,0:0:0:0:
64,192,74627,1,0,0:0:0:0:
320,192,74670,1,0,0:0:0:0:
64,192,74714,1,0,0:0:0:0:
448,192,74757,1,0,0:0:0:0:
320,192,74801,1,0,0:0:0:0:
192,192,74859,1,0,0:0:0:0:
448,192,74917,1,0,0:0:0:0:
64,192,74976,1,0,0:0:0:0:
192,192,74976,1,0,0:0:0:0:
320,192,75034,1,0,0:0:0:0:
64,192,75092,1,0,0:0:0:0:
448,192,75150,1,0,0:0:0:0:
192,192,75194,1,0,0:0:0:0:
448,192,75237,1,0,0:0:0:0:
64,192,75281,1,0,0:0:0:0:
192,192,75324,1,0,0:0:0:0:
320,192,75382,1,0,0:0:0:0:
64,192,75441,1,0,0:0:0:0:
448,192,75499,1,0,0:0:0:0:
320,192,75499,1,0,0:0:0:0:
192,192,75499,1,0,0:0:0:0:
320,192,75673,1,0,0:0:0:0:
448,192,75731,1,0,0:0:0:0:
192,192,75848,1,0,0:0:0:0:
64,192,75848,1,0,0:0:0:0:
448,192,76022,1,0,0:0:0:0:
320,192,76044,1,0,0:0:0:0:
192,192,76066,1,0,0:0:0:0:
448,192,76109,1,0,0:0:0:0:
64,192,76196,1,0,0:0:0:0:
320,192,76240,1,0,0:0:0:0:
192,192,76262,1,0,0:0:0:0:
64,192,76284,1,0,0:0:0:0:
448,192,76371,1,0,0:0:0:0:
320,192,76371,1,0,0:0:0:0:
448,192,76487,1,0,0:0:0:0:
64,192,76545,1,0,0:0:0:0:
192,192,76545,1,0,0:0:0:0:
320,192,76611,1,0,0:0:0:0:
192,192,76676,1,0,0:0:0:0:
64,192,76741,1,0,0:0:0:0:
320,192,76807,1,0,0:0:0:0:
448,192,76807,1,0,0:0:0:0:
192,192,76872,1,0,0:0:0:0:
320,192,76938,1,0,0:0:0:0:
448,192,77003,1,0,0:0:0:0:
64,192,77069,1,0,0:0:0:0:
192,192,77134,1,0,0:0:0:0:
320,192,77199,1,0,0:0:0:0:
64,192,77243,128,0,77301:0:0:0:0:
448,192,77243,128,0,77301:0:0:0:0:
192,192,77417,1,0,0:0:0:0:
448,192,77417,1,0,0:0:0:0:
320,192,77476,1,0,0:0:0:0:
192,192,77534,1,0,0:0:0:0:
64,192,77592,128,0,78202:0:0:0:0:
192,192,77766,128,0,78202:0:0:0:0:
448,192,77766,1,0,0:0:0:0:
448,192,77941,1,0,0:0:0:0:
448,192,78115,1,0,0:0:0:0:
64,192,78289,1,0,0:0:0:0:
192,192,78289,1,0,0:0:0:0:
64,192,78464,1,0,0:0:0:0:
192,192,78464,1,0,0:0:0:0:
192,192,78638,128,0,78696:0:0:0:0:
64,192,78638,128,0,78696:0:0:0:0:
192,192,78813,1,0,0:0:0:0:
320,192,78835,1,0,0:0:0:0:
448,192,78987,1,0,0:0:0:0:
320,192,79009,1,0,0:0:0:0:
64,192,79162,1,0,0:0:0:0:
448,192,79162,1,0,0:0:0:0:
320,192,79249,1,0,0:0:0:0:
192,192,79336,1,0,0:0:0:0:
64,192,79380,1,0,0:0:0:0:
448,192,79423,1,0,0:0:0:0:
320,192,79467,1,0,0:0:0:0:
192,192,79510,1,0,0:0:0:0:
64,192,79510,1,0,0:0:0:0:
448,192,79598,1,0,0:0:0:0:
64,192,79685,1,0,0:0:0:0:
448,192,79743,1,0,0:0:0:0:
64,192,79801,1,0,0:0:0:0:
448,192,79859,1,0,0:0:0:0:
192,192,79946,1,0,0:0:0:0:
320,192,80034,1,0,0:0:0:0:
448,192,80034,1,0,0:0:0:0:
192,192,80208,1,0,0:0:0:0:
64,192,80208,1,0,0:0:0:0:
320,192,80252,1,0,0:0:0:0:
64,192,80295,1,0,0:0:0:0:
448,192,80339,1,0,0:0:0:0:
320,192,80382,1,0,0:0:0:0:
192,192,80441,1,0,0:0:0:0:
448,192,80499,1,0,0:0:0:0:
192,192,80557,1,0,0:0:0:0:
64,192,80557,1,0,0:0:0:0:
320,192,80615,1,0,0:0:0:0:
64,192,80673,1,0,0:0:0:0:
448,192,80731,1,0,0:0:0:0:
192,192,80775,1,0,0:0:0:0:
448,192,80819,1,0,0:0:0:0:
64,192,80862,1,0,0:0:0:0:
192,192,80906,1,0,0:0:0:0:
320,192,80964,1,0,0:0:0:0:
64,192,81022,1,0,0:0:0:0:
448,192,81080,1,0,0:0:0:0:
192,192,81080,1,0,0:0:0:0:
320,192,81080,1,0,0:0:0:0:
448,192,81255,1,0,0:0:0:0:
320,192,81313,1,0,0:0:0:0:
192,192,81429,1,0,0:0:0:0:
64,192,81429,1,0,0:0:0:0:
64,192,81603,1,0,0:0:0:0:
192,192,81625,1,0,0:0:0:0:
448,192,81691,1,0,0:0:0:0:
320,192,81778,1,0,0:0:0:0:
192,192,81800,1,0,0:0:0:0:
64,192,81952,1,0,0:0:0:0:
448,192,81952,1,0,0:0:0:0:
320,192,82127,1,0,0:0:0:0:
448,192,82170,1,0,0:0:0:0:
64,192,82214,1,0,0:0:0:0:
192,192,82257,1,0,0:0:0:0:
320,192,82301,1,0,0:0:0:0:
448,192,82301,1,0,0:0:0:0:
192,192,82388,1,0,0:0:0:0:
448,192,82450,1,0,0:0:0:0:
192,192,82512,1,0,0:0:0:0:
320,192,82575,1,0,0:0:0:0:
64,192,82637,1,0,0:0:0:0:
320,192,82699,1,0,0:0:0:0:
192,192,82761,1,0,0:0:0:0:
320,192,82824,128,0,82882:0:0:0:0:
448,192,82824,128,0,82882:0:0:0:0:
64,192,82999,1,0,0:0:0:0:
192,192,82999,1,0,0:0:0:0:
448,192,83086,1,0,0:0:0:0:
320,192,83115,1,0,0:0:0:0:
192,192,83144,1,0,0:0:0:0:
64,192,83173,1,0,0:0:0:0:
448,192,83231,1,0,0:0:0:0:
192,192,83289,1,0,0:0:0:0:
448,192,83348,1,0,0:0:0:0:
320,192,83348,1,0,0:0:0:0:
64,192,83435,1,0,0:0:0:0:
192,192,83464,1,0,0:0:0:0:
320,192,83493,1,0,0:0:0:0:
448,192,83522,1,0,0:0:0:0:
192,192,83580,1,0,0:0:0:0:
320,192,83638,1,0,0:0:0:0:
192,192,83696,1,0,0:0:0:0:
448,192,83755,1,0,0:0:0:0:
64,192,83813,1,0,0:0:0:0:
448,192,83871,5,0,0:0:0:0:
320,192,83871,1,0,0:0:0:0:
64,192,83929,1,0,0:0:0:0:
192,192,83987,1,0,0:0:0:0:
448,192,84045,1,0,0:0:0:0:
320,192,84103,1,0,0:0:0:0:
448,192,84162,1,0,0:0:0:0:
64,192,84220,128,0,84278:0:0:0:0:
192,192,84220,128,0,84278:0:0:0:0:
320,192,84394,1,0,0:0:0:0:
448,192,84416,1,0,0:0:0:0:
320,192,84569,1,0,0:0:0:0:
192,192,84590,1,0,0:0:0:0:
64,192,84743,1,0,0:0:0:0:
448,192,84743,1,0,0:0:0:0:
320,192,84830,1,0,0:0:0:0:
192,192,84917,1,0,0:0:0:0:
64,192,84961,1,0,0:0:0:0:
448,192,85005,1,0,0:0:0:0:
320,192,85048,1,0,0:0:0:0:
192,192,85092,1,0,0:0:0:0:
64,192,85092,1,0,0:0:0:0:
320,192,85179,1,0,0:0:0:0:
192,192,85266,1,0,0:0:0:0:
448,192,85324,1,0,0:0:0:0:
192,192,85382,1,0,0:0:0:0:
448,192,85441,1,0,0:0:0:0:
64,192,85528,1,0,0:0:0:0:
64,192,85615,1,0,0:0:0:0:
320,192,85615,1,0,0:0:0:0:
448,192,85789,1,0,0:0:0:0:
320,192,85789,1,0,0:0:0:0:
192,192,85833,1,0,0:0:0:0:
320,192,85877,1,0,0:0:0:0:
64,192,85920,1,0,0:0:0:0:
192,192,85964,1,0,0:0:0:0:
448,192,86022,1,0,0:0:0:0:
192,192,86080,1,0,0:0:0:0:
448,192,86138,1,0,0:0:0:0:
320,192,86138,1,0,0:0:0:0:
64,192,86196,1,0,0:0:0:0:
320,192,86255,1,0,0:0:0:0:
192,192,86313,1,0,0:0:0:0:
448,192,86356,1,0,0:0:0:0:
192,192,86400,1,0,0:0:0:0:
320,192,86444,1,0,0:0:0:0:
448,192,86487,1,0,0:0:0:0:
64,192,86545,1,0,0:0:0:0:
320,192,86603,1,0,0:0:0:0:
448,192,86662,1,0,0:0:0:0:
64,192,86662,1,0,0:0:0:0:
192,192,86662,1,0,0:0:0:0:
320,192,86836,1,0,0:0:0:0:
448,192,86894,1,0,0:0:0:0:
192,192,87010,1,0,0:0:0:0:
64,192,87010,1,0,0:0:0:0:
448,192,87185,1,0,0:0:0:0:
192,192,87207,1,0,0:0:0:0:
448,192,87272,1,0,0:0:0:0:
64,192,87359,1,0,0:0:0:0:
320,192,87425,1,0,0:0:0:0:
64,192,87446,1,0,0:0:0:0:
320,192,87534,1,0,0:0:0:0:
448,192,87534,1,0,0:0:0:0:
448,192,87708,1,0,0:0:0:0:
64,192,87708,1,0,0:0:0:0:
192,192,87766,1,0,0:0:0:0:
320,192,87824,1,0,0:0:0:0:
64,192,87882,1,0,0:0:0:0:
320,192,87970,128,0,89365:0:0:0:0:
448,192,87970,128,0,89365:0:0:0:0:
64,192,88028,128,0,89365:0:0:0:0:
192,192,88057,128,0,89365:0:0:0:0:
320,192,89452,128,0,89801:0:0:0:0:
192,192,89714,128,0,89801:0:0:0:0:
448,192,89801,5,0,0:0:0:0:
64,192,89801,1,0,0:0:0:0:
192,192,89888,1,0,0:0:0:0:
448,192,89976,1,0,0:0:0:0:
192,192,90063,1,0,0:0:0:0:
320,192,90150,1,0,0:0:0:0:
64,192,90237,1,0,0:0:0:0:
320,192,90324,1,0,0:0:0:0:
192,192,90324,1,0,0:0:0:0:
64,192,90412,1,0,0:0:0:0:
448,192,90499,1,0,0:0:0:0:
192,192,90586,1,0,0:0:0:0:
448,192,90673,1,0,0:0:0:0:
64,192,90673,1,0,0:0:0:0:
192,192,90760,1,0,0:0:0:0:
320,192,90848,1,0,0:0:0:0:
64,192,90935,1,0,0:0:0:0:
320,192,91022,1,0,0:0:0:0:
192,192,91109,1,0,0:0:0:0:
448,192,91196,1,0,0:0:0:0:
64,192,91196,1,0,0:0:0:0:
192,192,91284,1,0,0:0:0:0:
320,192,91371,1,0,0:0:0:0:
448,192,91371,1,0,0:0:0:0:
64,192,91429,1,0,0:0:0:0:
448,192,91487,1,0,0:0:0:0:
192,192,91545,1,0,0:0:0:0:
320,192,91567,1,0,0:0:0:0:
192,192,91632,1,0,0:0:0:0:
448,192,91654,1,0,0:0:0:0:
64,192,91720,1,0,0:0:0:0:
320,192,91720,1,0,0:0:0:0:
192,192,91778,1,0,0:0:0:0:
448,192,91836,1,0,0:0:0:0:
320,192,91894,1,0,0:0:0:0:
64,192,91916,1,0,0:0:0:0:
192,192,91952,1,0,0:0:0:0:
448,192,92010,1,0,0:0:0:0:
320,192,92069,1,0,0:0:0:0:
192,192,92127,1,0,0:0:0:0:
64,192,92185,1,0,0:0:0:0:
320,192,92243,128,0,92417:0:0:0:0:
448,192,92243,128,0,92417:0:0:0:0:
192,192,92417,1,0,0:0:0:0:
64,192,92461,1,0,0:0:0:0:
448,192,92505,1,0,0:0:0:0:
320,192,92548,1,0,0:0:0:0:
64,192,92592,1,0,0:0:0:0:
192,192,92592,1,0,0:0:0:0:
320,192,92679,1,0,0:0:0:0:
64,192,92766,1,0,0:0:0:0:
448,192,92853,1,0,0:0:0:0:
192,192,92941,1,0,0:0:0:0:
320,192,93028,1,0,0:0:0:0:
192,192,93115,1,0,0:0:0:0:
320,192,93115,1,0,0:0:0:0:
448,192,93202,1,0,0:0:0:0:
64,192,93289,5,0,0:0:0:0:
320,192,93377,1,0,0:0:0:0:
64,192,93464,1,0,0:0:0:0:
448,192,93464,1,0,0:0:0:0:
320,192,93551,1,0,0:0:0:0:
192,192,93638,1,0,0:0:0:0:
448,192,93726,1,0,0:0:0:0:
192,192,93813,1,0,0:0:0:0:
320,192,93900,1,0,0:0:0:0:
64,192,93987,128,0,94074:0:0:0:0:
448,192,93987,128,0,94074:0:0:0:0:
320,192,94074,1,0,0:0:0:0:
64,192,94162,1,0,0:0:0:0:
192,192,94162,1,0,0:0:0:0:
448,192,94249,1,0,0:0:0:0:
192,192,94336,1,0,0:0:0:0:
320,192,94380,1,0,0:0:0:0:
448,192,94423,1,0,0:0:0:0:
64,192,94510,1,0,0:0:0:0:
192,192,94510,1,0,0:0:0:0:
448,192,94598,1,0,0:0:0:0:
192,192,94685,1,0,0:0:0:0:
64,192,94728,1,0,0:0:0:0:
448,192,94772,1,0,0:0:0:0:
64,192,94859,1,0,0:0:0:0:
320,192,94903,1,0,0:0:0:0:
448,192,94946,1,0,0:0:0:0:
192,192,95034,1,0,0:0:0:0:
64,192,95034,1,0,0:0:0:0:
320,192,95121,1,0,0:0:0:0:
448,192,95208,1,0,0:0:0:0:
320,192,95252,1,0,0:0:0:0:
192,192,95295,1,0,0:0:0:0:
448,192,95382,1,0,0:0:0:0:
64,192,95382,1,0,0:0:0:0:
320,192,95470,1,0,0:0:0:0:
192,192,95557,1,0,0:0:0:0:
320,192,95644,1,0,0:0:0:0:
64,192,95731,1,0,0:0:0:0:
448,192,95819,1,0,0:0:0:0:
320,192,95906,1,0,0:0:0:0:
192,192,95906,1,0,0:0:0:0:
448,192,95993,1,0,0:0:0:0:
64,192,96080,1,0,0:0:0:0:
320,192,96167,1,0,0:0:0:0:
448,192,96255,1,0,0:0:0:0:
192,192,96255,1,0,0:0:0:0:
320,192,96342,1,0,0:0:0:0:
64,192,96429,1,0,0:0:0:0:
448,192,96516,1,0,0:0:0:0:
192,192,96603,1,0,0:0:0:0:
320,192,96691,1,0,0:0:0:0:
448,192,96778,1,0,0:0:0:0:
64,192,96778,1,0,0:0:0:0:
320,192,96865,1,0,0:0:0:0:
192,192,96952,1,0,0:0:0:0:
64,192,96952,1,0,0:0:0:0:
192,192,97039,1,0,0:0:0:0:
320,192,97083,1,0,0:0:0:0:
448,192,97127,1,0,0:0:0:0:
64,192,97185,1,0,0:0:0:0:
320,192,97243,1,0,0:0:0:0:
192,192,97301,1,0,0:0:0:0:
64,192,97301,1,0,0:0:0:0:
448,192,97359,1,0,0:0:0:0:
192,192,97417,1,0,0:0:0:0:
320,192,97476,1,0,0:0:0:0:
64,192,97519,1,0,0:0:0:0:
448,192,97563,1,0,0:0:0:0:
192,192,97606,1,0,0:0:0:0:
64,192,97650,1,0,0:0:0:0:
320,192,97708,1,0,0:0:0:0:
192,192,97766,1,0,0:0:0:0:
320,192,97824,1,0,0:0:0:0:
448,192,97824,1,0,0:0:0:0:
320,192,97999,1,0,0:0:0:0:
448,192,98057,1,0,0:0:0:0:
320,192,98173,1,0,0:0:0:0:
192,192,98173,1,0,0:0:0:0:
64,192,98260,1,0,0:0:0:0:
448,192,98348,1,0,0:0:0:0:
64,192,98435,1,0,0:0:0:0:
320,192,98522,1,0,0:0:0:0:
192,192,98609,1,0,0:0:0:0:
448,192,98696,1,0,0:0:0:0:
64,192,98696,1,0,0:0:0:0:
192,192,98784,1,0,0:0:0:0:
320,192,98871,1,0,0:0:0:0:
64,192,98958,1,0,0:0:0:0:
448,192,99045,1,0,0:0:0:0:
192,192,99045,1,0,0:0:0:0:
64,192,99132,1,0,0:0:0:0:
320,192,99220,1,0,0:0:0:0:
192,192,99307,1,0,0:0:0:0:
448,192,99394,1,0,0:0:0:0:
192,192,99481,1,0,0:0:0:0:
64,192,99569,128,0,99656:0:0:0:0:
320,192,99569,128,0,99656:0:0:0:0:
192,192,99656,1,0,0:0:0:0:
448,192,99743,1,0,0:0:0:0:
64,192,99743,1,0,0:0:0:0:
320,192,99830,1,0,0:0:0:0:
192,192,99917,1,0,0:0:0:0:
448,192,99961,1,0,0:0:0:0:
320,192,100005,1,0,0:0:0:0:
64,192,100092,1,0,0:0:0:0:
320,192,100179,1,0,0:0:0:0:
448,192,100266,1,0,0:0:0:0:
192,192,100310,1,0,0:0:0:0:
320,192,100353,1,0,0:0:0:0:
64,192,100441,1,0,0:0:0:0:
448,192,100499,1,0,0:0:0:0:
64,192,100557,1,0,0:0:0:0:
320,192,100615,128,0,100964:0:0:0:0:
192,192,100877,128,0,100964:0:0:0:0:
64,192,100964,1,0,0:0:0:0:
320,192,101051,1,0,0:0:0:0:
64,192,101138,1,0,0:0:0:0:
448,192,101226,1,0,0:0:0:0:
64,192,101313,1,0,0:0:0:0:
320,192,101400,1,0,0:0:0:0:
64,192,101487,1,0,0:0:0:0:
448,192,101574,1,0,0:0:0:0:
64,192,101662,1,0,0:0:0:0:
320,192,101749,1,0,0:0:0:0:
64,192,101836,1,0,0:0:0:0:
448,192,101923,1,0,0:0:0:0:
192,192,102010,1,0,0:0:0:0:
320,192,102098,1,0,0:0:0:0:
192,192,102185,1,0,0:0:0:0:
448,192,102272,1,0,0:0:0:0:
192,192,102359,1,0,0:0:0:0:
320,192,102446,1,0,0:0:0:0:
192,192,102534,1,0,0:0:0:0:
448,192,102621,1,0,0:0:0:0:
192,192,102708,1,0,0:0:0:0:
320,192,102795,1,0,0:0:0:0:
192,192,102882,1,0,0:0:0:0:
448,192,102970,1,0,0:0:0:0:
192,192,103057,1,0,0:0:0:0:
320,192,103144,1,0,0:0:0:0:
192,192,103231,1,0,0:0:0:0:
448,192,103319,1,0,0:0:0:0:
64,192,103406,128,0,103580:0:0:0:0:
192,192,103406,128,0,103580:0:0:0:0:
320,192,103580,1,0,0:0:0:0:
448,192,103624,1,0,0:0:0:0:
64,192,103667,1,0,0:0:0:0:
192,192,103711,1,0,0:0:0:0:
320,192,103755,1,0,0:0:0:0:
448,192,103755,1,0,0:0:0:0:
192,192,103842,1,0,0:0:0:0:
448,192,103929,1,0,0:0:0:0:
64,192,104016,1,0,0:0:0:0:
320,192,104103,1,0,0:0:0:0:
192,192,104191,1,0,0:0:0:0:
320,192,104278,1,0,0:0:0:0:
192,192,104278,1,0,0:0:0:0:
64,192,104365,1,0,0:0:0:0:
448,192,104452,1,0,0:0:0:0:
192,192,104539,1,0,0:0:0:0:
448,192,104627,1,0,0:0:0:0:
64,192,104627,1,0,0:0:0:0:
192,192,104714,1,0,0:0:0:0:
320,192,104801,1,0,0:0:0:0:
64,192,104888,1,0,0:0:0:0:
320,192,104976,1,0,0:0:0:0:
192,192,105063,1,0,0:0:0:0:
64,192,105150,128,0,105237:0:0:0:0:
448,192,105150,128,0,105237:0:0:0:0:
192,192,105237,1,0,0:0:0:0:
320,192,105324,1,0,0:0:0:0:
448,192,105324,1,0,0:0:0:0:
64,192,105412,1,0,0:0:0:0:
320,192,105499,1,0,0:0:0:0:
192,192,105542,1,0,0:0:0:0:
64,192,105586,1,0,0:0:0:0:
448,192,105673,1,0,0:0:0:0:
320,192,105673,1,0,0:0:0:0:
64,192,105760,1,0,0:0:0:0:
320,192,105848,1,0,0:0:0:0:
448,192,105891,1,0,0:0:0:0:
64,192,105935,1,0,0:0:0:0:
448,192,106022,1,0,0:0:0:0:
192,192,106066,1,0,0:0:0:0:
64,192,106109,1,0,0:0:0:0:
320,192,106196,1,0,0:0:0:0:
448,192,106196,1,0,0:0:0:0:
192,192,106284,1,0,0:0:0:0:
64,192,106371,1,0,0:0:0:0:
192,192,106414,1,0,0:0:0:0:
320,192,106458,1,0,0:0:0:0:
64,192,106545,1,0,0:0:0:0:
448,192,106545,1,0,0:0:0:0:
320,192,106632,1,0,0:0:0:0:
192,192,106720,1,0,0:0:0:0:
320,192,106807,1,0,0:0:0:0:
64,192,106894,1,0,0:0:0:0:
320,192,106981,1,0,0:0:0:0:
192,192,107069,1,0,0:0:0:0:
448,192,107069,1,0,0:0:0:0:
320,192,107156,1,0,0:0:0:0:
64,192,107243,1,0,0:0:0:0:
448,192,107330,1,0,0:0:0:0:
192,192,107417,1,0,0:0:0:0:
320,192,107417,1,0,0:0:0:0:
448,192,107505,1,0,0:0:0:0:
64,192,107592,1,0,0:0:0:0:
448,192,107679,1,0,0:0:0:0:
192,192,107766,1,0,0:0:0:0:
448,192,107853,1,0,0:0:0:0:
64,192,107941,1,0,0:0:0:0:
192,192,107941,1,0,0:0:0:0:
320,192,108028,1,0,0:0:0:0:
192,192,108115,1,0,0:0:0:0:
64,192,108115,1,0,0:0:0:0:
192,192,108202,1,0,0:0:0:0:
320,192,108246,1,0,0:0:0:0:
448,192,108289,1,0,0:0:0:0:
64,192,108348,1,0,0:0:0:0:
320,192,108406,1,0,0:0:0:0:
192,192,108464,1,0,0:0:0:0:
64,192,108464,1,0,0:0:0:0:
448,192,108522,1,0,0:0:0:0:
192,192,108580,1,0,0:0:0:0:
320,192,108638,1,0,0:0:0:0:
64,192,108682,1,0,0:0:0:0:
448,192,108726,1,0,0:0:0:0:
192,192,108769,1,0,0:0:0:0:
64,192,108813,1,0,0:0:0:0:
320,192,108871,1,0,0:0:0:0:
192,192,108929,1,0,0:0:0:0:
320,192,108987,1,0,0:0:0:0:
448,192,108987,1,0,0:0:0:0:
192,192,109162,1,0,0:0:0:0:
64,192,109220,1,0,0:0:0:0:
320,192,109336,1,0,0:0:0:0:
192,192,109336,1,0,0:0:0:0:
64,192,109423,1,0,0:0:0:0:
448,192,109510,1,0,0:0:0:0:
64,192,109598,1,0,0:0:0:0:
320,192,109685,1,0,0:0:0:0:
192,192,109772,1,0,0:0:0:0:
448,192,109859,1,0,0:0:0:0:
64,192,109859,1,0,0:0:0:0:
192,192,109946,1,0,0:0:0:0:
320,192,110034,1,0,0:0:0:0:
64,192,110121,1,0,0:0:0:0:
448,192,110208,1,0,0:0:0:0:
192,192,110208,1,0,0:0:0:0:
64,192,110295,1,0,0:0:0:0:
320,192,110382,1,0,0:0:0:0:
192,192,110470,1,0,0:0:0:0:
448,192,110557,1,0,0:0:0:0:
192,192,110644,1,0,0:0:0:0:
320,192,110731,128,0,110819:0:0:0:0:
64,192,110731,128,0,110819:0:0:0:0:
192,192,110819,1,0,0:0:0:0:
448,192,110906,1,0,0:0:0:0:
64,192,110906,1,0,0:0:0:0:
320,192,110993,1,0,0:0:0:0:
192,192,111080,1,0,0:0:0:0:
64,192,111124,1,0,0:0:0:0:
448,192,111167,1,0,0:0:0:0:
192,192,111255,1,0,0:0:0:0:
320,192,111429,1,0,0:0:0:0:
448,192,111473,1,0,0:0:0:0:
64,192,111516,1,0,0:0:0:0:
320,192,111603,1,0,0:0:0:0:
448,192,111778,5,0,0:0:0:0:
320,192,111778,1,0,0:0:0:0:
64,192,111836,1,0,0:0:0:0:
192,192,111894,1,0,0:0:0:0:
448,192,111952,1,0,0:0:0:0:
320,192,112010,1,0,0:0:0:0:
448,192,112069,1,0,0:0:0:0:
192,192,112127,128,0,112185:0:0:0:0:
64,192,112127,128,0,112185:0:0:0:0:
192,192,112301,1,0,0:0:0:0:
320,192,112345,1,0,0:0:0:0:
448,192,112388,1,0,0:0:0:0:
64,192,112432,1,0,0:0:0:0:
320,192,112476,1,0,0:0:0:0:
192,192,112519,1,0,0:0:0:0:
64,192,112563,1,0,0:0:0:0:
448,192,112606,1,0,0:0:0:0:
192,192,112650,1,0,0:0:0:0:
320,192,112650,1,0,0:0:0:0:
448,192,112737,1,0,0:0:0:0:
192,192,112824,1,0,0:0:0:0:
64,192,112824,1,0,0:0:0:0:
320,192,112868,1,0,0:0:0:0:
64,192,112912,1,0,0:0:0:0:
448,192,112955,1,0,0:0:0:0:
320,192,112999,1,0,0:0:0:0:
192,192,113042,1,0,0:0:0:0:
64,192,113086,1,0,0:0:0:0:
192,192,113173,1,0,0:0:0:0:
448,192,113231,1,0,0:0:0:0:
192,192,113289,1,0,0:0:0:0:
448,192,113348,1,0,0:0:0:0:
64,192,113435,1,0,0:0:0:0:
192,192,113522,1,0,0:0:0:0:
320,192,113522,1,0,0:0:0:0:
320,192,113696,1,0,0:0:0:0:
448,192,113696,1,0,0:0:0:0:
448,192,113784,1,0,0:0:0:0:
192,192,113871,1,0,0:0:0:0:
64,192,113914,1,0,0:0:0:0:
320,192,113958,1,0,0:0:0:0:
64,192,114045,1,0,0:0:0:0:
320,192,114089,1,0,0:0:0:0:
448,192,114132,1,0,0:0:0:0:
192,192,114220,1,0,0:0:0:0:
64,192,114220,1,0,0:0:0:0:
320,192,114263,1,0,0:0:0:0:
192,192,114307,1,0,0:0:0:0:
64,192,114351,1,0,0:0:0:0:
448,192,114394,1,0,0:0:0:0:
192,192,114452,1,0,0:0:0:0:
320,192,114510,1,0,0:0:0:0:
448,192,114569,1,0,0:0:0:0:
192,192,114569,1,0,0:0:0:0:
64,192,114569,1,0,0:0:0:0:
448,192,114743,1,0,0:0:0:0:
320,192,114801,1,0,0:0:0:0:
64,192,114917,1,0,0:0:0:0:
192,192,114917,1,0,0:0:0:0:
448,192,115092,1,0,0:0:0:0:
320,192,115135,1,0,0:0:0:0:
192,192,115179,1,0,0:0:0:0:
448,192,115223,1,0,0:0:0:0:
64,192,115266,1,0,0:0:0:0:
192,192,115310,1,0,0:0:0:0:
320,192,115353,1,0,0:0:0:0:
64,192,115397,1,0,0:0:0:0:
448,192,115441,1,0,0:0:0:0:
192,192,115441,1,0,0:0:0:0:
448,192,115615,1,0,0:0:0:0:
320,192,115615,1,0,0:0:0:0:
64,192,115659,1,0,0:0:0:0:
192,192,115702,1,0,0:0:0:0:
320,192,115746,1,0,0:0:0:0:
448,192,115789,1,0,0:0:0:0:
64,192,115833,1,0,0:0:0:0:
192,192,115877,1,0,0:0:0:0:
320,192,115939,1,0,0:0:0:0:
192,192,116001,1,0,0:0:0:0:
448,192,116064,1,0,0:0:0:0:
64,192,116126,1,0,0:0:0:0:
448,192,116188,1,0,0:0:0:0:
192,192,116250,1,0,0:0:0:0:
320,192,116313,128,0,116371:0:0:0:0:
448,192,116313,128,0,116371:0:0:0:0:
64,192,116371,1,0,0:0:0:0:
320,192,116429,1,0,0:0:0:0:
192,192,116487,1,0,0:0:0:0:
64,192,116487,1,0,0:0:0:0:
192,192,116662,1,0,0:0:0:0:
448,192,116691,1,0,0:0:0:0:
320,192,116720,1,0,0:0:0:0:
64,192,116778,1,0,0:0:0:0:
448,192,116836,1,0,0:0:0:0:
192,192,116880,1,0,0:0:0:0:
448,192,116923,1,0,0:0:0:0:
320,192,117010,1,0,0:0:0:0:
192,192,117010,1,0,0:0:0:0:
64,192,117069,1,0,0:0:0:0:
448,192,117127,1,0,0:0:0:0:
192,192,117185,1,0,0:0:0:0:
320,192,117228,1,0,0:0:0:0:
192,192,117272,1,0,0:0:0:0:
320,192,117359,128,0,117446:0:0:0:0:
448,192,117359,128,0,117446:0:0:0:0:
64,192,117417,1,0,0:0:0:0:
192,192,117476,1,0,0:0:0:0:
448,192,117534,1,0,0:0:0:0:
320,192,117592,1,0,0:0:0:0:
448,192,117650,1,0,0:0:0:0:
64,192,117708,128,0,117766:0:0:0:0:
192,192,117708,128,0,117766:0:0:0:0:
192,192,117882,1,0,0:0:0:0:
320,192,117926,1,0,0:0:0:0:
448,192,117970,1,0,0:0:0:0:
64,192,118013,1,0,0:0:0:0:
320,192,118057,1,0,0:0:0:0:
192,192,118101,1,0,0:0:0:0:
448,192,118144,1,0,0:0:0:0:
64,192,118188,1,0,0:0:0:0:
320,192,118231,1,0,0:0:0:0:
192,192,118231,1,0,0:0:0:0:
448,192,118319,1,0,0:0:0:0:
192,192,118406,1,0,0:0:0:0:
64,192,118406,1,0,0:0:0:0:
320,192,118449,1,0,0:0:0:0:
64,192,118493,1,0,0:0:0:0:
448,192,118537,1,0,0:0:0:0:
320,192,118580,1,0,0:0:0:0:
192,192,118624,1,0,0:0:0:0:
64,192,118667,1,0,0:0:0:0:
192,192,118755,1,0,0:0:0:0:
320,192,118813,1,0,0:0:0:0:
192,192,118871,1,0,0:0:0:0:
320,192,118929,1,0,0:0:0:0:
64,192,119016,1,0,0:0:0:0:
192,192,119103,1,0,0:0:0:0:
448,192,119103,1,0,0:0:0:0:
320,192,119278,1,0,0:0:0:0:
448,192,119278,1,0,0:0:0:0:
448,192,119365,1,0,0:0:0:0:
192,192,119452,1,0,0:0:0:0:
64,192,119496,1,0,0:0:0:0:
320,192,119539,1,0,0:0:0:0:
64,192,119627,1,0,0:0:0:0:
320,192,119670,1,0,0:0:0:0:
448,192,119714,1,0,0:0:0:0:
192,192,119801,1,0,0:0:0:0:
64,192,119801,1,0,0:0:0:0:
320,192,119845,1,0,0:0:0:0:
192,192,119888,1,0,0:0:0:0:
448,192,119932,1,0,0:0:0:0:
320,192,119976,1,0,0:0:0:0:
64,192,120034,1,0,0:0:0:0:
320,192,120092,1,0,0:0:0:0:
448,192,120150,1,0,0:0:0:0:
192,192,120150,1,0,0:0:0:0:
64,192,120150,1,0,0:0:0:0:
320,192,120324,1,0,0:0:0:0:
448,192,120382,1,0,0:0:0:0:
192,192,120499,1,0,0:0:0:0:
64,192,120499,1,0,0:0:0:0:
320,192,120673,1,0,0:0:0:0:
192,192,120695,1,0,0:0:0:0:
64,192,120717,1,0,0:0:0:0:
320,192,120760,1,0,0:0:0:0:
192,192,120848,1,0,0:0:0:0:
448,192,120891,1,0,0:0:0:0:
320,192,120913,1,0,0:0:0:0:
192,192,120935,1,0,0:0:0:0:
64,192,121022,1,0,0:0:0:0:
448,192,121022,1,0,0:0:0:0:
192,192,121138,1,0,0:0:0:0:
320,192,121196,1,0,0:0:0:0:
448,192,121196,1,0,0:0:0:0:
192,192,121262,1,0,0:0:0:0:
64,192,121327,1,0,0:0:0:0:
448,192,121393,1,0,0:0:0:0:
64,192,121458,1,0,0:0:0:0:
320,192,121458,1,0,0:0:0:0:
192,192,121523,1,0,0:0:0:0:
320,192,121589,1,0,0:0:0:0:
192,192,121654,1,0,0:0:0:0:
320,192,121720,1,0,0:0:0:0:
192,192,121785,1,0,0:0:0:0:
320,192,121851,1,0,0:0:0:0:
64,192,121894,128,0,121952:0:0:0:0:
448,192,121894,128,0,121952:0:0:0:0:
192,192,122069,1,0,0:0:0:0:
448,192,122069,1,0,0:0:0:0:
320,192,122127,1,0,0:0:0:0:
192,192,122185,1,0,0:0:0:0:
64,192,122243,128,0,122853:0:0:0:0:
448,192,122417,128,0,122853:0:0:0:0:
192,192,122592,1,0,0:0:0:0:
320,192,122592,1,0,0:0:0:0:
192,192,122766,1,0,0:0:0:0:
448,192,122941,5,0,0:0:0:0:
64,192,122941,1,0,0:0:0:0:
448,192,123057,1,0,0:0:0:0:
64,192,123057,1,0,0:0:0:0:
448,192,123173,1,0,0:0:0:0:
64,192,123173,1,0,0:0:0:0:
64,192,123289,128,0,123348:0:0:0:0:
192,192,123289,128,0,123348:0:0:0:0:
320,192,123464,1,0,0:0:0:0:
192,192,123507,1,0,0:0:0:0:
64,192,123551,1,0,0:0:0:0:
448,192,123595,1,0,0:0:0:0:
192,192,123638,1,0,0:0:0:0:
320,192,123682,1,0,0:0:0:0:
64,192,123726,1,0,0:0:0:0:
448,192,123726,1,0,0:0:0:0:
192,192,123813,1,0,0:0:0:0:
320,192,123813,1,0,0:0:0:0:
448,192,123900,1,0,0:0:0:0:
192,192,123987,1,0,0:0:0:0:
64,192,123987,1,0,0:0:0:0:
448,192,124031,1,0,0:0:0:0:
320,192,124074,1,0,0:0:0:0:
192,192,124118,1,0,0:0:0:0:
64,192,124162,1,0,0:0:0:0:
448,192,124205,1,0,0:0:0:0:
320,192,124249,1,0,0:0:0:0:
64,192,124336,1,0,0:0:0:0:
448,192,124394,1,0,0:0:0:0:
64,192,124452,1,0,0:0:0:0:
448,192,124510,1,0,0:0:0:0:
192,192,124598,1,0,0:0:0:0:
64,192,124685,1,0,0:0:0:0:
320,192,124685,1,0,0:0:0:0:
320,192,124859,1,0,0:0:0:0:
448,192,124859,1,0,0:0:0:0:
448,192,124946,1,0,0:0:0:0:
192,192,125034,1,0,0:0:0:0:
64,192,125077,1,0,0:0:0:0:
320,192,125121,1,0,0:0:0:0:
64,192,125208,1,0,0:0:0:0:
320,192,125252,1,0,0:0:0:0:
448,192,125295,1,0,0:0:0:0:
64,192,125382,1,0,0:0:0:0:
192,192,125382,1,0,0:0:0:0:
320,192,125426,1,0,0:0:0:0:
192,192,125470,1,0,0:0:0:0:
448,192,125513,1,0,0:0:0:0:
320,192,125557,1,0,0:0:0:0:
64,192,125615,1,0,0:0:0:0:
320,192,125673,1,0,0:0:0:0:
192,192,125731,1,0,0:0:0:0:
448,192,125731,1,0,0:0:0:0:
64,192,125731,1,0,0:0:0:0:
448,192,125906,1,0,0:0:0:0:
320,192,125964,1,0,0:0:0:0:
64,192,126080,1,0,0:0:0:0:
192,192,126080,1,0,0:0:0:0:
64,192,126255,1,0,0:0:0:0:
192,192,126298,1,0,0:0:0:0:
320,192,126342,1,0,0:0:0:0:
64,192,126385,1,0,0:0:0:0:
192,192,126429,1,0,0:0:0:0:
448,192,126473,1,0,0:0:0:0:
320,192,126516,1,0,0:0:0:0:
192,192,126560,1,0,0:0:0:0:
448,192,126603,1,0,0:0:0:0:
64,192,126603,1,0,0:0:0:0:
448,192,126778,1,0,0:0:0:0:
320,192,126778,1,0,0:0:0:0:
64,192,126821,1,0,0:0:0:0:
192,192,126865,1,0,0:0:0:0:
320,192,126909,1,0,0:0:0:0:
448,192,126952,1,0,0:0:0:0:
64,192,126996,1,0,0:0:0:0:
192,192,127039,1,0,0:0:0:0:
448,192,127101,1,0,0:0:0:0:
64,192,127163,1,0,0:0:0:0:
448,192,127226,1,0,0:0:0:0:
192,192,127288,1,0,0:0:0:0:
320,192,127350,1,0,0:0:0:0:
192,192,127412,1,0,0:0:0:0:
448,192,127476,128,0,127534:0:0:0:0:
320,192,127476,128,0,127534:0:0:0:0:
64,192,127534,1,0,0:0:0:0:
448,192,127592,1,0,0:0:0:0:
192,192,127650,1,0,0:0:0:0:
64,192,127650,1,0,0:0:0:0:
320,192,127824,1,0,0:0:0:0:
64,192,127853,1,0,0:0:0:0:
192,192,127882,1,0,0:0:0:0:
448,192,127941,1,0,0:0:0:0:
64,192,127999,1,0,0:0:0:0:
320,192,128042,1,0,0:0:0:0:
64,192,128086,1,0,0:0:0:0:
320,192,128173,1,0,0:0:0:0:
448,192,128173,1,0,0:0:0:0:
64,192,128231,1,0,0:0:0:0:
448,192,128289,1,0,0:0:0:0:
192,192,128348,1,0,0:0:0:0:
320,192,128391,1,0,0:0:0:0:
192,192,128435,1,0,0:0:0:0:
448,192,128522,5,0,0:0:0:0:
320,192,128522,1,0,0:0:0:0:
64,192,128580,1,0,0:0:0:0:
192,192,128638,1,0,0:0:0:0:
448,192,128696,1,0,0:0:0:0:
320,192,128755,1,0,0:0:0:0:
448,192,128813,1,0,0:0:0:0:
64,192,128871,128,0,128929:0:0:0:0:
192,192,128871,128,0,128929:0:0:0:0:
320,192,129045,1,0,0:0:0:0:
192,192,129089,1,0,0:0:0:0:
448,192,129132,1,0,0:0:0:0:
64,192,129176,1,0,0:0:0:0:
320,192,129220,1,0,0:0:0:0:
192,192,129263,1,0,0:0:0:0:
64,192,129307,1,0,0:0:0:0:
448,192,129351,1,0,0:0:0:0:
320,192,129394,1,0,0:0:0:0:
192,192,129394,1,0,0:0:0:0:
448,192,129481,1,0,0:0:0:0:
192,192,129569,1,0,0:0:0:0:
64,192,129569,1,0,0:0:0:0:
448,192,129612,1,0,0:0:0:0:
320,192,129656,1,0,0:0:0:0:
192,192,129699,1,0,0:0:0:0:
64,192,129743,1,0,0:0:0:0:
448,192,129787,1,0,0:0:0:0:
320,192,129830,1,0,0:0:0:0:
192,192,129917,1,0,0:0:0:0:
320,192,129976,1,0,0:0:0:0:
192,192,130034,1,0,0:0:0:0:
320,192,130092,1,0,0:0:0:0:
64,192,130179,1,0,0:0:0:0:
64,192,130266,1,0,0:0:0:0:
448,192,130266,1,0,0:0:0:0:
320,192,130441,1,0,0:0:0:0:
448,192,130441,1,0,0:0:0:0:
448,192,130528,1,0,0:0:0:0:
192,192,130615,1,0,0:0:0:0:
64,192,130659,1,0,0:0:0:0:
320,192,130702,1,0,0:0:0:0:
64,192,130789,1,0,0:0:0:0:
320,192,130833,1,0,0:0:0:0:
448,192,130877,1,0,0:0:0:0:
64,192,130964,1,0,0:0:0:0:
192,192,130964,1,0,0:0:0:0:
320,192,131007,1,0,0:0:0:0:
448,192,131051,1,0,0:0:0:0:
64,192,131095,1,0,0:0:0:0:
192,192,131138,1,0,0:0:0:0:
448,192,131182,1,0,0:0:0:0:
320,192,131226,1,0,0:0:0:0:
192,192,131269,1,0,0:0:0:0:
64,192,131313,1,0,0:0:0:0:
448,192,131313,1,0,0:0:0:0:
320,192,131487,1,0,0:0:0:0:
448,192,131545,1,0,0:0:0:0:
64,192,131662,1,0,0:0:0:0:
192,192,131662,1,0,0:0:0:0:
320,192,131836,1,0,0:0:0:0:
64,192,131858,1,0,0:0:0:0:
320,192,131923,1,0,0:0:0:0:
192,192,132010,1,0,0:0:0:0:
448,192,132076,1,0,0:0:0:0:
192,192,132098,1,0,0:0:0:0:
320,192,132185,1,0,0:0:0:0:
448,192,132185,1,0,0:0:0:0:
64,192,132359,1,0,0:0:0:0:
320,192,132359,1,0,0:0:0:0:
192,192,132417,1,0,0:0:0:0:
448,192,132534,128,0,132970:0:0:0:0:
64,192,132592,128,0,132912:0:0:0:0:
64,192,132999,1,0,0:0:0:0:
448,192,133057,1,0,0:0:0:0:
320,192,133057,1,0,0:0:0:0:
192,192,133057,1,0,0:0:0:0:
320,192,133231,1,0,0:0:0:0:
448,192,133275,1,0,0:0:0:0:
64,192,133319,1,0,0:0:0:0:
192,192,133362,1,0,0:0:0:0:
448,192,133406,128,0,133842:0:0:0:0:
320,192,133435,128,0,133813:0:0:0:0:
192,192,133464,128,0,133784:0:0:0:0:
64,192,133493,128,0,133755:0:0:0:0:
64,192,133885,1,0,0:0:0:0:
320,192,133929,1,0,0:0:0:0:
192,192,133973,1,0,0:0:0:0:
448,192,134016,1,0,0:0:0:0:
64,192,134060,1,0,0:0:0:0:
320,192,134103,1,0,0:0:0:0:
192,192,134147,1,0,0:0:0:0:
448,192,134191,1,0,0:0:0:0:
64,192,134234,1,0,0:0:0:0:
320,192,134278,128,0,134518:0:0:0:0:
192,192,134321,128,0,134518:0:0:0:0:
64,192,134452,128,0,134518:0:0:0:0:
448,192,139685,132,0,139750:0:0:0:0:
320,192,156429,5,0,0:0:0:0:
64,192,156487,1,0,0:0:0:0:
192,192,156545,1,0,0:0:0:0:
448,192,156603,1,0,0:0:0:0:
64,192,156662,1,0,0:0:0:0:
448,192,156720,1,0,0:0:0:0:
192,192,156778,128,0,157912:0:0:0:0:
64,192,156952,128,0,157912:0:0:0:0:
320,192,157824,128,0,158958:0:0:0:0:
192,192,157999,128,0,158958:0:0:0:0:
448,192,158871,128,0,161313:0:0:0:0:
320,192,159045,128,0,161313:0:0:0:0:
192,192,162010,128,0,162359:0:0:0:0:
64,192,162010,128,0,162098:0:0:0:0:
64,192,162185,128,0,162359:0:0:0:0:
320,192,162359,128,0,163493:0:0:0:0:
448,192,162534,128,0,163493:0:0:0:0:
192,192,163406,128,0,164539:0:0:0:0:
320,192,163580,128,0,164539:0:0:0:0:
64,192,164452,128,0,166894:0:0:0:0:
192,192,164627,128,0,166894:0:0:0:0:
320,192,167592,5,0,0:0:0:0:
64,192,167650,1,0,0:0:0:0:
192,192,167708,1,0,0:0:0:0:
448,192,167766,1,0,0:0:0:0:
64,192,167824,1,0,0:0:0:0:
448,192,167882,1,0,0:0:0:0:
320,192,167941,1,0,0:0:0:0:
192,192,167984,1,0,0:0:0:0:
320,192,168115,1,0,0:0:0:0:
448,192,168289,1,0,0:0:0:0:
448,192,168464,1,0,0:0:0:0:
320,192,168638,1,0,0:0:0:0:
320,192,168813,1,0,0:0:0:0:
192,192,168987,1,0,0:0:0:0:
448,192,169031,1,0,0:0:0:0:
192,192,169162,1,0,0:0:0:0:
64,192,169336,1,0,0:0:0:0:
64,192,169510,1,0,0:0:0:0:
192,192,169685,1,0,0:0:0:0:
192,192,169859,1,0,0:0:0:0:
320,192,170034,1,0,0:0:0:0:
64,192,170077,1,0,0:0:0:0:
320,192,170208,1,0,0:0:0:0:
64,192,170382,1,0,0:0:0:0:
192,192,170557,1,0,0:0:0:0:
320,192,170731,1,0,0:0:0:0:
64,192,170731,1,0,0:0:0:0:
320,192,170906,1,0,0:0:0:0:
448,192,171080,1,0,0:0:0:0:
448,192,171255,1,0,0:0:0:0:
320,192,171429,1,0,0:0:0:0:
64,192,171429,1,0,0:0:0:0:
320,192,171603,1,0,0:0:0:0:
192,192,171778,1,0,0:0:0:0:
192,192,171952,1,0,0:0:0:0:
64,192,172127,1,0,0:0:0:0:
448,192,172127,1,0,0:0:0:0:
64,192,172301,1,0,0:0:0:0:
192,192,172476,1,0,0:0:0:0:
192,192,172650,1,0,0:0:0:0:
320,192,172824,1,0,0:0:0:0:
448,192,172824,1,0,0:0:0:0:
320,192,172999,1,0,0:0:0:0:
64,192,173173,1,0,0:0:0:0:
192,192,173348,1,0,0:0:0:0:
320,192,173522,1,0,0:0:0:0:
64,192,173522,1,0,0:0:0:0:
320,192,173696,1,0,0:0:0:0:
448,192,173871,1,0,0:0:0:0:
448,192,174045,1,0,0:0:0:0:
320,192,174220,1,0,0:0:0:0:
64,192,174220,1,0,0:0:0:0:
320,192,174394,1,0,0:0:0:0:
192,192,174569,1,0,0:0:0:0:
192,192,174743,1,0,0:0:0:0:
64,192,174917,1,0,0:0:0:0:
448,192,174917,1,0,0:0:0:0:
64,192,175092,1,0,0:0:0:0:
192,192,175266,1,0,0:0:0:0:
192,192,175441,1,0,0:0:0:0:
320,192,175615,1,0,0:0:0:0:
448,192,175615,1,0,0:0:0:0:
320,192,175789,1,0,0:0:0:0:
64,192,175964,1,0,0:0:0:0:
192,192,176138,1,0,0:0:0:0:
320,192,176313,1,0,0:0:0:0:
64,192,176313,1,0,0:0:0:0:
320,192,176487,1,0,0:0:0:0:
448,192,176662,1,0,0:0:0:0:
448,192,176836,1,0,0:0:0:0:
320,192,177010,1,0,0:0:0:0:
64,192,177010,1,0,0:0:0:0:
320,192,177185,1,0,0:0:0:0:
192,192,177359,1,0,0:0:0:0:
192,192,177534,1,0,0:0:0:0:
64,192,177708,1,0,0:0:0:0:
448,192,177708,1,0,0:0:0:0:
64,192,177882,1,0,0:0:0:0:
192,192,178057,1,0,0:0:0:0:
192,192,178231,1,0,0:0:0:0:
320,192,178406,1,0,0:0:0:0:
448,192,178406,1,0,0:0:0:0:
320,192,178580,1,0,0:0:0:0:
192,192,178755,5,0,0:0:0:0:
448,192,178813,1,0,0:0:0:0:
320,192,178871,1,0,0:0:0:0:
64,192,178929,1,0,0:0:0:0:
448,192,178987,1,0,0:0:0:0:
64,192,179045,1,0,0:0:0:0:
192,192,179103,1,0,0:0:0:0:
320,192,179103,1,0,0:0:0:0:
320,192,179278,1,0,0:0:0:0:
448,192,179452,1,0,0:0:0:0:
192,192,179452,1,0,0:0:0:0:
448,192,179627,1,0,0:0:0:0:
320,192,179801,1,0,0:0:0:0:
320,192,179976,1,0,0:0:0:0:
64,192,180063,1,0,0:0:0:0:
448,192,180063,1,0,0:0:0:0:
192,192,180150,1,0,0:0:0:0:
320,192,180150,1,0,0:0:0:0:
192,192,180324,1,0,0:0:0:0:
64,192,180499,1,0,0:0:0:0:
320,192,180499,1,0,0:0:0:0:
64,192,180673,1,0,0:0:0:0:
192,192,180848,1,0,0:0:0:0:
448,192,180848,1,0,0:0:0:0:
192,192,181022,1,0,0:0:0:0:
320,192,181080,1,0,0:0:0:0:
448,192,181138,1,0,0:0:0:0:
64,192,181196,1,0,0:0:0:0:
192,192,181255,1,0,0:0:0:0:
64,192,181545,1,0,0:0:0:0:
448,192,181545,1,0,0:0:0:0:
192,192,181720,1,0,0:0:0:0:
192,192,181894,1,0,0:0:0:0:
320,192,181894,1,0,0:0:0:0:
320,192,182069,1,0,0:0:0:0:
448,192,182243,1,0,0:0:0:0:
192,192,182243,1,0,0:0:0:0:
448,192,182417,1,0,0:0:0:0:
320,192,182592,1,0,0:0:0:0:
320,192,182766,1,0,0:0:0:0:
64,192,182853,1,0,0:0:0:0:
448,192,182853,1,0,0:0:0:0:
192,192,182941,1,0,0:0:0:0:
320,192,182941,1,0,0:0:0:0:
64,192,183057,1,0,0:0:0:0:
192,192,183173,1,0,0:0:0:0:
64,192,183289,1,0,0:0:0:0:
320,192,183289,1,0,0:0:0:0:
448,192,183406,1,0,0:0:0:0:
320,192,183522,1,0,0:0:0:0:
192,192,183638,1,0,0:0:0:0:
448,192,183638,1,0,0:0:0:0:
64,192,183755,1,0,0:0:0:0:
192,192,183871,1,0,0:0:0:0:
64,192,183987,1,0,0:0:0:0:
448,192,184103,1,0,0:0:0:0:
320,192,184220,1,0,0:0:0:0:
448,192,184336,1,0,0:0:0:0:
192,192,184336,1,0,0:0:0:0:
192,192,184452,1,0,0:0:0:0:
448,192,184510,1,0,0:0:0:0:
64,192,184569,1,0,0:0:0:0:
320,192,184685,1,0,0:0:0:0:
64,192,184685,1,0,0:0:0:0:
320,192,184859,1,0,0:0:0:0:
192,192,185034,1,0,0:0:0:0:
448,192,185034,1,0,0:0:0:0:
192,192,185208,1,0,0:0:0:0:
64,192,185382,1,0,0:0:0:0:
64,192,185557,1,0,0:0:0:0:
192,192,185644,1,0,0:0:0:0:
320,192,185644,1,0,0:0:0:0:
448,192,185731,1,0,0:0:0:0:
64,192,185731,1,0,0:0:0:0:
448,192,185906,1,0,0:0:0:0:
320,192,186080,1,0,0:0:0:0:
64,192,186080,1,0,0:0:0:0:
320,192,186255,1,0,0:0:0:0:
192,192,186429,1,0,0:0:0:0:
448,192,186429,1,0,0:0:0:0:
192,192,186603,1,0,0:0:0:0:
64,192,186778,1,0,0:0:0:0:
192,192,187127,1,0,0:0:0:0:
64,192,187127,1,0,0:0:0:0:
320,192,187301,1,0,0:0:0:0:
448,192,187476,1,0,0:0:0:0:
192,192,187476,1,0,0:0:0:0:
448,192,187650,1,0,0:0:0:0:
64,192,187824,1,0,0:0:0:0:
320,192,187824,1,0,0:0:0:0:
64,192,187999,1,0,0:0:0:0:
192,192,188173,1,0,0:0:0:0:
192,192,188348,1,0,0:0:0:0:
320,192,188348,1,0,0:0:0:0:
64,192,188435,1,0,0:0:0:0:
448,192,188435,1,0,0:0:0:0:
192,192,188522,1,0,0:0:0:0:
320,192,188522,1,0,0:0:0:0:
64,192,188638,1,0,0:0:0:0:
192,192,188755,1,0,0:0:0:0:
64,192,188871,1,0,0:0:0:0:
320,192,188871,1,0,0:0:0:0:
448,192,188987,1,0,0:0:0:0:
64,192,189045,1,0,0:0:0:0:
192,192,189045,1,0,0:0:0:0:
320,192,189103,1,0,0:0:0:0:
192,192,189220,1,0,0:0:0:0:
448,192,189220,1,0,0:0:0:0:
64,192,189336,1,0,0:0:0:0:
192,192,189452,1,0,0:0:0:0:
64,192,189569,1,0,0:0:0:0:
448,192,189685,1,0,0:0:0:0:
320,192,189801,1,0,0:0:0:0:
192,192,189917,5,0,0:0:0:0:
64,192,189917,1,0,0:0:0:0:
448,192,189976,1,0,0:0:0:0:
320,192,190034,1,0,0:0:0:0:
64,192,190092,1,0,0:0:0:0:
448,192,190150,1,0,0:0:0:0:
64,192,190208,1,0,0:0:0:0:
192,192,190266,1,0,0:0:0:0:
320,192,190266,1,0,0:0:0:0:
320,192,190441,1,0,0:0:0:0:
448,192,190615,1,0,0:0:0:0:
192,192,190615,1,0,0:0:0:0:
448,192,190789,1,0,0:0:0:0:
320,192,190964,1,0,0:0:0:0:
320,192,191138,1,0,0:0:0:0:
64,192,191226,1,0,0:0:0:0:
448,192,191226,1,0,0:0:0:0:
192,192,191313,1,0,0:0:0:0:
320,192,191313,1,0,0:0:0:0:
192,192,191487,1,0,0:0:0:0:
320,192,191662,1,0,0:0:0:0:
192,192,191662,1,0,0:0:0:0:
192,192,191836,1,0,0:0:0:0:
192,192,192010,1,0,0:0:0:0:
448,192,192010,1,0,0:0:0:0:
192,192,192185,1,0,0:0:0:0:
448,192,192359,1,0,0:0:0:0:
320,192,192403,1,0,0:0:0:0:
64,192,192446,1,0,0:0:0:0:
64,192,192708,1,0,0:0:0:0:
448,192,192708,1,0,0:0:0:0:
192,192,192882,1,0,0:0:0:0:
192,192,193057,1,0,0:0:0:0:
320,192,193057,1,0,0:0:0:0:
320,192,193231,1,0,0:0:0:0:
448,192,193406,1,0,0:0:0:0:
192,192,193406,1,0,0:0:0:0:
448,192,193580,1,0,0:0:0:0:
320,192,193755,1,0,0:0:0:0:
320,192,193929,1,0,0:0:0:0:
64,192,194016,1,0,0:0:0:0:
448,192,194016,1,0,0:0:0:0:
192,192,194103,1,0,0:0:0:0:
320,192,194103,1,0,0:0:0:0:
64,192,194220,1,0,0:0:0:0:
192,192,194336,1,0,0:0:0:0:
64,192,194452,1,0,0:0:0:0:
320,192,194452,1,0,0:0:0:0:
448,192,194569,1,0,0:0:0:0:
320,192,194685,1,0,0:0:0:0:
192,192,194801,1,0,0:0:0:0:
448,192,194801,1,0,0:0:0:0:
64,192,194917,1,0,0:0:0:0:
192,192,195034,1,0,0:0:0:0:
64,192,195150,1,0,0:0:0:0:
448,192,195266,1,0,0:0:0:0:
320,192,195382,1,0,0:0:0:0:
448,192,195499,1,0,0:0:0:0:
192,192,195499,1,0,0:0:0:0:
448,192,195673,1,0,0:0:0:0:
320,192,195848,1,0,0:0:0:0:
64,192,195848,1,0,0:0:0:0:
64,192,195964,1,0,0:0:0:0:
320,192,196022,1,0,0:0:0:0:
192,192,196080,1,0,0:0:0:0:
192,192,196196,1,0,0:0:0:0:
448,192,196196,1,0,0:0:0:0:
192,192,196371,1,0,0:0:0:0:
64,192,196545,1,0,0:0:0:0:
64,192,196720,1,0,0:0:0:0:
192,192,196807,1,0,0:0:0:0:
320,192,196807,1,0,0:0:0:0:
448,192,196894,1,0,0:0:0:0:
64,192,196894,1,0,0:0:0:0:
448,192,197069,1,0,0:0:0:0:
320,192,197243,1,0,0:0:0:0:
64,192,197243,1,0,0:0:0:0:
320,192,197417,1,0,0:0:0:0:
192,192,197592,1,0,0:0:0:0:
448,192,197592,1,0,0:0:0:0:
320,192,197679,128,0,197766:0:0:0:0:
192,192,197766,1,0,0:0:0:0:
64,192,197941,1,0,0:0:0:0:
192,192,198289,1,0,0:0:0:0:
64,192,198289,1,0,0:0:0:0:
320,192,198464,1,0,0:0:0:0:
448,192,198638,1,0,0:0:0:0:
192,192,198638,1,0,0:0:0:0:
448,192,198813,1,0,0:0:0:0:
64,192,198987,1,0,0:0:0:0:
320,192,198987,1,0,0:0:0:0:
64,192,199162,1,0,0:0:0:0:
192,192,199336,1,0,0:0:0:0:
192,192,199510,1,0,0:0:0:0:
320,192,199510,1,0,0:0:0:0:
64,192,199598,1,0,0:0:0:0:
448,192,199598,1,0,0:0:0:0:
192,192,199685,1,0,0:0:0:0:
320,192,199685,1,0,0:0:0:0:
64,192,199801,1,0,0:0:0:0:
192,192,199917,1,0,0:0:0:0:
64,192,200034,1,0,0:0:0:0:
320,192,200034,1,0,0:0:0:0:
448,192,200150,1,0,0:0:0:0:
64,192,200208,1,0,0:0:0:0:
192,192,200208,1,0,0:0:0:0:
320,192,200266,1,0,0:0:0:0:
192,192,200382,1,0,0:0:0:0:
448,192,200382,1,0,0:0:0:0:
192,192,200499,1,0,0:0:0:0:
64,192,200615,1,0,0:0:0:0:
448,192,200731,1,0,0:0:0:0:
448,192,200848,1,0,0:0:0:0:
320,192,200964,1,0,0:0:0:0:
192,192,201080,5,0,0:0:0:0:
64,192,201080,1,0,0:0:0:0:
448,192,201138,1,0,0:0:0:0:
320,192,201196,1,0,0:0:0:0:
64,192,201255,1,0,0:0:0:0:
448,192,201313,1,0,0:0:0:0:
64,192,201371,1,0,0:0:0:0:
192,192,201429,1,0,0:0:0:0:
192,192,201603,128,0,201662:0:0:0:0:
320,192,201778,1,0,0:0:0:0:
448,192,201836,128,0,202388:0:0:0:0:
192,192,202388,1,0,0:0:0:0:
64,192,202476,128,0,203086:0:0:0:0:
192,192,203086,1,0,0:0:0:0:
320,192,203173,1,0,0:0:0:0:
64,192,203173,1,0,0:0:0:0:
448,192,203231,128,0,203522:0:0:0:0:
192,192,203522,128,0,203871:0:0:0:0:
448,192,203871,1,0,0:0:0:0:
320,192,203871,1,0,0:0:0:0:
64,192,204220,1,0,0:0:0:0:
448,192,204220,1,0,0:0:0:0:
320,192,204569,1,0,0:0:0:0:
64,192,204569,1,0,0:0:0:0:
448,192,204627,128,0,205092:0:0:0:0:
192,192,204917,1,0,0:0:0:0:
320,192,205179,1,0,0:0:0:0:
448,192,205179,1,0,0:0:0:0:
64,192,205266,1,0,0:0:0:0:
192,192,205266,128,0,205877:0:0:0:0:
320,192,205615,1,0,0:0:0:0:
448,192,205615,1,0,0:0:0:0:
64,192,205877,1,0,0:0:0:0:
192,192,205964,1,0,0:0:0:0:
320,192,205964,1,0,0:0:0:0:
448,192,206022,128,0,206313:0:0:0:0:
64,192,206313,128,0,206662:0:0:0:0:
320,192,206662,1,0,0:0:0:0:
448,192,206662,1,0,0:0:0:0:
192,192,207010,1,0,0:0:0:0:
320,192,207010,1,0,0:0:0:0:
64,192,207080,1,0,0:0:0:0:
448,192,207150,1,0,0:0:0:0:
320,192,207220,1,0,0:0:0:0:
192,192,207289,1,0,0:0:0:0:
320,192,207359,1,0,0:0:0:0:
64,192,207359,1,0,0:0:0:0:
448,192,207417,128,0,207882:0:0:0:0:
64,192,207708,1,0,0:0:0:0:
448,192,207970,1,0,0:0:0:0:
192,192,207970,1,0,0:0:0:0:
64,192,208057,128,0,208667:0:0:0:0:
320,192,208057,1,0,0:0:0:0:
448,192,208406,1,0,0:0:0:0:
320,192,208406,1,0,0:0:0:0:
192,192,208667,1,0,0:0:0:0:
320,192,208755,1,0,0:0:0:0:
64,192,208755,1,0,0:0:0:0:
448,192,208813,128,0,209103:0:0:0:0:
192,192,209103,128,0,209452:0:0:0:0:
320,192,209452,1,0,0:0:0:0:
448,192,209452,1,0,0:0:0:0:
64,192,209801,1,0,0:0:0:0:
448,192,209801,1,0,0:0:0:0:
64,192,210150,1,0,0:0:0:0:
320,192,210150,1,0,0:0:0:0:
192,192,210208,1,0,0:0:0:0:
448,192,210266,128,0,210382:0:0:0:0:
320,192,210382,128,0,210673:0:0:0:0:
192,192,210499,1,0,0:0:0:0:
64,192,210673,1,0,0:0:0:0:
192,192,210673,1,0,0:0:0:0:
320,192,210760,1,0,0:0:0:0:
448,192,210760,1,0,0:0:0:0:
64,192,210848,1,0,0:0:0:0:
192,192,210848,128,0,211458:0:0:0:0:
320,192,211196,1,0,0:0:0:0:
448,192,211196,1,0,0:0:0:0:
448,192,211371,1,0,0:0:0:0:
320,192,211371,1,0,0:0:0:0:
64,192,211458,1,0,0:0:0:0:
320,192,211545,1,0,0:0:0:0:
192,192,211545,1,0,0:0:0:0:
448,192,211603,128,0,211894:0:0:0:0:
64,192,211894,128,0,212214:0:0:0:0:
320,192,212243,5,0,0:0:0:0:
448,192,212243,1,0,0:0:0:0:
64,192,212301,1,0,0:0:0:0:
192,192,212359,1,0,0:0:0:0:
448,192,212417,1,0,0:0:0:0:
64,192,212476,1,0,0:0:0:0:
448,192,212534,1,0,0:0:0:0:
192,192,212592,1,0,0:0:0:0:
320,192,212592,1,0,0:0:0:0:
320,192,212941,1,0,0:0:0:0:
64,192,212941,1,0,0:0:0:0:
448,192,212999,128,0,213464:0:0:0:0:
64,192,213289,1,0,0:0:0:0:
192,192,213551,1,0,0:0:0:0:
448,192,213551,1,0,0:0:0:0:
64,192,213638,128,0,214249:0:0:0:0:
320,192,213638,1,0,0:0:0:0:
320,192,213987,1,0,0:0:0:0:
448,192,213987,1,0,0:0:0:0:
192,192,214249,1,0,0:0:0:0:
320,192,214336,1,0,0:0:0:0:
64,192,214336,1,0,0:0:0:0:
448,192,214394,128,0,214685:0:0:0:0:
192,192,214685,128,0,215034:0:0:0:0:
448,192,215034,1,0,0:0:0:0:
320,192,215034,1,0,0:0:0:0:
64,192,215382,1,0,0:0:0:0:
448,192,215382,1,0,0:0:0:0:
320,192,215731,1,0,0:0:0:0:
64,192,215731,1,0,0:0:0:0:
448,192,215789,128,0,216255:0:0:0:0:
192,192,216080,1,0,0:0:0:0:
320,192,216342,1,0,0:0:0:0:
448,192,216342,1,0,0:0:0:0:
64,192,216429,1,0,0:0:0:0:
192,192,216429,128,0,217039:0:0:0:0:
320,192,216778,1,0,0:0:0:0:
448,192,216778,1,0,0:0:0:0:
64,192,217039,1,0,0:0:0:0:
192,192,217127,1,0,0:0:0:0:
320,192,217127,1,0,0:0:0:0:
448,192,217185,128,0,217476:0:0:0:0:
64,192,217476,128,0,217824:0:0:0:0:
320,192,217824,1,0,0:0:0:0:
448,192,217824,1,0,0:0:0:0:
320,192,217941,1,0,0:0:0:0:
64,192,218057,1,0,0:0:0:0:
192,192,218173,1,0,0:0:0:0:
320,192,218173,1,0,0:0:0:0:
320,192,218522,1,0,0:0:0:0:
64,192,218522,1,0,0:0:0:0:
448,192,218580,128,0,219045:0:0:0:0:
64,192,218871,1,0,0:0:0:0:
448,192,219132,1,0,0:0:0:0:
192,192,219132,1,0,0:0:0:0:
64,192,219220,128,0,219830:0:0:0:0:
320,192,219220,1,0,0:0:0:0:
192,192,219569,1,0,0:0:0:0:
448,192,219569,1,0,0:0:0:0:
192,192,219830,1,0,0:0:0:0:
320,192,219917,1,0,0:0:0:0:
64,192,219917,1,0,0:0:0:0:
448,192,219976,128,0,220266:0:0:0:0:
192,192,220266,128,0,220615:0:0:0:0:
320,192,220615,1,0,0:0:0:0:
448,192,220615,1,0,0:0:0:0:
64,192,220964,1,0,0:0:0:0:
448,192,220964,1,0,0:0:0:0:
64,192,221313,1,0,0:0:0:0:
320,192,221313,1,0,0:0:0:0:
192,192,221371,1,0,0:0:0:0:
448,192,221429,128,0,221545:0:0:0:0:
320,192,221545,128,0,221836:0:0:0:0:
192,192,221662,1,0,0:0:0:0:
64,192,221836,1,0,0:0:0:0:
192,192,221836,1,0,0:0:0:0:
320,192,221923,1,0,0:0:0:0:
448,192,221923,1,0,0:0:0:0:
64,192,222010,1,0,0:0:0:0:
192,192,222010,128,0,222621:0:0:0:0:
320,192,222359,5,0,0:0:0:0:
448,192,222359,1,0,0:0:0:0:
448,192,222534,1,0,0:0:0:0:
320,192,222534,1,0,0:0:0:0:
64,192,222621,1,0,0:0:0:0:
320,192,222708,1,0,0:0:0:0:
192,192,222708,1,0,0:0:0:0:
448,192,222766,128,0,223057:0:0:0:0:
64,192,223057,128,0,223406:0:0:0:0:
320,192,223406,128,0,223493:0:0:0:0:
320,192,226196,128,0,226284:0:0:0:0:
320,192,228987,5,0,0:0:0:0:
64,192,229045,1,0,0:0:0:0:
192,192,229103,1,0,0:0:0:0:
448,192,229162,1,0,0:0:0:0:
64,192,229220,1,0,0:0:0:0:
448,192,229278,1,0,0:0:0:0:
192,192,229336,128,0,229394:0:0:0:0:
320,192,229336,128,0,229394:0:0:0:0:
192,192,229510,5,0,0:0:0:0:
448,192,229532,1,0,0:0:0:0:
64,192,229685,1,0,0:0:0:0:
320,192,229707,1,0,0:0:0:0:
192,192,229859,1,0,0:0:0:0:
448,192,229859,1,0,0:0:0:0:
192,192,230034,1,0,0:0:0:0:
64,192,230077,1,0,0:0:0:0:
448,192,230121,1,0,0:0:0:0:
320,192,230164,1,0,0:0:0:0:
192,192,230208,1,0,0:0:0:0:
64,192,230208,1,0,0:0:0:0:
448,192,230295,1,0,0:0:0:0:
64,192,230382,1,0,0:0:0:0:
320,192,230441,1,0,0:0:0:0:
64,192,230499,1,0,0:0:0:0:
320,192,230557,1,0,0:0:0:0:
192,192,230644,1,0,0:0:0:0:
64,192,230731,1,0,0:0:0:0:
448,192,230731,1,0,0:0:0:0:
192,192,230775,1,0,0:0:0:0:
320,192,230819,1,0,0:0:0:0:
448,192,230862,1,0,0:0:0:0:
192,192,230906,1,0,0:0:0:0:
64,192,230935,1,0,0:0:0:0:
448,192,230964,1,0,0:0:0:0:
320,192,230993,1,0,0:0:0:0:
64,192,231080,1,0,0:0:0:0:
192,192,231080,1,0,0:0:0:0:
320,192,231255,1,0,0:0:0:0:
448,192,231255,1,0,0:0:0:0:
192,192,231313,1,0,0:0:0:0:
64,192,231371,1,0,0:0:0:0:
320,192,231429,1,0,0:0:0:0:
192,192,231473,1,0,0:0:0:0:
320,192,231516,1,0,0:0:0:0:
64,192,231560,1,0,0:0:0:0:
448,192,231603,1,0,0:0:0:0:
64,192,231662,1,0,0:0:0:0:
192,192,231720,1,0,0:0:0:0:
320,192,231778,1,0,0:0:0:0:
64,192,231952,1,0,0:0:0:0:
192,192,232010,1,0,0:0:0:0:
320,192,232127,1,0,0:0:0:0:
448,192,232127,1,0,0:0:0:0:
320,192,232301,1,0,0:0:0:0:
64,192,232323,1,0,0:0:0:0:
320,192,232476,1,0,0:0:0:0:
192,192,232497,1,0,0:0:0:0:
448,192,232563,1,0,0:0:0:0:
64,192,232650,1,0,0:0:0:0:
320,192,232737,1,0,0:0:0:0:
192,192,232759,1,0,0:0:0:0:
448,192,232803,1,0,0:0:0:0:
64,192,232868,1,0,0:0:0:0:
192,192,232933,1,0,0:0:0:0:
320,192,232999,1,0,0:0:0:0:
448,192,232999,1,0,0:0:0:0:
64,192,233086,1,0,0:0:0:0:
192,192,233086,1,0,0:0:0:0:
320,192,233130,1,0,0:0:0:0:
448,192,233173,1,0,0:0:0:0:
64,192,233217,1,0,0:0:0:0:
192,192,233239,1,0,0:0:0:0:
320,192,233304,1,0,0:0:0:0:
64,192,233348,1,0,0:0:0:0:
448,192,233435,1,0,0:0:0:0:
64,192,234220,1,0,0:0:0:0:
448,192,234220,1,0,0:0:0:0:
192,192,234307,1,0,0:0:0:0:
64,192,234394,1,0,0:0:0:0:
192,192,234481,1,0,0:0:0:0:
320,192,234569,5,0,0:0:0:0:
448,192,234569,1,0,0:0:0:0:
64,192,234627,1,0,0:0:0:0:
192,192,234685,1,0,0:0:0:0:
448,192,234743,1,0,0:0:0:0:
64,192,234801,1,0,0:0:0:0:
448,192,234859,1,0,0:0:0:0:
192,192,234917,128,0,234976:0:0:0:0:
320,192,234917,128,0,234976:0:0:0:0:
448,192,235092,1,0,0:0:0:0:
192,192,235114,5,0,0:0:0:0:
320,192,235266,1,0,0:0:0:0:
64,192,235288,1,0,0:0:0:0:
448,192,235441,1,0,0:0:0:0:
64,192,235441,1,0,0:0:0:0:
448,192,235528,1,0,0:0:0:0:
192,192,235615,1,0,0:0:0:0:
64,192,235659,1,0,0:0:0:0:
448,192,235702,1,0,0:0:0:0:
320,192,235746,1,0,0:0:0:0:
192,192,235789,1,0,0:0:0:0:
64,192,235789,1,0,0:0:0:0:
448,192,235877,1,0,0:0:0:0:
192,192,235939,1,0,0:0:0:0:
448,192,236001,1,0,0:0:0:0:
320,192,236064,1,0,0:0:0:0:
64,192,236126,1,0,0:0:0:0:
320,192,236188,1,0,0:0:0:0:
64,192,236313,1,0,0:0:0:0:
448,192,236313,1,0,0:0:0:0:
192,192,236356,1,0,0:0:0:0:
320,192,236400,1,0,0:0:0:0:
448,192,236444,1,0,0:0:0:0:
192,192,236487,1,0,0:0:0:0:
64,192,236516,1,0,0:0:0:0:
448,192,236545,1,0,0:0:0:0:
320,192,236574,1,0,0:0:0:0:
64,192,236662,1,0,0:0:0:0:
192,192,236662,1,0,0:0:0:0:
320,192,236720,1,0,0:0:0:0:
448,192,236778,1,0,0:0:0:0:
64,192,236836,1,0,0:0:0:0:
192,192,236836,1,0,0:0:0:0:
320,192,236894,1,0,0:0:0:0:
192,192,236952,1,0,0:0:0:0:
64,192,237010,1,0,0:0:0:0:
448,192,237069,1,0,0:0:0:0:
320,192,237127,1,0,0:0:0:0:
192,192,237185,1,0,0:0:0:0:
64,192,237228,1,0,0:0:0:0:
320,192,237272,1,0,0:0:0:0:
448,192,237316,1,0,0:0:0:0:
64,192,237359,1,0,0:0:0:0:
192,192,237359,1,0,0:0:0:0:
320,192,237417,1,0,0:0:0:0:
448,192,237476,1,0,0:0:0:0:
192,192,237534,1,0,0:0:0:0:
320,192,237592,1,0,0:0:0:0:
64,192,237650,1,0,0:0:0:0:
192,192,237708,1,0,0:0:0:0:
320,192,237766,1,0,0:0:0:0:
448,192,237824,1,0,0:0:0:0:
64,192,237882,1,0,0:0:0:0:
192,192,237882,1,0,0:0:0:0:
320,192,237941,1,0,0:0:0:0:
64,192,237999,1,0,0:0:0:0:
192,192,238057,1,0,0:0:0:0:
448,192,238115,1,0,0:0:0:0:
64,192,238173,1,0,0:0:0:0:
320,192,238231,1,0,0:0:0:0:
192,192,238289,1,0,0:0:0:0:
448,192,238348,1,0,0:0:0:0:
192,192,238406,1,0,0:0:0:0:
64,192,238406,1,0,0:0:0:0:
448,192,238464,1,0,0:0:0:0:
320,192,238522,1,0,0:0:0:0:
192,192,238580,1,0,0:0:0:0:
64,192,238638,1,0,0:0:0:0:
320,192,238696,1,0,0:0:0:0:
192,192,238755,1,0,0:0:0:0:
64,192,238755,1,0,0:0:0:0:
320,192,238813,1,0,0:0:0:0:
448,192,238871,1,0,0:0:0:0:
192,192,238929,1,0,0:0:0:0:
320,192,238987,1,0,0:0:0:0:
64,192,239045,1,0,0:0:0:0:
192,192,239103,1,0,0:0:0:0:
320,192,239162,1,0,0:0:0:0:
448,192,239220,1,0,0:0:0:0:
64,192,239278,1,0,0:0:0:0:
192,192,239278,1,0,0:0:0:0:
320,192,239336,1,0,0:0:0:0:
64,192,239394,1,0,0:0:0:0:
192,192,239452,1,0,0:0:0:0:
448,192,239510,1,0,0:0:0:0:
64,192,239569,1,0,0:0:0:0:
320,192,239627,1,0,0:0:0:0:
192,192,239685,1,0,0:0:0:0:
448,192,239743,1,0,0:0:0:0:
192,192,239801,1,0,0:0:0:0:
64,192,239801,1,0,0:0:0:0:
448,192,239859,1,0,0:0:0:0:
320,192,239917,1,0,0:0:0:0:
192,192,239976,1,0,0:0:0:0:
64,192,240034,1,0,0:0:0:0:
320,192,240092,1,0,0:0:0:0:
192,192,240150,1,0,0:0:0:0:
64,192,240150,1,0,0:0:0:0:
192,192,240324,1,0,0:0:0:0:
64,192,240324,1,0,0:0:0:0:
64,192,240499,128,0,240557:0:0:0:0:
192,192,240499,128,0,240557:0:0:0:0:
64,192,240673,1,0,0:0:0:0:
320,192,240695,1,0,0:0:0:0:
448,192,240848,1,0,0:0:0:0:
192,192,240869,1,0,0:0:0:0:
448,192,240935,1,0,0:0:0:0:
192,192,241022,1,0,0:0:0:0:
64,192,241022,1,0,0:0:0:0:
320,192,241196,1,0,0:0:0:0:
448,192,241240,1,0,0:0:0:0:
64,192,241284,1,0,0:0:0:0:
192,192,241327,1,0,0:0:0:0:
448,192,241371,1,0,0:0:0:0:
320,192,241371,1,0,0:0:0:0:
64,192,241458,1,0,0:0:0:0:
64,192,241545,1,0,0:0:0:0:
320,192,241632,1,0,0:0:0:0:
320,192,241720,1,0,0:0:0:0:
192,192,241807,1,0,0:0:0:0:
64,192,241894,1,0,0:0:0:0:
448,192,241894,1,0,0:0:0:0:
192,192,241938,1,0,0:0:0:0:
320,192,241981,1,0,0:0:0:0:
448,192,242025,1,0,0:0:0:0:
192,192,242069,1,0,0:0:0:0:
64,192,242098,1,0,0:0:0:0:
448,192,242127,1,0,0:0:0:0:
320,192,242156,1,0,0:0:0:0:
64,192,242243,1,0,0:0:0:0:
192,192,242243,1,0,0:0:0:0:
320,192,242417,1,0,0:0:0:0:
448,192,242417,1,0,0:0:0:0:
192,192,242476,1,0,0:0:0:0:
64,192,242534,1,0,0:0:0:0:
320,192,242592,1,0,0:0:0:0:
192,192,242635,1,0,0:0:0:0:
320,192,242679,1,0,0:0:0:0:
64,192,242723,1,0,0:0:0:0:
448,192,242766,1,0,0:0:0:0:
64,192,242824,1,0,0:0:0:0:
192,192,242882,1,0,0:0:0:0:
320,192,242941,1,0,0:0:0:0:
64,192,243115,1,0,0:0:0:0:
192,192,243173,1,0,0:0:0:0:
320,192,243289,1,0,0:0:0:0:
448,192,243289,1,0,0:0:0:0:
64,192,243464,1,0,0:0:0:0:
320,192,243486,1,0,0:0:0:0:
320,192,243638,1,0,0:0:0:0:
192,192,243660,1,0,0:0:0:0:
448,192,243696,1,0,0:0:0:0:
64,192,243755,1,0,0:0:0:0:
320,192,243813,1,0,0:0:0:0:
192,192,243871,1,0,0:0:0:0:
448,192,243929,1,0,0:0:0:0:
64,192,243987,1,0,0:0:0:0:
320,192,244045,1,0,0:0:0:0:
192,192,244103,1,0,0:0:0:0:
448,192,244162,1,0,0:0:0:0:
64,192,244162,1,0,0:0:0:0:
192,192,244249,1,0,0:0:0:0:
320,192,244271,1,0,0:0:0:0:
64,192,244685,1,0,0:0:0:0:
320,192,244755,1,0,0:0:0:0:
64,192,244824,1,0,0:0:0:0:
448,192,244894,1,0,0:0:0:0:
64,192,244964,1,0,0:0:0:0:
320,192,245034,1,0,0:0:0:0:
64,192,245103,1,0,0:0:0:0:
448,192,245173,1,0,0:0:0:0:
192,192,245243,1,0,0:0:0:0:
448,192,245313,1,0,0:0:0:0:
64,192,245382,1,0,0:0:0:0:
192,192,245382,1,0,0:0:0:0:
320,192,245452,1,0,0:0:0:0:
64,192,245522,1,0,0:0:0:0:
320,192,245592,1,0,0:0:0:0:
192,192,245662,1,0,0:0:0:0:
320,192,245731,5,0,0:0:0:0:
448,192,245731,1,0,0:0:0:0:
64,192,245789,1,0,0:0:0:0:
192,192,245848,1,0,0:0:0:0:
448,192,245906,1,0,0:0:0:0:
64,192,245964,1,0,0:0:0:0:
448,192,246022,1,0,0:0:0:0:
192,192,246080,128,0,246138:0:0:0:0:
320,192,246080,128,0,246138:0:0:0:0:
320,192,246255,1,0,0:0:0:0:
64,192,246276,1,0,0:0:0:0:
448,192,246342,1,0,0:0:0:0:
192,192,246342,1,0,0:0:0:0:
64,192,246429,1,0,0:0:0:0:
320,192,246451,1,0,0:0:0:0:
64,192,246603,1,0,0:0:0:0:
448,192,246603,1,0,0:0:0:0:
192,192,246691,1,0,0:0:0:0:
320,192,246778,1,0,0:0:0:0:
448,192,246821,1,0,0:0:0:0:
64,192,246865,1,0,0:0:0:0:
192,192,246909,1,0,0:0:0:0:
320,192,246952,1,0,0:0:0:0:
448,192,246952,1,0,0:0:0:0:
64,192,247039,1,0,0:0:0:0:
320,192,247101,1,0,0:0:0:0:
64,192,247163,1,0,0:0:0:0:
192,192,247226,1,0,0:0:0:0:
448,192,247288,1,0,0:0:0:0:
192,192,247350,1,0,0:0:0:0:
320,192,247388,1,0,0:0:0:0:
448,192,247476,1,0,0:0:0:0:
64,192,247476,1,0,0:0:0:0:
192,192,247519,1,0,0:0:0:0:
320,192,247563,1,0,0:0:0:0:
448,192,247606,1,0,0:0:0:0:
192,192,247650,1,0,0:0:0:0:
64,192,247679,1,0,0:0:0:0:
448,192,247708,1,0,0:0:0:0:
320,192,247737,1,0,0:0:0:0:
64,192,247824,1,0,0:0:0:0:
192,192,247824,1,0,0:0:0:0:
320,192,247882,1,0,0:0:0:0:
448,192,247941,1,0,0:0:0:0:
64,192,247999,1,0,0:0:0:0:
192,192,247999,1,0,0:0:0:0:
320,192,248057,1,0,0:0:0:0:
192,192,248115,1,0,0:0:0:0:
64,192,248173,1,0,0:0:0:0:
448,192,248260,1,0,0:0:0:0:
320,192,248260,1,0,0:0:0:0:
192,192,248348,1,0,0:0:0:0:
64,192,248391,1,0,0:0:0:0:
320,192,248435,1,0,0:0:0:0:
448,192,248478,1,0,0:0:0:0:
192,192,248522,5,0,0:0:0:0:
64,192,248544,1,0,0:0:0:0:
320,192,248566,1,0,0:0:0:0:
192,192,248696,1,0,0:0:0:0:
448,192,248726,1,0,0:0:0:0:
64,192,248871,1,0,0:0:0:0:
320,192,248871,1,0,0:0:0:0:
64,192,249045,1,0,0:0:0:0:
192,192,249067,1,0,0:0:0:0:
320,192,249220,1,0,0:0:0:0:
448,192,249278,128,0,249830:0:0:0:0:
192,192,249830,1,0,0:0:0:0:
64,192,249917,128,0,250528:0:0:0:0:
192,192,250528,1,0,0:0:0:0:
320,192,250615,1,0,0:0:0:0:
448,192,250702,128,0,250964:0:0:0:0:
192,192,250964,128,0,251313:0:0:0:0:
320,192,251313,128,0,251662:0:0:0:0:
192,192,251574,128,0,251662:0:0:0:0:
64,192,251662,5,0,0:0:0:0:
448,192,251662,1,0,0:0:0:0:
320,192,251749,1,0,0:0:0:0:
64,192,251836,1,0,0:0:0:0:
320,192,251923,1,0,0:0:0:0:
192,192,252010,1,0,0:0:0:0:
448,192,252098,1,0,0:0:0:0:
320,192,252185,1,0,0:0:0:0:
192,192,252185,1,0,0:0:0:0:
448,192,252272,1,0,0:0:0:0:
64,192,252359,1,0,0:0:0:0:
320,192,252446,1,0,0:0:0:0:
448,192,252534,1,0,0:0:0:0:
64,192,252534,1,0,0:0:0:0:
320,192,252621,1,0,0:0:0:0:
192,192,252708,1,0,0:0:0:0:
448,192,252795,1,0,0:0:0:0:
192,192,252882,1,0,0:0:0:0:
320,192,252970,1,0,0:0:0:0:
448,192,253057,1,0,0:0:0:0:
64,192,253057,1,0,0:0:0:0:
320,192,253144,1,0,0:0:0:0:
64,192,253231,1,0,0:0:0:0:
192,192,253231,1,0,0:0:0:0:
448,192,253289,1,0,0:0:0:0:
64,192,253348,1,0,0:0:0:0:
320,192,253406,1,0,0:0:0:0:
192,192,253428,1,0,0:0:0:0:
320,192,253493,1,0,0:0:0:0:
64,192,253515,1,0,0:0:0:0:
192,192,253580,1,0,0:0:0:0:
448,192,253580,1,0,0:0:0:0:
320,192,253638,1,0,0:0:0:0:
64,192,253696,1,0,0:0:0:0:
192,192,253755,1,0,0:0:0:0:
448,192,253776,1,0,0:0:0:0:
320,192,253813,1,0,0:0:0:0:
64,192,253871,1,0,0:0:0:0:
192,192,253929,1,0,0:0:0:0:
320,192,253987,1,0,0:0:0:0:
448,192,254045,1,0,0:0:0:0:
64,192,254103,128,0,254278:0:0:0:0:
192,192,254103,128,0,254278:0:0:0:0:
320,192,254278,1,0,0:0:0:0:
448,192,254321,1,0,0:0:0:0:
64,192,254365,1,0,0:0:0:0:
192,192,254409,1,0,0:0:0:0:
320,192,254452,1,0,0:0:0:0:
448,192,254452,1,0,0:0:0:0:
192,192,254539,1,0,0:0:0:0:
448,192,254627,1,0,0:0:0:0:
64,192,254714,1,0,0:0:0:0:
320,192,254801,1,0,0:0:0:0:
192,192,254888,1,0,0:0:0:0:
192,192,254976,1,0,0:0:0:0:
320,192,254976,1,0,0:0:0:0:
64,192,255063,1,0,0:0:0:0:
448,192,255150,5,0,0:0:0:0:
192,192,255237,1,0,0:0:0:0:
64,192,255324,1,0,0:0:0:0:
448,192,255324,1,0,0:0:0:0:
192,192,255412,1,0,0:0:0:0:
320,192,255499,1,0,0:0:0:0:
64,192,255586,1,0,0:0:0:0:
320,192,255673,1,0,0:0:0:0:
192,192,255760,1,0,0:0:0:0:
64,192,255848,128,0,255935:0:0:0:0:
448,192,255848,128,0,255935:0:0:0:0:
192,192,255935,1,0,0:0:0:0:
320,192,256022,1,0,0:0:0:0:
448,192,256022,1,0,0:0:0:0:
64,192,256109,1,0,0:0:0:0:
320,192,256196,1,0,0:0:0:0:
192,192,256240,1,0,0:0:0:0:
64,192,256284,1,0,0:0:0:0:
320,192,256371,1,0,0:0:0:0:
448,192,256371,1,0,0:0:0:0:
64,192,256458,1,0,0:0:0:0:
320,192,256545,1,0,0:0:0:0:
448,192,256589,1,0,0:0:0:0:
64,192,256632,1,0,0:0:0:0:
448,192,256720,1,0,0:0:0:0:
192,192,256763,1,0,0:0:0:0:
64,192,256807,1,0,0:0:0:0:
448,192,256894,1,0,0:0:0:0:
320,192,256894,1,0,0:0:0:0:
192,192,257069,128,0,257265:0:0:0:0:
64,192,257112,128,0,257287:0:0:0:0:
320,192,257156,128,0,257243:0:0:0:0:
320,192,258071,1,0,0:0:0:0:
448,192,258115,1,0,0:0:0:0:
192,192,258202,1,0,0:0:0:0:
192,192,258289,1,0,0:0:0:0:
320,192,258464,1,0,0:0:0:0:
320,192,258551,1,0,0:0:0:0:
448,192,258638,1,0,0:0:0:0:
64,192,258638,1,0,0:0:0:0:
192,192,258726,1,0,0:0:0:0:
448,192,258813,1,0,0:0:0:0:
320,192,258813,1,0,0:0:0:0:
320,192,258900,1,0,0:0:0:0:
192,192,258944,1,0,0:0:0:0:
64,192,258987,1,0,0:0:0:0:
448,192,259045,1,0,0:0:0:0:
192,192,259103,1,0,0:0:0:0:
448,192,259162,1,0,0:0:0:0:
320,192,259162,1,0,0:0:0:0:
64,192,259220,1,0,0:0:0:0:
320,192,259278,1,0,0:0:0:0:
192,192,259336,1,0,0:0:0:0:
448,192,259380,1,0,0:0:0:0:
64,192,259423,1,0,0:0:0:0:
320,192,259467,1,0,0:0:0:0:
448,192,259510,1,0,0:0:0:0:
192,192,259569,1,0,0:0:0:0:
320,192,259627,1,0,0:0:0:0:
64,192,259685,1,0,0:0:0:0:
192,192,259685,1,0,0:0:0:0:
448,192,259859,1,0,0:0:0:0:
320,192,259888,1,0,0:0:0:0:
320,192,260034,1,0,0:0:0:0:
192,192,260034,1,0,0:0:0:0:
448,192,260121,1,0,0:0:0:0:
64,192,260208,1,0,0:0:0:0:
448,192,260295,1,0,0:0:0:0:
192,192,260382,1,0,0:0:0:0:
320,192,260470,1,0,0:0:0:0:
448,192,260557,1,0,0:0:0:0:
64,192,260557,1,0,0:0:0:0:
320,192,260644,1,0,0:0:0:0:
192,192,260731,1,0,0:0:0:0:
448,192,260819,1,0,0:0:0:0:
320,192,260906,1,0,0:0:0:0:
64,192,260906,1,0,0:0:0:0:
448,192,260993,1,0,0:0:0:0:
192,192,261080,1,0,0:0:0:0:
320,192,261167,1,0,0:0:0:0:
64,192,261255,1,0,0:0:0:0:
320,192,261342,1,0,0:0:0:0:
192,192,261429,128,0,261516:0:0:0:0:
448,192,261429,128,0,261516:0:0:0:0:
320,192,261516,1,0,0:0:0:0:
448,192,261603,1,0,0:0:0:0:
64,192,261603,1,0,0:0:0:0:
192,192,261691,1,0,0:0:0:0:
448,192,261778,1,0,0:0:0:0:
320,192,261800,1,0,0:0:0:0:
64,192,261821,1,0,0:0:0:0:
448,192,261952,1,0,0:0:0:0:
192,192,262039,1,0,0:0:0:0:
64,192,262127,1,0,0:0:0:0:
320,192,262170,1,0,0:0:0:0:
192,192,262214,1,0,0:0:0:0:
448,192,262301,1,0,0:0:0:0:
64,192,262359,1,0,0:0:0:0:
448,192,262417,1,0,0:0:0:0:
192,192,262476,128,0,262824:0:0:0:0:
320,192,262737,128,0,262824:0:0:0:0:
448,192,262824,1,0,0:0:0:0:
192,192,262912,1,0,0:0:0:0:
448,192,262999,1,0,0:0:0:0:
64,192,263086,1,0,0:0:0:0:
448,192,263173,1,0,0:0:0:0:
192,192,263260,1,0,0:0:0:0:
448,192,263348,1,0,0:0:0:0:
192,192,263435,1,0,0:0:0:0:
448,192,263522,1,0,0:0:0:0:
64,192,263609,1,0,0:0:0:0:
448,192,263696,1,0,0:0:0:0:
64,192,263784,1,0,0:0:0:0:
320,192,263871,1,0,0:0:0:0:
192,192,263958,1,0,0:0:0:0:
320,192,264045,1,0,0:0:0:0:
192,192,264132,1,0,0:0:0:0:
320,192,264220,1,0,0:0:0:0:
64,192,264307,1,0,0:0:0:0:
320,192,264394,1,0,0:0:0:0:
64,192,264481,1,0,0:0:0:0:
320,192,264569,1,0,0:0:0:0:
192,192,264656,1,0,0:0:0:0:
320,192,264743,1,0,0:0:0:0:
192,192,264830,1,0,0:0:0:0:
320,192,264917,1,0,0:0:0:0:
64,192,265005,1,0,0:0:0:0:
320,192,265092,1,0,0:0:0:0:
64,192,265179,1,0,0:0:0:0:
448,192,265266,128,0,265441:0:0:0:0:
320,192,265266,128,0,265441:0:0:0:0:
192,192,265441,1,0,0:0:0:0:
64,192,265484,1,0,0:0:0:0:
448,192,265528,1,0,0:0:0:0:
320,192,265571,1,0,0:0:0:0:
192,192,265615,1,0,0:0:0:0:
64,192,265615,1,0,0:0:0:0:
320,192,265702,1,0,0:0:0:0:
64,192,265789,1,0,0:0:0:0:
448,192,265877,1,0,0:0:0:0:
192,192,265964,1,0,0:0:0:0:
320,192,266051,1,0,0:0:0:0:
192,192,266138,1,0,0:0:0:0:
320,192,266138,1,0,0:0:0:0:
448,192,266226,1,0,0:0:0:0:
64,192,266313,1,0,0:0:0:0:
320,192,266400,1,0,0:0:0:0:
64,192,266487,1,0,0:0:0:0:
448,192,266487,1,0,0:0:0:0:
320,192,266574,1,0,0:0:0:0:
192,192,266662,1,0,0:0:0:0:
448,192,266749,1,0,0:0:0:0:
192,192,266836,1,0,0:0:0:0:
320,192,266923,1,0,0:0:0:0:
448,192,267010,128,0,267098:0:0:0:0:
64,192,267010,128,0,267098:0:0:0:0:
320,192,267098,1,0,0:0:0:0:
192,192,267185,1,0,0:0:0:0:
64,192,267185,1,0,0:0:0:0:
448,192,267272,1,0,0:0:0:0:
192,192,267359,1,0,0:0:0:0:
320,192,267403,1,0,0:0:0:0:
448,192,267446,1,0,0:0:0:0:
64,192,267534,1,0,0:0:0:0:
192,192,267534,1,0,0:0:0:0:
448,192,267621,1,0,0:0:0:0:
192,192,267708,1,0,0:0:0:0:
64,192,267752,1,0,0:0:0:0:
448,192,267795,1,0,0:0:0:0:
64,192,267882,1,0,0:0:0:0:
320,192,267926,1,0,0:0:0:0:
448,192,267970,1,0,0:0:0:0:
192,192,268057,1,0,0:0:0:0:
64,192,268057,1,0,0:0:0:0:
320,192,268144,1,0,0:0:0:0:
448,192,268231,1,0,0:0:0:0:
320,192,268275,1,0,0:0:0:0:
192,192,268319,1,0,0:0:0:0:
448,192,268406,1,0,0:0:0:0:
64,192,268406,1,0,0:0:0:0:
192,192,268493,1,0,0:0:0:0:
320,192,268580,1,0,0:0:0:0:
192,192,268667,1,0,0:0:0:0:
448,192,268755,1,0,0:0:0:0:
192,192,268842,1,0,0:0:0:0:
320,192,268929,1,0,0:0:0:0:
64,192,268929,1,0,0:0:0:0:
192,192,269016,1,0,0:0:0:0:
448,192,269103,1,0,0:0:0:0:
64,192,269191,1,0,0:0:0:0:
320,192,269278,1,0,0:0:0:0:
192,192,269278,1,0,0:0:0:0:
64,192,269365,1,0,0:0:0:0:
448,192,269452,1,0,0:0:0:0:
64,192,269539,1,0,0:0:0:0:
320,192,269627,1,0,0:0:0:0:
64,192,269714,1,0,0:0:0:0:
448,192,269801,1,0,0:0:0:0:
192,192,269888,1,0,0:0:0:0:
320,192,269976,1,0,0:0:0:0:
448,192,269976,1,0,0:0:0:0:
320,192,270063,1,0,0:0:0:0:
192,192,270106,1,0,0:0:0:0:
64,192,270150,1,0,0:0:0:0:
448,192,270208,1,0,0:0:0:0:
192,192,270266,1,0,0:0:0:0:
320,192,270324,1,0,0:0:0:0:
448,192,270324,1,0,0:0:0:0:
64,192,270382,1,0,0:0:0:0:
320,192,270441,1,0,0:0:0:0:
192,192,270499,1,0,0:0:0:0:
448,192,270542,1,0,0:0:0:0:
64,192,270586,1,0,0:0:0:0:
320,192,270630,1,0,0:0:0:0:
448,192,270673,1,0,0:0:0:0:
192,192,270731,1,0,0:0:0:0:
320,192,270789,1,0,0:0:0:0:
192,192,270848,1,0,0:0:0:0:
64,192,270848,1,0,0:0:0:0:
192,192,271022,1,0,0:0:0:0:
64,192,271080,1,0,0:0:0:0:
192,192,271196,1,0,0:0:0:0:
320,192,271196,1,0,0:0:0:0:
448,192,271284,1,0,0:0:0:0:
64,192,271371,1,0,0:0:0:0:
448,192,271458,1,0,0:0:0:0:
192,192,271545,1,0,0:0:0:0:
320,192,271632,1,0,0:0:0:0:
64,192,271720,1,0,0:0:0:0:
448,192,271720,1,0,0:0:0:0:
320,192,271807,1,0,0:0:0:0:
192,192,271894,1,0,0:0:0:0:
448,192,271981,1,0,0:0:0:0:
64,192,272069,1,0,0:0:0:0:
320,192,272069,1,0,0:0:0:0:
448,192,272156,1,0,0:0:0:0:
192,192,272243,1,0,0:0:0:0:
320,192,272330,1,0,0:0:0:0:
64,192,272417,1,0,0:0:0:0:
320,192,272505,1,0,0:0:0:0:
192,192,272592,128,0,272679:0:0:0:0:
448,192,272592,128,0,272679:0:0:0:0:
320,192,272679,1,0,0:0:0:0:
64,192,272766,1,0,0:0:0:0:
448,192,272766,1,0,0:0:0:0:
320,192,272853,1,0,0:0:0:0:
192,192,272875,1,0,0:0:0:0:
64,192,272897,1,0,0:0:0:0:
448,192,272941,1,0,0:0:0:0:
192,192,273115,1,0,0:0:0:0:
320,192,273137,1,0,0:0:0:0:
448,192,273159,1,0,0:0:0:0:
64,192,273202,1,0,0:0:0:0:
320,192,273289,1,0,0:0:0:0:
64,192,273333,1,0,0:0:0:0:
64,192,273464,1,0,0:0:0:0:
448,192,273638,1,0,0:0:0:0:
320,192,273638,128,0,273726:0:0:0:0:
320,192,273813,128,0,273987:0:0:0:0:
192,192,273987,1,0,0:0:0:0:
64,192,273987,1,0,0:0:0:0:
320,192,274074,1,0,0:0:0:0:
192,192,274162,1,0,0:0:0:0:
448,192,274336,1,0,0:0:0:0:
320,192,274336,1,0,0:0:0:0:
448,192,274510,1,0,0:0:0:0:
64,192,274510,1,0,0:0:0:0:
192,192,274685,1,0,0:0:0:0:
64,192,274685,1,0,0:0:0:0:
192,192,274859,1,0,0:0:0:0:
448,192,275034,1,0,0:0:0:0:
64,192,275121,1,0,0:0:0:0:
448,192,275208,1,0,0:0:0:0:
192,192,275382,1,0,0:0:0:0:
64,192,275382,1,0,0:0:0:0:
448,192,275557,1,0,0:0:0:0:
320,192,275557,1,0,0:0:0:0:
64,192,275615,1,0,0:0:0:0:
448,192,275673,1,0,0:0:0:0:
192,192,275731,1,0,0:0:0:0:
320,192,275753,1,0,0:0:0:0:
192,192,275819,1,0,0:0:0:0:
448,192,275840,1,0,0:0:0:0:
64,192,275906,1,0,0:0:0:0:
320,192,275906,1,0,0:0:0:0:
192,192,275964,1,0,0:0:0:0:
448,192,276022,1,0,0:0:0:0:
320,192,276080,1,0,0:0:0:0:
64,192,276080,1,0,0:0:0:0:
192,192,276138,1,0,0:0:0:0:
448,192,276196,1,0,0:0:0:0:
320,192,276255,1,0,0:0:0:0:
192,192,276313,1,0,0:0:0:0:
64,192,276371,1,0,0:0:0:0:
320,192,276429,128,0,276603:0:0:0:0:
448,192,276429,128,0,276603:0:0:0:0:
192,192,276603,1,0,0:0:0:0:
64,192,276647,1,0,0:0:0:0:
448,192,276691,1,0,0:0:0:0:
320,192,276734,1,0,0:0:0:0:
192,192,276778,1,0,0:0:0:0:
64,192,276778,1,0,0:0:0:0:
320,192,276865,1,0,0:0:0:0:
192,192,276952,1,0,0:0:0:0:
64,192,277127,1,0,0:0:0:0:
320,192,277127,1,0,0:0:0:0:
64,192,277301,1,0,0:0:0:0:
448,192,277301,1,0,0:0:0:0:
192,192,277476,1,0,0:0:0:0:
320,192,277476,1,0,0:0:0:0:
192,192,277650,1,0,0:0:0:0:
64,192,277824,1,0,0:0:0:0:
448,192,277912,1,0,0:0:0:0:
64,192,277999,1,0,0:0:0:0:
192,192,278173,1,0,0:0:0:0:
320,192,278173,1,0,0:0:0:0:
192,192,278348,1,0,0:0:0:0:
448,192,278348,1,0,0:0:0:0:
64,192,278522,1,0,0:0:0:0:
320,192,278522,1,0,0:0:0:0:
64,192,278696,1,0,0:0:0:0:
448,192,278696,1,0,0:0:0:0:
192,192,278871,128,0,278958:0:0:0:0:
320,192,278871,1,0,0:0:0:0:
192,192,279045,128,0,279220:0:0:0:0:
320,192,279220,128,0,279481:0:0:0:0:
448,192,279220,1,0,0:0:0:0:
320,192,279569,1,0,0:0:0:0:
448,192,279569,1,0,0:0:0:0:
192,192,279656,1,0,0:0:0:0:
320,192,279743,1,0,0:0:0:0:
64,192,279917,1,0,0:0:0:0:
192,192,279917,1,0,0:0:0:0:
64,192,280092,1,0,0:0:0:0:
448,192,280092,1,0,0:0:0:0:
320,192,280266,1,0,0:0:0:0:
192,192,280266,1,0,0:0:0:0:
320,192,280441,1,0,0:0:0:0:
64,192,280615,1,0,0:0:0:0:
448,192,280702,1,0,0:0:0:0:
64,192,280789,1,0,0:0:0:0:
320,192,280964,1,0,0:0:0:0:
192,192,280964,1,0,0:0:0:0:
320,192,281138,1,0,0:0:0:0:
448,192,281138,1,0,0:0:0:0:
320,192,281226,1,0,0:0:0:0:
192,192,281269,1,0,0:0:0:0:
64,192,281313,1,0,0:0:0:0:
448,192,281371,1,0,0:0:0:0:
192,192,281429,1,0,0:0:0:0:
320,192,281487,1,0,0:0:0:0:
448,192,281487,1,0,0:0:0:0:
64,192,281545,1,0,0:0:0:0:
320,192,281603,1,0,0:0:0:0:
192,192,281662,1,0,0:0:0:0:
64,192,281705,1,0,0:0:0:0:
448,192,281749,1,0,0:0:0:0:
320,192,281792,1,0,0:0:0:0:
64,192,281836,1,0,0:0:0:0:
192,192,281880,1,0,0:0:0:0:
320,192,281923,1,0,0:0:0:0:
448,192,281967,1,0,0:0:0:0:
64,192,282010,1,0,0:0:0:0:
192,192,282010,1,0,0:0:0:0:
192,192,282185,1,0,0:0:0:0:
64,192,282272,1,0,0:0:0:0:
320,192,282359,1,0,0:0:0:0:
448,192,282359,1,0,0:0:0:0:
192,192,282446,1,0,0:0:0:0:
320,192,282534,1,0,0:0:0:0:
448,192,282708,1,0,0:0:0:0:
192,192,282708,1,0,0:0:0:0:
448,192,282882,1,0,0:0:0:0:
64,192,282882,1,0,0:0:0:0:
320,192,283057,1,0,0:0:0:0:
192,192,283057,1,0,0:0:0:0:
320,192,283231,1,0,0:0:0:0:
448,192,283406,1,0,0:0:0:0:
64,192,283493,1,0,0:0:0:0:
448,192,283580,1,0,0:0:0:0:
320,192,283755,1,0,0:0:0:0:
192,192,283755,1,0,0:0:0:0:
320,192,283929,1,0,0:0:0:0:
448,192,283929,1,0,0:0:0:0:
64,192,284016,1,0,0:0:0:0:
192,192,284103,1,0,0:0:0:0:
448,192,284191,1,0,0:0:0:0:
64,192,284278,1,0,0:0:0:0:
320,192,284365,1,0,0:0:0:0:
192,192,284452,1,0,0:0:0:0:
448,192,284539,1,0,0:0:0:0:
64,192,284627,1,0,0:0:0:0:
320,192,284714,1,0,0:0:0:0:
64,192,284801,128,0,285063:0:0:0:0:
192,192,284801,128,0,284976:0:0:0:0:
64,192,285150,1,0,0:0:0:0:
448,192,285150,1,0,0:0:0:0:
192,192,285237,1,0,0:0:0:0:
320,192,285324,1,0,0:0:0:0:
64,192,285499,1,0,0:0:0:0:
448,192,285499,1,0,0:0:0:0:
320,192,285673,1,0,0:0:0:0:
192,192,285673,1,0,0:0:0:0:
64,192,285848,1,0,0:0:0:0:
448,192,285848,1,0,0:0:0:0:
320,192,286022,1,0,0:0:0:0:
448,192,286196,1,0,0:0:0:0:
192,192,286284,1,0,0:0:0:0:
320,192,286371,1,0,0:0:0:0:
64,192,286545,1,0,0:0:0:0:
448,192,286545,1,0,0:0:0:0:
448,192,286720,1,0,0:0:0:0:
320,192,286720,1,0,0:0:0:0:
64,192,286778,1,0,0:0:0:0:
448,192,286836,1,0,0:0:0:0:
192,192,286894,1,0,0:0:0:0:
320,192,286916,1,0,0:0:0:0:
192,192,286981,1,0,0:0:0:0:
448,192,287003,1,0,0:0:0:0:
320,192,287069,1,0,0:0:0:0:
64,192,287069,1,0,0:0:0:0:
192,192,287127,1,0,0:0:0:0:
448,192,287185,1,0,0:0:0:0:
320,192,287243,1,0,0:0:0:0:
64,192,287243,1,0,0:0:0:0:
192,192,287301,1,0,0:0:0:0:
448,192,287359,1,0,0:0:0:0:
320,192,287417,1,0,0:0:0:0:
192,192,287476,1,0,0:0:0:0:
64,192,287534,1,0,0:0:0:0:
448,192,287592,128,0,287766:0:0:0:0:
320,192,287592,128,0,287766:0:0:0:0:
192,192,287766,1,0,0:0:0:0:
64,192,287810,1,0,0:0:0:0:
448,192,287853,1,0,0:0:0:0:
320,192,287897,1,0,0:0:0:0:
192,192,287941,1,0,0:0:0:0:
64,192,287941,1,0,0:0:0:0:
448,192,288028,1,0,0:0:0:0:
192,192,288115,1,0,0:0:0:0:
64,192,288289,1,0,0:0:0:0:
448,192,288289,1,0,0:0:0:0:
192,192,288464,1,0,0:0:0:0:
320,192,288464,1,0,0:0:0:0:
64,192,288638,1,0,0:0:0:0:
448,192,288638,1,0,0:0:0:0:
192,192,288813,1,0,0:0:0:0:
64,192,288987,1,0,0:0:0:0:
320,192,289074,1,0,0:0:0:0:
192,192,289162,1,0,0:0:0:0:
64,192,289336,1,0,0:0:0:0:
192,192,289336,1,0,0:0:0:0:
320,192,289510,1,0,0:0:0:0:
192,192,289510,1,0,0:0:0:0:
64,192,289685,1,0,0:0:0:0:
448,192,289685,1,0,0:0:0:0:
192,192,289859,1,0,0:0:0:0:
320,192,289859,1,0,0:0:0:0:
192,192,290034,128,0,290121:0:0:0:0:
448,192,290034,1,0,0:0:0:0:
192,192,290208,128,0,290295:0:0:0:0:
448,192,290382,1,0,0:0:0:0:
192,192,290382,1,0,0:0:0:0:
64,192,290404,1,0,0:0:0:0:
320,192,290426,1,0,0:0:0:0:
192,192,290731,1,0,0:0:0:0:
64,192,290731,1,0,0:0:0:0:
448,192,290819,1,0,0:0:0:0:
320,192,290906,1,0,0:0:0:0:
192,192,291080,1,0,0:0:0:0:
64,192,291080,1,0,0:0:0:0:
320,192,291255,1,0,0:0:0:0:
448,192,291255,1,0,0:0:0:0:
192,192,291429,1,0,0:0:0:0:
64,192,291429,1,0,0:0:0:0:
320,192,291603,1,0,0:0:0:0:
192,192,291778,1,0,0:0:0:0:
448,192,291865,1,0,0:0:0:0:
320,192,291952,1,0,0:0:0:0:
64,192,292127,1,0,0:0:0:0:
192,192,292127,1,0,0:0:0:0:
320,192,292301,1,0,0:0:0:0:
448,192,292301,1,0,0:0:0:0:
64,192,292345,1,0,0:0:0:0:
320,192,292388,1,0,0:0:0:0:
192,192,292432,1,0,0:0:0:0:
64,192,292476,1,0,0:0:0:0:
448,192,292534,1,0,0:0:0:0:
192,192,292592,1,0,0:0:0:0:
448,192,292650,1,0,0:0:0:0:
320,192,292650,1,0,0:0:0:0:
64,192,292708,1,0,0:0:0:0:
320,192,292766,1,0,0:0:0:0:
192,192,292824,1,0,0:0:0:0:
64,192,292868,1,0,0:0:0:0:
448,192,292912,1,0,0:0:0:0:
320,192,292955,1,0,0:0:0:0:
64,192,292999,1,0,0:0:0:0:
192,192,293042,1,0,0:0:0:0:
320,192,293086,1,0,0:0:0:0:
448,192,293130,1,0,0:0:0:0:
192,192,293173,1,0,0:0:0:0:
64,192,293173,1,0,0:0:0:0:
64,192,293348,1,0,0:0:0:0:
192,192,293435,1,0,0:0:0:0:
448,192,293522,1,0,0:0:0:0:
320,192,293522,1,0,0:0:0:0:
64,192,293696,1,0,0:0:0:0:
448,192,293871,1,0,0:0:0:0:
192,192,293871,1,0,0:0:0:0:
64,192,294045,1,0,0:0:0:0:
448,192,294220,1,0,0:0:0:0:
320,192,294220,1,0,0:0:0:0:
64,192,294394,1,0,0:0:0:0:
448,192,294569,1,0,0:0:0:0:
192,192,294569,1,0,0:0:0:0:
64,192,294743,1,0,0:0:0:0:
448,192,294917,1,0,0:0:0:0:
320,192,294917,1,0,0:0:0:0:
64,192,295092,1,0,0:0:0:0:
192,192,295266,1,0,0:0:0:0:
448,192,295266,1,0,0:0:0:0:
64,192,295441,1,0,0:0:0:0:
320,192,295615,1,0,0:0:0:0:
448,192,295615,1,0,0:0:0:0:
64,192,295789,1,0,0:0:0:0:
448,192,295964,128,0,296313:0:0:0:0:
64,192,296313,1,0,0:0:0:0:
64,192,296487,1,0,0:0:0:0:
192,192,296662,1,0,0:0:0:0:
192,192,296836,1,0,0:0:0:0:
320,192,297010,1,0,0:0:0:0:
320,192,297185,1,0,0:0:0:0:
448,192,297359,1,0,0:0:0:0:
448,192,297534,1,0,0:0:0:0:
320,192,297708,1,0,0:0:0:0:
320,192,297882,1,0,0:0:0:0:
192,192,298057,1,0,0:0:0:0:
192,192,298231,1,0,0:0:0:0:
64,192,298406,1,0,0:0:0:0:
64,192,298580,1,0,0:0:0:0:
192,192,298755,1,0,0:0:0:0:
192,192,298929,1,0,0:0:0:0:
320,192,299103,1,0,0:0:0:0:
320,192,299278,1,0,0:0:0:0:
448,192,299452,1,0,0:0:0:0:
448,192,299627,1,0,0:0:0:0:
320,192,299801,1,0,0:0:0:0:
320,192,299976,1,0,0:0:0:0:
192,192,300150,128,0,300237:0:0:0:0:
192,192,300324,128,0,300412:0:0:0:0:
64,192,300499,128,0,300586:0:0:0:0:
64,192,300673,128,0,300760:0:0:0:0:
192,192,300848,128,0,300964:0:0:0:0:
192,192,301022,128,0,301138:0:0:0:0:
320,192,301196,128,0,301313:0:0:0:0:
320,192,301371,128,0,301545:0:0:0:0:
