osu file format v14

[General]
AudioFilename: audio.mp3
AudioLeadIn: 0
PreviewTime: 50292
Countdown: 1
SampleSet: Soft
StackLeniency: 0.7
Mode: 1
LetterboxInBreaks: 0
WidescreenStoryboard: 0

[Editor]
Bookmarks: 50379,72705,95030,117356,139681,184333,206658,251309
DistanceSpacing: 0.9
BeatDivisor: 12
GridSize: 32
TimelineZoom: 2.900002

[Metadata]
Title:Distant Structures
TitleUnicode:Distant Structures
Artist:False Noise
ArtistUnicode:False Noise
Creator:Cynplytholowazy
Version:Structural Revolution
Source:osu!
Tags:featured artist fa neurofunk hyperlight electronic [Zeth] upscale instrumental
BeatmapID:2209676
BeatmapSetID:1057177

[Difficulty]
HPDrainRate:6
CircleSize:10
OverallDifficulty:7
ApproachRate:10
SliderMultiplier:1.4
SliderTickRate:1

[Events]
//Background and Video events
0,0,"tunnel-445391_1920.jpg",0,-75
//Break Periods
2,5928,10859
//Storyboard Layer 0 (Background)
//Storyboard Layer 1 (Fail)
//Storyboard Layer 2 (Pass)
//Storyboard Layer 3 (Foreground)
//Storyboard Layer 4 (Overlay)
//Storyboard Sound Samples

[TimingPoints]
147,348.837209302326,4,2,1,35,1,0
147,-399.999999999997,4,2,1,35,0,0
11571,-399.999999999997,4,2,1,8,0,0
15583,-399.999999999997,4,2,1,35,0,0
33897,-399.999999999997,4,2,1,10,0,0
38955,-399.999999999997,4,2,1,35,0,0
40524,-399.999999999997,4,2,1,12,0,0
44536,-399.999999999997,4,2,1,35,0,0
44797,-400,4,2,1,35,0,0
45146,-336.842105263158,4,2,1,20,0,0
45494,-290.909090909091,4,2,1,20,0,0
45669,-272.340054685883,4,2,1,20,0,0
46018,-241.50972559665,4,2,1,30,0,0
46366,-216.948917207954,4,2,1,30,0,0
46454,-211.570359838868,4,2,1,40,0,0
46541,-206.451612903226,4,2,1,40,0,0
46890,-188.235294117647,4,2,1,50,0,0
46977,-184.172577071619,4,2,1,50,0,0
47064,-180.281527633553,4,2,1,50,0,0
47413,-166.233904402206,4,2,1,50,0,0
47500,-163.057391310019,4,2,1,50,0,0
47587,-160,4,2,1,50,0,0
47762,-154.21674855576,4,2,1,50,0,0
47849,-151.479347305788,4,2,1,50,0,0
47936,-148.837209302326,4,2,1,50,0,0
48023,-146.285660786958,4,2,1,50,0,0
48111,-143.820328140461,4,2,1,50,0,0
48285,-139.130434782609,4,2,1,50,0,0
48372,-136.898348869014,4,2,1,50,0,0
48459,-134.736751335241,4,2,1,50,0,0
48547,-132.64253103172,4,2,1,50,0,0
48634,-130.612244897959,4,2,1,50,0,0
48808,-126.73275357323,4,2,1,50,0,0
48896,-124.878087766818,4,2,1,50,0,0
48983,-123.076923076923,4,2,1,50,0,0
49157,-119.626096672241,4,2,1,50,0,0
49244,-117.972385024114,4,2,1,50,0,0
49332,-116.363636363636,4,2,1,50,0,0
49419,-114.798173331466,4,2,1,50,0,0
49506,-113.274400438598,4,2,1,50,0,0
49680,-110.344827586207,4,2,1,50,0,0
49768,-108.936140545051,4,2,1,50,0,0
49855,-107.562967361093,4,2,1,50,0,0
49942,-106.22409459893,4,2,1,50,0,0
50029,-104.918032786885,4,2,1,50,0,0
50116,-103.643697841309,4,2,1,50,0,0
50204,-102.400052428827,4,2,1,50,0,0
50378,-83.3333333333333,4,2,1,50,0,0
50552,-86.2068965517241,4,2,1,50,0,0
50640,-87.719298245614,4,2,1,50,0,0
50727,-89.2857142857143,4,2,1,50,0,0
50901,-83.3333333333333,4,2,1,50,0,0
51076,-86.2068965517241,4,2,1,50,0,0
51163,-87.719298245614,4,2,1,50,0,0
51250,-89.2857142857143,4,2,1,50,0,0
51425,-83.3333333333333,4,2,1,50,0,0
51512,-84.7457627118644,4,2,1,50,0,0
51599,-86.2068965517241,4,2,1,50,0,0
51686,-87.719298245614,4,2,1,50,0,0
51773,-83.3333333333333,4,2,1,50,0,0
51948,-86.2068965517241,4,2,1,50,0,0
52035,-87.719298245614,4,2,1,50,0,0
52122,-89.2857142857143,4,2,1,50,0,0
52209,-90.9090909090909,4,2,1,50,0,0
52297,-83.3333333333333,4,2,1,50,0,0
52471,-86.2068965517241,4,2,1,50,0,0
52558,-85.4700854700855,4,2,1,50,0,0
52646,-84.7457627118644,4,2,1,50,0,0
52733,-84.0336134453781,4,2,1,50,0,0
52820,-83.3333333333333,4,2,1,50,0,0
52907,-84.7457627118644,4,2,1,50,0,0
52994,-86.2068965517241,4,2,1,50,0,0
53082,-87.719298245614,4,2,1,50,0,0
53169,-83.3333333333333,4,2,1,50,0,0
53343,-86.2068965517241,4,2,1,50,0,0
53430,-87.719298245614,4,2,1,50,0,0
53518,-89.2857142857143,4,2,1,50,0,0
53692,-83.3333333333333,4,2,1,50,0,0
53866,-86.2068965517241,4,2,1,50,0,0
53954,-87.719298245614,4,2,1,50,0,0
54041,-89.2857142857143,4,2,1,50,0,0
54215,-83.3333333333333,4,2,1,50,0,0
54302,-84.7457627118644,4,2,1,50,0,0
54390,-86.2068965517241,4,2,1,50,0,0
54477,-87.719298245614,4,2,1,50,0,0
54564,-83.3333333333333,4,2,1,50,0,0
54739,-86.2068965517241,4,2,1,50,0,0
54826,-87.719298245614,4,2,1,50,0,0
54913,-89.2857142857143,4,2,1,50,0,0
55000,-90.9090909090909,4,2,1,50,0,0
55087,-83.3333333333333,4,2,1,50,0,0
55262,-86.2068965517241,4,2,1,50,0,0
55349,-85.4700854700855,4,2,1,50,0,0
55436,-84.7457627118644,4,2,1,50,0,0
55523,-84.0336134453781,4,2,1,50,0,0
55611,-83.3333333333333,4,2,1,50,0,0
55698,-84.7457627118644,4,2,1,50,0,0
55785,-86.2068965517241,4,2,1,50,0,0
55872,-87.719298245614,4,2,1,50,0,0
55959,-83.3333333333333,4,2,1,50,0,0
56134,-86.2068965517241,4,2,1,50,0,0
56221,-87.719298245614,4,2,1,50,0,0
56308,-89.2857142857143,4,2,1,50,0,0
56483,-83.3333333333333,4,2,1,50,0,0
56657,-86.2068965517241,4,2,1,50,0,0
56744,-87.719298245614,4,2,1,50,0,0
56832,-89.2857142857143,4,2,1,50,0,0
57006,-83.3333333333333,4,2,1,50,0,0
57093,-84.7457627118644,4,2,1,50,0,0
57180,-86.2068965517241,4,2,1,50,0,0
57268,-87.719298245614,4,2,1,50,0,0
57355,-83.3333333333333,4,2,1,50,0,0
57529,-86.2068965517241,4,2,1,50,0,0
57616,-87.719298245614,4,2,1,50,0,0
57704,-89.2857142857143,4,2,1,50,0,0
57791,-90.9090909090909,4,2,1,50,0,0
57878,-83.3333333333333,4,2,1,50,0,0
58052,-86.2068965517241,4,2,1,50,0,0
58140,-85.4700854700855,4,2,1,50,0,0
58227,-84.7457627118644,4,2,1,50,0,0
58314,-84.0336134453781,4,2,1,50,0,0
58401,-83.3333333333333,4,2,1,50,0,0
58489,-84.7457627118644,4,2,1,50,0,0
58576,-86.2068965517241,4,2,1,50,0,0
58663,-87.719298245614,4,2,1,50,0,0
58750,-83.3333333333333,4,2,1,50,0,0
58925,-86.2068965517241,4,2,1,50,0,0
59012,-87.719298245614,4,2,1,50,0,0
59099,-89.2857142857143,4,2,1,50,0,0
59273,-83.3333333333333,4,2,1,50,0,0
59448,-86.2068965517241,4,2,1,50,0,0
59535,-87.719298245614,4,2,1,50,0,0
59622,-89.2857142857143,4,2,1,50,0,0
59797,-83.3333333333333,4,2,1,50,0,0
59884,-84.7457627118644,4,2,1,50,0,0
59971,-86.2068965517241,4,2,1,50,0,0
60058,-87.719298245614,4,2,1,50,0,0
60146,-83.3333333333333,4,2,1,50,0,0
60320,-86.2068965517241,4,2,1,50,0,0
60407,-87.719298245614,4,2,1,50,0,0
60494,-89.2857142857143,4,2,1,50,0,0
60582,-90.9090909090909,4,2,1,50,0,0
60669,-83.3333333333333,4,2,1,50,0,0
60843,-86.2068965517241,4,2,1,50,0,0
60930,-85.4700854700855,4,2,1,50,0,0
61018,-84.7457627118644,4,2,1,50,0,0
61105,-84.0336134453781,4,2,1,50,0,0
61192,-83.3333333333333,4,2,1,50,0,0
61279,-84.7457627118644,4,2,1,50,0,0
61366,-86.2068965517241,4,2,1,50,0,0
61454,-87.719298245614,4,2,1,50,0,0
61541,-83.3333333333333,4,2,1,50,0,0
61715,-86.2068965517241,4,2,1,50,0,0
61802,-87.719298245614,4,2,1,50,0,0
61890,-89.2857142857143,4,2,1,50,0,0
62064,-83.3333333333333,4,2,1,50,0,0
62239,-86.2068965517241,4,2,1,50,0,0
62326,-87.719298245614,4,2,1,50,0,0
62413,-89.2857142857143,4,2,1,50,0,0
62587,-83.3333333333333,4,2,1,50,0,0
62675,-84.7457627118644,4,2,1,50,0,0
62762,-86.2068965517241,4,2,1,50,0,0
62849,-87.719298245614,4,2,1,50,0,0
62936,-83.3333333333333,4,2,1,50,0,0
63111,-86.2068965517241,4,2,1,50,0,0
63198,-87.719298245614,4,2,1,50,0,0
63285,-89.2857142857143,4,2,1,50,0,0
63372,-90.9090909090909,4,2,1,50,0,0
63459,-83.3333333333333,4,2,1,50,0,0
63634,-86.2068965517241,4,2,1,50,0,0
63721,-85.4700854700855,4,2,1,50,0,0
63808,-84.7457627118644,4,2,1,50,0,0
63896,-84.1042893187552,4,2,1,50,0,0
63983,-83.3333333333333,4,2,1,50,0,0
64070,-84.7457627118644,4,2,1,50,0,0
64157,-86.2068965517241,4,2,1,50,0,0
64244,-87.719298245614,4,2,1,50,0,0
64332,-83.3333333333333,4,2,1,50,0,0
64506,-86.2068965517241,4,2,1,50,0,0
64593,-87.719298245614,4,2,1,50,0,0
64680,-89.2857142857143,4,2,1,50,0,0
64855,-83.3333333333333,4,2,1,50,0,0
65029,-86.2068965517241,4,2,1,50,0,0
65116,-87.719298245614,4,2,1,50,0,0
65204,-89.2857142857143,4,2,1,50,0,0
65378,-83.3333333333333,4,2,1,50,0,0
65465,-84.7457627118644,4,2,1,50,0,0
65552,-86.2068965517241,4,2,1,50,0,0
65640,-87.719298245614,4,2,1,50,0,0
65727,-83.3333333333333,4,2,1,50,0,0
65901,-86.2068965517241,4,2,1,50,0,0
65989,-87.719298245614,4,2,1,50,0,0
66076,-89.2857142857143,4,2,1,50,0,0
66163,-90.9090909090909,4,2,1,50,0,0
66250,-83.3333333333333,4,2,1,50,0,0
66425,-86.2068965517241,4,2,1,50,0,0
66512,-85.4700854700855,4,2,1,50,0,0
66599,-84.7457627118644,4,2,1,50,0,0
66686,-84.0336134453781,4,2,1,50,0,0
66773,-83.3333333333333,4,2,1,50,0,0
66861,-84.7457627118644,4,2,1,50,0,0
66948,-86.2068965517241,4,2,1,50,0,0
67035,-87.719298245614,4,2,1,50,0,0
67122,-83.3333333333333,4,2,1,50,0,0
67297,-86.2068965517241,4,2,1,50,0,0
67384,-87.719298245614,4,2,1,50,0,0
67471,-89.2857142857143,4,2,1,50,0,0
67646,-83.3333333333333,4,2,1,50,0,0
67820,-86.2068965517241,4,2,1,50,0,0
67907,-87.719298245614,4,2,1,50,0,0
67994,-89.2857142857143,4,2,1,50,0,0
68169,-83.3333333333333,4,2,1,50,0,0
68256,-84.7457627118644,4,2,1,50,0,0
68343,-86.2068965517241,4,2,1,50,0,0
68430,-87.719298245614,4,2,1,50,0,0
68518,-83.3333333333333,4,2,1,50,0,0
68692,-86.2068965517241,4,2,1,50,0,0
68779,-87.719298245614,4,2,1,50,0,0
68866,-89.2857142857143,4,2,1,50,0,0
68954,-90.9090909090909,4,2,1,50,0,0
69041,-83.3333333333333,4,2,1,50,0,0
69215,-86.2068965517241,4,2,1,50,0,0
69302,-85.4700854700855,4,2,1,50,0,0
69390,-84.7457627118644,4,2,1,50,0,0
69477,-84.0336134453781,4,2,1,50,0,0
69564,-83.3333333333333,4,2,1,50,0,0
69651,-84.7457627118644,4,2,1,50,0,0
69739,-86.2068965517241,4,2,1,50,0,0
69826,-87.719298245614,4,2,1,50,0,0
69913,-83.3333333333333,4,2,1,50,0,0
70087,-86.2068965517241,4,2,1,50,0,0
70175,-87.719298245614,4,2,1,50,0,0
70262,-89.2857142857143,4,2,1,50,0,0
70436,-83.3333333333333,4,2,1,50,0,0
70611,-86.2068965517241,4,2,1,50,0,0
70698,-87.719298245614,4,2,1,50,0,0
70785,-89.2857142857143,4,2,1,50,0,0
70959,-83.3333333333333,4,2,1,50,0,0
71047,-84.7457627118644,4,2,1,50,0,0
71134,-86.2068965517241,4,2,1,50,0,0
71221,-87.719298245614,4,2,1,50,0,0
71308,-83.3333333333333,4,2,1,50,0,0
71483,-80.6451612903226,4,2,1,50,0,0
71657,-78.125,4,2,1,50,0,0
71832,-85.4700854700855,4,2,1,50,0,0
72006,-82.6446280991736,4,2,1,50,0,0
72180,-80,4,2,1,50,0,0
72355,-87.719298245614,4,2,1,50,0,0
72704,-83.3333333333333,4,2,1,50,0,0
72878,-86.2068965517241,4,2,1,50,0,0
72965,-87.719298245614,4,2,1,50,0,0
73052,-89.2857142857143,4,2,1,50,0,0
73227,-83.3333333333333,4,2,1,50,0,0
73401,-86.2068965517241,4,2,1,50,0,0
73489,-87.719298245614,4,2,1,50,0,0
73576,-89.2857142857143,4,2,1,50,0,0
73750,-83.3333333333333,4,2,1,50,0,0
73837,-84.7457627118644,4,2,1,50,0,0
73925,-86.2068965517241,4,2,1,50,0,0
74012,-87.719298245614,4,2,1,50,0,0
74099,-83.3333333333333,4,2,1,50,0,0
74273,-86.2068965517241,4,2,1,50,0,0
74361,-85.4700854700855,4,2,1,50,0,0
74448,-84.7457627118644,4,2,1,50,0,0
74535,-84.0336134453781,4,2,1,50,0,0
74622,-83.3333333333333,4,2,1,50,0,0
74797,-86.2068965517241,4,2,1,50,0,0
74884,-85.4700854700855,4,2,1,50,0,0
74971,-84.7457627118644,4,2,1,50,0,0
75058,-84.0336134453781,4,2,1,50,0,0
75146,-83.3333333333333,4,2,1,50,0,0
75233,-84.7457627118644,4,2,1,50,0,0
75320,-86.2068965517241,4,2,1,50,0,0
75407,-87.719298245614,4,2,1,50,0,0
75494,-83.3333333333333,4,2,1,50,0,0
75669,-86.2068965517241,4,2,1,50,0,0
75756,-87.719298245614,4,2,1,50,0,0
75843,-89.2857142857143,4,2,1,50,0,0
76018,-83.3333333333333,4,2,1,50,0,0
76192,-86.2068965517241,4,2,1,50,0,0
76279,-87.719298245614,4,2,1,50,0,0
76366,-89.2857142857143,4,2,1,50,0,0
76541,-83.3333333333333,4,2,1,50,0,0
76628,-84.7457627118644,4,2,1,50,0,0
76715,-86.2068965517241,4,2,1,50,0,0
76802,-87.719298245614,4,2,1,50,0,0
76890,-83.3333333333333,4,2,1,50,0,0
77064,-86.2068965517241,4,2,1,50,0,0
77151,-85.4700854700855,4,2,1,50,0,0
77239,-84.7457627118644,4,2,1,50,0,0
77326,-84.0336134453781,4,2,1,50,0,0
77413,-83.3333333333333,4,2,1,50,0,0
77587,-86.2068965517241,4,2,1,50,0,0
77675,-85.4700854700855,4,2,1,50,0,0
77762,-84.7457627118644,4,2,1,50,0,0
77849,-84.0336134453781,4,2,1,50,0,0
77936,-83.3333333333333,4,2,1,50,0,0
78023,-84.7457627118644,4,2,1,50,0,0
78111,-86.2068965517241,4,2,1,50,0,0
78198,-87.719298245614,4,2,1,50,0,0
78285,-83.3333333333333,4,2,1,50,0,0
78459,-86.2068965517241,4,2,1,50,0,0
78547,-87.719298245614,4,2,1,50,0,0
78634,-89.2857142857143,4,2,1,50,0,0
78808,-83.3333333333333,4,2,1,50,0,0
78983,-86.2068965517241,4,2,1,50,0,0
79070,-87.719298245614,4,2,1,50,0,0
79157,-89.2857142857143,4,2,1,50,0,0
79332,-83.3333333333333,4,2,1,50,0,0
79419,-84.7457627118644,4,2,1,50,0,0
79506,-86.2068965517241,4,2,1,50,0,0
79593,-87.719298245614,4,2,1,50,0,0
79680,-83.3333333333333,4,2,1,50,0,0
79855,-86.2068965517241,4,2,1,50,0,0
79942,-85.4700854700855,4,2,1,50,0,0
80029,-84.7457627118644,4,2,1,50,0,0
80116,-84.0336134453781,4,2,1,50,0,0
80204,-83.3333333333333,4,2,1,50,0,0
80378,-86.2068965517241,4,2,1,50,0,0
80465,-85.4700854700855,4,2,1,50,0,0
80552,-84.7457627118644,4,2,1,50,0,0
80640,-84.0336134453781,4,2,1,50,0,0
80727,-83.3333333333333,4,2,1,50,0,0
80814,-84.7457627118644,4,2,1,50,0,0
80901,-86.2068965517241,4,2,1,50,0,0
80989,-87.719298245614,4,2,1,50,0,0
81076,-83.3333333333333,4,2,1,50,0,0
81250,-86.2068965517241,4,2,1,50,0,0
81337,-87.719298245614,4,2,1,50,0,0
81425,-89.2857142857143,4,2,1,50,0,0
81599,-83.3333333333333,4,2,1,50,0,0
81773,-86.2068965517241,4,2,1,50,0,0
81861,-87.719298245614,4,2,1,50,0,0
81948,-89.2857142857143,4,2,1,50,0,0
82122,-83.3333333333333,4,2,1,50,0,0
82209,-84.7457627118644,4,2,1,50,0,0
82297,-86.2068965517241,4,2,1,50,0,0
82384,-87.719298245614,4,2,1,50,0,0
82471,-83.3333333333333,4,2,1,50,0,0
82646,-86.2068965517241,4,2,1,50,0,0
82733,-85.4700854700855,4,2,1,50,0,0
82820,-84.7457627118644,4,2,1,50,0,0
82907,-84.0336134453781,4,2,1,50,0,0
82994,-83.3333333333333,4,2,1,50,0,0
83169,-86.2068965517241,4,2,1,50,0,0
83256,-85.4700854700855,4,2,1,50,0,0
83343,-84.7457627118644,4,2,1,50,0,0
83430,-84.0336134453781,4,2,1,50,0,0
83518,-83.3333333333333,4,2,1,50,0,0
83605,-84.7457627118644,4,2,1,50,0,0
83692,-86.2068965517241,4,2,1,50,0,0
83779,-87.719298245614,4,2,1,50,0,0
83866,-83.3333333333333,4,2,1,50,0,0
84041,-86.2068965517241,4,2,1,50,0,0
84128,-87.719298245614,4,2,1,50,0,0
84215,-89.2857142857143,4,2,1,50,0,0
84390,-83.3333333333333,4,2,1,50,0,0
84564,-86.2068965517241,4,2,1,50,0,0
84651,-87.719298245614,4,2,1,50,0,0
84739,-89.2857142857143,4,2,1,50,0,0
84913,-83.3333333333333,4,2,1,50,0,0
85000,-84.7457627118644,4,2,1,50,0,0
85087,-86.2068965517241,4,2,1,50,0,0
85175,-87.719298245614,4,2,1,50,0,0
85262,-83.3333333333333,4,2,1,50,0,0
85436,-86.2068965517241,4,2,1,50,0,0
85523,-85.4700854700855,4,2,1,50,0,0
85611,-84.7457627118644,4,2,1,50,0,0
85698,-84.0336134453781,4,2,1,50,0,0
85785,-83.3333333333333,4,2,1,50,0,0
85959,-86.2068965517241,4,2,1,50,0,0
86047,-85.4700854700855,4,2,1,50,0,0
86134,-84.7457627118644,4,2,1,50,0,0
86221,-84.1042893187552,4,2,1,50,0,0
86308,-83.3333333333333,4,2,1,50,0,0
86396,-84.7457627118644,4,2,1,50,0,0
86483,-86.2068965517241,4,2,1,50,0,0
86570,-87.719298245614,4,2,1,50,0,0
86657,-83.3333333333333,4,2,1,50,0,0
86832,-86.2068965517241,4,2,1,50,0,0
86919,-87.719298245614,4,2,1,50,0,0
87006,-89.2857142857143,4,2,1,50,0,0
87180,-83.3333333333333,4,2,1,50,0,0
87355,-86.2068965517241,4,2,1,50,0,0
87442,-87.719298245614,4,2,1,50,0,0
87529,-89.2857142857143,4,2,1,50,0,0
87704,-83.3333333333333,4,2,1,50,0,0
87791,-84.7457627118644,4,2,1,50,0,0
87878,-86.2068965517241,4,2,1,50,0,0
87965,-87.719298245614,4,2,1,50,0,0
88052,-83.3333333333333,4,2,1,50,0,0
88227,-86.2068965517241,4,2,1,50,0,0
88314,-85.4700854700855,4,2,1,50,0,0
88401,-84.7457627118644,4,2,1,50,0,0
88489,-84.0336134453781,4,2,1,50,0,0
88576,-83.3333333333333,4,2,1,50,0,0
88750,-86.2068965517241,4,2,1,50,0,0
88837,-85.4700854700855,4,2,1,50,0,0
88925,-84.7457627118644,4,2,1,50,0,0
89012,-84.0336134453781,4,2,1,50,0,0
89099,-83.3333333333333,4,2,1,50,0,0
89186,-84.7457627118644,4,2,1,50,0,0
89273,-86.2068965517241,4,2,1,50,0,0
89361,-87.719298245614,4,2,1,50,0,0
89448,-83.3333333333333,4,2,1,50,0,0
89622,-86.2068965517241,4,2,1,50,0,0
89709,-87.719298245614,4,2,1,50,0,0
89797,-89.2857142857143,4,2,1,50,0,0
89971,-83.3333333333333,4,2,1,50,0,0
90146,-86.2068965517241,4,2,1,50,0,0
90233,-87.719298245614,4,2,1,50,0,0
90320,-89.2857142857143,4,2,1,50,0,0
90494,-83.3333333333333,4,2,1,50,0,0
90582,-84.7457627118644,4,2,1,50,0,0
90669,-86.2068965517241,4,2,1,50,0,0
90756,-87.719298245614,4,2,1,50,0,0
90843,-83.3333333333333,4,2,1,50,0,0
91018,-86.2068965517241,4,2,1,50,0,0
91105,-85.4700854700855,4,2,1,50,0,0
91192,-84.7457627118644,4,2,1,50,0,0
91279,-84.0336134453781,4,2,1,50,0,0
91366,-83.3333333333333,4,2,1,50,0,0
91541,-86.2068965517241,4,2,1,50,0,0
91628,-85.4700854700855,4,2,1,50,0,0
91715,-84.7457627118644,4,2,1,50,0,0
91802,-84.0336134453781,4,2,1,50,0,0
91890,-83.3333333333333,4,2,1,50,0,0
91977,-84.7457627118644,4,2,1,50,0,0
92064,-86.2068965517241,4,2,1,50,0,0
92151,-87.719298245614,4,2,1,50,0,0
92239,-83.3333333333333,4,2,1,50,0,0
92413,-86.2068965517241,4,2,1,50,0,0
92500,-87.719298245614,4,2,1,50,0,0
92587,-89.2857142857143,4,2,1,50,0,0
92762,-83.3333333333333,4,2,1,50,0,0
92936,-86.2068965517241,4,2,1,50,0,0
93023,-87.719298245614,4,2,1,50,0,0
93111,-89.2857142857143,4,2,1,50,0,0
93285,-83.3333333333333,4,2,1,50,0,0
93372,-84.7457627118644,4,2,1,50,0,0
93459,-86.2068965517241,4,2,1,50,0,0
93547,-87.719298245614,4,2,1,50,0,0
93634,-83.3333333333333,4,2,1,50,0,0
93721,-82.6446280991736,4,2,1,50,0,0
93808,-81.9672131147541,4,2,1,50,0,0
93896,-81.3008130081301,4,2,1,50,0,0
93983,-80.6451612903226,4,2,1,50,0,0
94157,-79.3650793650794,4,2,1,50,0,0
94244,-78.7401574803149,4,2,1,50,0,0
94332,-78.125,4,2,1,50,0,0
94419,-77.5193798449612,4,2,1,50,0,0
94506,-76.9230769230769,4,2,1,50,0,0
94593,-76.3358778625954,4,2,1,50,0,0
94680,-75.7575757575758,4,2,1,50,0,0
94768,-75.187969924812,4,2,1,50,0,0
94855,-74.6268656716418,4,2,1,50,0,0
94942,-74.0740740740741,4,2,1,50,0,0
95029,-73.5294117647059,4,2,1,50,0,0
95204,-86.2068965517241,4,2,1,50,0,0
95291,-87.719298245614,4,2,1,50,0,0
95378,-89.2857142857143,4,2,1,50,0,0
95552,-83.3333333333333,4,2,1,50,0,0
95727,-86.2068965517241,4,2,1,50,0,0
95814,-87.719298245614,4,2,1,50,0,0
95901,-89.2857142857143,4,2,1,50,0,0
96076,-83.3333333333333,4,2,1,50,0,0
96163,-84.7457627118644,4,2,1,50,0,0
96250,-86.2068965517241,4,2,1,50,0,0
96337,-87.719298245614,4,2,1,50,0,0
96425,-83.3333333333333,4,2,1,50,0,0
96599,-86.2068965517241,4,2,1,50,0,0
96686,-85.4700854700855,4,2,1,50,0,0
96773,-84.7457627118644,4,2,1,50,0,0
96861,-84.0336134453781,4,2,1,50,0,0
96948,-83.3333333333333,4,2,1,50,0,0
97122,-86.2068965517241,4,2,1,50,0,0
97209,-85.4700854700855,4,2,1,50,0,0
97297,-84.7457627118644,4,2,1,50,0,0
97384,-84.0336134453781,4,2,1,50,0,0
97471,-83.3333333333333,4,2,1,50,0,0
97558,-84.7457627118644,4,2,1,50,0,0
97646,-86.2068965517241,4,2,1,50,0,0
97733,-87.719298245614,4,2,1,50,0,0
97820,-83.3333333333333,4,2,1,50,0,0
97994,-86.2068965517241,4,2,1,50,0,0
98082,-87.719298245614,4,2,1,50,0,0
98169,-89.2857142857143,4,2,1,50,0,0
98343,-83.3333333333333,4,2,1,50,0,0
98518,-86.2068965517241,4,2,1,50,0,0
98605,-87.719298245614,4,2,1,50,0,0
98692,-89.2857142857143,4,2,1,50,0,0
98866,-83.3333333333333,4,2,1,50,0,0
98954,-84.7457627118644,4,2,1,50,0,0
99041,-86.2068965517241,4,2,1,50,0,0
99128,-87.719298245614,4,2,1,50,0,0
99215,-83.3333333333333,4,2,1,50,0,0
99390,-86.2068965517241,4,2,1,50,0,0
99477,-85.4700854700855,4,2,1,50,0,0
99564,-84.7457627118644,4,2,1,50,0,0
99651,-84.0336134453781,4,2,1,50,0,0
99739,-83.3333333333333,4,2,1,50,0,0
99913,-86.2068965517241,4,2,1,50,0,0
100000,-85.4700854700855,4,2,1,50,0,0
100087,-84.7457627118644,4,2,1,50,0,0
100175,-84.0336134453781,4,2,1,50,0,0
100262,-83.3333333333333,4,2,1,50,0,0
100349,-84.7457627118644,4,2,1,50,0,0
100436,-86.2068965517241,4,2,1,50,0,0
100523,-87.719298245614,4,2,1,50,0,0
100611,-83.3333333333333,4,2,1,50,0,0
100785,-86.2068965517241,4,2,1,50,0,0
100872,-87.719298245614,4,2,1,50,0,0
100959,-89.2857142857143,4,2,1,50,0,0
101134,-83.3333333333333,4,2,1,50,0,0
101308,-86.2068965517241,4,2,1,50,0,0
101396,-87.719298245614,4,2,1,50,0,0
101483,-89.2857142857143,4,2,1,50,0,0
101657,-83.3333333333333,4,2,1,50,0,0
101744,-84.7457627118644,4,2,1,50,0,0
101832,-86.2068965517241,4,2,1,50,0,0
101919,-87.719298245614,4,2,1,50,0,0
102006,-83.3333333333333,4,2,1,50,0,0
102180,-86.2068965517241,4,2,1,50,0,0
102268,-85.4700854700855,4,2,1,50,0,0
102355,-84.7457627118644,4,2,1,50,0,0
102442,-84.0336134453781,4,2,1,50,0,0
102529,-83.3333333333333,4,2,1,50,0,0
102704,-86.2068965517241,4,2,1,50,0,0
102791,-85.4700854700855,4,2,1,50,0,0
102878,-84.7457627118644,4,2,1,50,0,0
102965,-84.0336134453781,4,2,1,50,0,0
103052,-83.3333333333333,4,2,1,50,0,0
103140,-84.7457627118644,4,2,1,50,0,0
103227,-86.2068965517241,4,2,1,50,0,0
103314,-87.719298245614,4,2,1,50,0,0
103401,-83.3333333333333,4,2,1,50,0,0
103576,-86.2068965517241,4,2,1,50,0,0
103663,-87.719298245614,4,2,1,50,0,0
103750,-89.2857142857143,4,2,1,50,0,0
103925,-83.3333333333333,4,2,1,50,0,0
104099,-86.2068965517241,4,2,1,50,0,0
104186,-87.719298245614,4,2,1,50,0,0
104273,-89.2857142857143,4,2,1,50,0,0
104448,-83.3333333333333,4,2,1,50,0,0
104535,-84.7457627118644,4,2,1,50,0,0
104622,-86.2068965517241,4,2,1,50,0,0
104709,-87.719298245614,4,2,1,50,0,0
104797,-83.3333333333333,4,2,1,50,0,0
104971,-86.2068965517241,4,2,1,50,0,0
105058,-85.4700854700855,4,2,1,50,0,0
105146,-84.7457627118644,4,2,1,50,0,0
105233,-84.0336134453781,4,2,1,50,0,0
105320,-83.3333333333333,4,2,1,50,0,0
105494,-86.2068965517241,4,2,1,50,0,0
105582,-85.4700854700855,4,2,1,50,0,0
105669,-84.7457627118644,4,2,1,50,0,0
105756,-84.0336134453781,4,2,1,50,0,0
105843,-83.3333333333333,4,2,1,50,0,0
105930,-84.7457627118644,4,2,1,50,0,0
106018,-86.2068965517241,4,2,1,50,0,0
106105,-87.719298245614,4,2,1,50,0,0
106192,-83.3333333333333,4,2,1,50,0,0
106366,-86.2068965517241,4,2,1,50,0,0
106454,-87.719298245614,4,2,1,50,0,0
106541,-89.2857142857143,4,2,1,50,0,0
106715,-83.3333333333333,4,2,1,50,0,0
106890,-86.2068965517241,4,2,1,50,0,0
106977,-87.719298245614,4,2,1,50,0,0
107064,-89.2857142857143,4,2,1,50,0,0
107239,-83.3333333333333,4,2,1,50,0,0
107326,-84.7457627118644,4,2,1,50,0,0
107413,-86.2068965517241,4,2,1,50,0,0
107500,-87.719298245614,4,2,1,50,0,0
107587,-83.3333333333333,4,2,1,50,0,0
107762,-86.2068965517241,4,2,1,50,0,0
107849,-85.4700854700855,4,2,1,50,0,0
107936,-84.7457627118644,4,2,1,50,0,0
108023,-84.0336134453781,4,2,1,50,0,0
108111,-83.3333333333333,4,2,1,50,0,0
108285,-86.2068965517241,4,2,1,50,0,0
108372,-85.4700854700855,4,2,1,50,0,0
108459,-84.7457627118644,4,2,1,50,0,0
108547,-84.1042893187552,4,2,1,50,0,0
108634,-83.3333333333333,4,2,1,50,0,0
108721,-84.7457627118644,4,2,1,50,0,0
108808,-86.2068965517241,4,2,1,50,0,0
108896,-87.719298245614,4,2,1,50,0,0
108983,-83.3333333333333,4,2,1,50,0,0
109157,-86.2068965517241,4,2,1,50,0,0
109244,-87.719298245614,4,2,1,50,0,0
109332,-89.2857142857143,4,2,1,50,0,0
109506,-83.3333333333333,4,2,1,50,0,0
109680,-86.2068965517241,4,2,1,50,0,0
109768,-87.719298245614,4,2,1,50,0,0
109855,-89.2857142857143,4,2,1,50,0,0
110029,-83.3333333333333,4,2,1,50,0,0
110116,-84.7457627118644,4,2,1,50,0,0
110204,-86.2068965517241,4,2,1,50,0,0
110291,-87.719298245614,4,2,1,50,0,0
110378,-83.3333333333333,4,2,1,50,0,0
110552,-86.2068965517241,4,2,1,50,0,0
110640,-85.4700854700855,4,2,1,50,0,0
110727,-84.7457627118644,4,2,1,50,0,0
110814,-84.0336134453781,4,2,1,50,0,0
110901,-83.3333333333333,4,2,1,50,0,0
111076,-86.2068965517241,4,2,1,50,0,0
111163,-85.4700854700855,4,2,1,50,0,0
111250,-84.7457627118644,4,2,1,50,0,0
111337,-84.0336134453781,4,2,1,50,0,0
111425,-83.3333333333333,4,2,1,50,0,0
111512,-84.7457627118644,4,2,1,50,0,0
111599,-86.2068965517241,4,2,1,50,0,0
111686,-87.719298245614,4,2,1,50,0,0
111773,-83.3333333333333,4,2,1,50,0,0
111948,-86.2068965517241,4,2,1,50,0,0
112035,-87.719298245614,4,2,1,50,0,0
112122,-89.2857142857143,4,2,1,50,0,0
112297,-83.3333333333333,4,2,1,50,0,0
112471,-86.2068965517241,4,2,1,50,0,0
112558,-87.719298245614,4,2,1,50,0,0
112646,-89.2857142857143,4,2,1,50,0,0
112820,-83.3333333333333,4,2,1,50,0,0
112907,-84.7457627118644,4,2,1,50,0,0
112994,-86.2068965517241,4,2,1,50,0,0
113082,-87.719298245614,4,2,1,50,0,0
113169,-83.3333333333333,4,2,1,50,0,0
113343,-86.2068965517241,4,2,1,50,0,0
113430,-85.4700854700855,4,2,1,50,0,0
113518,-84.7457627118644,4,2,1,50,0,0
113605,-84.0336134453781,4,2,1,50,0,0
113692,-83.3333333333333,4,2,1,50,0,0
113866,-86.2068965517241,4,2,1,50,0,0
113954,-85.4700854700855,4,2,1,50,0,0
114041,-84.7457627118644,4,2,1,50,0,0
114128,-84.0336134453781,4,2,1,50,0,0
114215,-83.3333333333333,4,2,1,50,0,0
114302,-84.7457627118644,4,2,1,50,0,0
114390,-86.2068965517241,4,2,1,50,0,0
114477,-87.719298245614,4,2,1,50,0,0
114564,-83.3333333333333,4,2,1,50,0,0
114739,-86.2068965517241,4,2,1,50,0,0
114826,-87.719298245614,4,2,1,50,0,0
114913,-89.2857142857143,4,2,1,50,0,0
115087,-83.3333333333333,4,2,1,50,0,0
115262,-86.2068965517241,4,2,1,50,0,0
115349,-87.719298245614,4,2,1,50,0,0
115436,-89.2857142857143,4,2,1,50,0,0
115611,-83.3333333333333,4,2,1,50,0,0
115698,-84.7457627118644,4,2,1,50,0,0
115785,-86.2068965517241,4,2,1,50,0,0
115872,-87.719298245614,4,2,1,50,0,0
115959,-83.3333333333333,4,2,1,50,0,0
116134,-86.2068965517241,4,2,1,50,0,0
116222,-85.4700854700855,4,2,1,50,0,0
116309,-84.7457627118644,4,2,1,50,0,0
116396,-84.0336134453781,4,2,1,50,0,0
116483,-83.3333333333333,4,2,1,50,0,0
116658,-86.2068965517241,4,2,1,50,0,0
116745,-85.4700854700855,4,2,1,50,0,0
116832,-84.7457627118644,4,2,1,50,0,0
116919,-84.0336134453781,4,2,1,50,0,0
117007,-83.3333333333333,4,2,1,50,0,0
117094,-84.7457627118644,4,2,1,50,0,0
117181,-86.2068965517241,4,2,1,50,0,0
117268,-87.719298245614,4,2,1,50,0,0
117355,-83.3333333333333,4,2,1,50,0,0
117878,-76.9230769230769,4,2,1,50,0,0
118053,-86.2068965517241,4,2,1,50,0,0
118140,-87.719298245614,4,2,1,50,0,0
118227,-89.2857142857143,4,2,1,50,0,0
118402,-83.3333333333333,4,2,1,50,0,0
118489,-84.7457627118644,4,2,1,50,0,0
118576,-86.2068965517241,4,2,1,50,0,0
118663,-87.719298245614,4,2,1,50,0,0
118751,-83.3333333333333,4,2,1,50,0,0
118925,-86.2068965517241,4,2,1,50,0,0
119012,-85.4700854700855,4,2,1,50,0,0
119099,-84.7457627118644,4,2,1,50,0,0
119187,-84.0336134453781,4,2,1,50,0,0
119274,-83.3333333333333,4,2,1,50,0,0
119448,-86.2068965517241,4,2,1,50,0,0
119535,-85.4700854700855,4,2,1,50,0,0
119623,-84.7457627118644,4,2,1,50,0,0
119710,-84.0336134453781,4,2,1,50,0,0
119797,-83.3333333333333,4,2,1,50,0,0
119884,-84.7457627118644,4,2,1,50,0,0
119972,-86.2068965517241,4,2,1,50,0,0
120059,-87.719298245614,4,2,1,50,0,0
120146,-83.3333333333333,4,2,1,50,0,0
120320,-86.2068965517241,4,2,1,50,0,0
120408,-87.719298245614,4,2,1,50,0,0
120495,-89.2857142857143,4,2,1,50,0,0
120669,-83.3333333333333,4,2,1,50,0,0
120844,-86.2068965517241,4,2,1,50,0,0
120931,-87.719298245614,4,2,1,50,0,0
121018,-89.2857142857143,4,2,1,50,0,0
121192,-83.3333333333333,4,2,1,50,0,0
121280,-84.7457627118644,4,2,1,50,0,0
121367,-86.2068965517241,4,2,1,50,0,0
121454,-87.719298245614,4,2,1,50,0,0
121541,-83.3333333333333,4,2,1,50,0,0
121716,-86.2068965517241,4,2,1,50,0,0
121803,-85.4700854700855,4,2,1,50,0,0
121890,-84.7457627118644,4,2,1,50,0,0
121977,-84.0336134453781,4,2,1,50,0,0
122065,-83.3333333333333,4,2,1,50,0,0
122239,-86.2068965517241,4,2,1,50,0,0
122326,-85.4700854700855,4,2,1,50,0,0
122413,-84.7457627118644,4,2,1,50,0,0
122501,-84.0336134453781,4,2,1,50,0,0
122588,-83.3333333333333,4,2,1,50,0,0
122675,-84.7457627118644,4,2,1,50,0,0
122762,-86.2068965517241,4,2,1,50,0,0
122849,-87.719298245614,4,2,1,50,0,0
122937,-83.3333333333333,4,2,1,50,0,0
123111,-86.2068965517241,4,2,1,50,0,0
123198,-87.719298245614,4,2,1,50,0,0
123285,-89.2857142857143,4,2,1,50,0,0
123460,-83.3333333333333,4,2,1,50,0,0
123634,-86.2068965517241,4,2,1,50,0,0
123722,-87.719298245614,4,2,1,50,0,0
123809,-89.2857142857143,4,2,1,50,0,0
123983,-83.3333333333333,4,2,1,50,0,0
124070,-84.7457627118644,4,2,1,50,0,0
124158,-86.2068965517241,4,2,1,50,0,0
124245,-87.719298245614,4,2,1,50,0,0
124332,-83.3333333333333,4,2,1,50,0,0
124506,-86.2068965517241,4,2,1,50,0,0
124594,-85.4700854700855,4,2,1,50,0,0
124681,-84.7457627118644,4,2,1,50,0,0
124768,-84.0336134453781,4,2,1,50,0,0
124855,-83.3333333333333,4,2,1,50,0,0
125030,-86.2068965517241,4,2,1,50,0,0
125117,-85.4700854700855,4,2,1,50,0,0
125204,-84.7457627118644,4,2,1,50,0,0
125291,-84.0336134453781,4,2,1,50,0,0
125378,-83.3333333333333,4,2,1,50,0,0
125466,-84.7457627118644,4,2,1,50,0,0
125553,-86.2068965517241,4,2,1,50,0,0
125640,-87.719298245614,4,2,1,50,0,0
125727,-83.3333333333333,4,2,1,50,0,0
125902,-86.2068965517241,4,2,1,50,0,0
125989,-87.719298245614,4,2,1,50,0,0
126076,-89.2857142857143,4,2,1,50,0,0
126251,-83.3333333333333,4,2,1,50,0,0
126425,-86.2068965517241,4,2,1,50,0,0
126512,-87.719298245614,4,2,1,50,0,0
126599,-89.2857142857143,4,2,1,50,0,0
126774,-83.3333333333333,4,2,1,50,0,0
126861,-84.7457627118644,4,2,1,50,0,0
126948,-86.2068965517241,4,2,1,50,0,0
127035,-87.719298245614,4,2,1,50,0,0
127123,-83.3333333333333,4,2,1,50,0,0
127297,-86.2068965517241,4,2,1,50,0,0
127384,-85.4700854700855,4,2,1,50,0,0
127472,-84.7457627118644,4,2,1,50,0,0
127559,-84.0336134453781,4,2,1,50,0,0
127646,-83.3333333333333,4,2,1,50,0,0
127820,-86.2068965517241,4,2,1,50,0,0
127908,-85.4700854700855,4,2,1,50,0,0
127995,-84.7457627118644,4,2,1,50,0,0
128082,-84.0336134453781,4,2,1,50,0,0
128169,-83.3333333333333,4,2,1,50,0,0
128256,-84.7457627118644,4,2,1,50,0,0
128344,-86.2068965517241,4,2,1,50,0,0
128431,-87.719298245614,4,2,1,50,0,0
128518,-83.3333333333333,4,2,1,50,0,0
128692,-86.2068965517241,4,2,1,50,0,0
128780,-87.719298245614,4,2,1,50,0,0
128867,-89.2857142857143,4,2,1,50,0,0
129041,-83.3333333333333,4,2,1,50,0,0
129216,-86.2068965517241,4,2,1,50,0,0
129303,-87.719298245614,4,2,1,50,0,0
129390,-89.2857142857143,4,2,1,50,0,0
129565,-83.3333333333333,4,2,1,50,0,0
129652,-84.7457627118644,4,2,1,50,0,0
129739,-86.2068965517241,4,2,1,50,0,0
129826,-87.719298245614,4,2,1,50,0,0
129913,-83.3333333333333,4,2,1,50,0,0
130088,-86.2068965517241,4,2,1,50,0,0
130175,-85.4700854700855,4,2,1,50,0,0
130262,-84.7457627118644,4,2,1,50,0,0
130349,-84.0336134453781,4,2,1,50,0,0
130437,-83.3333333333333,4,2,1,50,0,0
130611,-86.2068965517241,4,2,1,50,0,0
130698,-85.4700854700855,4,2,1,50,0,0
130785,-84.7457627118644,4,2,1,50,0,0
130873,-84.1042893187552,4,2,1,50,0,0
130960,-83.3333333333333,4,2,1,50,0,0
131047,-84.7457627118644,4,2,1,50,0,0
131134,-86.2068965517241,4,2,1,50,0,0
131222,-87.719298245614,4,2,1,50,0,0
131309,-83.3333333333333,4,2,1,50,0,0
131483,-86.2068965517241,4,2,1,50,0,0
131570,-87.719298245614,4,2,1,50,0,0
131658,-89.2857142857143,4,2,1,50,0,0
131832,-83.3333333333333,4,2,1,50,0,0
132006,-86.2068965517241,4,2,1,50,0,0
132094,-87.719298245614,4,2,1,50,0,0
132181,-89.2857142857143,4,2,1,50,0,0
132355,-83.3333333333333,4,2,1,50,0,0
132442,-84.7457627118644,4,2,1,50,0,0
132530,-86.2068965517241,4,2,1,50,0,0
132617,-87.719298245614,4,2,1,50,0,0
132704,-83.3333333333333,4,2,1,50,0,0
132878,-86.2068965517241,4,2,1,50,0,0
132966,-85.4700854700855,4,2,1,50,0,0
133053,-84.7457627118644,4,2,1,50,0,0
133140,-84.0336134453781,4,2,1,50,0,0
133227,-83.3333333333333,4,2,1,50,0,0
133402,-86.2068965517241,4,2,1,50,0,0
133489,-85.4700854700855,4,2,1,50,0,0
133576,-84.7457627118644,4,2,1,50,0,0
133663,-84.0336134453781,4,2,1,50,0,0
133751,-83.3333333333333,4,2,1,50,0,0
133838,-84.7457627118644,4,2,1,50,0,0
133925,-86.2068965517241,4,2,1,50,0,0
134012,-87.719298245614,4,2,1,50,0,0
134099,-83.3333333333333,4,2,1,50,0,0
134274,-86.2068965517241,4,2,1,50,0,0
134332,-86.9565217391304,4,2,1,50,0,0
134390,-87.719298245614,4,2,1,50,0,0
134448,-88.4955752212389,4,2,1,50,0,0
134623,-83.3333333333333,4,2,1,50,0,0
134797,-84.7457627118644,4,2,1,50,0,0
134884,-85.4700854700855,4,2,1,50,0,0
134972,-86.2068965517241,4,2,1,50,0,0
135146,-87.719298245614,4,2,1,50,0,0
135233,-88.4955752212389,4,2,1,50,0,0
135320,-89.2857142857143,4,2,1,50,0,0
135407,-90.0900900900901,4,2,1,50,0,0
135494,-83.3333333333333,4,2,1,50,0,0
135669,-86.2068965517241,4,2,1,50,0,0
135756,-84.7457627118644,4,2,1,50,0,0
135843,-83.3333333333333,4,2,1,50,0,0
135930,-84.7457627118644,4,2,1,50,0,0
136018,-86.2068965517241,4,2,1,50,0,0
136192,-86.2068965517241,4,2,1,50,0,0
136279,-84.7457627118644,4,2,1,50,0,0
136366,-83.3333333333333,4,2,1,50,0,0
136454,-84.0336134453781,4,2,1,50,0,0
136541,-84.7457627118644,4,2,1,50,0,0
136628,-85.4700854700855,4,2,1,50,0,0
136715,-86.2068965517241,4,2,1,50,0,0
136802,-86.9565217391304,4,2,1,50,0,0
136890,-83.3333333333333,4,2,1,50,0,0
137064,-86.2068965517241,4,2,1,50,0,0
137151,-87.719298245614,4,2,1,50,0,0
137239,-89.2857142857143,4,2,1,50,0,0
137327,-90.9090909090909,4,2,1,50,0,0
137500,-94.3396226415094,4,2,1,50,0,0
137587,-96.1538461538461,4,2,1,50,0,0
137762,-100,4,2,1,50,0,0
138285,-113.636363636364,4,2,1,50,0,0
138459,-83.3333333333333,4,2,1,50,0,0
138721,-85.4700854700855,4,2,1,50,0,0
138808,-84.7457627118644,4,2,1,50,0,0
138896,-84.0336134453781,4,2,1,50,0,0
138983,-83.3333333333333,4,2,1,50,0,0
139070,-81.9672131147541,4,2,1,50,0,0
139157,-80.6451612903226,4,2,1,50,0,0
139244,-79.3650793650794,4,2,1,50,0,0
139332,-78.125,4,2,1,50,0,0
139419,-76.3358778625954,4,2,1,50,0,0
139506,-74.6268656716418,4,2,1,50,0,0
139680,-100,4,2,1,20,0,0
141076,-105.263157894737,4,2,1,20,0,0
142471,-111.111111111111,4,2,1,20,0,0
143866,-117.647058823529,4,2,1,20,0,0
144478,-117.647058823529,4,2,1,8,0,0
144564,-121.212121212121,4,2,1,8,0,0
145262,-125,4,2,1,8,0,0
146657,-133.333333333333,4,2,1,8,0,0
146745,-133.333333333333,4,2,1,20,0,0
148052,-142.857142857143,4,2,1,20,0,0
149361,-152.671755725191,4,2,1,20,0,0
149448,-153.846153846154,4,2,1,20,0,0
150843,-166.666666666667,4,2,1,20,0,0
152239,-181.818181818182,4,2,1,20,0,0
152850,-181.818181818182,4,2,1,8,0,0
152936,-190.47619047619,4,2,1,8,0,0
153634,-200,4,2,1,8,0,0
155029,-210.526315789474,4,2,1,8,0,0
155815,-210.526315789474,4,2,1,20,0,0
156425,-222.222222222222,4,2,1,20,0,0
157820,-235.294117647059,4,2,1,20,0,0
159041,-246.913580246914,4,2,1,20,0,0
159215,-250,4,2,1,20,0,0
159390,-253.164556962025,4,2,1,20,0,0
160611,-266.666666666667,4,2,1,20,0,0
161222,-266.666666666667,4,2,1,8,0,0
161308,-275.862068965517,4,2,1,8,0,0
162006,-285.714285714286,4,2,1,8,0,0
163401,-307.692307692308,4,2,1,8,0,0
163490,-307.692307692308,4,2,1,20,0,0
163663,-312.5,4,2,1,20,0,0
164797,-333.333333333333,4,2,1,20,0,0
166192,-357.142857142857,4,2,1,20,0,0
167587,-384.615384615385,4,2,1,20,0,0
168285,-400,4,2,1,20,0,0
168983,-416.666666666667,4,2,1,20,0,0
169332,-425.531914893617,4,2,1,20,0,0
170378,-454.545454545455,4,2,1,20,0,0
171773,-500,4,2,1,20,0,0
172646,-571.428571428571,4,2,1,20,0,0
173169,-166.666666666667,4,2,1,50,0,0
174564,-175.438596491228,4,2,1,40,0,0
175959,-185.185185185185,4,2,1,30,0,0
177355,-196.078431372549,4,2,1,20,0,0
178052,-202.020202020202,4,2,1,20,0,0
178750,-142.857142857143,4,2,1,50,0,0
180146,-151.515151515152,4,2,1,45,0,0
181541,-161.290322580645,4,2,1,38,0,0
182936,-172.413793103448,4,2,1,30,0,0
184158,-172.413793103448,4,2,1,50,0,0
184332,-142.857142857143,4,2,1,50,0,0
185727,-125,4,2,1,50,0,0
187122,-142.857142857143,4,2,1,50,0,0
188518,-125,4,2,1,50,0,0
189913,-142.857142857143,4,2,1,50,0,0
191308,-125,4,2,1,50,0,0
192704,-142.857142857143,4,2,1,50,0,0
194099,-125,4,2,1,50,0,0
195494,-142.857142857143,4,2,1,50,0,0
196890,-144.927536231884,4,2,1,50,0,0
197122,-149.253731343284,4,2,1,50,0,0
197471,-158.730158730159,4,2,1,50,0,0
198285,-142.857142857143,4,2,1,50,0,0
199680,-144.927536231884,4,2,1,50,0,0
199913,-149.253731343284,4,2,1,50,0,0
200234,-161.290322580645,4,2,1,50,0,0
200306,-162.60162601626,4,2,1,50,0,0
200378,-163.934426229508,4,2,1,50,0,0
200552,-157.48031496063,4,2,1,50,0,0
200727,-151.515151515152,4,2,1,50,0,0
200901,-147.058823529412,4,2,1,50,0,0
201076,-142.857142857143,4,2,1,50,0,0
202471,-144.927536231884,4,2,1,50,0,0
202704,-149.253731343284,4,2,1,50,0,0
203052,-158.730158730159,4,2,1,50,0,0
203866,-142.857142857143,4,2,1,50,0,0
205785,-126.582278481013,4,2,1,50,0,0
205843,-125,4,2,1,50,0,0
205901,-123.456790123457,4,2,1,50,0,0
205959,-121.951219512195,4,2,1,50,0,0
206134,-119.047619047619,4,2,1,50,0,0
206308,-116.279069767442,4,2,1,50,0,0
206657,-111.111111111111,4,2,1,50,0,0
207006,-117.647058823529,4,2,1,50,0,0
207180,-111.111111111111,4,2,1,50,0,0
207529,-117.647058823529,4,2,1,50,0,0
207704,-111.111111111111,4,2,1,50,0,0
208401,-117.647058823529,4,2,1,50,0,0
208576,-111.111111111111,4,2,1,50,0,0
208925,-117.647058823529,4,2,1,50,0,0
209099,-111.111111111111,4,2,1,50,0,0
209797,-117.647058823529,4,2,1,50,0,0
209971,-111.111111111111,4,2,1,50,0,0
210320,-117.647058823529,4,2,1,50,0,0
210495,-111.111111111111,4,2,1,50,0,0
211192,-117.647058823529,4,2,1,50,0,0
211366,-111.111111111111,4,2,1,50,0,0
211715,-117.647058823529,4,2,1,50,0,0
211890,-111.111111111111,4,2,1,50,0,0
212588,-117.647058823529,4,2,1,50,0,0
212762,-111.111111111111,4,2,1,50,0,0
213111,-117.647058823529,4,2,1,50,0,0
213286,-111.111111111111,4,2,1,50,0,0
213983,-117.647058823529,4,2,1,50,0,0
214157,-111.111111111111,4,2,1,50,0,0
214506,-117.647058823529,4,2,1,50,0,0
214681,-111.111111111111,4,2,1,50,0,0
215378,-117.647058823529,4,2,1,50,0,0
215552,-111.111111111111,4,2,1,50,0,0
215901,-117.647058823529,4,2,1,50,0,0
216076,-111.111111111111,4,2,1,50,0,0
216774,-117.647058823529,4,2,1,50,0,0
216948,-111.111111111111,4,2,1,50,0,0
217122,-121.951219512195,4,2,1,50,0,0
217209,-120.481927710843,4,2,1,50,0,0
217297,-119.047619047619,4,2,1,50,0,0
217384,-117.647058823529,4,2,1,50,0,0
217472,-116.279069767442,4,2,1,50,0,0
217558,-114.942528735632,4,2,1,50,0,0
217646,-113.636363636364,4,2,1,50,0,0
217733,-112.359550561798,4,2,1,50,0,0
217820,-111.111111111111,4,2,1,50,0,0
218169,-117.647058823529,4,2,1,50,0,0
218343,-111.111111111111,4,2,1,50,0,0
218692,-117.647058823529,4,2,1,50,0,0
218867,-111.111111111111,4,2,1,50,0,0
219564,-117.647058823529,4,2,1,50,0,0
219739,-111.111111111111,4,2,1,50,0,0
220087,-117.647058823529,4,2,1,50,0,0
220262,-111.111111111111,4,2,1,50,0,0
220960,-117.647058823529,4,2,1,50,0,0
221134,-111.111111111111,4,2,1,50,0,0
221483,-117.647058823529,4,2,1,50,0,0
221658,-111.111111111111,4,2,1,50,0,0
222355,-117.647058823529,4,2,1,50,0,0
222529,-111.111111111111,4,2,1,50,0,0
222878,-117.647058823529,4,2,1,50,0,0
223053,-111.111111111111,4,2,1,50,0,0
223750,-117.647058823529,4,2,1,50,0,0
223925,-111.111111111111,4,2,1,50,0,0
224273,-117.647058823529,4,2,1,50,0,0
224448,-111.111111111111,4,2,1,50,0,0
225146,-117.647058823529,4,2,1,50,0,0
225320,-111.111111111111,4,2,1,50,0,0
225669,-117.647058823529,4,2,1,50,0,0
225844,-111.111111111111,4,2,1,50,0,0
226541,-117.647058823529,4,2,1,50,0,0
226715,-111.111111111111,4,2,1,50,0,0
227064,-117.647058823529,4,2,1,50,0,0
227239,-111.111111111111,4,2,1,50,0,0
227936,-117.647058823529,4,2,1,50,0,0
228111,-111.111111111111,4,2,1,50,0,0
228459,-117.647058823529,4,2,1,50,0,0
228634,-111.111111111111,4,2,1,50,0,0
229332,-117.647058823529,4,2,1,50,0,0
229506,-111.111111111111,4,2,1,50,0,0
229680,-117.647058823529,4,2,1,50,0,0
230030,-111.111111111111,4,2,1,50,0,0
230727,-117.647058823529,4,2,1,50,0,0
230901,-111.111111111111,4,2,1,50,0,0
231250,-117.647058823529,4,2,1,50,0,0
231425,-111.111111111111,4,2,1,50,0,0
231599,-117.647058823529,4,2,1,50,0,0
231773,-111.111111111111,4,2,1,50,0,0
232122,-117.647058823529,4,2,1,50,0,0
232297,-111.111111111111,4,2,1,50,0,0
232646,-117.647058823529,4,2,1,50,0,0
232820,-111.111111111111,4,2,1,50,0,0
233518,-117.647058823529,4,2,1,50,0,0
233692,-111.111111111111,4,2,1,50,0,0
234041,-117.647058823529,4,2,1,50,0,0
234216,-111.111111111111,4,2,1,50,0,0
234913,-117.647058823529,4,2,1,50,0,0
235087,-111.111111111111,4,2,1,50,0,0
235262,-117.647058823529,4,2,1,50,0,0
235611,-111.111111111111,4,2,1,50,0,0
236308,-117.647058823529,4,2,1,50,0,0
236483,-111.111111111111,4,2,1,50,0,0
236657,-117.647058823529,4,2,1,50,0,0
237006,-111.111111111111,4,2,1,50,0,0
237704,-117.647058823529,4,2,1,50,0,0
237878,-111.111111111111,4,2,1,50,0,0
238052,-117.647058823529,4,2,1,50,0,0
238402,-111.111111111111,4,2,1,50,0,0
239099,-117.647058823529,4,2,1,50,0,0
239273,-111.111111111111,4,2,1,50,0,0
239622,-117.647058823529,4,2,1,50,0,0
239797,-111.111111111111,4,2,1,50,0,0
239971,-117.647058823529,4,2,1,50,0,0
240146,-111.111111111111,4,2,1,50,0,0
240495,-117.647058823529,4,2,1,50,0,0
240669,-111.111111111111,4,2,1,50,0,0
240843,-117.647058823529,4,2,1,50,0,0
241193,-111.111111111111,4,2,1,50,0,0
241890,-117.647058823529,4,2,1,50,0,0
242064,-111.111111111111,4,2,1,50,0,0
242239,-117.647058823529,4,2,1,50,0,0
242588,-111.111111111111,4,2,1,50,0,0
243285,-117.647058823529,4,2,1,50,0,0
243459,-111.111111111111,4,2,1,50,0,0
243634,-117.647058823529,4,2,1,50,0,0
243983,-111.111111111111,4,2,1,50,0,0
244681,-117.647058823529,4,2,1,50,0,0
244855,-111.111111111111,4,2,1,50,0,0
245029,-117.647058823529,4,2,1,50,0,0
245379,-111.111111111111,4,2,1,50,0,0
246076,-117.647058823529,4,2,1,50,0,0
246250,-111.111111111111,4,2,1,50,0,0
246425,-117.647058823529,4,2,1,50,0,0
246774,-111.111111111111,4,2,1,50,0,0
247471,-117.647058823529,4,2,1,50,0,0
247646,-111.111111111111,4,2,1,50,0,0
247820,-117.647058823529,4,2,1,50,0,0
248169,-111.111111111111,4,2,1,50,0,0
248518,-111.111111111111,4,2,1,50,0,0
248692,-117.647058823529,4,2,1,50,0,0
249041,-111.111111111111,4,2,1,50,0,0
249215,-117.647058823529,4,2,1,50,0,0
249565,-111.111111111111,4,2,1,50,0,0
249913,-111.111111111111,4,2,1,50,0,0
250087,-117.647058823529,4,2,1,50,0,0
250436,-111.111111111111,4,2,1,50,0,0
250611,-117.647058823529,4,2,1,50,0,0
250960,-111.111111111111,4,2,1,50,0,0
251308,-123.552123552124,4,2,1,50,0,0
251483,-122.137404580153,4,2,1,50,0,0
251657,-120.754716981132,4,2,1,50,0,0
251832,-119.402985074627,4,2,1,50,0,0
252006,-118.081180811808,4,2,1,50,0,0
252180,-116.788321167883,4,2,1,50,0,0
252355,-115.523465703971,4,2,1,50,0,0
252529,-114.285714285714,4,2,1,50,0,0
252704,-113.074204946996,4,2,1,50,0,0
252878,-111.888111888112,4,2,1,50,0,0
253052,-110.726643598616,4,2,1,50,0,0
253227,-109.58904109589,4,2,1,50,0,0
253401,-108.474576271186,4,2,1,50,0,0
253576,-107.38255033557,4,2,1,50,0,0
253750,-106.312292358804,4,2,1,50,0,0
253925,-105.263157894737,4,2,1,50,0,0
254099,-104.234527687296,4,2,1,50,0,0
254274,-103.225806451613,4,2,1,50,0,0
254448,-102.23642172524,4,2,1,50,0,0
254623,-101.26582278481,4,2,1,50,0,0
254797,-100.313479623824,4,2,1,50,0,0
254971,-99.3788819875776,4,2,1,50,0,0
255145,-98.4615384615385,4,2,1,50,0,0
255320,-97.5609756097561,4,2,1,50,0,0
255494,-96.6767371601208,4,2,1,50,0,0
255669,-95.8083832335329,4,2,1,50,0,0
255843,-94.9554896142433,4,2,1,50,0,0
256018,-94.1176470588235,4,2,1,50,0,0
256192,-93.2944606413994,4,2,1,50,0,0
256367,-92.485549132948,4,2,1,50,0,0
256541,-91.6905444126074,4,2,1,50,0,0
256716,-90.9090909090909,4,2,1,50,0,0
256890,-92.2190201729107,4,2,1,50,0,0
257064,-93.3216681248177,4,2,1,50,0,0
257239,-94.4510035419126,4,2,1,50,0,0
257413,-95.6080071706005,4,2,1,50,0,0
257587,-96.7937084089534,4,2,1,50,0,0
257762,-98.0091883614089,4,2,1,50,0,0
257936,-99.2555831265509,4,2,1,50,0,0
258111,-100.534087338988,4,2,1,50,0,0
258285,-101.845957988542,4,2,1,50,0,0
258459,-103.192518542406,4,2,1,50,0,0
258633,-104.575163398693,4,2,1,50,0,0
258808,-105.995362702882,4,2,1,50,0,0
258982,-107.454667562122,4,2,1,50,0,0
259157,-108.954715696289,4,2,1,50,0,0
259331,-110.497237569061,4,2,1,50,0,0
259506,-112.084063047285,4,2,1,50,0,0
259680,-113.717128642502,4,2,1,50,0,0
259855,-115.398485394879,4,2,1,50,0,0
260029,-117.130307467057,4,2,1,50,0,0
260204,-118.914901523597,4,2,1,50,0,0
260378,-120.754716981132,4,2,1,50,0,0
260552,-122.65235722499,4,2,1,50,0,0
260726,-124.610591900312,4,2,1,50,0,0
260901,-126.632370399683,4,2,1,50,0,0
261075,-128.720836685438,4,2,1,50,0,0
261250,-130.879345603272,4,2,1,50,0,0
261424,-133.111480865225,4,2,1,50,0,0
261599,-135.421074904782,4,2,1,50,0,0
261773,-137.812230835487,4,2,1,50,0,0
261948,-140.289346777729,4,2,1,50,0,0
262122,-142.857142857143,4,2,1,50,0,0
262297,-144.927536231884,4,2,1,50,0,0
262471,-146.991272393202,4,2,1,50,0,0
262646,-144.796380090498,4,2,1,50,0,0
262820,-142.666072224699,4,2,1,50,0,0
262994,-140.597539543058,4,2,1,50,0,0
263168,-138.588133391078,4,2,1,50,0,0
263343,-136.63535439795,4,2,1,50,0,0
263517,-134.736842105263,4,2,1,50,0,0
263692,-132.890365448505,4,2,1,50,0,0
263866,-131.093814010651,4,2,1,50,0,0
264041,-129.345189975748,4,2,1,50,0,0
264215,-127.64260071799,4,2,1,50,0,0
264390,-125.984251968504,4,2,1,50,0,0
264564,-124.368441507967,4,2,1,50,0,0
264739,-122.79355333845,4,2,1,50,0,0
264913,-121.258052292535,4,2,1,50,0,0
265087,-119.760479041916,4,2,1,50,0,0
265261,-118.299445471349,4,2,1,50,0,0
265436,-116.873630387144,4,2,1,50,0,0
265610,-115.481775532299,4,2,1,50,0,0
265785,-114.122681883024,4,2,1,50,0,0
265959,-112.795206203736,4,2,1,50,0,0
266134,-111.498257839721,4,2,1,50,0,0
266308,-110.230795728557,4,2,1,50,0,0
266483,-108.991825613079,4,2,1,50,0,0
266657,-107.780397440216,4,2,1,50,0,0
266832,-106.595602931379,4,2,1,50,0,0
267006,-105.436573311367,4,2,1,50,0,0
267180,-104.302477183833,4,2,1,50,0,0
267354,-103.192518542406,4,2,1,50,0,0
267529,-102.105934907466,4,2,1,50,0,0
267703,-101.041995579413,4,2,1,50,0,0
267878,-100,4,2,1,50,0,0
268052,-100.54844606947,4,2,1,50,0,0
268227,-102.13556174559,4,2,1,50,0,0
268401,-103.77358490566,4,2,1,50,0,0
268576,-105.465004793864,4,2,1,50,0,0
268750,-107.212475633528,4,2,1,50,0,0
268925,-109.018830525273,4,2,1,50,0,0
269099,-110.887096774194,4,2,1,50,0,0
269274,-112.820512820513,4,2,1,50,0,0
269448,-114.82254697286,4,2,1,50,0,0
269622,-116.896918172157,4,2,1,50,0,0
269796,-119.047619047619,4,2,1,50,0,0
269971,-121.278941565601,4,2,1,50,0,0
270145,-123.595505617978,4,2,1,50,0,0
270320,-126.002290950745,4,2,1,50,0,0
270494,-128.504672897196,4,2,1,50,0,0
270669,-131.108462455304,4,2,1,50,0,0
270843,-133.8199513382,4,2,1,50,0,0
271018,-136.645962732919,4,2,1,50,0,0
271192,-139.593908629442,4,2,1,50,0,0
271367,-142.671854734112,4,2,1,50,0,0
271541,-145.888594164456,4,2,1,50,0,0
271715,-149.253731343284,4,2,1,50,0,0
271889,-152.777777777778,4,2,1,50,0,0
272064,-156.47226173542,4,2,1,50,0,0
272238,-160.349854227405,4,2,1,50,0,0
272413,-164.424514200299,4,2,1,50,0,0
272587,-168.711656441718,4,2,1,50,0,0
272762,-173.228346456693,4,2,1,50,0,0
272936,-177.993527508091,4,2,1,50,0,0
273111,-183.028286189684,4,2,1,50,0,0
273285,-188.356164383562,4,2,1,50,0,0
273460,-194.003527336861,4,2,1,50,0,0
273634,-200,4,2,1,50,0,0
273722,-200,4,2,1,30,0,0
275029,-212.765957446809,4,2,1,25,0,0
276425,-227.272727272727,4,2,1,20,0,0
277820,-243.90243902439,4,2,1,15,0,0
279215,-263.157894736842,4,2,1,10,0,0
280611,-285.714285714286,4,2,1,5,0,0
282006,-312.5,4,2,1,5,0,0
283401,-344.827586206897,4,2,1,5,0,0

[HitObjects]
256,192,147,5,4,0:0:0:0:
256,192,844,1,2,0:0:0:0:
256,192,1542,1,0,0:0:0:0:
256,192,5728,1,0,0:0:0:0:
256,192,11309,5,0,0:0:0:0:
256,192,11658,12,0,15495,0:0:0:0:
256,192,16891,5,2,0:0:0:0:
256,192,17588,1,0,0:0:0:0:
256,192,22472,1,0,0:0:0:0:
256,192,23170,1,2,0:0:0:0:
256,192,23867,1,0,0:0:0:0:
256,192,28053,1,2,0:0:0:0:
256,192,30844,1,2,0:0:0:0:
256,192,32937,1,2,0:0:0:0:
256,192,33635,1,0,0:0:0:0:
256,192,33984,12,0,38867,0:0:0:0:
256,192,39216,5,2,0:0:0:0:
256,192,39914,1,0,0:0:0:0:
256,192,40612,12,0,44449,0:0:0:0:
256,192,44798,5,4,0:0:0:0:
256,192,45147,1,0,0:0:0:0:
256,192,45495,1,0,0:0:0:0:
256,192,45670,1,2,0:0:0:0:
256,192,46019,1,0,0:0:0:0:
256,192,46367,1,0,0:0:0:0:
256,192,46455,1,2,0:0:0:0:
256,192,46542,1,0,0:0:0:0:
256,192,46891,1,0,0:0:0:0:
256,192,46978,1,2,0:0:0:0:
256,192,47065,1,0,0:0:0:0:
256,192,47414,1,0,0:0:0:0:
256,192,47501,1,0,0:0:0:0:
256,192,47588,1,0,0:0:0:0:
256,192,47763,1,0,0:0:0:0:
256,192,47850,1,2,0:0:0:0:
256,192,47937,1,0,0:0:0:0:
256,192,48024,1,0,0:0:0:0:
256,192,48112,1,0,0:0:0:0:
256,192,48286,1,0,0:0:0:0:
256,192,48373,1,2,0:0:0:0:
256,192,48460,1,0,0:0:0:0:
256,192,48548,1,2,0:0:0:0:
256,192,48635,1,0,0:0:0:0:
256,192,48809,1,0,0:0:0:0:
256,192,48897,1,2,0:0:0:0:
256,192,48984,1,0,0:0:0:0:
256,192,49158,1,0,0:0:0:0:
256,192,49245,1,2,0:0:0:0:
256,192,49333,1,0,0:0:0:0:
256,192,49420,1,0,0:0:0:0:
256,192,49507,1,0,0:0:0:0:
256,192,49681,1,0,0:0:0:0:
256,192,49769,1,2,0:0:0:0:
256,192,49856,1,0,0:0:0:0:
256,192,49943,1,2,0:0:0:0:
256,192,50030,1,0,0:0:0:0:
256,192,50117,1,2,0:0:0:0:
256,192,50205,1,0,0:0:0:0:
256,192,50292,1,0,0:0:0:0:
256,192,50379,1,6,0:0:0:0:
256,192,50553,1,2,0:0:0:0:
256,192,50641,1,0,0:0:0:0:
256,192,50728,1,2,0:0:0:0:
256,192,50902,1,4,0:0:0:0:
256,192,51077,1,2,0:0:0:0:
256,192,51164,1,0,0:0:0:0:
256,192,51251,1,2,0:0:0:0:
256,192,51426,1,4,0:0:0:0:
256,192,51513,1,2,0:0:0:0:
256,192,51600,1,0,0:0:0:0:
256,192,51687,1,0,0:0:0:0:
256,192,51774,1,6,0:0:0:0:
256,192,51949,1,0,0:0:0:0:
256,192,52036,1,2,0:0:0:0:
256,192,52123,1,0,0:0:0:0:
256,192,52210,1,0,0:0:0:0:
256,192,52298,1,6,0:0:0:0:
256,192,52472,1,0,0:0:0:0:
256,192,52559,1,2,0:0:0:0:
256,192,52647,1,0,0:0:0:0:
256,192,52734,1,0,0:0:0:0:
256,192,52821,1,6,0:0:0:0:
256,192,52908,1,0,0:0:0:0:
256,192,52995,1,2,0:0:0:0:
256,192,53083,1,2,0:0:0:0:
256,192,53170,1,4,0:0:0:0:
256,192,53344,1,2,0:0:0:0:
256,192,53431,1,0,0:0:0:0:
256,192,53519,1,2,0:0:0:0:
256,192,53693,1,4,0:0:0:0:
256,192,53867,1,2,0:0:0:0:
256,192,53955,1,0,0:0:0:0:
256,192,54042,1,2,0:0:0:0:
256,192,54216,1,4,0:0:0:0:
256,192,54303,1,2,0:0:0:0:
256,192,54391,1,0,0:0:0:0:
256,192,54478,1,0,0:0:0:0:
256,192,54565,1,6,0:0:0:0:
256,192,54740,1,0,0:0:0:0:
256,192,54827,1,2,0:0:0:0:
256,192,54914,1,0,0:0:0:0:
256,192,55001,1,0,0:0:0:0:
256,192,55088,1,6,0:0:0:0:
256,192,55263,1,0,0:0:0:0:
256,192,55350,1,2,0:0:0:0:
256,192,55437,1,0,0:0:0:0:
256,192,55524,1,0,0:0:0:0:
256,192,55612,1,6,0:0:0:0:
256,192,55699,1,0,0:0:0:0:
256,192,55786,1,2,0:0:0:0:
256,192,55873,1,2,0:0:0:0:
256,192,55960,1,4,0:0:0:0:
256,192,56135,1,2,0:0:0:0:
256,192,56222,1,0,0:0:0:0:
256,192,56309,1,2,0:0:0:0:
256,192,56484,1,4,0:0:0:0:
256,192,56658,1,2,0:0:0:0:
256,192,56745,1,2,0:0:0:0:
256,192,56833,1,2,0:0:0:0:
256,192,57007,1,4,0:0:0:0:
256,192,57094,1,2,0:0:0:0:
256,192,57181,1,0,0:0:0:0:
256,192,57269,1,0,0:0:0:0:
256,192,57356,1,6,0:0:0:0:
256,192,57530,1,0,0:0:0:0:
256,192,57617,1,2,0:0:0:0:
256,192,57705,1,2,0:0:0:0:
256,192,57792,1,0,0:0:0:0:
256,192,57879,1,6,0:0:0:0:
256,192,58053,1,0,0:0:0:0:
256,192,58141,1,2,0:0:0:0:
256,192,58228,1,2,0:0:0:0:
256,192,58315,1,0,0:0:0:0:
256,192,58402,1,6,0:0:0:0:
256,192,58490,1,0,0:0:0:0:
256,192,58577,1,2,0:0:0:0:
256,192,58664,1,2,0:0:0:0:
256,192,58751,1,4,0:0:0:0:
256,192,58926,1,2,0:0:0:0:
256,192,59013,1,0,0:0:0:0:
256,192,59100,1,2,0:0:0:0:
256,192,59274,1,4,0:0:0:0:
256,192,59449,1,2,0:0:0:0:
256,192,59536,1,0,0:0:0:0:
256,192,59623,1,2,0:0:0:0:
256,192,59798,1,4,0:0:0:0:
256,192,59885,1,2,0:0:0:0:
256,192,59972,1,0,0:0:0:0:
256,192,60059,1,0,0:0:0:0:
256,192,60147,1,6,0:0:0:0:
256,192,60321,1,0,0:0:0:0:
256,192,60408,1,2,0:0:0:0:
256,192,60495,1,2,0:0:0:0:
256,192,60583,1,0,0:0:0:0:
256,192,60670,1,6,0:0:0:0:
256,192,60844,1,0,0:0:0:0:
256,192,60931,1,2,0:0:0:0:
256,192,61019,1,2,0:0:0:0:
256,192,61106,1,0,0:0:0:0:
256,192,61193,1,6,0:0:0:0:
256,192,61280,1,0,0:0:0:0:
256,192,61367,1,2,0:0:0:0:
256,192,61455,1,2,0:0:0:0:
256,192,61542,1,4,0:0:0:0:
256,192,61716,1,2,0:0:0:0:
256,192,61803,1,0,0:0:0:0:
256,192,61891,1,2,0:0:0:0:
256,192,62065,1,4,0:0:0:0:
256,192,62240,1,2,0:0:0:0:
256,192,62327,1,0,0:0:0:0:
256,192,62414,1,2,0:0:0:0:
256,192,62588,1,4,0:0:0:0:
256,192,62676,1,2,0:0:0:0:
256,192,62763,1,0,0:0:0:0:
256,192,62850,1,0,0:0:0:0:
256,192,62937,1,6,0:0:0:0:
256,192,63112,1,0,0:0:0:0:
256,192,63199,1,2,0:0:0:0:
256,192,63286,1,0,0:0:0:0:
256,192,63373,1,0,0:0:0:0:
256,192,63460,1,6,0:0:0:0:
256,192,63635,1,0,0:0:0:0:
256,192,63722,1,2,0:0:0:0:
256,192,63809,1,0,0:0:0:0:
256,192,63897,1,0,0:0:0:0:
256,192,63984,1,6,0:0:0:0:
256,192,64071,1,0,0:0:0:0:
256,192,64158,1,2,0:0:0:0:
256,192,64245,1,2,0:0:0:0:
256,192,64333,1,4,0:0:0:0:
256,192,64507,1,2,0:0:0:0:
256,192,64594,1,0,0:0:0:0:
256,192,64681,1,2,0:0:0:0:
256,192,64856,1,4,0:0:0:0:
256,192,65030,1,2,0:0:0:0:
256,192,65117,1,0,0:0:0:0:
256,192,65205,1,2,0:0:0:0:
256,192,65379,1,4,0:0:0:0:
256,192,65466,1,2,0:0:0:0:
256,192,65553,1,0,0:0:0:0:
256,192,65641,1,0,0:0:0:0:
256,192,65728,1,6,0:0:0:0:
256,192,65902,1,0,0:0:0:0:
256,192,65990,1,2,0:0:0:0:
256,192,66077,1,0,0:0:0:0:
256,192,66164,1,0,0:0:0:0:
256,192,66251,1,6,0:0:0:0:
256,192,66426,1,0,0:0:0:0:
256,192,66513,1,2,0:0:0:0:
256,192,66600,1,0,0:0:0:0:
256,192,66687,1,0,0:0:0:0:
256,192,66774,1,6,0:0:0:0:
256,192,66862,1,0,0:0:0:0:
256,192,66949,1,2,0:0:0:0:
256,192,67036,1,2,0:0:0:0:
256,192,67123,1,4,0:0:0:0:
256,192,67298,1,2,0:0:0:0:
256,192,67385,1,0,0:0:0:0:
256,192,67472,1,2,0:0:0:0:
256,192,67647,1,4,0:0:0:0:
256,192,67821,1,0,0:0:0:0:
256,192,67908,1,0,0:0:0:0:
256,192,67995,1,0,0:0:0:0:
256,192,68170,1,4,0:0:0:0:
256,192,68257,1,2,0:0:0:0:
256,192,68344,1,0,0:0:0:0:
256,192,68431,1,0,0:0:0:0:
256,192,68519,1,6,0:0:0:0:
256,192,68693,1,0,0:0:0:0:
256,192,68780,1,2,0:0:0:0:
256,192,68867,1,2,0:0:0:0:
256,192,68955,1,0,0:0:0:0:
256,192,69042,1,6,0:0:0:0:
256,192,69216,1,0,0:0:0:0:
256,192,69303,1,2,0:0:0:0:
256,192,69391,1,2,0:0:0:0:
256,192,69478,1,0,0:0:0:0:
256,192,69565,1,6,0:0:0:0:
256,192,69652,1,0,0:0:0:0:
256,192,69740,1,2,0:0:0:0:
256,192,69827,1,2,0:0:0:0:
256,192,69914,1,4,0:0:0:0:
256,192,70088,1,2,0:0:0:0:
256,192,70176,1,0,0:0:0:0:
256,192,70263,1,2,0:0:0:0:
256,192,70437,1,4,0:0:0:0:
256,192,70612,1,2,0:0:0:0:
256,192,70699,1,0,0:0:0:0:
256,192,70786,1,2,0:0:0:0:
256,192,70960,1,4,0:0:0:0:
256,192,71048,1,2,0:0:0:0:
256,192,71135,1,0,0:0:0:0:
256,192,71222,1,0,0:0:0:0:
256,192,71309,1,6,0:0:0:0:
256,192,71484,1,0,0:0:0:0:
256,192,71658,1,2,0:0:0:0:
256,192,71833,1,4,0:0:0:0:
256,192,72007,1,0,0:0:0:0:
256,192,72181,1,2,0:0:0:0:
256,192,72356,1,4,0:0:0:0:
256,192,72705,1,6,0:0:0:0:
256,192,72879,1,2,0:0:0:0:
256,192,72966,1,0,0:0:0:0:
256,192,73053,1,2,0:0:0:0:
256,192,73228,1,4,0:0:0:0:
256,192,73402,1,2,0:0:0:0:
256,192,73490,1,0,0:0:0:0:
256,192,73577,1,2,0:0:0:0:
256,192,73751,1,4,0:0:0:0:
256,192,73838,1,2,0:0:0:0:
256,192,73926,1,0,0:0:0:0:
256,192,74013,1,0,0:0:0:0:
256,192,74100,1,6,0:0:0:0:
256,192,74274,1,0,0:0:0:0:
256,192,74362,1,0,0:0:0:0:
256,192,74449,1,6,0:0:0:0:
256,192,74623,1,4,0:0:0:0:
256,192,74798,1,0,0:0:0:0:
256,192,74885,1,0,0:0:0:0:
256,192,74972,1,6,0:0:0:0:
256,192,75147,1,4,0:0:0:0:
256,192,75234,1,2,0:0:0:0:
256,192,75321,1,2,0:0:0:0:
256,192,75408,1,2,0:0:0:0:
256,192,75495,1,4,0:0:0:0:
256,192,75670,1,2,0:0:0:0:
256,192,75757,1,0,0:0:0:0:
256,192,75844,1,2,0:0:0:0:
256,192,76019,1,4,0:0:0:0:
256,192,76193,1,2,0:0:0:0:
256,192,76280,1,0,0:0:0:0:
256,192,76367,1,2,0:0:0:0:
256,192,76542,1,4,0:0:0:0:
256,192,76629,1,2,0:0:0:0:
256,192,76716,1,0,0:0:0:0:
256,192,76803,1,0,0:0:0:0:
256,192,76891,1,6,0:0:0:0:
256,192,77065,1,0,0:0:0:0:
256,192,77152,1,0,0:0:0:0:
256,192,77240,1,6,0:0:0:0:
256,192,77414,1,4,0:0:0:0:
256,192,77588,1,0,0:0:0:0:
256,192,77676,1,0,0:0:0:0:
256,192,77763,1,6,0:0:0:0:
256,192,77937,1,4,0:0:0:0:
256,192,78024,1,2,0:0:0:0:
256,192,78112,1,2,0:0:0:0:
256,192,78199,1,2,0:0:0:0:
256,192,78286,1,4,0:0:0:0:
256,192,78460,1,2,0:0:0:0:
256,192,78548,1,0,0:0:0:0:
256,192,78635,1,2,0:0:0:0:
256,192,78809,1,4,0:0:0:0:
256,192,78984,1,2,0:0:0:0:
256,192,79071,1,2,0:0:0:0:
256,192,79158,1,2,0:0:0:0:
256,192,79333,1,4,0:0:0:0:
256,192,79420,1,2,0:0:0:0:
256,192,79507,1,0,0:0:0:0:
256,192,79594,1,0,0:0:0:0:
256,192,79681,1,6,0:0:0:0:
256,192,79856,1,0,0:0:0:0:
256,192,79943,1,0,0:0:0:0:
256,192,80030,1,6,0:0:0:0:
256,192,80205,1,4,0:0:0:0:
256,192,80379,1,0,0:0:0:0:
256,192,80466,1,0,0:0:0:0:
256,192,80553,1,6,0:0:0:0:
256,192,80728,1,4,0:0:0:0:
256,192,80815,1,2,0:0:0:0:
256,192,80902,1,2,0:0:0:0:
256,192,80990,1,2,0:0:0:0:
256,192,81077,1,4,0:0:0:0:
256,192,81251,1,2,0:0:0:0:
256,192,81338,1,0,0:0:0:0:
256,192,81426,1,2,0:0:0:0:
256,192,81600,1,4,0:0:0:0:
256,192,81774,1,2,0:0:0:0:
256,192,81862,1,0,0:0:0:0:
256,192,81949,1,2,0:0:0:0:
256,192,82123,1,4,0:0:0:0:
256,192,82210,1,2,0:0:0:0:
256,192,82298,1,0,0:0:0:0:
256,192,82385,1,0,0:0:0:0:
256,192,82472,1,6,0:0:0:0:
256,192,82647,1,2,0:0:0:0:
256,192,82734,1,0,0:0:0:0:
256,192,82821,1,6,0:0:0:0:
256,192,82995,1,4,0:0:0:0:
256,192,83170,1,0,0:0:0:0:
256,192,83257,1,0,0:0:0:0:
256,192,83344,1,6,0:0:0:0:
256,192,83519,1,4,0:0:0:0:
256,192,83606,1,2,0:0:0:0:
256,192,83693,1,2,0:0:0:0:
256,192,83780,1,2,0:0:0:0:
256,192,83867,1,4,0:0:0:0:
256,192,84042,1,2,0:0:0:0:
256,192,84129,1,0,0:0:0:0:
256,192,84216,1,2,0:0:0:0:
256,192,84391,1,4,0:0:0:0:
256,192,84565,1,2,0:0:0:0:
256,192,84652,1,0,0:0:0:0:
256,192,84740,1,2,0:0:0:0:
256,192,84914,1,4,0:0:0:0:
256,192,85001,1,2,0:0:0:0:
256,192,85088,1,0,0:0:0:0:
256,192,85176,1,0,0:0:0:0:
256,192,85263,1,6,0:0:0:0:
256,192,85437,1,0,0:0:0:0:
256,192,85524,1,0,0:0:0:0:
256,192,85612,1,6,0:0:0:0:
256,192,85786,1,4,0:0:0:0:
256,192,85960,1,0,0:0:0:0:
256,192,86048,1,0,0:0:0:0:
256,192,86135,1,6,0:0:0:0:
256,192,86309,1,4,0:0:0:0:
256,192,86397,1,2,0:0:0:0:
256,192,86484,1,2,0:0:0:0:
256,192,86571,1,2,0:0:0:0:
256,192,86658,1,4,0:0:0:0:
256,192,86833,1,2,0:0:0:0:
256,192,86920,1,0,0:0:0:0:
256,192,87007,1,2,0:0:0:0:
256,192,87181,1,4,0:0:0:0:
256,192,87356,1,2,0:0:0:0:
256,192,87443,1,0,0:0:0:0:
256,192,87530,1,2,0:0:0:0:
256,192,87705,1,4,0:0:0:0:
256,192,87792,1,2,0:0:0:0:
256,192,87879,1,0,0:0:0:0:
256,192,87966,1,0,0:0:0:0:
256,192,88053,1,6,0:0:0:0:
256,192,88228,1,0,0:0:0:0:
256,192,88315,1,0,0:0:0:0:
256,192,88402,1,6,0:0:0:0:
256,192,88577,1,4,0:0:0:0:
256,192,88751,1,0,0:0:0:0:
256,192,88838,1,0,0:0:0:0:
256,192,88926,1,6,0:0:0:0:
256,192,89100,1,4,0:0:0:0:
256,192,89187,1,2,0:0:0:0:
256,192,89274,1,2,0:0:0:0:
256,192,89362,1,2,0:0:0:0:
256,192,89449,1,4,0:0:0:0:
256,192,89623,1,2,0:0:0:0:
256,192,89710,1,0,0:0:0:0:
256,192,89798,1,2,0:0:0:0:
256,192,89972,1,4,0:0:0:0:
256,192,90147,1,2,0:0:0:0:
256,192,90234,1,2,0:0:0:0:
256,192,90321,1,2,0:0:0:0:
256,192,90495,1,4,0:0:0:0:
256,192,90583,1,2,0:0:0:0:
256,192,90670,1,0,0:0:0:0:
256,192,90757,1,0,0:0:0:0:
256,192,90844,1,6,0:0:0:0:
256,192,91019,1,0,0:0:0:0:
256,192,91106,1,0,0:0:0:0:
256,192,91193,1,6,0:0:0:0:
256,192,91367,1,4,0:0:0:0:
256,192,91542,1,0,0:0:0:0:
256,192,91629,1,0,0:0:0:0:
256,192,91716,1,6,0:0:0:0:
256,192,91891,1,4,0:0:0:0:
256,192,91978,1,2,0:0:0:0:
256,192,92065,1,2,0:0:0:0:
256,192,92152,1,2,0:0:0:0:
256,192,92240,1,4,0:0:0:0:
256,192,92414,1,2,0:0:0:0:
256,192,92501,1,0,0:0:0:0:
256,192,92588,1,2,0:0:0:0:
256,192,92763,1,4,0:0:0:0:
256,192,92937,1,2,0:0:0:0:
256,192,93024,1,0,0:0:0:0:
256,192,93112,1,2,0:0:0:0:
256,192,93286,1,4,0:0:0:0:
256,192,93373,1,2,0:0:0:0:
256,192,93460,1,0,0:0:0:0:
256,192,93548,1,0,0:0:0:0:
256,192,93635,1,6,0:0:0:0:
256,192,93722,1,0,0:0:0:0:
256,192,93809,1,2,0:0:0:0:
256,192,93897,1,0,0:0:0:0:
256,192,93984,1,6,0:0:0:0:
256,192,94158,1,4,0:0:0:0:
256,192,94245,1,2,0:0:0:0:
256,192,94333,1,2,0:0:0:0:
256,192,94420,1,0,0:0:0:0:
256,192,94507,1,6,0:0:0:0:
256,192,94681,1,4,0:0:0:0:
256,192,94769,1,2,0:0:0:0:
256,192,94856,1,0,0:0:0:0:
256,192,94943,1,0,0:0:0:0:
256,192,95030,1,6,0:0:0:0:
256,192,95205,1,2,0:0:0:0:
256,192,95292,1,0,0:0:0:0:
256,192,95379,1,2,0:0:0:0:
256,192,95553,1,4,0:0:0:0:
256,192,95728,1,2,0:0:0:0:
256,192,95815,1,0,0:0:0:0:
256,192,95902,1,2,0:0:0:0:
256,192,96077,1,4,0:0:0:0:
256,192,96164,1,2,0:0:0:0:
256,192,96251,1,0,0:0:0:0:
256,192,96338,1,0,0:0:0:0:
256,192,96426,1,6,0:0:0:0:
256,192,96600,1,0,0:0:0:0:
256,192,96687,1,0,0:0:0:0:
256,192,96774,1,6,0:0:0:0:
256,192,96949,1,4,0:0:0:0:
256,192,97123,1,0,0:0:0:0:
256,192,97210,1,0,0:0:0:0:
256,192,97298,1,6,0:0:0:0:
256,192,97472,1,4,0:0:0:0:
256,192,97559,1,2,0:0:0:0:
256,192,97647,1,2,0:0:0:0:
256,192,97734,1,2,0:0:0:0:
256,192,97821,1,4,0:0:0:0:
256,192,97995,1,2,0:0:0:0:
256,192,98083,1,0,0:0:0:0:
256,192,98170,1,2,0:0:0:0:
256,192,98344,1,4,0:0:0:0:
256,192,98519,1,2,0:0:0:0:
256,192,98606,1,0,0:0:0:0:
256,192,98693,1,2,0:0:0:0:
256,192,98867,1,4,0:0:0:0:
256,192,98955,1,2,0:0:0:0:
256,192,99042,1,0,0:0:0:0:
256,192,99129,1,0,0:0:0:0:
256,192,99216,1,6,0:0:0:0:
256,192,99391,1,2,0:0:0:0:
256,192,99478,1,0,0:0:0:0:
256,192,99565,1,6,0:0:0:0:
256,192,99740,1,4,0:0:0:0:
256,192,99914,1,0,0:0:0:0:
256,192,100001,1,0,0:0:0:0:
256,192,100088,1,6,0:0:0:0:
256,192,100263,1,4,0:0:0:0:
256,192,100350,1,2,0:0:0:0:
256,192,100437,1,2,0:0:0:0:
256,192,100524,1,2,0:0:0:0:
256,192,100612,1,4,0:0:0:0:
256,192,100786,1,2,0:0:0:0:
256,192,100873,1,0,0:0:0:0:
256,192,100960,1,2,0:0:0:0:
256,192,101135,1,4,0:0:0:0:
256,192,101309,1,2,0:0:0:0:
256,192,101397,1,2,0:0:0:0:
256,192,101484,1,2,0:0:0:0:
256,192,101658,1,4,0:0:0:0:
256,192,101745,1,2,0:0:0:0:
256,192,101833,1,0,0:0:0:0:
256,192,101920,1,0,0:0:0:0:
256,192,102007,1,6,0:0:0:0:
256,192,102181,1,0,0:0:0:0:
256,192,102269,1,0,0:0:0:0:
256,192,102356,1,6,0:0:0:0:
256,192,102530,1,4,0:0:0:0:
256,192,102705,1,2,0:0:0:0:
256,192,102792,1,0,0:0:0:0:
256,192,102879,1,6,0:0:0:0:
256,192,103053,1,4,0:0:0:0:
256,192,103141,1,2,0:0:0:0:
256,192,103228,1,2,0:0:0:0:
256,192,103315,1,2,0:0:0:0:
256,192,103402,1,4,0:0:0:0:
256,192,103577,1,2,0:0:0:0:
256,192,103664,1,0,0:0:0:0:
256,192,103751,1,2,0:0:0:0:
256,192,103926,1,4,0:0:0:0:
256,192,104100,1,2,0:0:0:0:
256,192,104187,1,0,0:0:0:0:
256,192,104274,1,2,0:0:0:0:
256,192,104449,1,4,0:0:0:0:
256,192,104536,1,2,0:0:0:0:
256,192,104623,1,0,0:0:0:0:
256,192,104710,1,0,0:0:0:0:
256,192,104798,1,6,0:0:0:0:
256,192,104972,1,2,0:0:0:0:
256,192,105059,1,0,0:0:0:0:
256,192,105147,1,6,0:0:0:0:
256,192,105321,1,4,0:0:0:0:
256,192,105495,1,0,0:0:0:0:
256,192,105583,1,0,0:0:0:0:
256,192,105670,1,6,0:0:0:0:
256,192,105844,1,4,0:0:0:0:
256,192,105931,1,2,0:0:0:0:
256,192,106019,1,2,0:0:0:0:
256,192,106106,1,2,0:0:0:0:
256,192,106193,1,4,0:0:0:0:
256,192,106367,1,2,0:0:0:0:
256,192,106455,1,0,0:0:0:0:
256,192,106542,1,2,0:0:0:0:
256,192,106716,1,4,0:0:0:0:
256,192,106891,1,2,0:0:0:0:
256,192,106978,1,0,0:0:0:0:
256,192,107065,1,2,0:0:0:0:
256,192,107240,1,4,0:0:0:0:
256,192,107327,1,2,0:0:0:0:
256,192,107414,1,0,0:0:0:0:
256,192,107501,1,0,0:0:0:0:
256,192,107588,1,6,0:0:0:0:
256,192,107763,1,0,0:0:0:0:
256,192,107850,1,0,0:0:0:0:
256,192,107937,1,6,0:0:0:0:
256,192,108112,1,4,0:0:0:0:
256,192,108286,1,0,0:0:0:0:
256,192,108373,1,0,0:0:0:0:
256,192,108460,1,6,0:0:0:0:
256,192,108635,1,4,0:0:0:0:
256,192,108722,1,2,0:0:0:0:
256,192,108809,1,2,0:0:0:0:
256,192,108897,1,2,0:0:0:0:
256,192,108984,1,4,0:0:0:0:
256,192,109158,1,2,0:0:0:0:
256,192,109245,1,0,0:0:0:0:
256,192,109333,1,2,0:0:0:0:
256,192,109507,1,4,0:0:0:0:
256,192,109681,1,2,0:0:0:0:
256,192,109769,1,0,0:0:0:0:
256,192,109856,1,2,0:0:0:0:
256,192,110030,1,4,0:0:0:0:
256,192,110117,1,2,0:0:0:0:
256,192,110205,1,0,0:0:0:0:
256,192,110292,1,0,0:0:0:0:
256,192,110379,1,6,0:0:0:0:
256,192,110553,1,0,0:0:0:0:
256,192,110641,1,0,0:0:0:0:
256,192,110728,1,6,0:0:0:0:
256,192,110902,1,4,0:0:0:0:
256,192,111077,1,0,0:0:0:0:
256,192,111164,1,0,0:0:0:0:
256,192,111251,1,6,0:0:0:0:
256,192,111426,1,4,0:0:0:0:
256,192,111513,1,2,0:0:0:0:
256,192,111600,1,2,0:0:0:0:
256,192,111687,1,2,0:0:0:0:
256,192,111774,1,4,0:0:0:0:
256,192,111949,1,2,0:0:0:0:
256,192,112036,1,0,0:0:0:0:
256,192,112123,1,2,0:0:0:0:
256,192,112298,1,4,0:0:0:0:
256,192,112472,1,2,0:0:0:0:
256,192,112559,1,2,0:0:0:0:
256,192,112647,1,2,0:0:0:0:
256,192,112821,1,4,0:0:0:0:
256,192,112908,1,2,0:0:0:0:
256,192,112995,1,0,0:0:0:0:
256,192,113083,1,0,0:0:0:0:
256,192,113170,1,6,0:0:0:0:
256,192,113344,1,0,0:0:0:0:
256,192,113431,1,0,0:0:0:0:
256,192,113519,1,6,0:0:0:0:
256,192,113693,1,4,0:0:0:0:
256,192,113867,1,0,0:0:0:0:
256,192,113955,1,0,0:0:0:0:
256,192,114042,1,6,0:0:0:0:
256,192,114216,1,4,0:0:0:0:
256,192,114303,1,2,0:0:0:0:
256,192,114391,1,2,0:0:0:0:
256,192,114478,1,2,0:0:0:0:
256,192,114565,1,4,0:0:0:0:
256,192,114740,1,2,0:0:0:0:
256,192,114827,1,0,0:0:0:0:
256,192,114914,1,2,0:0:0:0:
256,192,115088,1,4,0:0:0:0:
256,192,115263,1,2,0:0:0:0:
256,192,115350,1,0,0:0:0:0:
256,192,115437,1,2,0:0:0:0:
256,192,115612,1,4,0:0:0:0:
256,192,115699,1,2,0:0:0:0:
256,192,115786,1,0,0:0:0:0:
256,192,115873,1,0,0:0:0:0:
256,192,115960,1,6,0:0:0:0:
256,192,116135,1,0,0:0:0:0:
256,192,116222,1,0,0:0:0:0:
256,192,116309,1,6,0:0:0:0:
256,192,116484,1,4,0:0:0:0:
256,192,116658,1,0,0:0:0:0:
256,192,116745,1,0,0:0:0:0:
256,192,116833,1,6,0:0:0:0:
256,192,117007,1,4,0:0:0:0:
256,192,117094,1,2,0:0:0:0:
256,192,117181,1,2,0:0:0:0:
256,192,117269,1,2,0:0:0:0:
256,192,117356,1,4,0:0:0:0:
256,192,117879,1,4,0:0:0:0:
256,192,118053,1,2,0:0:0:0:
256,192,118141,1,0,0:0:0:0:
256,192,118228,1,2,0:0:0:0:
256,192,118402,1,4,0:0:0:0:
256,192,118490,1,2,0:0:0:0:
256,192,118577,1,0,0:0:0:0:
256,192,118664,1,0,0:0:0:0:
256,192,118751,1,6,0:0:0:0:
256,192,118926,1,0,0:0:0:0:
256,192,119013,1,0,0:0:0:0:
256,192,119100,1,6,0:0:0:0:
256,192,119274,1,4,0:0:0:0:
256,192,119449,1,0,0:0:0:0:
256,192,119536,1,0,0:0:0:0:
256,192,119623,1,6,0:0:0:0:
256,192,119798,1,4,0:0:0:0:
256,192,119885,1,2,0:0:0:0:
256,192,119972,1,2,0:0:0:0:
256,192,120059,1,2,0:0:0:0:
256,192,120147,1,4,0:0:0:0:
256,192,120321,1,2,0:0:0:0:
256,192,120408,1,0,0:0:0:0:
256,192,120495,1,2,0:0:0:0:
256,192,120670,1,4,0:0:0:0:
256,192,120844,1,2,0:0:0:0:
256,192,120931,1,0,0:0:0:0:
256,192,121019,1,2,0:0:0:0:
256,192,121193,1,4,0:0:0:0:
256,192,121280,1,2,0:0:0:0:
256,192,121367,1,0,0:0:0:0:
256,192,121455,1,0,0:0:0:0:
256,192,121542,1,6,0:0:0:0:
256,192,121716,1,2,0:0:0:0:
256,192,121803,1,0,0:0:0:0:
256,192,121891,1,6,0:0:0:0:
256,192,122065,1,4,0:0:0:0:
256,192,122240,1,2,0:0:0:0:
256,192,122327,1,0,0:0:0:0:
256,192,122414,1,6,0:0:0:0:
256,192,122588,1,4,0:0:0:0:
256,192,122676,1,2,0:0:0:0:
256,192,122763,1,2,0:0:0:0:
256,192,122850,1,2,0:0:0:0:
256,192,122937,1,4,0:0:0:0:
256,192,123112,1,2,0:0:0:0:
256,192,123199,1,0,0:0:0:0:
256,192,123286,1,2,0:0:0:0:
256,192,123460,1,4,0:0:0:0:
256,192,123635,1,2,0:0:0:0:
256,192,123722,1,2,0:0:0:0:
256,192,123809,1,2,0:0:0:0:
256,192,123984,1,4,0:0:0:0:
256,192,124071,1,2,0:0:0:0:
256,192,124158,1,0,0:0:0:0:
256,192,124245,1,0,0:0:0:0:
256,192,124333,1,6,0:0:0:0:
256,192,124507,1,0,0:0:0:0:
256,192,124594,1,0,0:0:0:0:
256,192,124681,1,6,0:0:0:0:
256,192,124856,1,4,0:0:0:0:
256,192,125030,1,2,0:0:0:0:
256,192,125117,1,0,0:0:0:0:
256,192,125205,1,6,0:0:0:0:
256,192,125379,1,4,0:0:0:0:
256,192,125466,1,2,0:0:0:0:
256,192,125553,1,2,0:0:0:0:
256,192,125641,1,2,0:0:0:0:
256,192,125728,1,4,0:0:0:0:
256,192,125902,1,2,0:0:0:0:
256,192,125990,1,0,0:0:0:0:
256,192,126077,1,2,0:0:0:0:
256,192,126251,1,4,0:0:0:0:
256,192,126426,1,2,0:0:0:0:
256,192,126513,1,0,0:0:0:0:
256,192,126600,1,2,0:0:0:0:
256,192,126774,1,4,0:0:0:0:
256,192,126862,1,2,0:0:0:0:
256,192,126949,1,0,0:0:0:0:
256,192,127036,1,0,0:0:0:0:
256,192,127123,1,6,0:0:0:0:
256,192,127298,1,2,0:0:0:0:
256,192,127385,1,0,0:0:0:0:
256,192,127472,1,6,0:0:0:0:
256,192,127647,1,4,0:0:0:0:
256,192,127821,1,2,0:0:0:0:
256,192,127908,1,0,0:0:0:0:
256,192,127995,1,6,0:0:0:0:
256,192,128170,1,4,0:0:0:0:
256,192,128257,1,2,0:0:0:0:
256,192,128344,1,2,0:0:0:0:
256,192,128431,1,2,0:0:0:0:
256,192,128519,1,4,0:0:0:0:
256,192,128693,1,2,0:0:0:0:
256,192,128780,1,0,0:0:0:0:
256,192,128867,1,2,0:0:0:0:
256,192,129042,1,4,0:0:0:0:
256,192,129216,1,2,0:0:0:0:
256,192,129303,1,0,0:0:0:0:
256,192,129391,1,2,0:0:0:0:
256,192,129565,1,4,0:0:0:0:
256,192,129652,1,2,0:0:0:0:
256,192,129740,1,0,0:0:0:0:
256,192,129827,1,0,0:0:0:0:
256,192,129914,1,6,0:0:0:0:
256,192,130088,1,0,0:0:0:0:
256,192,130176,1,0,0:0:0:0:
256,192,130263,1,6,0:0:0:0:
256,192,130437,1,4,0:0:0:0:
256,192,130612,1,0,0:0:0:0:
256,192,130699,1,0,0:0:0:0:
256,192,130786,1,6,0:0:0:0:
256,192,130960,1,4,0:0:0:0:
256,192,131048,1,2,0:0:0:0:
256,192,131135,1,2,0:0:0:0:
256,192,131222,1,2,0:0:0:0:
256,192,131309,1,4,0:0:0:0:
256,192,131484,1,2,0:0:0:0:
256,192,131571,1,0,0:0:0:0:
256,192,131658,1,2,0:0:0:0:
256,192,131833,1,4,0:0:0:0:
256,192,132007,1,2,0:0:0:0:
256,192,132094,1,0,0:0:0:0:
256,192,132181,1,2,0:0:0:0:
256,192,132356,1,4,0:0:0:0:
256,192,132443,1,2,0:0:0:0:
256,192,132530,1,0,0:0:0:0:
256,192,132617,1,0,0:0:0:0:
256,192,132705,1,6,0:0:0:0:
256,192,132879,1,0,0:0:0:0:
256,192,132966,1,0,0:0:0:0:
256,192,133053,1,6,0:0:0:0:
256,192,133228,1,4,0:0:0:0:
256,192,133402,1,0,0:0:0:0:
256,192,133490,1,0,0:0:0:0:
256,192,133577,1,6,0:0:0:0:
256,192,133751,1,4,0:0:0:0:
256,192,133838,1,2,0:0:0:0:
256,192,133926,1,2,0:0:0:0:
256,192,134013,1,2,0:0:0:0:
256,192,134100,1,4,0:0:0:0:
256,192,134274,1,2,0:0:0:0:
256,192,134333,1,2,0:0:0:0:
256,192,134391,1,2,0:0:0:0:
256,192,134449,1,0,0:0:0:0:
256,192,134623,1,4,0:0:0:0:
256,192,134798,1,2,0:0:0:0:
256,192,134885,1,2,0:0:0:0:
256,192,134972,1,2,0:0:0:0:
256,192,135147,1,2,0:0:0:0:
256,192,135234,1,2,0:0:0:0:
256,192,135321,1,0,0:0:0:0:
256,192,135408,1,2,0:0:0:0:
256,192,135495,1,4,0:0:0:0:
256,192,135670,1,0,0:0:0:0:
256,192,135757,1,0,0:0:0:0:
256,192,135844,1,6,0:0:0:0:
256,192,136019,1,0,0:0:0:0:
256,192,136193,1,0,0:0:0:0:
256,192,136280,1,0,0:0:0:0:
256,192,136367,1,6,0:0:0:0:
256,192,136542,1,0,0:0:0:0:
256,192,136629,1,2,0:0:0:0:
256,192,136716,1,0,0:0:0:0:
256,192,136803,1,0,0:0:0:0:
256,192,136891,1,6,0:0:0:0:
256,192,137065,1,0,0:0:0:0:
256,192,137152,1,0,0:0:0:0:
256,192,137240,1,0,0:0:0:0:
256,192,137327,1,0,0:0:0:0:
256,192,137501,1,4,0:0:0:0:
256,192,137588,1,6,0:0:0:0:
256,192,137763,12,0,138286,0:0:0:0:
256,192,138460,5,4,0:0:0:0:
256,192,138722,1,2,0:0:0:0:
256,192,138809,1,0,0:0:0:0:
256,192,138897,1,0,0:0:0:0:
256,192,138984,1,6,0:0:0:0:
256,192,139071,1,0,0:0:0:0:
256,192,139158,1,0,0:0:0:0:
256,192,139245,1,0,0:0:0:0:
256,192,139333,1,6,0:0:0:0:
256,192,139420,1,0,0:0:0:0:
256,192,139507,1,0,0:0:0:0:
256,192,139681,1,0,0:0:0:0:
256,192,144565,12,0,146658,0:0:0:0:
256,192,149362,5,0,0:0:0:0:
256,192,152937,12,0,155728,0:0:0:0:
256,192,159085,5,0,0:0:0:0:
256,192,159260,1,2,0:0:0:0:
256,192,159434,1,2,0:0:0:0:
256,192,161309,12,0,163402,0:0:0:0:
256,192,163708,5,0,0:0:0:0:
256,192,168315,5,0,0:0:0:0:
256,192,169362,1,2,0:0:0:0:
256,192,172647,1,2,0:0:0:0:
256,192,173170,12,0,177356,0:0:0:0:
256,192,178053,6,0,L|320:192,2,51.9749998413849
256,192,178751,12,0,182937,0:0:0:0:
256,192,184333,5,4,0:0:0:0:
256,192,184681,1,4,0:0:0:0:
256,192,185205,1,4,0:0:0:0:
256,192,187123,1,4,0:0:0:0:
256,192,187472,1,4,0:0:0:0:
256,192,187995,1,4,0:0:0:0:
256,192,189914,1,4,0:0:0:0:
256,192,190263,1,4,0:0:0:0:
256,192,190786,1,4,0:0:0:0:
256,192,192705,1,4,0:0:0:0:
256,192,193053,1,4,0:0:0:0:
256,192,193577,1,4,0:0:0:0:
256,192,195495,1,4,0:0:0:0:
256,192,195844,1,4,0:0:0:0:
256,192,196106,1,2,0:0:0:0:
256,192,196367,1,4,0:0:0:0:
256,192,196891,1,2,0:0:0:0:
256,192,197123,1,0,0:0:0:0:
256,192,197472,1,0,0:0:0:0:
256,192,198286,1,4,0:0:0:0:
256,192,198635,1,4,0:0:0:0:
256,192,198984,1,2,0:0:0:0:
256,192,199158,1,4,0:0:0:0:
256,192,199681,1,2,0:0:0:0:
256,192,199914,1,0,0:0:0:0:
256,192,200234,1,2,0:0:0:0:
256,192,200307,1,2,0:0:0:0:
256,192,200379,1,0,0:0:0:0:
256,192,200553,1,2,0:0:0:0:
256,192,200728,1,2,0:0:0:0:
256,192,200902,1,0,0:0:0:0:
256,192,201077,1,4,0:0:0:0:
256,192,201426,1,4,0:0:0:0:
256,192,201774,1,2,0:0:0:0:
256,192,201949,1,4,0:0:0:0:
256,192,202472,1,2,0:0:0:0:
256,192,202705,1,0,0:0:0:0:
256,192,203053,1,0,0:0:0:0:
256,192,203867,1,4,0:0:0:0:
256,192,204216,1,4,0:0:0:0:
256,192,204565,1,2,0:0:0:0:
256,192,204740,1,4,0:0:0:0:
256,192,205263,1,2,0:0:0:0:
256,192,205786,1,0,0:0:0:0:
256,192,205844,1,0,0:0:0:0:
256,192,205902,1,0,0:0:0:0:
256,192,205960,1,2,0:0:0:0:
256,192,206135,1,2,0:0:0:0:
256,192,206309,1,0,0:0:0:0:
256,192,206658,1,4,0:0:0:0:
256,192,207007,1,2,0:0:0:0:
256,192,207181,1,4,0:0:0:0:
256,192,207530,1,2,0:0:0:0:
256,192,207705,1,4,0:0:0:0:
256,192,208053,1,4,0:0:0:0:
256,192,208402,1,2,0:0:0:0:
256,192,208577,1,4,0:0:0:0:
256,192,208926,1,2,0:0:0:0:
256,192,209100,1,4,0:0:0:0:
256,192,209449,1,4,0:0:0:0:
256,192,209798,1,2,0:0:0:0:
256,192,209972,1,4,0:0:0:0:
256,192,210321,1,2,0:0:0:0:
256,192,210495,1,4,0:0:0:0:
256,192,210844,1,4,0:0:0:0:
256,192,211193,1,2,0:0:0:0:
256,192,211367,1,4,0:0:0:0:
256,192,211716,1,2,0:0:0:0:
256,192,211891,1,4,0:0:0:0:
256,192,212240,1,4,0:0:0:0:
256,192,212588,1,2,0:0:0:0:
256,192,212763,1,4,0:0:0:0:
256,192,213112,1,2,0:0:0:0:
256,192,213286,1,4,0:0:0:0:
256,192,213635,1,4,0:0:0:0:
256,192,213984,1,2,0:0:0:0:
256,192,214158,1,4,0:0:0:0:
256,192,214507,1,2,0:0:0:0:
256,192,214681,1,4,0:0:0:0:
256,192,215030,1,4,0:0:0:0:
256,192,215379,1,2,0:0:0:0:
256,192,215553,1,4,0:0:0:0:
256,192,215902,1,2,0:0:0:0:
256,192,216077,1,4,0:0:0:0:
256,192,216426,1,4,0:0:0:0:
256,192,216774,1,2,0:0:0:0:
256,192,216949,1,4,0:0:0:0:
256,192,217123,1,0,0:0:0:0:
256,192,217210,1,0,0:0:0:0:
256,192,217298,1,2,0:0:0:0:
256,192,217385,1,2,0:0:0:0:
256,192,217472,1,4,0:0:0:0:
256,192,217559,1,2,0:0:0:0:
256,192,217647,1,2,0:0:0:0:
256,192,217734,1,2,0:0:0:0:
256,192,217821,1,4,0:0:0:0:
256,192,218170,1,2,0:0:0:0:
256,192,218344,1,4,0:0:0:0:
256,192,218693,1,2,0:0:0:0:
256,192,218867,1,4,0:0:0:0:
256,192,219216,1,4,0:0:0:0:
256,192,219565,1,2,0:0:0:0:
256,192,219740,1,4,0:0:0:0:
256,192,220088,1,2,0:0:0:0:
256,192,220263,1,4,0:0:0:0:
256,192,220612,1,4,0:0:0:0:
256,192,220960,1,2,0:0:0:0:
256,192,221135,1,4,0:0:0:0:
256,192,221484,1,2,0:0:0:0:
256,192,221658,1,4,0:0:0:0:
256,192,222007,1,4,0:0:0:0:
256,192,222356,1,2,0:0:0:0:
256,192,222530,1,4,0:0:0:0:
256,192,222879,1,2,0:0:0:0:
256,192,223053,1,4,0:0:0:0:
256,192,223402,1,4,0:0:0:0:
256,192,223751,1,2,0:0:0:0:
256,192,223926,1,4,0:0:0:0:
256,192,224274,1,2,0:0:0:0:
256,192,224449,1,4,0:0:0:0:
256,192,224798,1,4,0:0:0:0:
256,192,225147,1,2,0:0:0:0:
256,192,225321,1,4,0:0:0:0:
256,192,225670,1,2,0:0:0:0:
256,192,225844,1,4,0:0:0:0:
256,192,226193,1,4,0:0:0:0:
256,192,226542,1,2,0:0:0:0:
256,192,226716,1,4,0:0:0:0:
256,192,227065,1,2,0:0:0:0:
256,192,227240,1,4,0:0:0:0:
256,192,227588,1,4,0:0:0:0:
256,192,227937,1,2,0:0:0:0:
256,192,228112,1,4,0:0:0:0:
256,192,228460,1,2,0:0:0:0:
256,192,228635,1,4,0:0:0:0:
256,192,228984,1,4,0:0:0:0:
256,192,229333,1,2,0:0:0:0:
256,192,229507,1,4,0:0:0:0:
256,192,229681,1,2,0:0:0:0:
256,192,229856,1,2,0:0:0:0:
256,192,230030,1,4,0:0:0:0:
256,192,230379,1,4,0:0:0:0:
256,192,230728,1,2,0:0:0:0:
256,192,230902,1,4,0:0:0:0:
256,192,231251,1,2,0:0:0:0:
256,192,231426,1,4,0:0:0:0:
256,192,231600,1,2,0:0:0:0:
256,192,231774,1,4,0:0:0:0:
256,192,232123,1,2,0:0:0:0:
256,192,232298,1,4,0:0:0:0:
256,192,232647,1,2,0:0:0:0:
256,192,232821,1,4,0:0:0:0:
256,192,233170,1,4,0:0:0:0:
256,192,233519,1,2,0:0:0:0:
256,192,233693,1,4,0:0:0:0:
256,192,234042,1,2,0:0:0:0:
256,192,234216,1,4,0:0:0:0:
256,192,234565,1,4,0:0:0:0:
256,192,234914,1,2,0:0:0:0:
256,192,235088,1,4,0:0:0:0:
256,192,235263,1,2,0:0:0:0:
256,192,235437,1,2,0:0:0:0:
256,192,235612,1,4,0:0:0:0:
256,192,235960,1,4,0:0:0:0:
256,192,236309,1,2,0:0:0:0:
256,192,236484,1,4,0:0:0:0:
256,192,236658,1,2,0:0:0:0:
256,192,236833,1,2,0:0:0:0:
256,192,237007,1,4,0:0:0:0:
256,192,237356,1,4,0:0:0:0:
256,192,237705,1,2,0:0:0:0:
256,192,237879,1,4,0:0:0:0:
256,192,238053,1,2,0:0:0:0:
256,192,238228,1,2,0:0:0:0:
256,192,238402,1,4,0:0:0:0:
256,192,238751,1,4,0:0:0:0:
256,192,239100,1,2,0:0:0:0:
256,192,239274,1,4,0:0:0:0:
256,192,239623,1,2,0:0:0:0:
256,192,239798,1,4,0:0:0:0:
256,192,239972,1,2,0:0:0:0:
256,192,240147,1,4,0:0:0:0:
256,192,240495,1,2,0:0:0:0:
256,192,240670,1,4,0:0:0:0:
256,192,240844,1,2,0:0:0:0:
256,192,241019,1,2,0:0:0:0:
256,192,241193,1,4,0:0:0:0:
256,192,241542,1,4,0:0:0:0:
256,192,241891,1,2,0:0:0:0:
256,192,242065,1,4,0:0:0:0:
256,192,242240,1,2,0:0:0:0:
256,192,242414,1,2,0:0:0:0:
256,192,242588,1,4,0:0:0:0:
256,192,242937,1,4,0:0:0:0:
256,192,243286,1,2,0:0:0:0:
256,192,243460,1,4,0:0:0:0:
256,192,243635,1,2,0:0:0:0:
256,192,243809,1,2,0:0:0:0:
256,192,243984,1,4,0:0:0:0:
256,192,244333,1,4,0:0:0:0:
256,192,244681,1,2,0:0:0:0:
256,192,244856,1,4,0:0:0:0:
256,192,245030,1,2,0:0:0:0:
256,192,245205,1,2,0:0:0:0:
256,192,245379,1,4,0:0:0:0:
256,192,245728,1,4,0:0:0:0:
256,192,246077,1,2,0:0:0:0:
256,192,246251,1,4,0:0:0:0:
256,192,246426,1,2,0:0:0:0:
256,192,246600,1,2,0:0:0:0:
256,192,246774,1,4,0:0:0:0:
256,192,247123,1,4,0:0:0:0:
256,192,247472,1,2,0:0:0:0:
256,192,247647,1,4,0:0:0:0:
256,192,247821,1,2,0:0:0:0:
256,192,247995,1,2,0:0:0:0:
256,192,248170,1,4,0:0:0:0:
256,192,248519,1,4,0:0:0:0:
256,192,248693,1,0,0:0:0:0:
256,192,248867,1,2,0:0:0:0:
256,192,249042,1,4,0:0:0:0:
256,192,249216,1,2,0:0:0:0:
256,192,249391,1,2,0:0:0:0:
256,192,249565,1,4,0:0:0:0:
256,192,249914,1,4,0:0:0:0:
256,192,250088,1,0,0:0:0:0:
256,192,250263,1,2,0:0:0:0:
256,192,250437,1,4,0:0:0:0:
256,192,250612,1,2,0:0:0:0:
256,192,250786,1,2,0:0:0:0:
256,192,250960,1,4,0:0:0:0:
256,192,251309,1,6,0:0:0:0:
256,192,251484,1,0,0:0:0:0:
256,192,251658,1,2,0:0:0:0:
256,192,251833,1,2,0:0:0:0:
256,192,252007,1,0,0:0:0:0:
256,192,252181,1,2,0:0:0:0:
256,192,252356,1,0,0:0:0:0:
256,192,252530,1,0,0:0:0:0:
256,192,252705,1,2,0:0:0:0:
256,192,252879,1,0,0:0:0:0:
256,192,253053,1,2,0:0:0:0:
256,192,253228,1,2,0:0:0:0:
256,192,253402,1,0,0:0:0:0:
256,192,253577,1,0,0:0:0:0:
256,192,253751,1,2,0:0:0:0:
256,192,253926,1,0,0:0:0:0:
256,192,254100,1,2,0:0:0:0:
256,192,254274,1,2,0:0:0:0:
256,192,254449,1,0,0:0:0:0:
256,192,254623,1,0,0:0:0:0:
256,192,254798,1,2,0:0:0:0:
256,192,254972,1,0,0:0:0:0:
256,192,255147,1,2,0:0:0:0:
256,192,255321,1,2,0:0:0:0:
256,192,255495,1,2,0:0:0:0:
256,192,255670,1,0,0:0:0:0:
256,192,255844,1,2,0:0:0:0:
256,192,256019,1,0,0:0:0:0:
256,192,256193,1,2,0:0:0:0:
256,192,256367,1,2,0:0:0:0:
256,192,256542,1,0,0:0:0:0:
256,192,256716,1,0,0:0:0:0:
256,192,256891,1,0,0:0:0:0:
256,192,257065,1,0,0:0:0:0:
256,192,257240,1,2,0:0:0:0:
256,192,257414,1,0,0:0:0:0:
256,192,257588,1,2,0:0:0:0:
256,192,257763,1,2,0:0:0:0:
256,192,257937,1,0,0:0:0:0:
256,192,258112,1,0,0:0:0:0:
256,192,258286,1,2,0:0:0:0:
256,192,258460,1,0,0:0:0:0:
256,192,258635,1,2,0:0:0:0:
256,192,258809,1,2,0:0:0:0:
256,192,258984,1,0,0:0:0:0:
256,192,259158,1,0,0:0:0:0:
256,192,259333,1,2,0:0:0:0:
256,192,259507,1,0,0:0:0:0:
256,192,259681,1,2,0:0:0:0:
256,192,259856,1,2,0:0:0:0:
256,192,260030,1,0,0:0:0:0:
256,192,260205,1,0,0:0:0:0:
256,192,260379,1,2,0:0:0:0:
256,192,260553,1,0,0:0:0:0:
256,192,260728,1,2,0:0:0:0:
256,192,260902,1,2,0:0:0:0:
256,192,261077,1,2,0:0:0:0:
256,192,261251,1,0,0:0:0:0:
256,192,261426,1,2,0:0:0:0:
256,192,261600,1,0,0:0:0:0:
256,192,261774,1,2,0:0:0:0:
256,192,261949,1,2,0:0:0:0:
256,192,262123,1,0,0:0:0:0:
256,192,262298,1,0,0:0:0:0:
256,192,262472,1,2,0:0:0:0:
256,192,262647,1,0,0:0:0:0:
256,192,262821,1,2,0:0:0:0:
256,192,262995,1,0,0:0:0:0:
256,192,263170,1,2,0:0:0:0:
256,192,263344,1,2,0:0:0:0:
256,192,263519,1,0,0:0:0:0:
256,192,263693,1,0,0:0:0:0:
256,192,263867,1,2,0:0:0:0:
256,192,264042,1,0,0:0:0:0:
256,192,264216,1,2,0:0:0:0:
256,192,264391,1,2,0:0:0:0:
256,192,264565,1,0,0:0:0:0:
256,192,264740,1,0,0:0:0:0:
256,192,264914,1,2,0:0:0:0:
256,192,265088,1,0,0:0:0:0:
256,192,265263,1,2,0:0:0:0:
256,192,265437,1,2,0:0:0:0:
256,192,265612,1,0,0:0:0:0:
256,192,265786,1,0,0:0:0:0:
256,192,265960,1,2,0:0:0:0:
256,192,266135,1,0,0:0:0:0:
256,192,266309,1,2,0:0:0:0:
256,192,266484,1,2,0:0:0:0:
256,192,266658,1,0,0:0:0:0:
256,192,266833,1,0,0:0:0:0:
256,192,267007,1,2,0:0:0:0:
256,192,267181,1,0,0:0:0:0:
256,192,267356,1,2,0:0:0:0:
256,192,267530,1,2,0:0:0:0:
256,192,267705,1,0,0:0:0:0:
256,192,267879,1,0,0:0:0:0:
256,192,268053,1,2,0:0:0:0:
256,192,268228,1,0,0:0:0:0:
256,192,268402,1,2,0:0:0:0:
256,192,268577,1,0,0:0:0:0:
256,192,268751,1,2,0:0:0:0:
256,192,268926,1,2,0:0:0:0:
256,192,269100,1,0,0:0:0:0:
256,192,269274,1,0,0:0:0:0:
256,192,269449,1,2,0:0:0:0:
256,192,269623,1,0,0:0:0:0:
256,192,269798,1,2,0:0:0:0:
256,192,269972,1,2,0:0:0:0:
256,192,270147,1,0,0:0:0:0:
256,192,270321,1,0,0:0:0:0:
256,192,270495,1,2,0:0:0:0:
256,192,270670,1,0,0:0:0:0:
256,192,270844,1,2,0:0:0:0:
256,192,271019,1,2,0:0:0:0:
256,192,271193,1,0,0:0:0:0:
256,192,271367,1,0,0:0:0:0:
256,192,271542,1,2,0:0:0:0:
256,192,271716,1,0,0:0:0:0:
256,192,271891,1,2,0:0:0:0:
256,192,272065,1,2,0:0:0:0:
256,192,272240,1,0,0:0:0:0:
256,192,272414,1,0,0:0:0:0:
256,192,272588,1,2,0:0:0:0:
256,192,272763,1,0,0:0:0:0:
256,192,272937,1,2,0:0:0:0:
256,192,273112,1,2,0:0:0:0:
256,192,273286,1,0,0:0:0:0:
256,192,273460,1,0,0:0:0:0:
256,192,273635,1,2,0:0:0:0:
256,192,273809,12,0,283402,0:0:0:0:
