osu file format v14

[General]
AudioFilename: audio.mp3
AudioLeadIn: 0
PreviewTime: 86807
Countdown: 0
SampleSet: Soft
StackLeniency: 0.3
Mode: 0
LetterboxInBreaks: 0
WidescreenStoryboard: 0

[Editor]
Bookmarks: 18714,57078,88179,126541,168392,208788
DistanceSpacing: 1
BeatDivisor: 2
GridSize: 32
TimelineZoom: 5.299997

[Metadata]
Title:XO
TitleUnicode:XO
Artist:Fall Out Boy
ArtistUnicode:Fall Out Boy
Creator:keevy
Version:Insane
Source:
Tags:english rock from under the cork tree fob fallout punk pop emo pop-punk Patrick Stump Joe Trohman Pete Wentz Andy Hurley
BeatmapID:3554307
BeatmapSetID:1739083

[Difficulty]
HPDrainRate:5
CircleSize:4
OverallDifficulty:8
ApproachRate:9.2
SliderMultiplier:1.5
SliderTickRate:1

[Events]
//Background and Video events
0,0,"bg.jpg",0,0
//Break Periods
//Storyboard Layer 0 (Background)
//Storyboard Layer 1 (Fail)
//Storyboard Layer 2 (Pass)
//Storyboard Layer 3 (Foreground)
//Storyboard Layer 4 (Overlay)
//Storyboard Sound Samples

[TimingPoints]
407,228.136882129278,4,2,1,35,1,0
423,229.007633587787,4,2,1,35,1,0
423,-133.333333333333,4,2,1,35,0,0
2255,231.660231660232,4,2,1,35,1,0
2255,-133.333333333333,4,2,1,35,0,0
3181,228.136882129278,4,2,1,35,1,0
3181,-133.333333333333,4,2,1,35,0,0
5918,230.769230769231,4,2,1,35,1,0
5918,-133.333333333333,4,2,1,35,0,0
6841,228.136882129278,4,2,1,35,1,0
6841,-133.333333333333,4,2,1,35,0,0
12316,232.558139534884,4,2,1,35,1,0
12316,-133.333333333333,4,2,1,35,0,0
13246,229.007633587786,4,2,1,35,1,0
13246,-133.333333333333,4,2,1,35,0,0
14162,228.136882129278,4,2,1,35,1,0
14162,-133.333333333333,4,2,1,35,0,0
16899,225.563909774436,4,2,1,35,1,0
16899,-133.333333333333,4,2,1,35,0,0
17801,228.136882129278,4,2,1,55,1,0
18714,228.136882129278,4,2,1,70,1,0
23276,229.885057471264,4,2,1,70,1,0
26954,227.272727272727,4,2,1,70,1,0
27863,228.136882129278,4,2,1,70,1,0
30600,228.571428571429,4,2,1,70,1,0
31514,229.007633587786,4,2,1,70,1,0
33346,-133.333333333333,4,2,1,55,0,0
34262,226.415094339623,4,2,1,55,1,0
34262,-133.333333333333,4,2,1,55,0,0
36073,226.843100189036,4,2,1,55,1,0
36073,-133.333333333333,4,2,1,55,0,0
40156,-133.333333333333,4,2,1,65,0,0
40609,228.745711017918,4,2,1,70,1,0
69888,228.641109671519,4,2,1,50,1,0
69888,-111.111111111111,4,2,1,50,0,0
87264,-111.111111111111,4,2,1,40,0,0
87722,-100,4,2,1,70,0,0
102812,227.100681302044,4,2,1,55,1,0
102812,-133.333333333333,4,2,1,55,0,0
109625,-133.333333333333,4,2,1,65,0,0
110079,228.641109671519,4,2,1,70,1,0
139345,228.83295194508,4,2,1,50,1,0
143921,226.073850791259,4,2,1,50,1,0
143921,-200,4,2,1,50,0,0
148442,-250,4,2,1,50,0,0
150251,-133.333333333333,4,2,1,55,0,0
151155,-111.111111111111,4,2,1,60,0,0
152059,-100,4,2,1,65,0,0
152511,-100,4,2,1,70,0,0
152963,-90.9090909090909,4,2,1,75,0,0
153416,-90.9090909090909,4,2,1,80,0,0
153868,226.946062485816,4,2,1,60,1,0
153868,-133.333333333333,4,2,1,60,0,0
204703,-133.333333333333,4,2,1,45,0,0
205611,-133.333333333333,4,2,1,50,0,0
210150,-133.333333333333,4,2,1,40,0,0
211966,-133.333333333333,4,2,1,20,0,0
212873,-133.333333333333,4,2,1,10,0,0
214462,-133.333333333333,4,2,1,5,0,0

[Colours]
Combo1 : 175,175,175
Combo2 : 255,255,115
Combo3 : 255,77,77

[HitObjects]
100,273,423,6,0,P|106:300|108:329,5,56.2500021457673,0|2|2|2|2|2,0:0|0:0|0:0|0:0|0:0|0:0,0:0:0:0:
29,336,1110,2,0,P|23:308|21:280,1,56.2500021457673,2|2,0:0|0:0,0:0:0:0:
99,195,1339,2,0,P|71:199|43:200,5,56.2500021457673,2|2|2|2|2|2,0:0|0:0|0:0|0:0|0:0|0:0,0:0:0:0:
42,121,2026,2,0,P|69:116|97:115,1,56.2500021457673,2|2,0:0|0:0,0:0:0:0:
206,130,2255,6,0,P|192:85|199:14,1,112.500004291535,2|0,0:0|0:0,0:0:0:0:
295,142,2602,2,0,P|309:187|301:258,1,112.500004291535,2|0,0:0|0:0,0:0:0:0:
260,324,2949,2,0,P|235:309|194:302,1,56.2500021457673,2|0,0:0|0:0,0:0:0:0:
114,262,3181,6,0,P|150:248|174:216,5,56.2500021457673,2|2|2|2|2|2,0:0|0:0|0:0|0:0|0:0|0:0,0:0:0:0:
76,195,3865,2,0,P|98:178|125:170,1,56.2500021457673,2|0,0:0|0:0,0:0:0:0:
140,71,4093,6,0,P|191:116|249:122,1,112.500004291535,2|0,0:0|0:0,0:0:0:0:
250,196,4435,2,0,P|305:200|355:176,1,112.500004291535,2|0,0:0|0:0,0:0:0:0:
396,48,4777,2,0,L|412:122,1,56.2500021457673,2|0,0:0|0:0,0:0:0:0:
377,285,5006,6,0,L|352:158,1,112.500004291535,2|0,0:0|0:0,0:0:0:0:
289,126,5348,1,2,0:0:0:0:
250,196,5462,2,0,L|179:184,1,56.2500021457673,2|0,0:0|0:0,0:0:0:0:
136,88,5690,2,0,L|191:97,1,56.2500021457673,2|0,0:0|0:0,0:0:0:0:
84,154,5918,6,0,P|52:96|77:33,2,112.500004291535,2|0|2,0:0|0:0|0:0,0:0:0:0:
66,243,6494,1,0,0:0:0:0:
66,243,6610,2,0,L|137:229,1,56.2500021457673,2|0,0:0|0:0,0:0:0:0:
305,181,6841,6,0,P|259:199|189:310,1,168.750006437302,2|2,0:0|0:0,0:0:0:0:
119,317,7297,2,0,P|131:345|155:369,1,56.2500021457673,2|0,0:0|0:0,0:0:0:0:
222,382,7525,2,0,P|268:376|284:360,1,56.2500021457673,2|0,0:0|0:0,0:0:0:0:
357,378,7753,6,0,L|374:241,1,112.500004291535,2|0,0:0|0:0,0:0:0:0:
419,195,8095,1,2,0:0:0:0:
419,195,8209,2,0,L|346:180,1,56.2500021457673,2|0,0:0|0:0,0:0:0:0:
245,243,8437,2,0,L|318:228,1,56.2500021457673,2|0,0:0|0:0,0:0:0:0:
449,119,8666,6,0,L|262:87,1,168.750006437302,2|2,0:0|0:0,0:0:0:0:
202,93,9122,2,0,L|217:30,1,56.2500021457673,2|0,0:0|0:0,0:0:0:0:
137,20,9350,2,0,L|123:74,1,56.2500021457673,2|0,0:0|0:0,0:0:0:0:
30,111,9578,6,0,P|72:133|108:199,1,112.500004291535,2|0,0:0|0:0,0:0:0:0:
177,139,9920,2,0,P|195:182|180:256,1,112.500004291535,2|0,0:0|0:0,0:0:0:0:
117,358,10263,2,0,P|112:324|119:298,1,56.2500021457673,2|0,0:0|0:0,0:0:0:0:
185,245,10491,6,0,L|242:240,5,56.2500021457673,2|2|2|2|2|2,0:0|0:0|0:0|0:0|0:0|0:0,0:0:0:0:
199,325,11175,2,0,L|265:318,1,56.2500021457673,2|0,0:0|0:0,0:0:0:0:
333,261,11403,6,0,P|313:203|315:86,1,168.750006437302,2|0,0:0|0:0,0:0:0:0:
396,90,11860,2,0,P|389:62|373:39,1,56.2500021457673,0|0,3:2|3:2,0:0:0:0:
231,90,12088,2,0,P|237:62|253:39,1,56.2500021457673,2|0,3:2|3:2,0:0:0:0:
286,186,12316,6,0,P|246:172|110:161,1,168.750006437302,2|0,0:2|0:0,0:0:0:0:
67,101,12781,2,0,P|99:85|133:82,1,56.2500021457673,0|0,3:2|3:2,0:0:0:0:
120,241,13013,2,0,P|92:235|68:221,1,56.2500021457673,0|0,3:2|3:2,0:0:0:0:
198,148,13246,6,0,L|209:215,1,56.2500021457673,2|0,0:0|0:0,0:0:0:0:
132,344,13475,2,0,P|178:309|293:303,1,168.750006437302
373,349,13933,2,0,L|361:288,1,56.2500021457673,2|0,3:2|0:0,0:0:0:0:
402,180,14162,6,0,P|436:161|466:160,5,56.2500021457673,0|0|0|0|0|0,3:2|3:2|3:2|3:2|3:2|3:2,0:0:0:0:
481,230,14846,2,0,P|447:249|417:250,1,56.2500021457673,2|0,3:2|3:2,0:0:0:0:
329,216,15074,6,0,P|266:190|144:191,1,168.750006437302,2|0,0:0|0:0,0:0:0:0:
115,246,15530,2,0,P|93:215|87:191,1,56.2500021457673,0|0,3:2|3:2,0:0:0:0:
205,103,15758,2,0,P|227:133|233:158,1,56.2500021457673,2|0,3:2|0:0,0:0:0:0:
261,312,15987,6,0,L|192:299,1,56.2500021457673,2|0,0:0|0:0,0:0:0:0:
345,248,16215,2,0,L|276:235,1,56.2500021457673
419,193,16443,2,0,L|488:180,1,56.2500021457673,2|0,0:0|0:0,0:0:0:0:
335,129,16671,2,0,L|404:116,1,56.2500021457673
221,27,16899,6,0,L|238:92,1,56.2500021457673,2|0,3:2|0:0,0:0:0:0:
154,102,17124,2,0,L|139:47,1,56.2500021457673,2|0,3:2|0:0,0:0:0:0:
229,195,17350,2,0,L|100:174,1,112.500004291535,0|2,3:2|3:2,0:0:0:0:
117,176,17801,6,0,L|100:262,1,75,10|8,0:0|0:1,0:0:0:0:
110,351,18029,2,0,L|210:370,1,75,8|8,0:0|0:1,0:0:0:0:
226,294,18257,1,10,0:0:0:0:
295,265,18371,1,8,0:0:0:0:
369,270,18485,1,10,0:0:0:0:
433,307,18599,1,8,0:0:0:0:
467,378,18713,6,0,L|456:286,1,75,14|0,0:1|0:0,0:0:0:0:
491,206,18942,2,0,L|324:184,1,150,10|0,0:0|0:0,0:0:0:0:
231,102,19284,1,8,0:1:0:0:
288,50,19398,2,0,P|306:91|303:130,1,75,10|0,0:0|0:0,0:0:0:0:
165,148,19626,6,0,P|147:107|150:68,1,75,10|0,0:1|0:0,0:0:0:0:
75,189,19854,2,0,P|171:188|223:241,1,150,8|0,0:0|0:0,0:0:0:0:
200,304,20196,1,0,0:0:0:0:
117,334,20310,2,0,L|127:245,1,75,8|0,0:0|0:0,0:0:0:0:
288,160,20539,6,0,L|296:234,1,75,10|0,0:1|0:0,0:0:0:0:
347,328,20767,2,0,L|192:302,1,150,8|2,0:0|0:0,0:0:0:0:
125,259,21109,1,8,0:1:0:0:
50,246,21223,2,0,P|64:212|91:187,1,75,8|0,0:0|0:0,0:0:0:0:
0,117,21451,6,0,L|96:96,1,75,10|0,0:1|0:0,0:0:0:0:
185,4,21679,2,0,P|158:67|178:164,1,150,8|8,0:0|0:1,0:0:0:0:
309,104,22021,1,8,0:1:0:0:
286,25,22136,2,0,P|248:48|230:82,1,75,8|8,0:0|0:1,0:0:0:0:
113,240,22364,6,0,L|202:223,1,75,10|0,0:1|0:0,0:0:0:0:
408,185,22592,2,0,L|241:177,1,150,8|8,0:0|0:1,0:0:0:0:
186,225,22934,1,8,0:1:0:0:
142,316,23048,2,0,L|232:295,1,75,10|0,0:0|0:0,0:0:0:0:
295,337,23276,6,0,P|300:293|283:249,1,75,10|0,0:1|0:0,0:0:0:0:
408,185,23505,2,0,P|401:247|424:350,1,150,8|8,0:0|0:1,0:0:0:0:
487,217,23850,1,8,0:1:0:0:
487,217,23965,2,0,P|490:156|482:131,1,75,10|8,0:0|0:1,0:0:0:0:
403,19,24195,6,0,L|416:106,1,75,10|0,0:1|0:0,0:0:0:0:
340,163,24425,2,0,L|186:144,1,150,8|10,0:0|0:1,0:0:0:0:
110,156,24770,1,8,0:1:0:0:
169,222,24885,2,0,L|250:233,1,75,10|0,0:0|0:0,0:0:0:0:
117,73,25115,6,0,P|74:80|33:117,1,75,10|8,0:1|0:1,0:0:0:0:
110,156,25344,2,0,P|148:83|231:53,1,150,10|10,0:0|0:0,0:0:0:0:
268,4,25689,1,8,0:0:0:0:
342,11,25804,1,10,0:0:0:0:
399,59,25919,1,8,0:0:0:0:
428,128,26034,6,0,L|415:215,1,75,14|0,0:1|0:0,0:0:0:0:
349,286,26264,2,0,B|325:254|325:254|343:134,1,150,8|0,0:0|0:0,0:0:0:0:
266,104,26609,1,8,0:1:0:0:
266,104,26724,2,0,L|252:189,1,75,10|0,0:0|0:0,0:0:0:0:
197,310,26954,6,0,L|95:291,1,75,10|0,0:1|0:0,0:0:0:0:
19,196,27181,2,0,L|192:224,1,150,8|0,0:0|0:0,0:0:0:0:
253,178,27522,1,8,0:1:0:0:
314,233,27635,2,0,P|332:191|323:146,1,75,10|0,0:0|0:0,0:0:0:0:
279,30,27863,6,0,L|262:122,1,75,8|0,0:1|0:0,0:0:0:0:
314,233,28091,2,0,L|467:255,1,150,8|2,0:0|0:0,0:0:0:0:
464,341,28433,1,8,0:1:0:0:
464,341,28547,2,0,L|382:328,1,75,10|0,0:0|0:0,0:0:0:0:
314,233,28775,6,0,P|295:275|295:327,1,75,10|0,0:1|0:0,0:0:0:0:
196,362,29003,2,0,P|214:302|207:205,1,150,8|8,0:0|0:1,0:0:0:0:
142,162,29345,1,10,0:1:0:0:
142,162,29459,2,0,P|129:111|134:77,1,75,8|8,0:0|0:0,0:0:0:0:
266,27,29688,6,0,L|188:38,1,75,10|0,0:1|0:0,0:0:0:0:
57,107,29916,2,0,L|220:124,1,150,8|10,0:0|0:1,0:0:0:0:
286,175,30258,1,8,0:1:0:0:
286,175,30372,2,0,L|296:93,1,75,8|0,0:0|0:0,0:0:0:0:
209,215,30600,6,0,L|199:289,1,75,10|0,0:1|0:0,0:0:0:0:
339,384,30828,2,0,P|297:354|285:250,1,150,8|8,0:0|0:1,0:0:0:0:
365,224,31171,1,8,0:1:0:0:
365,224,31285,2,0,L|353:310,1,75,10|0,0:0|0:0,0:0:0:0:
339,384,31514,6,0,P|289:374|246:378,1,75,8|0,0:1|0:0,0:0:0:0:
91,366,31743,2,0,P|143:362|200:283,1,150,8|8,0:0|0:1,0:0:0:0:
193,210,32086,1,8,0:1:0:0:
193,210,32201,2,0,P|145:226|122:260,1,75,8|8,0:0|0:1,0:0:0:0:
91,366,32430,5,12,0:1:0:0:
42,300,32544,2,0,L|-5:311,2,37.5,8|8|10,0:0|0:0|0:0,0:0:0:0:
52,222,32773,2,0,L|34:133,1,75,8|10,0:0|0:0,0:0:0:0:
64,62,33002,1,8,0:3:0:0:
82,58,33117,1,6,0:3:0:0:
100,53,33231,1,4,0:3:0:0:
166,6,33346,6,0,P|148:66|150:133,1,112.500004291535,14|0,0:1|0:0,0:0:0:0:
242,285,33804,1,2,0:3:0:0:
377,143,34033,1,2,0:3:0:0:
377,143,34262,6,0,P|335:128|256:121,1,112.500004291535,10|0,0:0|0:0,0:0:0:0:
94,173,34714,1,2,0:3:0:0:
204,341,34941,1,2,0:3:0:0:
204,341,35167,6,0,L|226:226,1,112.500004291535,10|0,0:1|0:0,0:0:0:0:
289,180,35620,2,0,P|236:153|174:169,1,112.500004291535,2|8,0:3|0:1,0:0:0:0:
185,162,36073,5,10,0:0:0:0:
408,110,36299,1,8,0:1:0:0:
267,3,36526,1,2,0:3:0:0:
267,3,36753,2,0,L|278:73,1,56.2500021457673,8|0,0:1|0:0,0:0:0:0:
294,172,36980,6,0,P|238:156|178:163,2,112.500004291535,14|0|2,0:1|0:0|0:3,0:0:0:0:
395,335,37660,1,10,0:1:0:0:
395,335,37887,6,0,L|418:200,2,112.500004291535,10|0|2,0:0|0:0|0:3,0:0:0:0:
218,373,38568,1,10,0:1:0:0:
218,373,38795,6,0,P|204:325|206:249,1,112.500004291535,10|0,0:1|0:0,0:0:0:0:
304,24,39248,2,0,P|316:61|317:88,1,56.2500021457673,2|0,0:3|0:0,0:0:0:0:
235,93,39475,2,0,P|223:56|222:29,1,56.2500021457673,10|0,0:1|0:0,0:0:0:0:
317,78,39702,6,0,L|247:94,1,56.2500021457673,8|0,0:0|0:0,0:0:0:0:
157,108,39929,1,10,0:0:0:0:
106,168,40042,1,8,0:0:0:0:
128,244,40156,1,10,0:0:0:0:
144,244,40269,1,8,0:3:0:0:
159,243,40383,1,4,0:3:0:0:
172,243,40496,1,4,0:3:0:0:
182,319,40609,6,0,L|189:226,1,75,14|0,0:1|0:0,0:0:0:0:
265,138,40837,2,0,L|259:212,1,75,10|0,0:0|0:0,0:0:0:0:
115,158,41066,2,0,L|208:165,1,75,2|8,0:0|0:1,0:0:0:0:
334,293,41294,2,0,L|259:287,1,75,10|0,0:0|0:0,0:0:0:0:
101,300,41523,6,0,P|81:254|87:214,1,75,10|0,0:1|0:0,0:0:0:0:
96,79,41752,2,0,L|259:95,1,150,8|0,0:0|0:0,0:0:0:0:
265,19,42095,1,8,0:1:0:0:
265,19,42210,2,0,L|186:12,1,75,10|8,0:0|0:1,0:0:0:0:
305,147,42438,6,0,P|322:103|314:61,1,75,8|0,0:1|0:0,0:0:0:0:
176,115,42667,2,0,L|194:209,2,75,10|2|2,0:0|0:0|0:0,0:0:0:0:
79,67,43010,1,8,0:1:0:0:
79,67,43125,2,0,L|96:152,1,75,10|0,0:0|0:0,0:0:0:0:
34,250,43353,6,0,L|118:222,1,75,10|8,0:1|0:1,0:0:0:0:
240,266,43582,2,0,P|178:225|83:234,1,150,10|10,0:0|0:1,0:0:0:0:
58,334,43925,1,0,0:0:0:0:
58,334,44040,2,0,L|147:305,1,75,10|0,0:0|0:0,0:0:0:0:
261,337,44268,6,0,L|236:252,1,75,8|0,0:1|0:0,0:0:0:0:
346,129,44497,2,0,L|325:291,1,150,10|8,0:0|0:1,0:0:0:0:
401,353,44840,1,8,0:1:0:0:
468,310,44955,2,0,P|441:287|384:279,1,75,10|8,0:0|0:1,0:0:0:0:
314,203,45183,6,0,L|218:216,1,75,8|0,0:1|0:0,0:0:0:0:
185,293,45412,2,0,L|30:269,1,150,10|8,0:0|0:1,0:0:0:0:
41,188,45755,1,8,0:1:0:0:
41,188,45870,2,0,L|149:205,1,75,10|8,0:0|0:1,0:0:0:0:
187,67,46098,6,0,P|169:106|173:157,1,75,8|0,0:1|0:0,0:0:0:0:
239,213,46327,2,0,L|276:52,1,150,10|8,0:0|0:1,0:0:0:0:
361,28,46670,1,8,0:1:0:0:
361,28,46785,2,0,L|343:115,1,75,10|8,0:0|0:1,0:0:0:0:
409,192,47013,6,0,L|319:175,1,75,8|0,0:1|0:0,0:0:0:0:
175,276,47242,2,0,L|330:253,1,150,10|8,0:0|0:1,0:0:0:0:
343,330,47585,1,8,0:1:0:0:
343,330,47700,2,0,L|257:341,1,75,8|8,0:0|0:1,0:0:0:0:
115,331,47928,6,0,P|95:292|100:247,1,75,10|0,0:1|0:0,0:0:0:0:
12,211,48157,2,0,P|67:174|157:186,1,150,8|2,0:0|0:0,0:0:0:0:
231,198,48500,1,0,0:0:0:0:
273,123,48615,2,0,L|191:122,1,75,8|0,0:0|0:0,0:0:0:0:
128,14,48843,6,0,L|124:101,1,75,10|0,0:1|0:0,0:0:0:0:
29,114,49072,2,0,L|59:266,1,150,8|10,0:0|0:1,0:0:0:0:
34,337,49415,1,8,0:1:0:0:
122,356,49530,2,0,L|130:270,1,75,8|8,0:0|0:1,0:0:0:0:
243,187,49758,6,0,P|213:208|195:255,1,75,8|0,0:1|0:0,0:0:0:0:
260,337,49987,2,0,P|315:298|349:210,1,150,8|2,0:0|0:0,0:0:0:0:
401,158,50330,1,8,0:1:0:0:
401,158,50445,2,0,P|356:140|314:147,1,75,8|0,0:0|0:0,0:0:0:0:
496,58,50673,6,0,P|451:76|409:69,1,75,10|0,0:1|0:0,0:0:0:0:
335,13,50902,2,0,P|258:5|180:40,1,150,8|2,0:0|0:0,0:0:0:0:
133,96,51245,1,8,0:1:0:0:
86,22,51360,2,0,L|108:113,1,75,8|8,0:0|0:1,0:0:0:0:
22,201,51588,6,0,L|107:181,1,75,10|0,0:1|0:0,0:0:0:0:
192,254,51817,2,0,L|212:81,1,150,8|8,0:0|0:1,0:0:0:0:
291,107,52160,1,8,0:1:0:0:
291,107,52275,2,0,L|277:198,1,75,8|0,0:0|0:0,0:0:0:0:
363,287,52503,6,0,P|350:253|350:215,1,75,10|0,0:1|0:0,0:0:0:0:
413,130,52732,2,0,P|439:199|440:274,1,150,8|10,0:0|0:1,0:0:0:0:
413,363,53075,1,8,0:1:0:0:
356,313,53190,2,0,L|274:307,1,75,10|0,0:0|0:0,0:0:0:0:
165,361,53418,6,0,P|150:317|156:280,1,75,10|0,0:1|0:0,0:0:0:0:
267,225,53647,2,0,L|104:208,1,150,10|10,0:0|0:1,0:0:0:0:
117,132,53990,1,8,0:1:0:0:
117,132,54104,2,0,L|208:140,1,75,8|0,0:0|0:0,0:0:0:0:
66,267,54333,6,0,P|40:212|43:184,1,75,8|0,0:1|0:0,0:0:0:0:
18,97,54562,2,0,L|171:109,1,150,8|10,0:0|0:1,0:0:0:0:
221,39,54905,1,8,0:1:0:0:
221,39,55019,2,0,L|130:32,1,75,10|0,0:0|0:0,0:0:0:0:
260,112,55248,5,14,0:0:0:0:
451,30,55477,1,10,0:1:0:0:
467,226,55706,1,10,0:1:0:0:
260,112,55934,1,8,0:1:0:0:
394,116,56163,5,14,0:0:0:0:
394,116,56392,1,8,0:1:0:0:
394,116,56621,2,0,P|378:159|370:194,1,75,12|8,0:0|0:0,0:0:0:0:
260,112,56849,2,0,P|276:155|284:190,1,75,10|8,0:1|0:1,0:0:0:0:
258,262,57078,6,0,P|202:249|162:246,1,75,12|0,0:1|0:0,0:0:0:0:
247,343,57307,2,0,P|172:335|99:317,1,150,10|0,0:0|0:0,0:0:0:0:
22,275,57650,1,8,0:1:0:0:
94,237,57764,2,0,P|119:190|122:156,1,75,10|0,0:0|0:0,0:0:0:0:
49,16,57993,6,0,L|64:110,1,75,8|0,0:1|0:0,0:0:0:0:
122,169,58222,2,0,L|292:153,1,150,10|10,0:0|0:1,0:0:0:0:
353,181,58565,1,8,0:1:0:0:
386,82,58679,2,0,L|300:89,1,75,10|0,0:0|0:0,0:0:0:0:
277,228,58908,6,0,P|270:191|271:154,1,75,8|0,0:1|0:0,0:0:0:0:
425,12,59137,2,0,L|442:179,1,150,10|0,0:0|0:0,0:0:0:0:
492,236,59480,1,8,0:1:0:0:
492,236,59594,2,0,L|407:248,1,75,10|0,0:0|0:0,0:0:0:0:
341,361,59823,6,0,P|329:324|337:280,1,75,10|0,0:1|0:0,0:0:0:0:
198,142,60052,2,0,P|225:201|223:314,1,150,8|10,0:0|0:1,0:0:0:0:
152,345,60395,1,8,0:1:0:0:
152,345,60509,2,0,P|128:292|131:261,1,75,10|0,0:0|0:0,0:0:0:0:
24,218,60738,6,0,L|107:202,1,75,10|8,0:1|0:1,0:0:0:0:
198,142,60967,2,0,L|36:119,1,150,10|10,0:0|0:1,0:0:0:0:
13,34,61310,1,8,0:1:0:0:
13,34,61424,2,0,L|100:49,1,75,8|0,0:0|0:0,0:0:0:0:
247,73,61653,6,0,P|275:115|277:152,1,75,8|0,0:1|0:0,0:0:0:0:
367,16,61882,2,0,P|384:70|359:171,1,150,8|8,0:0|0:1,0:0:0:0:
314,234,62225,1,8,0:1:0:0:
314,234,62339,2,0,P|259:222|213:226,1,75,8|8,0:0|0:1,0:0:0:0:
216,316,62568,6,0,P|252:326|290:328,1,75,10|0,0:1|0:0,0:0:0:0:
406,384,62797,2,0,L|391:233,1,150,8|10,0:0|0:1,0:0:0:0:
462,191,63140,1,0,0:0:0:0:
462,191,63254,2,0,L|476:290,1,75,8|0,0:0|0:0,0:0:0:0:
391,234,63483,6,0,P|357:207|316:204,1,75,10|8,0:1|0:1,0:0:0:0:
274,327,63712,2,0,P|228:338|112:329,1,150,8|10,0:0|0:1,0:0:0:0:
63,381,64055,1,8,0:1:0:0:
63,381,64169,2,0,P|42:323|47:288,1,75,8|0,0:0|0:0,0:0:0:0:
0,236,64398,6,0,L|87:222,1,75,8|0,0:1|0:0,0:0:0:0:
171,248,64627,2,0,L|195:81,1,150,8|8,0:0|0:1,0:0:0:0:
94,46,64970,1,8,0:1:0:0:
94,46,65084,2,0,L|105:134,1,75,8|0,0:0|0:0,0:0:0:0:
192,99,65313,6,0,P|239:76|266:75,1,75
352,8,65542,2,0,P|438:30|493:93,1,150,8|8,0:0|0:1,0:0:0:0:
395,119,65885,1,8,0:1:0:0:
395,119,65999,2,0,P|351:119|303:138,1,75,8|0,0:0|0:0,0:0:0:0:
338,224,66228,6,0,P|382:224|430:205,1,75,8|0,0:1|0:0,0:0:0:0:
416,303,66457,2,0,P|359:273|249:282,1,150,8|0,0:0|0:0,0:0:0:0:
199,277,66800,1,8,0:1:0:0:
126,358,66914,2,0,P|117:311|127:273,1,75,8|0,0:0|0:0,0:0:0:0:
234,204,67143,6,0,L|135:190,1,75,10|0,0:1|0:0,0:0:0:0:
16,170,67372,2,0,L|43:327,1,150,8|2,0:0|0:0,0:0:0:0:
122,284,67715,1,8,0:1:0:0:
122,284,67829,2,0,L|102:194,1,75,10|0,0:0|0:0,0:0:0:0:
21,81,68058,6,0,P|81:57|120:57,1,75,10|8,0:1|0:1,0:0:0:0:
224,19,68287,2,0,P|188:66|177:168,1,150,10|2,0:0|0:0,0:0:0:0:
212,257,68630,1,8,0:1:0:0:
276,211,68744,2,0,P|301:156|296:125,1,75,8|0,0:0|0:0,0:0:0:0:
326,63,68973,6,0,L|237:64,1,75,8|0,0:1|0:0,0:0:0:0:
5,23,69202,2,0,L|79:22,1,75,8|8,0:0|0:0,0:0:0:0:
169,99,69430,1,8,0:0:0:0:
100,130,69545,1,8,0:0:0:0:
60,193,69659,1,4,0:3:0:0:
57,268,69774,1,4,0:3:0:0:
84,336,69888,6,0,L|164:325,1,67.4999979400635,14|8,0:1|0:3,0:0:0:0:
225,280,70116,2,0,L|239:354,2,67.4999979400635,8|10|8,0:3|0:3|0:0,0:0:0:0:
306,243,70459,1,8,0:3:0:0:
306,243,70573,2,0,L|291:159,1,67.4999979400635,6|4,0:3|0:3,0:0:0:0:
311,93,70802,5,8,0:1:0:0:
311,93,70916,1,0,0:0:0:0:
311,93,71031,2,0,L|231:109,1,67.4999979400635,8|8,0:3|0:3,0:0:0:0:
117,73,71259,1,8,0:0:0:0:
117,73,71373,1,8,0:3:0:0:
117,73,71488,2,0,L|197:57,1,67.4999979400635,4|4,0:3|0:3,0:0:0:0:
60,142,71717,5,10,0:1:0:0:
60,142,71831,1,0,0:0:0:0:
60,142,71945,2,0,P|30:96|31:69,1,67.4999979400635,8|10,0:3|0:3,0:0:0:0:
138,168,72174,2,0,L|124:262,2,67.4999979400635,8|8|6,0:0|0:3|0:3,0:0:0:0:
207,131,72517,1,4,0:3:0:0:
274,219,72631,6,0,L|206:211,2,67.4999979400635,8|0|8,0:1|0:0|0:3,0:0:0:0:
347,159,72974,1,8,0:3:0:0:
347,159,73088,2,0,L|355:78,1,67.4999979400635,8|8,0:0|0:3,0:0:0:0:
424,207,73317,2,0,L|417:274,1,67.4999979400635,4|4,0:3|0:3,0:0:0:0:
342,345,73546,5,10,0:1:0:0:
342,345,73660,1,0,0:0:0:0:
342,345,73774,2,0,P|291:323|262:324,1,67.4999979400635,8|8,0:3|0:3,0:0:0:0:
200,290,74003,1,10,0:0:0:0:
200,290,74117,2,0,L|209:368,1,67.4999979400635,8|4,0:3|0:3,0:0:0:0:
119,349,74346,1,4,0:3:0:0:
119,349,74460,6,0,L|109:259,1,67.4999979400635,10|0,0:1|0:0,0:0:0:0:
26,182,74689,2,0,L|34:250,1,67.4999979400635,10|8,0:3|0:3,0:0:0:0:
168,224,74918,1,8,0:0:0:0:
168,224,75032,1,8,0:3:0:0:
168,224,75146,2,0,P|138:199|100:193,1,67.4999979400635,6|4,0:3|0:3,0:0:0:0:
15,100,75375,6,0,L|85:88,1,67.4999979400635,10|0,0:1|0:0,0:0:0:0:
211,36,75604,2,0,L|141:24,1,67.4999979400635,10|8,0:3|0:3,0:0:0:0:
164,127,75832,1,10,0:0:0:0:
164,127,75946,1,8,0:3:0:0:
164,127,76061,2,0,L|241:142,1,67.4999979400635,6|4,0:3|0:3,0:0:0:0:
322,20,76289,6,0,P|296:53|286:98,1,67.4999979400635,8|0,0:1|0:0,0:0:0:0:
325,177,76518,1,8,0:3:0:0:
325,177,76632,1,8,0:3:0:0:
325,177,76747,2,0,L|235:162,1,67.4999979400635,8|8,0:0|0:3,0:0:0:0:
170,223,76975,1,4,0:3:0:0:
170,223,77090,1,4,0:3:0:0:
170,223,77204,6,0,L|164:299,1,67.4999979400635,10|0,0:1|0:0,0:0:0:0:
81,200,77433,2,0,L|89:114,1,67.4999979400635,8|8,0:3|0:3,0:0:0:0:
9,270,77661,2,0,P|62:278|94:292,1,67.4999979400635,10|0,0:0|0:0,0:0:0:0:
141,372,77890,1,4,0:3:0:0:
141,372,78004,1,4,0:3:0:0:
141,372,78119,6,0,L|223:364,1,67.4999979400635,10|0,0:1|0:0,0:0:0:0:
326,293,78347,2,0,L|258:299,1,67.4999979400635,8|8,0:3|0:3,0:0:0:0:
426,384,78576,2,0,P|410:354|405:309,1,67.4999979400635,8|8,0:0|0:1,0:0:0:0:
490,261,78805,1,4,0:3:0:0:
490,261,78919,1,4,0:3:0:0:
490,261,79033,6,0,L|482:332,2,67.4999979400635,10|0|8,0:1|0:0|0:3,0:0:0:0:
424,186,79376,1,10,0:3:0:0:
424,186,79490,2,0,L|331:185,1,67.4999979400635,8|8,0:0|0:3,0:0:0:0:
241,119,79719,2,0,L|308:119,1,67.4999979400635,6|4,0:3|0:3,0:0:0:0:
196,191,79948,6,0,P|169:167|158:129,1,67.4999979400635,10|0,0:1|0:0,0:0:0:0:
144,9,80176,2,0,P|170:33|181:71,1,67.4999979400635,10|8,0:3|0:3,0:0:0:0:
158,138,80405,2,0,L|75:149,1,67.4999979400635,10|8,0:0|0:3,0:0:0:0:
4,137,80634,1,4,0:3:0:0:
4,137,80748,1,4,0:3:0:0:
4,137,80862,6,0,P|21:195|26:213,2,67.4999979400635,10|0|8,0:1|0:0|0:3,0:0:0:0:
44,53,81205,1,8,0:3:0:0:
44,53,81320,2,0,L|121:38,1,67.4999979400635,8|10,0:0|0:3,0:0:0:0:
210,47,81548,1,4,0:3:0:0:
210,47,81663,1,4,0:3:0:0:
210,47,81777,6,0,P|224:97|226:134,1,67.4999979400635,8|0,0:1|0:0,0:0:0:0:
339,65,82005,1,8,0:3:0:0:
339,65,82120,1,8,0:3:0:0:
339,65,82234,2,0,P|317:112|295:141,1,67.4999979400635,10|8,0:0|0:3,0:0:0:0:
413,166,82463,1,4,0:3:0:0:
413,166,82578,1,4,0:3:0:0:
413,166,82692,6,0,P|366:188|330:196,1,67.4999979400635,8|0,0:1|0:0,0:0:0:0:
243,242,82920,2,0,P|274:255|308:262,1,67.4999979400635,10|8,0:3|0:3,0:0:0:0:
430,295,83149,2,0,P|383:317|347:325,1,67.4999979400635,8|8,0:0|0:3,0:0:0:0:
266,361,83377,1,4,0:3:0:0:
266,361,83492,1,4,0:3:0:0:
266,361,83606,6,0,L|254:280,1,67.4999979400635,8|8,0:1|0:0,0:0:0:0:
193,51,83835,2,0,L|203:118,1,67.4999979400635,8|8,0:0|0:0,0:0:0:0:
163,187,84063,1,8,0:0:0:0:
163,187,84178,1,8,0:0:0:0:
271,165,84292,1,8,0:0:0:0:
271,165,84406,1,8,0:0:0:0:
233,242,84521,5,14,0:1:0:0:
149,62,87264,6,0,P|118:53|76:55,1,67.4999979400635,2|8,0:3|0:0,0:0:0:0:
70,135,87493,2,0,P|101:144|143:142,1,67.4999979400635,2|8,0:3|0:0,0:0:0:0:
201,201,87722,1,10,0:0:0:0:
275,191,87836,1,8,0:0:0:0:
323,133,87950,1,10,0:0:0:0:
338,59,88064,1,8,0:0:0:0:
282,1,88179,6,0,P|263:25|259:82,1,75,14|0,0:1|0:0,0:0:0:0:
364,250,88407,2,0,P|383:226|396:95,1,150,10|0,0:0|0:0,0:0:0:0:
439,39,88750,1,8,0:1:0:0:
439,39,88865,2,0,L|358:30,1,75,10|8,0:0|0:1,0:0:0:0:
182,119,89093,6,0,L|355:94,2,150,10|8|0,0:1|0:0|0:0,0:0:0:0:
127,49,89665,1,10,0:1:0:0:
127,49,89779,2,0,L|215:37,1,75,8|0,0:0|0:0,0:0:0:0:
150,187,90008,6,0,P|112:157|107:112,1,75,10|0,0:1|0:0,0:0:0:0:
260,122,90237,2,0,L|239:278,1,150,8|2,0:0|0:0,0:0:0:0:
178,334,90580,1,8,0:1:0:0:
178,334,90694,2,0,L|101:325,1,75,8|8,0:0|0:1,0:0:0:0:
239,270,90922,6,0,L|328:280,1,75,10|0,0:1|0:0,0:0:0:0:
470,377,91151,2,0,P|407:339|394:267,1,150,8|8,0:0|0:1,0:0:0:0:
319,130,91494,1,8,0:1:0:0:
325,208,91608,2,0,P|373:187|389:157,1,75,8|8,0:0|0:1,0:0:0:0:
470,46,91837,6,0,P|412:14|324:20,2,150,10|10|8,0:1|0:0|0:1,0:0:0:0:
455,150,92409,1,8,0:1:0:0:
455,150,92523,2,0,P|419:153|379:172,1,75,10|0,0:0|0:0,0:0:0:0:
303,112,92752,6,0,L|214:89,1,75,10|8,0:1|0:1,0:0:0:0:
95,208,92980,2,0,L|244:177,1,150,8|8,0:0|0:1,0:0:0:0:
279,245,93323,1,8,0:1:0:0:
279,245,93438,2,0,L|193:266,1,75,10|0,0:0|0:0,0:0:0:0:
95,208,93666,6,0,P|119:244|124:293,1,75,10|0,0:1|0:0,0:0:0:0:
49,366,93895,2,0,P|20:305|14:209,1,150,8|10,0:0|0:1,0:0:0:0:
29,139,94238,1,8,0:1:0:0:
29,139,94352,2,0,L|109:118,1,75,10|0,0:0|0:0,0:0:0:0:
192,12,94581,6,0,P|172:59|171:98,1,75,10|8,0:1|0:1,0:0:0:0:
207,285,94809,2,0,P|227:238|228:199,1,75,10|0,0:0|0:0,0:0:0:0:
99,270,95038,1,10,0:0:0:0:
156,318,95152,1,8,0:0:0:0:
230,329,95267,1,8,0:0:0:0:
296,294,95381,1,8,0:0:0:0:
314,221,95495,6,0,L|322:135,1,75,14|0,0:1|0:0,0:0:0:0:
401,33,95724,2,0,L|231:22,1,150,10|0,0:0|0:0,0:0:0:0:
173,88,96067,1,8,0:1:0:0:
98,54,96181,2,0,L|186:59,1,75,10|0,0:0|0:0,0:0:0:0:
104,199,96410,6,0,P|83:156|85:114,1,75,10|0,0:1|0:0,0:0:0:0:
205,162,96639,2,0,P|177:230|171:323,1,150,10|0,0:0|0:0,0:0:0:0:
262,333,96981,1,8,0:1:0:0:
262,333,97096,2,0,P|276:285|271:242,1,75,10|0,0:0|0:0,0:0:0:0:
360,190,97324,6,0,L|271:180,1,75,8|0,0:1|0:0,0:0:0:0:
81,129,97553,2,0,L|236:114,1,150,8|10,0:0|0:1,0:0:0:0:
317,80,97896,1,8,0:1:0:0:
317,80,98010,2,0,L|325:-3,1,75,10|0,0:0|0:0,0:0:0:0:
468,109,98239,6,0,L|394:116,1,75,10|0,0:1|0:0,0:0:0:0:
230,114,98468,2,0,P|211:190|221:274,1,150,8|0,0:0|0:0,0:0:0:0:
313,350,98811,1,10,0:1:0:0:
364,291,98925,2,0,P|305:271|274:275,1,75,8|0,0:0|0:0,0:0:0:0:
164,370,99154,6,0,L|332:347,1,150,10|8,0:1|0:0,0:0:0:0:
416,365,99497,1,0,0:0:0:0:
416,365,99611,2,0,L|399:274,1,75,10|8,0:1|0:1,0:0:0:0:
480,241,99839,2,0,L|463:150,1,75,8|0,0:0|0:0,0:0:0:0:
335,129,100068,6,0,P|390:107|424:8,2,150,10|8|8,0:1|0:0|0:1,0:0:0:0:
265,84,100640,1,8,0:1:0:0:
265,84,100754,2,0,P|306:53|350:48,1,75,10|0,0:0|0:0,0:0:0:0:
356,212,100983,6,0,L|261:192,1,75,10|0,0:1|0:0,0:0:0:0:
193,135,101211,2,0,L|177:300,1,150,8|8,0:0|0:1,0:0:0:0:
112,338,101554,1,8,0:1:0:0:
41,306,101669,2,0,P|75:271|118:261,1,75,8|0,0:0|0:0,0:0:0:0:
251,300,101897,6,0,L|159:279,1,75,8|8,0:1|0:0,0:0:0:0:
42,206,102126,1,10,0:0:0:0:
28,132,102240,1,8,0:0:0:0:
72,71,102355,1,10,0:0:0:0:
86,71,102469,1,8,0:3:0:0:
100,70,102583,1,6,0:3:0:0:
114,69,102697,1,4,0:3:0:0:
186,36,102812,6,0,P|165:68|154:155,2,112.500004291535,14|0|2,0:1|0:0|0:3,0:0:0:0:
358,15,103493,1,8,0:1:0:0:
358,15,103720,6,0,L|341:144,1,112.500004291535,10|0,0:0|0:0,0:0:0:0:
337,286,104174,1,2,0:3:0:0:
496,209,104401,1,8,0:1:0:0:
496,209,104628,2,0,P|462:194|384:210,1,112.500004291535,10|0,0:1|0:0,0:0:0:0:
254,342,105083,1,2,0:3:0:0:
165,178,105310,1,8,0:1:0:0:
165,178,105537,6,0,L|167:50,2,112.500004291535,10|8|2,0:0|0:1|0:3,0:0:0:0:
77,333,106218,1,8,0:1:0:0:
77,333,106445,6,0,P|129:306|193:296,1,112.500004291535,14|0,0:1|0:0,0:0:0:0:
382,302,106899,1,2,0:3:0:0:
289,144,107126,1,8,0:1:0:0:
289,144,107354,6,0,P|281:201|274:267,1,112.500004291535,10|0,0:0|0:0,0:0:0:0:
358,98,107808,1,2,0:3:0:0:
132,37,108035,1,10,0:1:0:0:
132,37,108262,6,0,P|190:29|261:29,1,112.500004291535,10|0,0:1|0:0,0:0:0:0:
445,126,108716,1,2,0:3:0:0:
250,240,108943,2,0,P|242:208|238:179,1,56.2500021457673,10|0,0:1|0:0,0:0:0:0:
309,140,109170,6,0,P|323:177|332:255,1,112.500004291535,8|10,0:0|0:0,0:0:0:0:
295,320,109511,1,8,0:0:0:0:
211,329,109625,1,10,0:0:0:0:
151,272,109738,1,8,0:3:0:0:
163,192,109852,1,4,0:3:0:0:
109,134,109965,1,4,0:3:0:0:
48,199,110079,6,0,L|148:177,1,75,14|0,0:1|0:0,0:0:0:0:
253,221,110307,2,0,L|221:66,1,150,10|2,0:0|0:0,0:0:0:0:
306,20,110650,1,8,0:1:0:0:
306,20,110764,2,0,L|304:110,1,75,10|0,0:0|0:0,0:0:0:0:
400,206,110993,6,0,P|343:183|318:182,1,75,10|0,0:1|0:0,0:0:0:0:
199,312,111222,2,0,P|284:297|351:252,1,150,8|0,0:0|0:0,0:0:0:0:
427,356,111565,1,8,0:1:0:0:
427,356,111679,2,0,P|387:344|344:350,1,75,10|8,0:0|0:1,0:0:0:0:
199,312,111908,6,0,L|183:214,1,75,8|0,0:1|0:0,0:0:0:0:
114,286,112136,2,0,P|102:321|78:350,2,75,10|2|2,0:0|0:0|0:0,0:0:0:0:
49,227,112479,1,8,0:1:0:0:
49,227,112594,2,0,L|29:131,1,75,10|0,0:0|0:0,0:0:0:0:
85,37,112822,6,0,L|103:119,1,75,10|8,0:1|0:1,0:0:0:0:
283,165,113051,2,0,P|239:173|180:84,1,150,10|10,0:0|0:1,0:0:0:0:
179,21,113394,1,0,0:0:0:0:
179,21,113508,2,0,L|263:8,1,75,10|0,0:0|0:0,0:0:0:0:
345,19,113737,6,0,P|328:55|322:124,1,75,8|0,0:1|0:0,0:0:0:0:
442,32,113965,2,0,P|435:106|410:177,1,150,10|8,0:0|0:1,0:0:0:0:
399,265,114308,1,0,0:0:0:0:
399,265,114423,2,0,P|344:251|308:255,1,75,10|8,0:0|0:1,0:0:0:0:
245,383,114651,6,0,P|257:347|255:310,1,75,8|0,0:1|0:0,0:0:0:0:
136,293,114880,2,0,P|115:238|123:130,1,150,10|8,0:0|0:1,0:0:0:0:
111,68,115223,1,0,0:0:0:0:
111,68,115337,2,0,P|161:76|192:102,1,75,10|8,0:0|0:1,0:0:0:0:
265,185,115566,6,0,L|181:201,1,75,8|0,0:1|0:0,0:0:0:0:
111,68,115795,2,0,L|279:44,1,150,10|8,0:0|0:1,0:0:0:0:
350,83,116137,1,8,0:1:0:0:
350,83,116252,2,0,L|335:3,1,75,10|8,0:0|0:1,0:0:0:0:
478,7,116480,6,0,P|455:36|441:98,1,75,8|0,0:1|0:0,0:0:0:0:
350,83,116709,2,0,P|394:151|418:246,1,150,10|8,0:0|0:1,0:0:0:0:
377,322,117052,1,8,0:1:0:0:
377,322,117166,2,0,P|344:279|334:235,1,75,8|8,0:0|0:1,0:0:0:0:
168,361,117395,6,0,P|231:323|255:254,2,150,10|8|2,0:1|0:0|0:0,0:0:0:0:
76,358,117967,1,0,0:0:0:0:
24,299,118081,2,0,P|75:282|110:292,1,75,8|0,0:0|0:0,0:0:0:0:
178,217,118310,6,0,P|107:201|88:184,1,75,10|0,0:1|0:0,0:0:0:0:
2,133,118538,2,0,L|174:113,1,150,8|10,0:0|0:1,0:0:0:0:
200,33,118881,1,8,0:1:0:0:
200,33,118996,2,0,L|117:42,1,75,8|8,0:0|0:1,0:0:0:0:
259,82,119224,6,0,P|280:37|272:-7,1,75,8|0,0:1|0:0,0:0:0:0:
150,115,119453,2,0,P|187:172|204:273,1,150,8|2,0:0|0:0,0:0:0:0:
127,348,119796,1,8,0:1:0:0:
127,348,119910,2,0,P|103:311|95:264,1,75,8|0,0:0|0:0,0:0:0:0:
236,351,120139,6,0,P|264:304|305:269,1,75,10|0,0:1|0:0,0:0:0:0:
282,191,120367,2,0,P|344:179|448:205,1,150,8|2,0:0|0:0,0:0:0:0:
463,114,120710,1,8,0:1:0:0:
463,114,120825,2,0,P|413:109|371:98,1,75,8|8,0:0|0:1,0:0:0:0:
249,44,121053,6,0,L|284:203,2,150,10|8|8,0:1|0:0|0:1,0:0:0:0:
155,25,121625,1,8,0:1:0:0:
155,25,121739,2,0,L|174:115,1,75,8|0,0:0|0:0,0:0:0:0:
51,188,121968,6,0,P|108:165|144:166,1,75,10|0,0:1|0:0,0:0:0:0:
156,267,122196,2,0,P|218:257|322:285,1,150,8|10,0:0|0:1,0:0:0:0:
338,347,122539,1,8,0:1:0:0:
247,368,122654,2,0,P|224:313|231:277,1,75,10|0,0:0|0:0,0:0:0:0:
256,187,122882,6,0,L|344:171,1,75,10|0,0:1|0:0,0:0:0:0:
466,115,123111,2,0,L|311:95,1,150,10|10,0:0|0:1,0:0:0:0:
225,33,123454,1,8,0:1:0:0:
225,33,123568,2,0,L|244:115,1,75,8|0,0:0|0:0,0:0:0:0:
210,209,123797,6,0,P|174:183|129:170,1,75,8|0,0:1|0:0,0:0:0:0:
17,321,124026,2,0,P|63:283|162:267,1,150,8|10,0:0|0:1,0:0:0:0:
307,276,124369,1,8,0:1:0:0:
307,276,124483,2,0,L|287:196,1,75,10|0,0:0|0:0,0:0:0:0:
252,112,124712,5,14,0:0:0:0:
61,30,124941,1,10,0:1:0:0:
45,226,125170,1,10,0:1:0:0:
252,112,125398,1,8,0:1:0:0:
118,116,125627,5,14,0:0:0:0:
118,116,125856,1,8,0:1:0:0:
118,116,126083,2,0,P|134:159|142:194,1,75,12|0,0:0|0:0,0:0:0:0:
252,112,126313,2,0,P|236:155|228:190,1,75
254,262,126542,6,0,P|310:249|350:246,1,75,12|0,0:1|0:0,0:0:0:0:
378,318,126769,2,0,L|349:170,1,150,10|0,0:0|0:0,0:0:0:0:
435,178,127112,1,8,0:1:0:0:
435,178,127228,2,0,P|410:225|407:259,1,75,10|0,0:0|0:0,0:0:0:0:
405,14,127455,6,0,L|390:108,1,75,8|0,0:1|0:0,0:0:0:0:
349,170,127684,2,0,L|179:154,1,150,10|10,0:0|0:1,0:0:0:0:
102,141,128027,1,8,0:1:0:0:
156,74,128141,2,0,L|242:81,1,75,10|0,0:0|0:0,0:0:0:0:
193,230,128370,6,0,P|200:193|199:156,1,75,8|0,0:1|0:0,0:0:0:0:
87,12,128598,2,0,L|70:179,1,150,10|0,0:0|0:0,0:0:0:0:
20,236,128941,1,8,0:1:0:0:
20,236,129055,2,0,L|105:248,1,75,10|0,0:0|0:0,0:0:0:0:
171,361,129284,6,0,P|183:324|175:280,1,75,10|0,0:1|0:0,0:0:0:0:
314,142,129513,2,0,P|287:201|289:314,1,150,8|10,0:0|0:1,0:0:0:0:
360,345,129856,1,8,0:1:0:0:
360,345,129970,2,0,P|384:292|381:261,1,75,10|0,0:0|0:0,0:0:0:0:
488,218,130199,6,0,L|405:202,1,75,10|8,0:1|0:1,0:0:0:0:
314,142,130427,2,0,L|476:119,1,150,10|10,0:0|0:1,0:0:0:0:
499,34,130770,1,0,0:0:0:0:
499,34,130884,2,0,L|412:49,1,75,8|0,0:0|0:0,0:0:0:0:
265,73,131113,6,0,P|237:115|235:152,1,75,8|0,0:1|0:0,0:0:0:0:
145,16,131342,2,0,P|128:70|153:171,1,150,8|8,0:0|0:1,0:0:0:0:
198,234,131685,1,8,0:1:0:0:
198,234,131799,2,0,P|253:222|299:226,1,75,8|8,0:0|0:1,0:0:0:0:
296,316,132028,6,0,P|260:326|222:328,1,75,10|0,0:1|0:0,0:0:0:0:
106,384,132257,2,0,L|121:233,1,150,8|10,0:0|0:1,0:0:0:0:
50,191,132600,1,0,0:0:0:0:
50,191,132714,2,0,L|36:290,1,75,8|0,0:0|0:0,0:0:0:0:
121,234,132943,6,0,P|155:207|196:204,1,75,10|8,0:1|0:1,0:0:0:0:
313,178,133170,2,0,P|337:218|364:331,1,150,8|10,0:0|0:1,0:0:0:0:
449,381,133513,1,8,0:1:0:0:
449,381,133629,2,0,P|470:323|465:288,1,75,8|0,0:0|0:0,0:0:0:0:
512,236,133856,6,0,L|425:222,1,75,8|0,0:1|0:0,0:0:0:0:
341,248,134085,2,0,L|317:81,1,150,8|8,0:0|0:1,0:0:0:0:
418,46,134428,1,8,0:1:0:0:
418,46,134542,2,0,L|407:134,1,75,8|0,0:0|0:0,0:0:0:0:
320,99,134771,6,0,P|273:76|246:75,1,75
31,71,135000,2,0,P|87:22|160:8,1,150,8|8,0:0|0:1,0:0:0:0:
117,119,135343,1,8,0:1:0:0:
117,119,135457,2,0,P|161:119|209:138,1,75,8|0,0:0|0:0,0:0:0:0:
174,224,135686,6,0,P|130:224|82:205,1,75,8|0,0:1|0:0,0:0:0:0:
96,303,135915,2,0,P|153:273|263:282,1,150,8|0,0:0|0:0,0:0:0:0:
313,277,136257,1,8,0:1:0:0:
386,358,136371,2,0,P|395:311|385:273,1,75,8|0,0:0|0:0,0:0:0:0:
278,204,136600,6,0,L|377:190,1,75,8|0,0:1|0:0,0:0:0:0:
496,170,136829,2,0,L|469:327,1,150,8|2,0:0|0:0,0:0:0:0:
390,284,137172,1,8,0:1:0:0:
390,284,137286,2,0,L|410:194,1,75,10|0,0:0|0:0,0:0:0:0:
491,81,137515,6,0,P|431:57|392:57,1,75,10|8,0:1|0:1,0:0:0:0:
288,19,137744,2,0,P|324:66|335:168,1,150,10|2,0:0|0:0,0:0:0:0:
300,257,138087,1,8,0:1:0:0:
236,211,138201,2,0,P|211:156|216:125,1,75,8|0,0:0|0:0,0:0:0:0:
186,63,138430,6,0,L|275:64,1,75,8|0,0:1|0:0,0:0:0:0:
507,23,138659,2,0,L|433:22,1,75,10|8,0:0|0:0,0:0:0:0:
343,99,138886,1,10,0:0:0:0:
412,130,139001,1,8,0:0:0:0:
452,193,139115,1,4,0:3:0:0:
455,268,139230,1,4,0:3:0:0:
436,343,139345,5,14,0:1:0:0:
420,334,140260,1,2,0:0:0:0:
413,352,141175,5,2,0:0:0:0:
342,312,141633,1,0,3:2:0:0:
268,353,142090,1,2,0:0:0:0:
268,353,142548,1,2,3:2:0:0:
323,134,143006,5,2,0:0:0:0:
85,206,143921,5,2,0:0:0:0:
85,206,144373,2,0,P|121:190|166:188,2,75,2|2|0,0:0|0:0|0:0,0:0:0:0:
85,206,145051,2,0,P|63:170|56:52,1,150,2|0,0:0|0:0,0:0:0:0:
140,265,145729,5,2,0:0:0:0:
434,228,146181,1,0,3:2:0:0:
80,74,146633,5,2,0:0:0:0:
97,75,147538,1,2,0:0:0:0:
165,116,147990,1,2,0:0:0:0:
203,40,148442,6,0,B|236:176|143:148|189:274,1,240,2|0,0:0|0:0,0:0:0:0:
188,271,149572,2,0,L|257:263,2,60,0|0|2,0:0|0:0|0:0,0:0:0:0:
187,361,150251,6,0,L|253:349,1,56.2500021457673,12|0,0:1|0:0,0:0:0:0:
313,345,150477,2,0,L|257:334,1,56.2500021457673,8|0,0:1|0:0,0:0:0:0:
160,322,150703,2,0,L|233:307,1,56.2500021457673,8|0,0:1|0:0,0:0:0:0:
330,311,150929,2,0,L|274:300,1,56.2500021457673,10|0,0:1|0:0,0:0:0:0:
142,280,151155,6,0,L|208:267,1,67.4999979400635,8|0,0:1|0:0,0:0:0:0:
359,273,151381,2,0,L|292:260,1,67.4999979400635,8|0,0:1|0:0,0:0:0:0:
109,238,151607,2,0,L|175:225,1,67.4999979400635,10|0,0:1|0:0,0:0:0:0:
374,232,151833,2,0,L|307:219,1,67.4999979400635,8|0,0:1|0:0,0:0:0:0:
286,141,152059,5,8,0:1:0:0:
286,141,152172,1,8,0:1:0:0:
286,141,152285,2,0,P|241:124|201:125,1,75,10|8,0:1|0:1,0:0:0:0:
109,238,152511,2,0,P|146:207|165:172,1,75,8|8,0:0|0:0,0:0:0:0:
113,33,152737,2,0,P|120:80|141:114,1,75,8|8,0:0|0:0,0:0:0:0:
264,227,152963,6,0,L|354:212,1,82.5000025177003,10|8,0:0|0:0,0:0:0:0:
500,80,153190,2,0,L|418:93,1,82.5000025177003,8|8,0:0|0:0,0:0:0:0:
324,45,153416,1,10,0:0:0:0:
344,124,153529,1,8,0:0:0:0:
363,205,153642,1,8,0:0:0:0:
389,288,153755,1,8,0:0:0:0:
420,362,153868,6,0,P|384:341|297:339,2,112.500004291535,14|0|8,0:1|0:0|0:1,0:0:0:0:
230,345,154548,1,8,0:1:0:0:
230,345,154775,6,0,P|221:278|209:210,1,112.500004291535,10|0,0:0|0:0,0:0:0:0:
173,57,155229,1,8,0:1:0:0:
44,183,155456,1,8,0:1:0:0:
284,103,155683,5,10,0:1:0:0:
32,31,156137,1,8,0:1:0:0:
32,31,156364,2,0,L|48:109,1,56.2500021457673,8|0,0:1|0:0,0:0:0:0:
98,144,156591,6,0,P|140:125|223:119,2,112.500004291535,10|0|10,0:0|0:0|0:1,0:0:0:0:
22,303,157272,1,8,0:1:0:0:
22,303,157499,6,0,P|75:309|144:337,1,112.500004291535,14|0,0:1|0:0,0:0:0:0:
266,377,157953,1,8,0:1:0:0:
234,217,158179,1,8,0:1:0:0:
234,217,158406,6,0,P|221:157|235:93,1,112.500004291535,10|0,0:0|0:0,0:0:0:0:
296,11,158860,1,2,0:0:0:0:
422,216,159087,1,8,0:1:0:0:
422,216,159314,6,0,P|384:221|304:254,1,112.500004291535,8|2,0:1|0:0,0:0:0:0:
196,342,159768,1,0,0:0:0:0:
118,183,159995,1,10,0:1:0:0:
118,183,160222,6,0,P|128:224|127:301,1,112.500004291535,8|8,0:0|0:1,0:0:0:0:
110,27,160676,2,0,P|79:71|10:99,1,112.500004291535,8|4,0:3|0:3,0:0:0:0:
27,96,161130,6,0,P|103:83|151:98,1,112.500004291535,14|0,0:1|0:0,0:0:0:0:
309,167,161584,1,8,0:1:0:0:
277,14,161811,1,0,0:0:0:0:
277,14,162038,6,0,P|249:57|231:140,1,112.500004291535,10|0,0:0|0:0,0:0:0:0:
234,269,162491,1,2,0:0:0:0:
421,193,162718,1,8,0:1:0:0:
421,193,162945,6,0,L|299:184,1,112.500004291535,8|0,0:1|0:0,0:0:0:0:
135,204,163399,1,0,0:0:0:0:
81,43,163626,1,8,0:1:0:0:
81,43,163853,6,0,L|147:52,1,56.2500021457673,8|0,0:0|0:0,0:0:0:0:
119,127,164080,2,0,L|63:119,1,56.2500021457673,8|0,0:1|0:0,0:0:0:0:
269,86,164307,2,0,L|294:147,1,56.2500021457673,8|0,0:1|0:0,0:0:0:0:
215,160,164534,2,0,L|193:107,1,56.2500021457673,10|0,0:1|0:0,0:0:0:0:
217,20,164761,6,0,P|293:10|341:33,2,112.500004291535,14|0|0,0:1|0:0|0:0,0:0:0:0:
65,132,165442,1,10,0:1:0:0:
65,132,165669,6,0,L|87:256,1,112.500004291535,8|0,0:0|0:0,0:0:0:0:
183,360,166123,1,0,0:0:0:0:
273,233,166350,1,8,0:1:0:0:
273,233,166576,6,0,P|208:230|162:250,1,112.500004291535,8|8,0:0|0:1,0:0:0:0:
88,335,166917,2,0,L|98:377,2,28.1250010728836,8|8|8,0:0|0:0|0:0,0:0:0:0:
88,335,167257,2,0,L|71:262,1,56.2500021457673,8|8,0:3|0:3,0:0:0:0:
27,211,167484,6,0,L|93:197,1,56.2500021457673,8|8,0:3|0:3,0:0:0:0:
178,223,167711,1,8,0:0:0:0:
239,171,167825,1,8,0:0:0:0:
234,92,167938,1,8,0:0:0:0:
219,93,168052,1,8,0:0:0:0:
205,93,168165,1,4,0:3:0:0:
190,93,168279,1,4,0:3:0:0:
122,46,168392,6,0,P|139:101|137:166,1,112.500004291535,14|2,0:1|0:0,0:0:0:0:
101,297,168846,1,0,0:0:0:0:
262,253,169073,1,8,0:1:0:0:
262,253,169300,6,0,L|386:227,1,112.500004291535,10|0,0:0|0:0,0:0:0:0:
473,101,169754,1,8,0:1:0:0:
284,38,169981,1,8,0:1:0:0:
284,38,170208,6,0,P|315:78|336:147,1,112.500004291535,10|0,0:1|0:0,0:0:0:0:
204,24,170662,1,2,0:0:0:0:
141,200,170888,1,8,0:1:0:0:
141,200,171115,6,0,L|20:188,2,112.500004291535,10|0|2,0:0|0:0|0:0,0:0:0:0:
278,342,171796,1,8,0:1:0:0:
278,342,172023,6,0,P|295:278|281:214,1,112.500004291535,14|0,0:1|0:0,0:0:0:0:
238,51,172477,1,0,0:0:0:0:
194,189,172704,1,8,0:1:0:0:
194,189,172931,6,0,P|170:156|165:75,1,112.500004291535,10|0,0:0|0:0,0:0:0:0:
284,15,173385,1,2,0:0:0:0:
348,191,173612,1,10,0:1:0:0:
348,191,173839,6,0,L|470:169,1,112.500004291535,8|2,0:1|0:0,0:0:0:0:
293,256,174293,1,8,0:1:0:0:
240,122,174520,1,10,0:1:0:0:
176,340,174747,5,10,0:0:0:0:
304,173,174973,1,8,0:1:0:0:
103,130,175200,1,10,0:1:0:0:
103,130,175427,2,0,L|112:211,1,56.2500021457673
62,251,175654,6,0,P|124:229|192:235,1,112.500004291535,14|2,0:1|0:0,0:0:0:0:
324,278,176108,1,0,0:0:0:0:
288,90,176335,1,8,0:1:0:0:
288,90,176562,6,0,L|276:214,1,112.500004291535,10|0,0:0|0:0,0:0:0:0:
370,104,177016,1,2,0:0:0:0:
154,28,177243,1,10,0:1:0:0:
154,28,177470,6,0,P|105:29|37:62,2,112.500004291535,10|0|0,0:1|0:0|0:0,0:0:0:0:
28,132,178151,1,8,0:1:0:0:
28,132,178378,6,0,P|61:153|81:188,1,56.2500021457673,10|0,0:0|0:0,0:0:0:0:
145,129,178605,2,0,P|156:166|149:205,1,56.2500021457673,8|0,0:1|0:0,0:0:0:0:
146,304,178832,2,0,P|179:283|199:248,1,56.2500021457673
263,307,179059,2,0,P|274:269|267:230,1,56.2500021457673,8|0,0:1|0:0,0:0:0:0:
266,160,179285,6,0,L|151:183,1,112.500004291535,14|0,0:1|0:0,0:0:0:0:
306,88,179739,1,0,0:0:0:0:
388,278,179966,1,10,0:1:0:0:
388,278,180193,6,0,P|403:216|428:152,1,112.500004291535,10|0,0:0|0:0,0:0:0:0:
297,22,180647,1,2,0:0:0:0:
314,206,180874,1,8,0:1:0:0:
314,206,181101,6,0,L|246:214,2,56.2500021457673,8|8|8,0:0|0:0|0:3,0:0:0:0:
204,149,181441,1,8,0:3:0:0:
204,149,181555,2,0,L|131:160,1,56.2500021457673,4|4,0:3|0:3,0:0:0:0:
64,185,181782,1,8,0:0:0:0:
18,121,181895,1,8,0:0:0:0:
44,48,182009,6,0,L|118:34,1,56.2500021457673,8|8,0:3|0:3,0:0:0:0:
209,13,182236,1,8,0:0:0:0:
276,50,182349,1,8,0:0:0:0:
293,126,182463,1,8,0:0:0:0:
276,131,182576,1,8,0:3:0:0:
261,135,182690,1,4,0:3:0:0:
245,139,182803,1,4,0:3:0:0:
169,105,182917,6,0,P|199:153|211:208,1,112.500004291535,14|0,0:1|0:0,0:0:0:0:
187,358,183370,1,8,0:1:0:0:
373,303,183597,1,8,0:1:0:0:
373,303,183824,6,0,L|236:287,1,112.500004291535,10|0,0:0|0:0,0:0:0:0:
83,278,184278,1,8,0:1:0:0:
281,187,184505,1,8,0:1:0:0:
281,187,184732,2,0,P|301:138|298:54,1,112.500004291535,10|0,0:1|0:0,0:0:0:0:
197,210,185186,1,8,0:1:0:0:
66,83,185413,1,8,0:1:0:0:
36,296,185640,5,10,0:0:0:0:
149,146,185867,1,0,0:0:0:0:
234,318,186094,1,10,0:1:0:0:
72,189,186321,1,8,0:1:0:0:
243,30,186548,6,0,P|258:81|259:157,2,112.500004291535,14|0|8,0:1|0:0|0:1,0:0:0:0:
210,230,187229,1,8,0:1:0:0:
210,230,187456,6,0,P|259:219|338:222,1,112.500004291535,10|0,0:0|0:0,0:0:0:0:
452,269,187909,1,2,0:0:0:0:
271,368,188136,1,8,0:1:0:0:
271,368,188363,6,0,P|238:349|209:344,1,56.2500021457673,8|0,0:1|0:0,0:0:0:0:
147,366,188590,2,0,P|120:358|96:342,1,56.2500021457673,6|0,0:0|0:0,0:0:0:0:
32,285,188817,2,0,P|65:266|94:261,1,56.2500021457673
156,283,189044,2,0,P|182:275|206:259,1,56.2500021457673,8|0,0:1|0:0,0:0:0:0:
256,192,189271,5,8,0:1:0:0:
144,162,189498,1,8,0:1:0:0:
331,102,189725,1,12,0:0:0:0:
73,41,189952,1,8,0:1:0:0:
73,41,190179,6,0,P|121:23|190:33,1,112.500004291535,14|2,0:1|0:0,0:0:0:0:
300,167,190633,1,0,0:0:0:0:
416,38,190860,1,8,0:1:0:0:
416,38,191087,6,0,P|436:91|436:160,1,112.500004291535,10|0,0:0|0:0,0:0:0:0:
383,315,191541,1,8,0:1:0:0:
206,232,191767,1,8,0:1:0:0:
206,232,191994,6,0,P|272:207|330:206,1,112.500004291535,10|0,0:1|0:0,0:0:0:0:
94,348,192448,2,0,P|49:333|28:313,1,56.2500021457673,2|0,0:0|0:0,0:0:0:0:
71,251,192675,2,0,P|116:266|137:286,1,56.2500021457673,8|0,0:1|0:0,0:0:0:0:
221,340,192902,6,0,P|202:276|211:213,2,112.500004291535,10|0|2,0:0|0:0|0:0,0:0:0:0:
254,165,193583,1,8,0:1:0:0:
254,165,193810,6,0,P|192:140|129:136,1,112.500004291535,14|0,0:1|0:0,0:0:0:0:
1,146,194264,1,0,0:0:0:0:
216,55,194491,1,8,0:1:0:0:
216,55,194718,6,0,L|336:41,1,112.500004291535,10|0,0:0|0:0,0:0:0:0:
487,148,195172,1,2,0:0:0:0:
268,222,195399,1,0,0:0:0:0:
268,222,195626,6,0,P|312:189|375:172,1,112.500004291535,14|8,0:0|0:1,0:0:0:0:
443,221,195966,1,8,0:0:0:0:
443,221,196079,2,0,L|434:277,1,56.2500021457673,8|0,0:0|0:0,0:0:0:0:
346,348,196306,2,0,L|355:292,1,56.2500021457673,8|8,0:1|0:0,0:0:0:0:
366,172,196533,6,0,L|306:167,2,56.2500021457673,8|0|8,0:1|0:0|0:3,0:0:0:0:
428,93,196874,1,0,0:0:0:0:
428,93,196987,2,0,L|359:90,1,56.2500021457673,8|8,0:0|0:0,0:0:0:0:
261,24,197214,1,4,0:3:0:0:
261,24,197328,1,4,0:3:0:0:
261,24,197441,6,0,P|241:63|238:140,1,112.500004291535,14|0,0:1|0:0,0:0:0:0:
301,307,197895,1,0,0:0:0:0:
69,265,198122,1,8,0:1:0:0:
69,265,198349,6,0,P|83:223|74:137,1,112.500004291535,10|0,0:0|0:0,0:0:0:0:
17,30,198803,1,0,0:0:0:0:
205,45,199030,1,8,0:1:0:0:
205,45,199257,6,0,L|219:179,1,112.500004291535,10|0,0:1|0:0,0:0:0:0:
320,327,199711,2,0,P|303:291|298:264,1,56.2500021457673,2|0,0:0|0:0,0:0:0:0:
378,246,199938,2,0,P|394:282|400:309,1,56.2500021457673,8|0,0:1|0:0,0:0:0:0:
320,327,200164,6,0,P|285:318|197:324,2,112.500004291535,10|8|10,0:0|0:1|0:1,0:0:0:0:
470,55,201072,6,0,P|434:90|363:103,1,112.500004291535,14|0,0:1|0:0,0:0:0:0:
213,66,201526,1,0,0:0:0:0:
140,242,201753,1,8,0:1:0:0:
140,242,201980,6,0,P|115:189|120:114,1,112.500004291535,10|0,0:0|0:0,0:0:0:0:
175,12,202434,1,0,0:0:0:0:
228,207,202661,1,8,0:1:0:0:
228,207,202888,6,0,P|268:189|290:187,1,56.2500021457673,8|0,0:0|0:0,0:0:0:0:
349,140,203115,1,8,0:3:0:0:
349,140,203228,1,8,0:3:0:0:
349,140,203342,2,0,L|366:205,1,56.2500021457673,8|8,0:1|0:1,0:0:0:0:
425,303,203569,1,8,0:0:0:0:
358,341,203682,1,8,0:0:0:0:
284,328,203796,6,0,L|273:263,1,56.2500021457673,8|8,0:0|0:0,0:0:0:0:
193,177,204023,1,8,0:0:0:0:
117,162,204136,1,8,0:0:0:0:
54,205,204250,1,8,0:3:0:0:
55,221,204363,1,8,0:3:0:0:
56,239,204476,1,4,0:3:0:0:
57,257,204590,1,4,0:3:0:0:
37,298,204703,5,14,0:1:0:0:
180,344,204930,1,2,0:0:0:0:
315,314,205157,1,2,0:0:0:0:
384,207,205384,1,2,0:0:0:0:
384,207,205611,6,0,B|259:174|297:259|155:229,1,225.000008583069,2|0,0:0|0:0,0:0:0:0:
89,221,206292,1,2,0:0:0:0:
89,221,206746,2,0,L|82:286,1,56.2500021457673,2|2,0:0|0:0,0:0:0:0:
136,336,206973,5,2,0:0:0:0:
285,213,207200,1,2,0:0:0:0:
41,139,207427,5,2,0:0:0:0:
192,196,207654,1,2,0:0:0:0:
351,140,207881,1,2,0:0:0:0:
351,140,208108,2,0,P|366:101|366:24,1,112.500004291535,2|0,0:0|0:0,0:0:0:0:
288,22,208562,2,0,P|272:58|270:138,1,112.500004291535,2|0,0:0|0:0,0:0:0:0:
256,192,208845,12,0,214462,0:0:0:0:
