osu file format v14

[General]
AudioFilename: audio.mp3
AudioLeadIn: 0
PreviewTime: 86807
Countdown: 0
SampleSet: Soft
StackLeniency: 0.5
Mode: 0
LetterboxInBreaks: 0
WidescreenStoryboard: 1

[Editor]
Bookmarks: 18714,57078,88179,126541,168392,208788
DistanceSpacing: 1
BeatDivisor: 2
GridSize: 32
TimelineZoom: 5.299997

[Metadata]
Title:XO
TitleUnicode:XO
Artist:Fall Out Boy
ArtistUnicode:Fall Out Boy
Creator:keevy
Version:Hard
Source:
Tags:english rock from under the cork tree fob fallout punk pop emo pop-punk Patrick Stump Joe Trohman Pete Wentz Andy Hurley
BeatmapID:3567640
BeatmapSetID:1739083

[Difficulty]
HPDrainRate:4
CircleSize:3.8
OverallDifficulty:7
ApproachRate:8.2
SliderMultiplier:1.35
SliderTickRate:1

[Events]
//Background and Video events
0,0,"bg.jpg",0,0
//Break Periods
2,70088,83801
2,139545,149531
//Storyboard Layer 0 (Background)
//Storyboard Layer 1 (Fail)
//Storyboard Layer 2 (Pass)
//Storyboard Layer 3 (Foreground)
//Storyboard Layer 4 (Overlay)
//Storyboard Sound Samples

[TimingPoints]
407,228.136882129278,4,2,1,35,1,0
423,229.007633587787,4,2,1,35,1,0
423,-133.333333333333,4,2,1,35,0,0
2255,231.660231660232,4,2,1,35,1,0
2255,-133.333333333333,4,2,1,35,0,0
3181,228.136882129278,4,2,1,35,1,0
3181,-133.333333333333,4,2,1,35,0,0
5918,230.769230769231,4,2,1,35,1,0
5918,-133.333333333333,4,2,1,35,0,0
6841,228.136882129278,4,2,1,35,1,0
6841,-133.333333333333,4,2,1,35,0,0
12316,232.558139534884,4,2,1,35,1,0
12316,-133.333333333333,4,2,1,35,0,0
13246,229.007633587786,4,2,1,35,1,0
13246,-133.333333333333,4,2,1,35,0,0
14162,228.136882129278,4,2,1,35,1,0
14162,-133.333333333333,4,2,1,35,0,0
16899,225.563909774436,4,2,1,35,1,0
16899,-133.333333333333,4,2,1,35,0,0
17801,228.136882129278,4,2,1,55,1,0
18714,228.136882129278,4,2,1,70,1,0
23276,229.885057471264,4,2,1,70,1,0
26954,227.272727272727,4,2,1,70,1,0
27863,228.136882129278,4,2,1,70,1,0
30600,228.571428571429,4,2,1,70,1,0
31514,229.007633587786,4,2,1,70,1,0
33346,-133.333333333333,4,2,1,55,0,0
34262,226.415094339623,4,2,1,55,1,0
34262,-133.333333333333,4,2,1,55,0,0
36073,226.843100189036,4,2,1,55,1,0
36073,-133.333333333333,4,2,1,55,0,0
40156,-133.333333333333,4,2,1,65,0,0
40609,228.745711017918,4,2,1,70,1,0
69888,228.641109671519,4,2,1,50,1,0
69888,-111.111111111111,4,2,1,50,0,0
84521,-133.333333333333,4,2,1,50,0,0
85206,-200,4,2,1,50,0,0
87264,-111.111111111111,4,2,1,40,0,0
87722,-100,4,2,1,70,0,0
102812,227.100681302044,4,2,1,55,1,0
102812,-133.333333333333,4,2,1,55,0,0
109625,-133.333333333333,4,2,1,65,0,0
110079,228.641109671519,4,2,1,70,1,0
139345,228.83295194508,4,2,1,50,1,0
143921,226.073850791259,4,2,1,50,1,0
143921,-200,4,2,1,50,0,0
148442,-250,4,2,1,50,0,0
150251,-133.333333333333,4,2,1,55,0,0
151155,-111.111111111111,4,2,1,60,0,0
152059,-100,4,2,1,65,0,0
152511,-100,4,2,1,70,0,0
152963,-90.9090909090909,4,2,1,75,0,0
153416,-90.9090909090909,4,2,1,80,0,0
153868,226.946062485816,4,2,1,60,1,0
153868,-133.333333333333,4,2,1,60,0,0
204703,-133.333333333333,4,2,1,45,0,0
205611,-200,4,2,1,50,0,0
210150,-200,4,2,1,40,0,0
211966,-200,4,2,1,20,0,0
212873,-200,4,2,1,10,0,0
214462,-200,4,2,1,5,0,0

[Colours]
Combo1 : 175,175,175
Combo2 : 255,255,115
Combo3 : 255,77,77

[HitObjects]
435,355,423,6,0,P|453:282|446:195,1,151.875005793572,0|2,0:0|0:0,0:0:0:0:
447,128,881,2,0,P|420:130|389:152,1,50.6250019311906,2|2,0:0|0:0,0:0:0:0:
342,197,1110,2,0,P|284:212|208:62,1,253.125009655953,2|2,0:0|0:0,0:0:0:0:
248,5,1797,2,0,P|275:35|279:61,1,50.6250019311906,2|2,0:0|0:0,0:0:0:0:
354,19,2026,2,0,P|355:59|341:81,1,50.6250019311906,2|2,0:0|0:0,0:0:0:0:
306,136,2255,6,0,P|256:137|150:182,1,151.875005793572,2|2,0:0|0:0,0:0:0:0:
85,206,2718,2,0,P|108:243|114:272,1,50.6250019311906,2|0,0:0|0:0,0:0:0:0:
34,282,2949,2,0,P|11:245|5:216,1,50.6250019311906,2|0,0:0|0:0,0:0:0:0:
10,149,3181,2,0,P|76:169|209:51,1,253.125009655953,2|0,0:0|0:0,0:0:0:0:
154,2,3865,2,0,P|136:24|129:57,1,50.6250019311906,2|0,0:0|0:0,0:0:0:0:
57,65,4093,6,0,P|112:97|144:140,1,101.250003862381,2|0,0:0|0:0,0:0:0:0:
186,188,4435,2,0,P|143:222|117:282,1,101.250003862381,2|0,0:0|0:0,0:0:0:0:
171,325,4777,2,0,P|188:306|198:280,1,50.6250019311906,2|0,0:0|0:0,0:0:0:0:
265,243,5006,2,0,P|309:232|407:299,1,151.875005793572,2|2,0:0|0:0,0:0:0:0:
468,325,5462,2,0,L|478:273,1,50.6250019311906,2|0,0:0|0:0,0:0:0:0:
437,206,5690,2,0,L|429:150,1,50.6250019311906,2|0,0:0|0:0,0:0:0:0:
465,86,5918,5,2,0:0:0:0:
358,118,6148,1,0,0:0:0:0:
247,101,6379,1,2,0:0:0:0:
162,28,6610,1,2,0:0:0:0:
252,16,6841,2,0,P|270:85|226:265,1,253.125009655953,2|0,0:0|0:0,0:0:0:0:
207,332,7525,2,0,P|175:316|162:295,1,50.6250019311906,2|0,0:0|0:0,0:0:0:0:
73,336,7753,6,0,P|92:287|93:170,1,151.875005793572,2|2,0:0|0:0,0:0:0:0:
41,129,8209,2,0,P|30:109|30:69,1,50.6250019311906,2|0,0:0|0:0,0:0:0:0:
108,67,8437,2,0,P|119:87|119:127,1,50.6250019311906,2|0,0:0|0:0,0:0:0:0:
183,169,8666,2,0,P|227:144|382:146,1,202.500007724762,2|2,0:0|0:0,0:0:0:0:
375,143,9350,2,0,L|385:79,1,50.6250019311906,2|0,0:0|0:0,0:0:0:0:
465,75,9578,6,0,L|448:194,1,101.250003862381,2|0,0:0|0:0,0:0:0:0:
471,260,9920,2,0,L|356:246,1,101.250003862381,2|0,0:0|0:0,0:0:0:0:
303,297,10263,2,0,B|231:297|202:365|202:365|129:327|149:266,1,253.125009655953,2|2,0:0|0:0,0:0:0:0:
117,195,10947,2,0,P|155:187|182:193,1,50.6250019311906,2|0,0:0|0:0,0:0:0:0:
69,261,11175,2,0,P|31:269|4:263,1,50.6250019311906,2|0,0:0|0:0,0:0:0:0:
11,180,11403,6,0,P|86:160|153:11,1,253.125009655953,2|0,0:0|3:2,0:0:0:0:
73,0,12088,2,0,P|72:33|83:62,1,50.6250019311906,2|0,3:2|3:2,0:0:0:0:
158,113,12316,2,0,P|212:102|331:112,1,151.875005793572,2|0,0:2|0:0,0:0:0:0:
368,46,12781,2,0,P|335:125|367:256,1,202.500007724762,0|0,3:2|0:0,0:0:0:0:
434,354,13475,2,0,P|375:323|94:330,1,354.375013518334,0|0,0:0|3:2,0:0:0:0:
14,302,14390,6,0,P|61:316|72:230,1,151.875005793572,0|0,3:2|3:2,0:0:0:0:
88,156,14846,2,0,P|50:162|33:178,1,50.6250019311906,2|0,3:2|3:2,0:0:0:0:
80,236,15074,2,0,P|132:225|91:78,1,253.125009655953,2|0,0:0|3:2,0:0:0:0:
20,77,15758,2,0,P|23:47|43:24,1,50.6250019311906,2|0,3:2|0:0,0:0:0:0:
107,0,15987,2,0,P|138:36|252:66,1,151.875005793572,2|0,0:0|0:0,0:0:0:0:
267,141,16443,2,0,P|304:114|419:91,1,151.875005793572,2|0,0:0|0:0,0:0:0:0:
455,26,16899,6,0,P|479:56|482:89,1,50.6250019311906,2|0,3:2|0:0,0:0:0:0:
383,133,17124,2,0,P|396:97|424:78,1,50.6250019311906,2|0,3:2|0:0,0:0:0:0:
509,140,17350,2,0,P|471:145|440:131,1,50.6250019311906,0|0,3:2|3:2,0:0:0:0:
358,216,17575,2,0,P|395:210|426:224,1,50.6250019311906,2|0,3:2|3:2,0:0:0:0:
478,254,17801,5,10,0:0:0:0:
361,345,18029,1,8,0:0:0:0:
256,240,18257,2,0,L|247:318,1,67.5,10|8,0:0|0:0,0:0:0:0:
166,349,18485,2,0,L|173:281,1,67.5,10|8,0:0|0:0,0:0:0:0:
141,210,18714,6,0,P|111:203|49:213,1,67.5,14|0,0:1|0:0,0:0:0:0:
2,176,18942,2,0,P|61:171|123:106,1,135,10|0,0:0|0:0,0:0:0:0:
110,42,19284,1,8,0:1:0:0:
110,42,19398,2,0,P|60:63|42:89,1,67.5,10|0,0:0|0:0,0:0:0:0:
115,122,19626,6,0,P|182:131|267:169,2,135,10|8|0,0:1|0:0|0:0,0:0:0:0:
82,194,20196,1,0,0:0:0:0:
82,194,20310,2,0,P|71:235|73:265,1,67.5,8|0,0:0|0:0,0:0:0:0:
50,342,20539,6,0,L|210:323,1,135,10|8,0:1|0:0,0:0:0:0:
328,360,20995,2,0,L|341:280,1,67.5,2|8,0:0|0:1,0:0:0:0:
409,250,21223,2,0,L|422:170,1,67.5,8|0,0:0|0:0,0:0:0:0:
357,135,21451,6,0,P|346:87|367:0,2,135,10|8|8,0:1|0:0|0:1,0:0:0:0:
290,189,22021,1,8,0:1:0:0:
290,189,22136,2,0,P|230:181|201:187,1,67.5,8|8,0:0|0:1,0:0:0:0:
155,233,22364,6,0,P|139:191|145:153,1,67.5,10|0,0:1|0:0,0:0:0:0:
223,181,22592,2,0,P|239:247|212:339,1,135,8|8,0:0|0:1,0:0:0:0:
161,362,22934,1,8,0:1:0:0:
161,362,23048,2,0,L|70:355,1,67.5,10|0,0:0|0:0,0:0:0:0:
226,311,23276,6,0,L|374:317,2,135,10|8|8,0:1|0:0|0:1,0:0:0:0:
154,275,23850,1,8,0:1:0:0:
154,275,23965,2,0,L|153:192,1,67.5,10|8,0:0|0:1,0:0:0:0:
204,145,24195,6,0,P|248:132|353:157,1,135,10|8,0:1|0:0,0:0:0:0:
334,146,24655,2,0,L|343:60,1,67.5,10|8,0:1|0:1,0:0:0:0:
418,90,24885,2,0,L|411:157,1,67.5,10|0,0:0|0:0,0:0:0:0:
459,230,25115,6,0,P|414:243|350:312,1,135,10|10,0:1|0:0,0:0:0:0:
280,350,25459,1,8,0:1:0:0:
280,350,25574,2,0,L|193:340,2,67.5,10|8|10,0:0|0:0|0:0,0:0:0:0:
278,267,25919,1,8,0:0:0:0:
278,267,26034,2,0,L|130:254,1,135,14|8,0:1|0:0,0:0:0:0:
143,255,26494,2,0,L|152:162,2,67.5,0|8|10,0:0|0:1|0:0,0:0:0:0:
63,290,26839,1,0,0:0:0:0:
63,290,26954,6,0,L|69:209,1,67.5,10|0,0:1|0:0,0:0:0:0:
9,171,27181,2,0,P|-1:104|32:26,1,135,8|0,0:0|0:0,0:0:0:0:
95,17,27522,1,8,0:1:0:0:
95,17,27635,2,0,L|193:16,1,67.5,10|0,0:0|0:0,0:0:0:0:
224,75,27863,6,0,B|243:146|207:140|235:225,2,135,8|8|2,0:1|0:0|0:0,0:0:0:0:
278,12,28433,1,8,0:1:0:0:
278,12,28547,2,0,P|301:54|304:89,1,67.5,10|0,0:0|0:0,0:0:0:0:
377,99,28775,6,0,B|365:196,1,67.5,10|0,0:1|0:0,0:0:0:0:
443,200,29003,2,0,P|415:238|401:345,1,135,8|8,0:0|0:1,0:0:0:0:
320,358,29345,1,10,0:1:0:0:
320,358,29459,2,0,L|232:349,1,67.5,8|8,0:0|0:0,0:0:0:0:
183,299,29688,6,0,P|129:305|50:363,2,135,10|8|10,0:1|0:0|0:1,0:0:0:0:
248,250,30258,1,8,0:1:0:0:
248,250,30372,2,0,L|253:170,1,67.5,8|0,0:0|0:0,0:0:0:0:
290,110,30600,6,0,P|251:102|203:119,1,67.5,10|0,0:1|0:0,0:0:0:0:
156,155,30828,2,0,P|96:152|40:90,1,135,8|8,0:0|0:1,0:0:0:0:
81,36,31171,1,8,0:1:0:0:
81,36,31285,2,0,P|123:60|139:85,1,67.5,10|0,0:0|0:0,0:0:0:0:
156,155,31514,2,0,L|130:308,2,135,8|8|8,0:1|0:0|0:1,0:0:0:0:
217,100,32086,1,8,0:1:0:0:
217,100,32201,2,0,P|265:84|306:88,1,67.5,8|8,0:0|0:1,0:0:0:0:
370,107,32430,6,0,P|334:150|318:241,1,135,12|10,0:1|0:0,0:0:0:0:
364,301,32773,1,8,0:0:0:0:
364,301,32888,2,0,L|448:288,2,67.5,10|8|6,0:0|0:3|0:3,0:0:0:0:
286,331,33231,1,4,0:3:0:0:
286,331,33346,6,0,B|166:333|214:380|72:383,1,202.500007724762,14|2,0:1|0:3,0:0:0:0:
4,315,34033,1,2,0:3:0:0:
4,315,34262,2,0,P|45:255|174:232,1,202.500007724762,10|2,0:0|0:3,0:0:0:0:
263,294,34941,1,2,0:3:0:0:
263,294,35167,6,0,P|249:227|251:87,1,202.500007724762,10|2,0:1|0:3,0:0:0:0:
330,16,35846,1,8,0:1:0:0:
330,16,36073,2,0,P|362:7|437:8,2,101.250003862381,10|8|2,0:0|0:1|0:3,0:0:0:0:
249,93,36753,1,8,0:1:0:0:
154,33,36980,6,0,P|132:60|117:229,1,202.500007724762,14|2,0:1|0:3,0:0:0:0:
176,312,37660,1,10,0:1:0:0:
176,312,37887,2,0,B|255:306|255:306|297:321|297:321|384:312,1,202.500007724762,10|2,0:0|0:3,0:0:0:0:
465,246,38568,1,10,0:1:0:0:
465,246,38795,6,0,P|479:173|463:33,1,202.500007724762,10|2,0:1|0:3,0:0:0:0:
381,117,39475,1,10,0:1:0:0:
381,117,39702,2,0,P|344:90|275:78,1,101.250003862381,8|10,0:0|0:0,0:0:0:0:
207,86,40042,1,8,0:0:0:0:
207,86,40156,2,0,L|217:156,2,50.6250019311906,10|8|4,0:0|0:3|0:3,0:0:0:0:
128,37,40496,1,4,0:3:0:0:
128,37,40609,6,0,P|88:40|54:70,1,67.5,14|0,0:1|0:0,0:0:0:0:
114,114,40837,2,0,P|114:147|51:233,1,135,10|2,0:0|0:0,0:0:0:0:
3,296,41180,1,8,0:1:0:0:
3,296,41295,2,0,P|41:309|72:355,1,67.5,10|0,0:0|0:0,0:0:0:0:
128,370,41523,6,0,L|270:358,2,135,10|8|0,0:1|0:0|0:0,0:0:0:0:
130,290,42095,1,8,0:1:0:0:
130,290,42210,2,0,L|220:280,1,67.5,10|8,0:0|0:1,0:0:0:0:
277,270,42438,6,0,P|281:226|271:185,1,67.5,8|0,0:1|0:0,0:0:0:0:
225,144,42667,2,0,L|220:59,2,67.5,10|2|2,0:0|0:0|0:0,0:0:0:0:
149,183,43010,1,8,0:1:0:0:
149,183,43125,2,0,L|58:183,1,67.5,10|0,0:0|0:0,0:0:0:0:
225,144,43353,6,0,L|373:139,2,135,10|10|10,0:1|0:0|0:1,0:0:0:0:
218,230,43925,1,0,0:0:0:0:
218,230,44040,2,0,P|214:267|229:308,1,67.5,10|0,0:0|0:0,0:0:0:0:
281,353,44268,6,0,L|371:347,1,67.5,8|0,0:1|0:0,0:0:0:0:
420,311,44497,2,0,L|414:152,1,135,10|8,0:0|0:1,0:0:0:0:
439,101,44840,1,8,0:1:0:0:
439,101,44955,2,0,P|406:97|367:112,1,67.5,10|8,0:0|0:1,0:0:0:0:
314,160,45183,6,0,P|267:147|168:146,2,135,8|10|8,0:1|0:0|0:1,0:0:0:0:
298,240,45755,1,8,0:1:0:0:
298,240,45870,2,0,P|253:234|218:219,1,67.5,10|8,0:0|0:1,0:0:0:0:
167,270,46098,6,0,P|128:271|72:282,1,67.5,8|0,0:1|0:0,0:0:0:0:
71,356,46327,2,0,P|120:355|217:341,1,135,10|8,0:0|0:1,0:0:0:0:
298,367,46670,1,8,0:1:0:0:
298,367,46785,2,0,P|358:351|387:341,1,67.5,10|8,0:0|0:1,0:0:0:0:
410,283,47013,6,0,P|402:245|391:211,1,67.5,8|0,0:1|0:0,0:0:0:0:
461,169,47242,2,0,P|480:235|505:329,1,135,10|8,0:0|0:1,0:0:0:0:
461,370,47585,1,8,0:1:0:0:
461,370,47700,2,0,P|410:362|374:362,1,67.5,8|8,0:0|0:1,0:0:0:0:
331,318,47928,6,0,P|279:308|182:354,2,135,10|8|2,0:1|0:0|0:0,0:0:0:0:
357,247,48500,1,0,0:0:0:0:
357,247,48615,2,0,P|347:201|341:160,1,67.5,8|0,0:0|0:0,0:0:0:0:
368,106,48843,6,0,P|328:102|294:121,1,67.5,10|0,0:1|0:0,0:0:0:0:
244,167,49072,2,0,L|99:183,1,135,8|10,0:0|0:1,0:0:0:0:
33,195,49415,1,8,0:1:0:0:
33,195,49530,2,0,P|20:153|21:118,1,67.5,8|8,0:0|0:1,0:0:0:0:
78,78,49758,6,0,P|117:33|213:8,2,135,8|8|2,0:1|0:0|0:0,0:0:0:0:
106,157,50330,1,8,0:1:0:0:
106,157,50445,2,0,L|117:240,1,67.5,8|0,0:0|0:0,0:0:0:0:
99,311,50673,6,0,P|166:298|242:333,2,135,10|8|2,0:1|0:0|0:0,0:0:0:0:
21,338,51245,1,8,0:1:0:0:
21,338,51360,2,0,L|10:265,1,67.5,8|8,0:0|0:1,0:0:0:0:
30,194,51588,6,0,P|71:181|117:184,1,67.5,10|0,0:1|0:0,0:0:0:0:
168,218,51817,2,0,P|240:207|328:200,1,135,8|8,0:0|0:1,0:0:0:0:
376,154,52160,1,8,0:1:0:0:
376,154,52275,2,0,P|378:189|387:231,1,67.5,8|0,0:0|0:0,0:0:0:0:
465,226,52503,6,0,P|460:161|437:77,2,135,10|8|10,0:1|0:0|0:1,0:0:0:0:
420,302,53075,1,8,0:1:0:0:
420,302,53190,2,0,P|378:318|330:326,1,67.5,10|0,0:0|0:0,0:0:0:0:
284,284,53418,6,0,P|242:268|194:260,1,67.5,10|0,0:1|0:0,0:0:0:0:
154,317,53647,2,0,P|105:327|5:333,1,135,10|10,0:0|0:1,0:0:0:0:
0,258,53990,1,8,0:1:0:0:
0,258,54104,2,0,P|38:255|81:252,1,67.5,8|0,0:0|0:0,0:0:0:0:
122,189,54333,6,0,P|167:201|224:273,2,135,8|8|10,0:1|0:0|0:1,0:0:0:0:
42,172,54905,1,8,0:1:0:0:
42,172,55019,2,0,L|31:96,1,67.5,10|0,0:0|0:0,0:0:0:0:
62,35,55248,5,14,0:0:0:0:
175,130,55477,1,10,0:1:0:0:
321,153,55706,1,10,0:1:0:0:
454,88,55934,1,8,0:1:0:0:
320,22,56163,6,0,P|289:62|276:155,2,135,14|8|12,0:0|0:1|0:0,0:0:0:0:
320,22,57078,6,0,L|233:16,1,67.5,12|0,0:1|0:0,0:0:0:0:
192,68,57307,2,0,L|53:85,1,135,10|0,0:0|0:0,0:0:0:0:
10,151,57650,1,8,0:1:0:0:
10,151,57764,2,0,L|25:225,1,67.5,10|0,0:0|0:0,0:0:0:0:
96,242,57993,6,0,P|162:256|221:302,2,135,8|10|10,0:1|0:0|0:1,0:0:0:0:
70,318,58565,1,8,0:1:0:0:
70,318,58679,2,0,P|121:343|143:346,1,67.5,10|0,0:0|0:0,0:0:0:0:
212,373,58908,6,0,L|295:360,1,67.5,8|0,0:1|0:0,0:0:0:0:
358,370,59137,2,0,L|332:219,1,135,10|0,0:0|0:0,0:0:0:0:
407,198,59480,1,8,0:1:0:0:
407,198,59594,2,0,L|423:293,1,67.5,10|0,0:0|0:0,0:0:0:0:
335,236,59823,6,0,L|309:85,2,135,10|8|10,0:1|0:0|0:1,0:0:0:0:
262,270,60395,1,8,0:1:0:0:
262,270,60509,2,0,L|245:186,1,67.5,10|0,0:0|0:0,0:0:0:0:
223,132,60738,6,0,P|184:119|140:120,1,67.5,10|8,0:1|0:1,0:0:0:0:
170,199,60967,2,0,P|96:189|22:165,1,135,10|10,0:0|0:1,0:0:0:0:
11,252,61310,1,8,0:1:0:0:
11,252,61424,2,0,P|66:269|94:285,1,67.5,8|0,0:0|0:0,0:0:0:0:
135,327,61653,6,0,P|195:313|283:268,2,135,8|8|8,0:1|0:0|0:1,0:0:0:0:
55,354,62225,1,8,0:1:0:0:
55,354,62339,2,0,P|46:300|43:275,1,67.5,8|8,0:0|0:1,0:0:0:0:
1,220,62568,6,0,P|19:186|46:164,1,67.5,10|0,0:1|0:0,0:0:0:0:
75,96,62797,2,0,P|116:125|217:136,1,135,8|10,0:0|0:1,0:0:0:0:
274,173,63140,1,0,0:0:0:0:
274,173,63254,2,0,P|314:155|341:133,1,67.5,8|0,0:0|0:0,0:0:0:0:
379,79,63483,6,0,L|368:2,1,67.5,10|8,0:1|0:1,0:0:0:0:
447,5,63712,2,0,L|468:155,1,135,8|10,0:0|0:1,0:0:0:0:
512,213,64055,1,8,0:1:0:0:
512,213,64169,2,0,L|433:225,1,67.5,8|0,0:0|0:0,0:0:0:0:
380,277,64398,6,0,P|353:236|256:191,2,135,8|8|8,0:1|0:0|0:1,0:0:0:0:
348,354,64970,1,8,0:1:0:0:
348,354,65084,2,0,P|310:323|296:296,1,67.5,8|0,0:0|0:0,0:0:0:0:
223,320,65313,6,0,P|173:314|125:324,1,67.5
83,350,65542,2,0,P|48:316|64:208,1,135,8|8,0:0|0:1,0:0:0:0:
79,161,65885,1,8,0:1:0:0:
79,161,65999,2,0,L|154:166,1,67.5,8|0,0:0|0:0,0:0:0:0:
222,137,66228,6,0,P|235:81|202:1,2,135,8|8|0,0:1|0:0|0:0,0:0:0:0:
214,222,66800,1,8,0:1:0:0:
214,222,66914,2,0,L|303:223,1,67.5,8|0,0:0|0:0,0:0:0:0:
349,181,67143,6,0,L|435:168,1,67.5,10|0,0:1|0:0,0:0:0:0:
439,92,67372,2,0,L|281:116,1,135,8|2,0:0|0:0,0:0:0:0:
234,96,67715,1,8,0:1:0:0:
234,96,67829,2,0,L|211:13,1,67.5,10|0,0:0|0:0,0:0:0:0:
143,14,68058,6,0,P|88:7|3:30,2,135,10|10|2,0:1|0:0|0:0,0:0:0:0:
109,87,68630,1,8,0:1:0:0:
109,87,68744,2,0,P|72:112|54:144,1,67.5,8|0,0:0|0:0,0:0:0:0:
29,202,68973,6,0,P|85:242|130:320,1,135,8|8,0:1|0:0,0:0:0:0:
95,375,69316,1,8,0:0:0:0:
95,375,69430,2,0,P|56:339|42:317,1,67.5,8|8,0:0|0:0,0:0:0:0:
172,223,69659,2,0,P|211:259|225:281,1,67.5,4|4,0:3|0:3,0:0:0:0:
219,348,69888,5,14,0:1:0:0:
70,249,84521,6,0,B|11:206|49:117|49:117|51:150|76:166,1,202.500007724762,14|0,0:1|0:0,0:0:0:0:
74,164,85206,6,0,B|151:158|130:193|212:175,1,135
263,24,85892,2,0,P|204:42|175:113,1,135
285,137,86578,2,0,P|313:179|312:276,1,135,0|2,0:0|0:0,0:0:0:0:
317,261,87264,6,0,L|239:272,2,60.7499981460572,2|8|2,0:3|0:0|0:3,0:0:0:0:
400,283,87607,1,8,0:0:0:0:
400,283,87722,6,0,L|389:215,1,67.5,10|8,0:0|0:0,0:0:0:0:
418,141,87950,1,10,0:0:0:0:
418,141,88064,1,8,0:0:0:0:
418,141,88179,6,0,P|359:114|274:121,2,135,14|10|0,0:1|0:0|0:0,0:0:0:0:
473,82,88750,1,8,0:1:0:0:
473,82,88865,2,0,P|416:52|388:52,1,67.5,10|8,0:0|0:1,0:0:0:0:
344,10,89093,6,0,L|257:20,1,67.5,10|0,0:1|0:0,0:0:0:0:
189,19,89322,2,0,L|222:165,1,135,8|0,0:0|0:0,0:0:0:0:
158,205,89665,1,10,0:1:0:0:
158,205,89779,2,0,L|134:129,1,67.5,8|0,0:0|0:0,0:0:0:0:
56,152,90008,6,0,L|103:300,1,135,10|8,0:1|0:0,0:0:0:0:
96,280,90465,2,0,L|23:310,1,67.5,2|8,0:0|0:1,0:0:0:0:
63,376,90694,2,0,L|125:351,1,67.5,8|8,0:0|0:1,0:0:0:0:
184,298,90922,6,0,P|263:309|326:353,2,135,10|8|8,0:1|0:0|0:1,0:0:0:0:
155,225,91494,1,8,0:1:0:0:
155,225,91608,2,0,L|131:146,1,67.5,8|8,0:0|0:1,0:0:0:0:
152,83,91837,6,0,P|182:68|234:71,1,67.5,10|0,0:1|0:0,0:0:0:0:
293,84,92066,2,0,P|273:129|262:231,1,135,10|8,0:0|0:1,0:0:0:0:
329,264,92409,1,8,0:1:0:0:
329,264,92523,2,0,P|340:218|338:192,1,67.5,10|0,0:0|0:0,0:0:0:0:
401,147,92752,6,0,P|369:82|303:50,2,135,10|8|8,0:1|0:0|0:1,0:0:0:0:
465,201,93323,1,8,0:1:0:0:
465,201,93438,2,0,L|455:272,1,67.5,10|0,0:0|0:0,0:0:0:0:
467,343,93666,6,0,L|322:329,1,135,10|8,0:1|0:0,0:0:0:0:
332,330,94123,2,0,L|343:249,1,67.5,10|8,0:1|0:1,0:0:0:0:
263,249,94352,2,0,L|254:315,1,67.5,10|0,0:0|0:0,0:0:0:0:
181,356,94581,6,0,P|144:358|101:338,1,67.5,10|8,0:1|0:1,0:0:0:0:
110,272,94809,2,0,P|80:249|60:206,1,67.5,10|0,0:0|0:0,0:0:0:0:
112,160,95038,2,0,P|103:123|115:78,2,67.5,10|8|8,0:0|0:0|0:0,0:0:0:0:
189,127,95381,1,8,0:0:0:0:
189,127,95495,6,0,P|244:108|336:109,2,135,14|10|0,0:1|0:0|0:0,0:0:0:0:
208,208,96067,1,8,0:1:0:0:
208,208,96181,2,0,P|256:199|281:188,1,67.5,10|0,0:0|0:0,0:0:0:0:
357,194,96410,6,0,P|405:232|449:317,2,135,10|10|0,0:1|0:0|0:0,0:0:0:0:
326,123,96981,1,8,0:1:0:0:
326,123,97096,2,0,L|328:40,1,67.5,10|0,0:0|0:0,0:0:0:0:
259,17,97324,6,0,P|221:12|178:27,1,67.5,8|0,0:1|0:0,0:0:0:0:
108,26,97553,2,0,P|134:74|147:160,1,135,8|10,0:0|0:1,0:0:0:0:
78,181,97896,1,8,0:1:0:0:
78,181,98010,2,0,P|58:134|59:106,1,67.5,10|0,0:0|0:0,0:0:0:0:
147,152,98239,6,0,P|102:199|58:269,2,135,10|8|0,0:1|0:0|0:0,0:0:0:0:
212,199,98811,1,10,0:1:0:0:
212,199,98925,2,0,P|178:242|154:264,1,67.5,8|0,0:0|0:0,0:0:0:0:
121,322,99154,6,0,P|187:333|271:375,1,135,10|8,0:1|0:0,0:0:0:0:
248,360,99611,2,0,L|330:351,1,67.5,10|8,0:1|0:1,0:0:0:0:
379,306,99839,2,0,L|460:296,1,67.5,8|0,0:0|0:0,0:0:0:0:
500,240,100068,6,0,P|507:197|481:90,2,135,10|8|8,0:1|0:0|0:1,0:0:0:0:
421,213,100640,1,8,0:1:0:0:
421,213,100754,2,0,P|388:201|344:202,1,67.5,10|0,0:0|0:0,0:0:0:0:
302,137,100983,6,0,L|150:157,1,135,10|8,0:1|0:0,0:0:0:0:
168,154,101440,2,0,L|147:79,1,67.5,8|8,0:1|0:1,0:0:0:0:
74,107,101669,2,0,L|92:172,1,67.5,8|0,0:0|0:0,0:0:0:0:
22,230,101897,6,0,P|61:246|116:337,1,135,8|10,0:1|0:0,0:0:0:0:
185,355,102240,1,8,0:0:0:0:
185,355,102355,2,0,L|264:348,1,67.5,10|8,0:0|0:3,0:0:0:0:
239,228,102583,2,0,L|160:235,1,67.5,6|4,0:3|0:3,0:0:0:0:
213,149,102812,6,0,P|303:182|310:278,1,202.500007724762,14|2,0:1|0:3,0:0:0:0:
376,367,103493,1,8,0:1:0:0:
376,367,103720,6,0,L|481:376,2,101.250003862381,10|0|2,0:0|0:0|0:3,0:0:0:0:
264,362,104401,1,8,0:1:0:0:
264,362,104628,2,0,P|249:293|248:243,1,101.250003862381,10|0,0:1|0:0,0:0:0:0:
160,192,105083,2,0,P|192:129|224:90,1,101.250003862381,2|8,0:3|0:1,0:0:0:0:
299,36,105537,5,10,0:0:0:0:
360,128,105764,1,8,0:1:0:0:
360,128,105991,1,2,0:3:0:0:
453,68,106218,1,8,0:1:0:0:
445,178,106445,6,0,P|385:162|236:186,1,202.500007724762,14|2,0:1|0:3,0:0:0:0:
152,237,107126,1,8,0:1:0:0:
152,237,107354,6,0,L|136:126,2,101.250003862381,10|0|2,0:0|0:0|0:3,0:0:0:0:
71,325,108035,1,10,0:1:0:0:
71,325,108262,2,0,P|134:324|272:362,1,202.500007724762,10|2,0:1|0:3,0:0:0:0:
235,254,108943,1,10,0:1:0:0:
309,192,109170,6,0,P|312:242|326:290,1,101.250003862381,8|10,0:0|0:0,0:0:0:0:
371,365,109511,1,8,0:0:0:0:
371,365,109625,2,0,L|428:352,2,50.6250019311906,10|8|4,0:0|0:3|0:3,0:0:0:0:
502,374,109965,1,4,0:3:0:0:
502,374,110079,6,0,P|500:335|477:299,1,67.5,14|0,0:1|0:0,0:0:0:0:
418,273,110307,2,0,P|418:240|481:154,1,135,10|2,0:0|0:0,0:0:0:0:
509,88,110650,1,8,0:1:0:0:
509,88,110764,2,0,P|471:75|440:29,1,67.5,10|0,0:0|0:0,0:0:0:0:
384,14,110993,6,0,P|319:27|242:26,2,135,10|8|0,0:1|0:0|0:0,0:0:0:0:
382,94,111565,1,8,0:1:0:0:
382,94,111680,2,0,P|344:102|292:105,1,67.5,10|8,0:0|0:1,0:0:0:0:
235,114,111908,6,0,P|231:158|241:199,1,67.5,8|0,0:1|0:0,0:0:0:0:
287,240,112136,2,0,L|292:325,2,67.5,10|2|2,0:0|0:0|0:0,0:0:0:0:
363,201,112479,1,8,0:1:0:0:
363,201,112594,2,0,L|454:201,1,67.5,10|0,0:0|0:0,0:0:0:0:
287,240,112822,6,0,L|139:245,2,135,10|10|10,0:1|0:0|0:1,0:0:0:0:
294,154,113394,1,0,0:0:0:0:
294,154,113508,2,0,P|298:117|283:76,1,67.5,10|0,0:0|0:0,0:0:0:0:
231,31,113737,6,0,L|141:37,1,67.5,8|0,0:1|0:0,0:0:0:0:
92,73,113965,2,0,L|98:232,1,135,10|8,0:0|0:1,0:0:0:0:
73,283,114308,1,0,0:0:0:0:
73,283,114423,2,0,P|106:287|145:272,1,67.5,10|8,0:0|0:1,0:0:0:0:
198,224,114651,6,0,P|245:237|344:238,2,135,8|10|8,0:1|0:0|0:1,0:0:0:0:
214,144,115223,1,0,0:0:0:0:
214,144,115338,2,0,P|259:150|294:165,1,67.5,10|8,0:0|0:1,0:0:0:0:
345,114,115566,6,0,P|384:113|440:102,1,67.5,8|0,0:1|0:0,0:0:0:0:
441,28,115795,2,0,P|392:29|295:43,1,135,10|8,0:0|0:1,0:0:0:0:
214,17,116138,1,8,0:1:0:0:
214,17,116253,2,0,P|154:33|125:43,1,67.5,10|8,0:0|0:1,0:0:0:0:
102,101,116481,6,0,P|110:139|121:173,1,67.5,8|0,0:1|0:0,0:0:0:0:
51,215,116710,2,0,P|32:149|7:55,1,135,10|8,0:0|0:1,0:0:0:0:
51,14,117053,1,8,0:1:0:0:
51,14,117166,2,0,P|102:22|138:22,1,67.5,8|8,0:0|0:1,0:0:0:0:
181,66,117396,6,0,P|233:76|330:30,2,135,10|8|2,0:1|0:0|0:0,0:0:0:0:
155,137,117968,1,0,0:0:0:0:
155,137,118081,2,0,P|165:183|171:224,1,67.5,8|0,0:0|0:0,0:0:0:0:
144,278,118311,6,0,P|184:282|218:263,1,67.5,10|0,0:1|0:0,0:0:0:0:
268,217,118538,2,0,L|413:201,1,135,8|10,0:0|0:1,0:0:0:0:
479,189,118881,1,8,0:1:0:0:
479,189,118996,2,0,P|492:231|491:266,1,67.5,8|8,0:0|0:1,0:0:0:0:
434,306,119224,6,0,P|395:351|299:376,2,135,8|8|2,0:1|0:0|0:0,0:0:0:0:
406,227,119796,1,8,0:1:0:0:
406,227,119910,2,0,L|395:144,1,67.5,8|0,0:0|0:0,0:0:0:0:
413,73,120139,6,0,P|346:86|270:51,2,135,10|8|2,0:1|0:0|0:0,0:0:0:0:
491,46,120710,1,8,0:1:0:0:
491,46,120825,2,0,L|502:119,1,67.5,8|8,0:0|0:1,0:0:0:0:
482,190,121053,6,0,P|441:203|395:200,1,67.5,10|0,0:1|0:0,0:0:0:0:
344,166,121282,2,0,P|272:177|184:184,1,135,8|8,0:0|0:1,0:0:0:0:
136,230,121625,1,8,0:1:0:0:
136,230,121738,2,0,P|134:195|125:153,1,67.5,8|0,0:0|0:0,0:0:0:0:
47,158,121968,6,0,P|52:223|75:307,2,135,10|8|10,0:1|0:0|0:1,0:0:0:0:
92,82,122538,1,8,0:1:0:0:
92,82,122653,2,0,P|134:66|182:58,1,67.5,10|0,0:0|0:0,0:0:0:0:
228,100,122881,6,0,P|270:116|318:124,1,67.5,10|0,0:1|0:0,0:0:0:0:
358,67,123110,2,0,P|407:57|507:51,1,135,10|10,0:0|0:1,0:0:0:0:
512,126,123453,1,8,0:1:0:0:
512,126,123567,2,0,P|474:129|431:132,1,67.5,8|0,0:0|0:0,0:0:0:0:
390,195,123796,6,0,P|345:183|288:111,2,135,8|8|10,0:1|0:0|0:1,0:0:0:0:
470,212,124368,1,8,0:1:0:0:
470,212,124482,2,0,L|481:288,1,67.5,10|0,0:0|0:0,0:0:0:0:
450,349,124711,5,14,0:0:0:0:
337,254,124940,1,10,0:1:0:0:
191,231,125169,1,10,0:1:0:0:
58,296,125397,1,8,0:1:0:0:
192,362,125626,6,0,P|223:322|236:229,2,135,14|8|12,0:0|0:1|0:0,0:0:0:0:
192,362,126541,6,0,L|279:368,1,67.5,12|0,0:1|0:0,0:0:0:0:
320,316,126769,2,0,B|377:307|377:307|399:313|399:313|459:299,1,135,10|0,0:0|0:0,0:0:0:0:
502,233,127111,1,8,0:1:0:0:
502,233,127227,2,0,L|487:159,1,67.5,10|0,0:0|0:0,0:0:0:0:
416,142,127454,6,0,P|350:128|291:82,2,135,8|10|10,0:1|0:0|0:1,0:0:0:0:
442,66,128026,1,8,0:1:0:0:
442,66,128140,2,0,P|391:41|369:38,1,67.5,10|0,0:0|0:0,0:0:0:0:
300,11,128369,6,0,L|217:24,1,67.5,8|0,0:1|0:0,0:0:0:0:
154,14,128598,2,0,L|180:165,1,135,10|0,0:0|0:0,0:0:0:0:
105,186,128941,1,8,0:1:0:0:
105,186,129055,2,0,L|89:91,1,67.5,10|0,0:0|0:0,0:0:0:0:
177,148,129284,6,0,L|203:299,2,135,10|8|10,0:1|0:0|0:1,0:0:0:0:
250,114,129856,1,8,0:1:0:0:
250,114,129970,2,0,L|267:198,1,67.5,10|0,0:0|0:0,0:0:0:0:
289,252,130198,6,0,P|328:265|372:264,1,67.5,10|8,0:1|0:1,0:0:0:0:
342,185,130427,2,0,P|416:195|490:219,1,135,10|10,0:0|0:1,0:0:0:0:
501,132,130770,1,0,0:0:0:0:
501,132,130884,2,0,P|446:115|418:99,1,67.5,8|0,0:0|0:0,0:0:0:0:
377,57,131113,6,0,B|303:70|336:99|229:116,2,135,8|8|8,0:1|0:0|0:1,0:0:0:0:
457,30,131685,1,8,0:1:0:0:
457,30,131799,2,0,P|466:84|469:109,1,67.5,8|8,0:0|0:1,0:0:0:0:
511,164,132028,6,0,P|493:198|466:220,1,67.5,10|0,0:1|0:0,0:0:0:0:
437,288,132257,2,0,P|396:259|295:248,1,135,8|10,0:0|0:1,0:0:0:0:
238,211,132599,1,0,0:0:0:0:
238,211,132713,2,0,P|198:229|171:251,1,67.5,8|0,0:0|0:0,0:0:0:0:
133,305,132942,6,0,L|144:382,1,67.5,10|8,0:1|0:1,0:0:0:0:
62,374,133171,2,0,B|50:277|50:277|19:233,1,135,8|10,0:0|0:1,0:0:0:0:
0,171,133514,1,8,0:1:0:0:
0,171,133628,2,0,L|79:159,1,67.5,8|0,0:0|0:0,0:0:0:0:
132,107,133857,6,0,P|159:148|256:193,2,135,8|8|8,0:1|0:0|0:1,0:0:0:0:
164,30,134428,1,8,0:1:0:0:
164,30,134542,2,0,P|202:61|216:88,1,67.5,8|0,0:0|0:0,0:0:0:0:
289,64,134771,6,0,P|339:70|387:60,1,67.5
430,27,135000,2,0,B|467:58|467:58|449:169,1,135,8|8,0:0|0:1,0:0:0:0:
433,223,135343,1,8,0:1:0:0:
433,223,135457,2,0,L|358:218,1,67.5,8|0,0:0|0:0,0:0:0:0:
290,247,135686,6,0,B|277:317|277:317|310:383,2,135,8|8|0,0:1|0:0|0:0,0:0:0:0:
298,162,136258,1,8,0:1:0:0:
298,162,136371,2,0,L|209:161,1,67.5,8|0,0:0|0:0,0:0:0:0:
163,203,136600,6,0,L|77:216,1,67.5,8|0,0:1|0:0,0:0:0:0:
73,292,136829,2,0,L|231:268,1,135,8|2,0:0|0:0,0:0:0:0:
288,264,137172,1,8,0:1:0:0:
288,264,137286,2,0,L|311:347,1,67.5,10|0,0:0|0:0,0:0:0:0:
369,370,137515,6,0,P|424:377|509:354,2,135,10|10|2,0:1|0:0|0:0,0:0:0:0:
403,297,138087,1,8,0:1:0:0:
403,297,138201,2,0,P|440:272|458:240,1,67.5,8|0,0:0|0:0,0:0:0:0:
483,182,138430,6,0,P|427:142|382:64,1,135,8|10,0:1|0:0,0:0:0:0:
307,131,138773,1,8,0:0:0:0:
307,131,138887,2,0,P|346:167|360:189,1,67.5,10|8,0:0|0:0,0:0:0:0:
292,236,139116,2,0,P|253:200|239:178,1,67.5,4|4,0:3|0:3,0:0:0:0:
224,112,139345,5,14,0:1:0:0:
50,261,150251,6,0,L|59:321,1,50.6250019311906,12|0,0:1|0:0,0:0:0:0:
123,356,150477,2,0,L|183:347,1,50.6250019311906,8|0,0:1|0:0,0:0:0:0:
230,297,150703,2,0,L|221:237,1,50.6250019311906,8|0,0:1|0:0,0:0:0:0:
157,201,150929,2,0,L|96:210,1,50.6250019311906,10|0,0:1|0:0,0:0:0:0:
91,132,151155,6,0,L|161:124,1,60.7499981460572,8|0,0:1|0:0,0:0:0:0:
226,92,151381,2,0,L|232:152,1,60.7499981460572,8|0,0:1|0:0,0:0:0:0:
249,228,151607,2,0,L|179:236,1,60.7499981460572,10|0,0:1|0:0,0:0:0:0:
113,268,151833,2,0,L|106:207,1,60.7499981460572,8|0,0:1|0:0,0:0:0:0:
91,132,152059,1,8,0:1:0:0:
256,192,152116,12,10,153416,0:1:0:0:
414,44,153868,6,0,P|445:98|351:91,1,202.500007724762,14|8,0:1|0:1,0:0:0:0:
246,57,154548,1,8,0:1:0:0:
246,57,154775,2,0,P|259:157|262:266,1,202.500007724762,10|8,0:0|0:1,0:0:0:0:
192,346,155456,1,8,0:1:0:0:
86,310,155683,6,0,P|73:270|69:152,1,151.875005793572,10|0,0:1|0:0,0:0:0:0:
96,91,156137,1,8,0:1:0:0:
181,162,156364,1,8,0:1:0:0:
255,79,156591,2,0,P|281:66|362:59,2,101.250003862381,10|0|10,0:0|0:0|0:1,0:0:0:0:
332,159,157272,1,8,0:1:0:0:
332,159,157499,6,0,P|396:202|440:333,1,202.500007724762,14|8,0:1|0:1,0:0:0:0:
332,291,158179,1,8,0:1:0:0:
332,291,158406,2,0,L|166:324,1,151.875005793572,10|0,0:0|0:0,0:0:0:0:
114,362,158860,2,0,L|100:307,1,50.6250019311906,2|0,0:0|0:0,0:0:0:0:
143,247,159087,2,0,L|203:235,1,50.6250019311906,8|0,0:1|0:0,0:0:0:0:
246,179,159314,6,0,P|248:127|213:25,1,151.875005793572,8|0,0:1|0:0,0:0:0:0:
142,12,159768,1,0,0:0:0:0:
81,137,159995,1,10,0:1:0:0:
81,137,160222,2,0,P|68:190|81:360,1,202.500007724762,8|8,0:0|0:3,0:0:0:0:
295,366,161130,6,0,P|303:310|285:155,1,202.500007724762,14|8,0:1|0:1,0:0:0:0:
214,81,161811,1,0,0:0:0:0:
214,81,162038,6,0,L|93:94,2,101.250003862381,10|0|2,0:0|0:0|0:0,0:0:0:0:
308,22,162718,1,8,0:1:0:0:
308,22,162945,2,0,P|351:47|411:191,1,202.500007724762,8|0,0:1|0:0,0:0:0:0:
399,292,163626,1,8,0:1:0:0:
295,251,163853,6,0,B|240:260|262:280|201:293,2,101.250003862381,8|8|8,0:0|0:1|0:1,0:0:0:0:
188,217,164534,1,10,0:1:0:0:
115,301,164761,2,0,P|96:251|103:88,1,202.500007724762,14|0,0:1|0:0,0:0:0:0:
203,140,165442,1,10,0:1:0:0:
178,31,165669,2,0,P|222:40|398:39,1,202.500007724762,8|0,0:0|0:0,0:0:0:0:
485,7,166350,1,8,0:1:0:0:
485,7,166576,6,0,P|465:50|454:109,1,101.250003862381,8|8,0:0|0:1,0:0:0:0:
402,167,166917,1,8,0:0:0:0:
402,167,167030,2,0,L|415:220,1,50.6250019311906,8|0,0:0|0:0,0:0:0:0:
336,235,167257,2,0,L|323:185,1,50.6250019311906,8|8,0:3|0:3,0:0:0:0:
258,141,167484,2,0,P|213:132|138:152,1,101.250003862381,8|8,0:3|0:0,0:0:0:0:
91,192,167825,1,8,0:0:0:0:
91,192,167938,2,0,L|102:259,2,50.6250019311906,8|8|4,0:0|0:0|0:3,0:0:0:0:
14,142,168279,1,4,0:3:0:0:
14,142,168392,6,0,P|36:106|198:60,1,202.500007724762,14|0,0:1|0:0,0:0:0:0:
285,90,169073,1,8,0:1:0:0:
285,90,169300,2,0,L|273:197,2,101.250003862381,10|0|8,0:0|0:0|0:1,0:0:0:0:
388,47,169981,1,8,0:1:0:0:
388,47,170208,6,0,L|375:262,1,202.500007724762,10|2,0:1|0:0,0:0:0:0:
448,333,170888,1,8,0:1:0:0:
375,249,171115,1,10,0:0:0:0:
331,351,171342,1,0,0:0:0:0:
249,274,171569,1,2,0:0:0:0:
188,367,171796,1,8,0:1:0:0:
188,367,172023,6,0,P|191:302|153:154,1,202.500007724762,14|0,0:1|0:0,0:0:0:0:
78,92,172704,1,8,0:1:0:0:
78,92,172931,2,0,P|118:64|274:77,1,202.500007724762,10|2,0:0|0:0,0:0:0:0:
363,124,173612,1,10,0:1:0:0:
363,124,173839,2,0,P|395:86|448:61,2,101.250003862381,8|2|8,0:1|0:0|0:1,0:0:0:0:
317,226,174520,1,10,0:1:0:0:
210,191,174747,5,10,0:0:0:0:
212,301,174973,1,8,0:1:0:0:
309,246,175200,1,10,0:1:0:0:
201,215,175427,1,0,0:0:0:0:
194,326,175654,6,0,P|245:307|408:298,1,202.500007724762,14|0,0:1|0:0,0:0:0:0:
481,362,176335,1,8,0:1:0:0:
481,362,176562,2,0,P|490:278|447:156,1,202.500007724762,10|2,0:0|0:0,0:0:0:0:
357,110,177243,1,10,0:1:0:0:
444,41,177470,6,0,P|379:29|237:63,1,202.500007724762,10|0,0:1|0:0,0:0:0:0:
161,129,178151,1,8,0:1:0:0:
78,54,178378,1,10,0:0:0:0:
178,6,178605,1,8,0:1:0:0:
193,116,178832,1,0,0:0:0:0:
87,80,179059,1,8,0:1:0:0:
182,23,179285,6,0,P|210:68|213:225,1,202.500007724762,14|0,0:1|0:0,0:0:0:0:
171,315,179966,1,10,0:1:0:0:
114,218,180193,2,0,P|72:216|85:335,1,202.500007724762,10|2,0:0|0:0,0:0:0:0:
179,288,180874,1,8,0:1:0:0:
248,375,181101,6,0,L|197:379,2,50.6250019311906,8|8|8,0:0|0:0|0:3,0:0:0:0:
307,311,181441,1,8,0:3:0:0:
307,311,181555,2,0,L|289:248,1,50.6250019311906,4|4,0:3|0:3,0:0:0:0:
224,208,181782,1,8,0:0:0:0:
224,208,181895,1,8,0:0:0:0:
224,208,182009,6,0,P|265:184|328:188,1,101.250003862381,8|8,0:3|0:0,0:0:0:0:
394,218,182349,1,8,0:0:0:0:
394,218,182463,2,0,L|453:209,2,50.6250019311906,8|8|4,0:0|0:3|0:3,0:0:0:0:
343,282,182803,1,4,0:3:0:0:
343,282,182917,6,0,B|273:295|273:295|244:321|244:321|135:345,1,202.500007724762,14|8,0:1|0:1,0:0:0:0:
55,289,183597,1,8,0:1:0:0:
55,289,183824,2,0,P|33:241|48:90,1,202.500007724762,10|8,0:0|0:1,0:0:0:0:
134,28,184505,1,8,0:1:0:0:
134,28,184732,6,0,P|157:81|148:229,1,202.500007724762,10|8,0:1|0:1,0:0:0:0:
102,324,185413,1,8,0:1:0:0:
207,359,185640,2,0,P|224:338|315:314,2,101.250003862381,10|0|10,0:0|0:0|0:1,0:0:0:0:
224,248,186321,1,8,0:1:0:0:
224,248,186548,6,0,P|296:285|431:286,1,202.500007724762,14|8,0:1|0:1,0:0:0:0:
485,202,187229,1,8,0:1:0:0:
485,202,187456,2,0,P|424:185|331:287,1,202.500007724762,10|2,0:0|0:0,0:0:0:0:
291,168,188136,1,8,0:1:0:0:
291,168,188363,2,0,P|276:116|277:54,2,101.250003862381,8|6|0,0:1|0:0|0:0,0:0:0:0:
232,263,189044,1,8,0:1:0:0:
146,191,189271,5,8,0:1:0:0:
106,295,189498,1,8,0:1:0:0:
209,254,189725,1,12,0:0:0:0:
137,168,189952,1,8,0:1:0:0:
39,221,190179,6,0,P|19:159|43:20,1,202.500007724762,14|0,0:1|0:0,0:0:0:0:
128,94,190860,1,8,0:1:0:0:
128,94,191087,2,0,P|170:72|333:56,1,202.500007724762,10|8,0:0|0:1,0:0:0:0:
429,81,191767,1,8,0:1:0:0:
472,183,191994,6,0,P|382:169|401:80,1,202.500007724762,10|2,0:1|0:0,0:0:0:0:
351,181,192675,1,8,0:1:0:0:
351,181,192902,2,0,P|305:172|238:178,2,101.250003862381,10|0|2,0:0|0:0|0:0,0:0:0:0:
404,279,193583,1,8,0:1:0:0:
404,279,193810,6,0,P|344:281|200:340,1,202.500007724762,14|0,0:1|0:0,0:0:0:0:
102,308,194491,1,8,0:1:0:0:
102,308,194718,2,0,P|74:263|59:111,1,202.500007724762,10|2,0:0|0:0,0:0:0:0:
157,166,195399,1,0,0:0:0:0:
157,166,195626,6,0,P|147:100|128:62,1,101.250003862381,14|8,0:0|0:1,0:0:0:0:
194,20,195966,1,8,0:0:0:0:
194,20,196079,2,0,L|249:12,2,50.6250019311906,8|0|8,0:0|0:0|0:1,0:0:0:0:
238,93,196420,1,8,0:0:0:0:
238,93,196533,6,0,L|297:83,3,50.6250019311906,8|0|8|0,0:1|0:0|0:3|0:0,0:0:0:0:
185,159,196987,2,0,L|135:167,3,50.6250019311906,8|8|4|4,0:0|0:0|0:3|0:3,0:0:0:0:
76,223,197441,6,0,P|116:207|274:186,1,202.500007724762,14|0,0:1|0:0,0:0:0:0:
388,191,198122,1,8,0:1:0:0:
388,191,198349,2,0,P|414:141|305:118,1,202.500007724762,10|0,0:0|0:0,0:0:0:0:
280,219,199030,1,8,0:1:0:0:
280,219,199257,6,0,B|331:253|314:331|314:331|281:308|228:323,1,202.500007724762,10|2,0:1|0:0,0:0:0:0:
135,360,199938,1,8,0:1:0:0:
180,258,200164,5,10,0:0:0:0:
69,244,200391,1,8,0:1:0:0:
180,235,200618,1,10,0:1:0:0:
69,225,200845,1,8,0:1:0:0:
150,149,201072,6,0,P|189:147|310:261,1,202.500007724762,14|0,0:1|0:0,0:0:0:0:
347,349,201753,1,8,0:1:0:0:
347,349,201980,2,0,P|389:335|421:193,1,202.500007724762,10|0,0:0|0:0,0:0:0:0:
342,119,202661,1,8,0:1:0:0:
408,29,202888,6,0,P|368:10|291:25,1,101.250003862381,8|8,0:0|0:3,0:0:0:0:
241,55,203228,1,8,0:3:0:0:
241,55,203342,2,0,L|252:114,2,50.6250019311906,8|8|8,0:1|0:1|0:0,0:0:0:0:
156,31,203682,1,8,0:0:0:0:
156,31,203796,6,0,L|90:40,1,50.6250019311906,8|8,0:0|0:0,0:0:0:0:
43,95,204023,1,8,0:0:0:0:
43,95,204136,1,8,0:0:0:0:
43,95,204250,2,0,L|52:166,1,50.6250019311906,8|8,0:3|0:3,0:0:0:0:
124,174,204476,2,0,L|133:245,1,50.6250019311906,4|4,0:3|0:3,0:0:0:0:
116,300,204703,5,14,0:1:0:0:
218,256,204930,1,2,0:0:0:0:
329,253,205157,1,2,0:0:0:0:
429,300,205384,1,2,0:0:0:0:
378,378,205611,6,0,P|351:339|349:246,1,135,2|0,0:0|0:0,0:0:0:0:
409,193,206292,2,0,P|410:164|398:120,1,67.5,2|0,0:0|0:0,0:0:0:0:
401,126,206746,2,0,L|358:132,2,33.75,2|2|2,0:0|0:0|0:0,0:0:0:0:
431,51,207200,1,2,0:0:0:0:
356,16,207427,5,2,0:0:0:0:
295,71,207654,1,2,0:0:0:0:
224,31,207881,2,0,P|201:25|147:25,2,67.5,2|2|0,0:0|0:0|0:0,0:0:0:0:
216,111,208562,2,0,P|191:111|135:103,1,67.5,2|0,0:0|0:0,0:0:0:0:
256,192,208845,12,0,214462,0:0:0:0:
