osu file format v14

[General]
AudioFilename: audio.mp3
AudioLeadIn: 0
PreviewTime: 42940
Countdown: 0
SampleSet: Soft
StackLeniency: 0.4
Mode: 0
LetterboxInBreaks: 0
WidescreenStoryboard: 0

[Editor]
Bookmarks: 23,8912,26690,40023,44468,62246,80023,102246,115579,120023,137801,146690,151135,160023,168912,186690,188912
DistanceSpacing: 1.3
BeatDivisor: 4
GridSize: 32
TimelineZoom: 2.849999

[Metadata]
Title:Immortals
TitleUnicode:Immortals
Artist:Fall Out Boy
ArtistUnicode:Fall Out Boy
Creator:Piramisu
Version:Insane
Source:
Tags:Big Hero 6
BeatmapID:1785600
BeatmapSetID:854471

[Difficulty]
HPDrainRate:6
CircleSize:3.6
OverallDifficulty:8
ApproachRate:9.1
SliderMultiplier:1.92
SliderTickRate:1

[Events]
//Background and Video events
0,0,"big_hero_6_by_kurosaki_sasori_chan-d870zwz.jpg",0,0
//Break Periods
2,146888,148281
//Storyboard Layer 0 (Background)
//Storyboard Layer 1 (Fail)
//Storyboard Layer 2 (Pass)
//Storyboard Layer 3 (Foreground)
//Storyboard Layer 4 (Overlay)
//Storyboard Sound Samples

[TimingPoints]
20,-100,4,2,0,55,0,0
22,555.555555555556,4,2,0,55,1,0
9186,-76.9230769230769,4,2,0,55,0,0
44466,-62.5,4,2,0,65,0,0
80022,-76.9230769230769,4,2,0,55,0,0
97244,-333.333333333333,4,2,0,55,0,0
97799,-76.9230769230769,4,2,0,55,0,0
120022,-62.5,4,2,0,65,0,0
146133,-62.5,4,2,0,45,0,0
148910,-62.5,4,2,0,55,0,0
151133,-100,4,2,0,55,0,0
160022,-55.5555555555556,4,2,0,75,0,0
186133,-62.5,4,2,0,45,0,0
186688,-100,4,2,0,45,0,0

[Colours]
Combo1 : 35,151,245
Combo2 : 236,60,0
Combo3 : 129,37,252
Combo4 : 215,215,215

[HitObjects]
155,325,22,6,0,L|148:388,1,48,0|0,0:3|0:0,0:0:0:0:
246,295,299,1,0,0:0:0:0:
246,295,438,1,0,0:0:0:0:
246,295,577,1,0,0:0:0:0:
246,295,855,2,0,L|240:247,1,48
328,341,1133,6,0,L|325:378,2,24
409,306,1410,1,0,0:0:0:0:
409,306,1549,1,0,0:0:0:0:
409,306,1688,2,0,L|403:258,1,48
489,356,1966,5,0,0:0:0:0:
489,356,2105,1,0,0:0:0:0:
489,356,2244,1,0,0:0:0:0:
466,182,2522,1,0,0:0:0:0:
466,182,2660,1,0,0:0:0:0:
401,234,2799,6,0,L|404:271,2,24
323,203,3077,1,0,0:0:0:0:
323,203,3216,1,0,0:0:0:0:
323,203,3355,1,0,0:0:0:0:
377,69,3633,1,0,0:0:0:0:
377,69,3772,1,0,0:0:0:0:
312,121,3910,6,0,L|278:105,2,24,0|0|0,0:3|0:3|0:3,0:3:0:0:
455,100,4188,2,0,L|485:78,2,24,0|0|0,0:3|0:3|0:3,0:3:0:0:
401,234,4466,6,0,L|416:340,1,96,2|0,0:2|0:0,0:0:0:0:
495,276,4883,1,0,0:0:0:0:
495,276,5022,1,0,0:0:0:0:
495,276,5299,2,0,L|481:202,1,48
331,297,5577,6,0,L|336:333,2,24
313,212,5855,1,0,0:0:0:0:
313,212,5994,1,0,0:0:0:0:
254,347,6133,1,0,0:0:0:0:
254,347,6272,1,0,0:0:0:0:
166,228,6410,2,0,L|241:260,1,48
331,297,6688,5,0,0:3:0:0:
454,228,6966,1,0,0:3:0:0:
454,228,7105,1,0,0:0:0:0:
388,168,7244,2,0,L|394:135,2,24
420,303,7522,1,0,0:0:0:0:
420,303,7661,1,0,0:3:0:0:
420,303,7799,1,0,0:3:0:0:
322,108,8077,1,0,0:0:0:0:
322,108,8216,1,0,0:0:0:0:
313,212,8355,6,0,L|275:202,2,24
197,144,8633,2,0,L|220:137,4,24,0|0|0|0|2,0:0|0:0|0:0|0:0|0:0,0:0:0:0:
212,348,9188,6,0,L|190:289,1,62.3999971435548
104,363,9466,2,0,L|109:300,1,62.3999971435548
1,330,9744,2,0,L|32:276,1,62.3999971435548
197,144,10022,6,0,P|159:201|83:199,1,124.79999428711,2|0,0:0|0:0,0:0:0:0:
10,122,10438,1,0,0:0:0:0:
10,122,10577,2,0,L|15:184,1,62.3999971435548
111,45,10855,5,0,0:0:0:0:
120,126,10994,1,0,0:0:0:0:
0,35,11133,1,2,0:0:0:0:
213,8,11410,6,0,P|219:38|217:69,1,62.3999971435548
379,45,11688,2,0,P|349:34|323:17,1,62.3999971435548
264,168,11966,2,0,P|287:147|315:134,1,62.3999971435548
315,328,12244,6,0,P|238:326|188:242,1,124.79999428711,2|0,0:0|0:0,0:0:0:0:
264,168,12660,1,0,0:0:0:0:
264,168,12799,2,0,L|288:252,1,62.3999971435548
440,188,13077,5,0,0:0:0:0:
352,178,13216,1,0,0:0:0:0:
463,285,13355,1,2,0:0:0:0:
463,285,13633,6,0,L|458:358,1,62.3999971435548
364,384,13910,2,0,L|359:321,1,62.3999971435548
263,285,14188,2,0,L|258:358,1,62.3999971435548
58,347,14466,6,0,L|63:285,1,62.3999971435548,2|0,0:0|0:0,0:0:0:0:
159,321,14744,2,0,L|164:384,1,62.3999971435548
25,204,15022,6,0,P|66:195|109:211,1,62.3999971435548
107,113,15299,2,0,P|137:116|167:107,1,62.3999971435548
354,63,15577,6,0,P|362:22|390:-18,1,62.3999971435548,2|0,0:0|0:0,0:0:0:0:
273,109,15855,2,0,P|263:69|271:19,1,62.3999971435548
265,218,16133,2,0,P|225:206|186:174,1,62.3999971435548
384,235,16410,2,0,P|372:274|340:313,1,62.3999971435548
440,76,16688,6,0,P|413:131|356:151,1,124.79999428711,2|0,0:0|0:0,0:0:0:0:
264,48,17105,1,0,0:0:0:0:
264,48,17244,2,0,L|265:87,2,31.1999985717774
169,79,17522,1,0,0:0:0:0:
170,90,17591,1,0,0:0:0:0:
171,101,17660,2,0,L|173:144,2,31.1999985717774,0|0|2,0:0|0:0|0:0,0:0:0:0:
20,109,18077,6,0,L|82:106,1,62.3999971435548
175,210,18355,2,0,L|112:207,1,62.3999971435548
20,311,18633,2,0,L|82:308,1,62.3999971435548
273,217,18910,6,0,L|279:341,1,124.79999428711,2|0,0:0|0:0,0:0:0:0:
287,110,19327,1,0,0:0:0:0:
291,195,19466,2,0,L|295:258,1,62.3999971435548
420,146,19744,5,0,0:0:0:0:
373,217,19883,1,0,0:0:0:0:
368,79,20022,1,2,2:2:0:0:
463,287,20299,6,0,P|459:256|464:225,1,62.3999971435548
373,217,20577,2,0,P|382:187|400:161,1,62.3999971435548
319,117,20855,2,0,P|340:94|367:78,1,62.3999971435548
497,11,21133,6,0,L|512:134,1,124.79999428711,2|0,0:0|0:0,0:0:0:0:
462,286,21549,1,0,0:0:0:0:
462,286,21688,2,0,L|469:224,1,62.3999971435548
400,161,21966,5,0,0:0:0:0:
323,217,22105,1,0,0:0:0:0:
367,78,22244,1,2,0:0:0:0:
367,78,22522,6,0,L|293:82,1,62.3999971435548
178,129,22799,2,0,L|252:133,1,62.3999971435548
277,10,23077,2,0,L|203:14,1,62.3999971435548
18,48,23355,6,0,L|166:56,1,124.79999428711,2|0,0:0|0:0,0:0:0:0:
69,200,23772,1,0,0:0:0:0:
69,200,23910,2,0,L|78:138,1,62.3999971435548
159,219,24188,5,0,0:0:0:0:
140,309,24327,1,0,0:0:0:0:
50,290,24466,1,2,0:0:0:0:
50,290,24744,6,0,P|94:304|116:331,1,62.3999971435548
159,219,25022,2,0,P|203:205|225:178,1,62.3999971435548
230,328,25299,2,0,P|274:342|296:369,1,62.3999971435548
305,169,25577,6,0,L|289:85,1,62.3999971435548,2|0,0:0|0:0,0:0:0:0:
400,323,25855,2,0,L|384:407,1,62.3999971435548
434,116,26133,6,0,L|480:107,2,31.1999985717774,2|0|0,0:0|0:0|0:0,0:0:0:0:
346,219,26410,2,0,L|300:215,3,31.1999985717774
354,244,26688,6,8,L|480:224,1,124.79999428711,2|0,2:2|0:1,0:2:0:0:
477,224,27105,1,0,0:1:0:0:
400,323,27244,2,0,P|413:366|436:392,1,62.3999971435548,2|0,0:2|0:2,0:2:0:0:
434,116,27522,2,0,P|421:73|398:47,1,62.3999971435548,0|0,0:1|0:2,0:2:0:0:
132,63,27799,6,0,L|206:69,1,62.3999971435548,2|0,0:2|0:2,0:2:0:0:
349,121,28077,2,0,L|274:125,1,62.3999971435548,2|0,0:2|0:0,0:0:0:0:
158,174,28355,2,0,L|232:180,1,62.3999971435548,2|0,0:0|0:0,0:0:0:0:
291,218,28633,2,0,L|216:222,1,62.3999971435548
81,371,28910,6,0,L|85:235,1,124.79999428711,2|0,0:0|0:0,0:0:0:0:
85,247,29327,1,0,0:0:0:0:
193,282,29466,2,0,L|190:363,1,62.3999971435548,2|0,0:0|0:0,0:0:0:0:
291,218,29744,2,0,L|294:299,1,62.3999971435548
87,184,30022,2,0,L|84:265,1,62.3999971435548,2|0,0:0|0:0,0:0:0:0:
253,76,30299,6,0,P|286:78|316:95,1,62.3999971435548
206,196,30577,2,0,P|191:165|191:131,1,62.3999971435548,2|0,0:0|0:0,0:0:0:0:
334,175,30855,2,0,P|314:202|285:220,1,62.3999971435548
222,48,31133,6,0,B|289:29|285:70|365:50,1,124.79999428711,2|0,0:0|0:0,0:0:0:0:
449,7,31549,1,0,0:0:0:0:
449,7,31688,2,0,P|459:42|448:100,1,62.3999971435548,2|0,0:0|0:0,0:0:0:0:
512,143,31966,2,0,P|502:178|513:236,1,62.3999971435548
428,382,32244,6,0,P|472:340|443:269,1,124.79999428711,2|0,0:0|0:0,0:0:0:0:
512,143,32660,1,0,0:0:0:0:
512,143,32799,2,0,P|502:178|513:236,1,62.3999971435548,2|0,0:0|0:0,0:0:0:0:
449,7,33077,2,0,P|459:42|448:100,1,62.3999971435548
294,56,33355,6,0,L|355:49,1,62.3999971435548,2|0,0:0|0:0,0:0:0:0:
218,133,33633,2,0,L|157:126,1,62.3999971435548
336,185,33910,2,0,L|397:178,1,62.3999971435548,2|0,0:0|0:0,0:0:0:0:
260,262,34188,1,0,0:0:0:0:
260,262,34327,1,0,0:0:0:0:
260,262,34466,2,0,L|199:255,1,62.3999971435548,2|0,0:0|0:0,0:0:0:0:
378,314,34744,1,0,0:0:0:0:
378,314,34883,1,0,0:0:0:0:
378,314,35022,6,0,L|436:307,2,31.1999985717774,2|0|0,0:0|0:0|0:0,0:0:0:0:
366,188,35299,2,0,L|308:181,3,31.1999985717774
364,164,35577,6,0,P|427:152|457:92,1,124.79999428711,2|0,0:0|0:0,0:0:0:0:
456,103,35994,1,0,0:0:0:0:
359,27,36133,2,0,L|377:86,1,62.3999971435548,2|0,0:0|0:0,0:0:0:0:
280,112,36410,2,0,L|266:172,1,62.3999971435548
35,277,36688,6,0,P|32:205|63:177,1,62.3999971435548,2|0,0:0|0:0,0:0:0:0:
158,273,36966,2,0,P|97:311|57:298,1,62.3999971435548,2|0,0:0|0:0,0:0:0:0:
49,132,37244,6,0,P|84:151|108:189,1,62.3999971435548,2|0,0:0|0:0,0:0:0:0:
201,197,37522,2,0,P|162:185|118:195,1,62.3999971435548
176,360,37799,6,0,P|238:373|302:317,1,124.79999428711,2|0,0:0|0:0,0:0:0:0:
288,342,38216,1,0,0:0:0:0:
358,209,38355,2,0,L|364:285,1,62.3999971435548,2|0,0:0|0:0,0:0:0:0:
445,305,38633,2,0,L|439:229,1,62.3999971435548
275,175,38910,2,0,L|281:251,1,62.3999971435548,2|0,0:0|0:0,0:0:0:0:
447,40,39188,6,0,P|398:27|360:38,1,62.3999971435548
401,113,39466,2,0,P|352:126|314:115,1,62.3999971435548,2|0,0:0|0:0,0:0:0:0:
304,21,39744,2,0,P|255:8|217:19,1,62.3999971435548
275,175,40022,5,2,0:0:0:0:
204,203,40299,1,0,0:0:0:0:
184,275,40577,1,0,0:0:0:0:
226,335,40855,1,0,0:0:0:0:
300,341,41132,1,0,0:0:0:0:
351,284,41410,1,0,0:0:0:0:
339,211,41688,1,0,0:0:0:0:
274,175,41966,1,0,0:0:0:0:
339,211,42244,5,0,0:0:0:0:
323,208,43077,1,0,0:0:0:0:
307,205,43355,1,0,0:0:0:0:
291,202,43633,1,0,0:0:0:0:
275,45,43910,6,0,L|275:126,1,62.3999971435548,2|0,0:0|0:0,0:0:0:0:
275,199,44188,1,2,0:0:0:0:
275,45,44466,6,0,L|274:234,1,153.6,4|2,1:0|0:3,0:0:0:0:
343,265,44883,1,2,0:0:0:0:
428,97,45022,2,0,L|353:115,1,76.8,8|0,1:1|0:0,0:0:0:0:
199,180,45299,2,0,L|273:198,1,76.8,2|0,0:0|0:0,0:0:0:0:
93,0,45577,5,2,1:2:0:0:
93,0,45716,1,0,0:3:0:0:
46,79,45855,1,2,0:3:0:0:
112,142,45994,1,0,0:3:0:0:
65,221,46133,1,8,1:1:0:0:
131,284,46272,1,0,0:3:0:0:
84,363,46410,2,0,L|-21:378,1,76.8,2|0,0:2|0:3,0:3:0:0:
178,205,46688,6,0,P|223:280|204:341,1,153.6,2|2,1:2|0:3,0:0:0:0:
131,284,47105,1,2,0:0:0:0:
314,162,47244,2,0,P|289:217|292:245,1,76.8,8|0,1:0|0:0,0:0:0:0:
325,376,47522,2,0,P|320:338|300:305,1,76.8,2|0,0:0|0:0,0:0:0:0:
131,284,47799,5,2,1:2:0:0:
131,284,48077,2,0,L|224:273,1,76.8,2|0,0:3|0:0,0:0:0:0:
454,228,48355,1,8,1:1:0:0:
454,228,48633,2,0,L|361:217,1,76.8,2|0,0:0|0:0,0:0:0:0:
190,122,48910,6,0,P|279:160|270:238,1,153.6,6|2,1:2|0:3,0:0:0:0:
178,221,49327,1,2,0:0:0:0:
234,30,49466,2,0,P|190:26|146:40,1,76.8,8|0,1:1|0:0,0:0:0:0:
368,143,49744,2,0,P|378:180|376:218,1,76.8,2|0,2:2|0:0,0:0:0:0:
190,122,50022,6,0,B|266:131|266:131|292:236,1,153.6,2|2,1:2|0:3,0:0:0:0:
178,221,50438,1,2,0:0:0:0:
234,30,50577,2,0,L|114:18,1,76.8,8|0,1:1|0:0,0:0:0:0:
368,143,50855,2,0,L|390:240,1,76.8,2|0,0:0|0:0,0:0:0:0:
481,280,51133,6,0,P|443:286|408:302,1,76.8,2|0,1:2|0:0,0:0:0:0:
376,384,51410,2,0,P|341:367|303:361,1,76.8,2|0,2:2|0:0,0:0:0:0:
31,280,51688,2,0,P|68:286|103:302,1,76.8,8|0,1:1|0:0,0:0:0:0:
136,384,51966,2,0,P|170:367|208:361,1,76.8,2|0,2:2|0:0,0:0:0:0:
182,259,52244,2,0,P|220:266|255:282,1,76.8,0|0,1:2|0:0,0:0:0:0:
256,87,52522,6,0,L|256:215,1,76.8,8|0,1:2|0:0,0:0:0:0:
346,104,52799,5,8,1:2:0:0:
164,113,52938,1,8,1:2:0:0:
346,116,53077,5,2,2:2:0:0:
164,101,53216,1,8,1:2:0:0:
256,12,53355,6,0,L|256:191,1,153.6,4|2,1:1|0:3,0:0:0:0:
164,89,53772,1,2,0:0:0:0:
346,92,53910,2,0,P|395:110|433:174,1,76.8,8|0,1:1|0:0,0:0:0:0:
310,238,54188,2,0,P|327:188|392:150,1,76.8,2|0,2:2|0:0,0:0:0:0:
470,255,54466,6,0,L|385:237,1,76.8,2|0,1:2|0:0,0:0:0:0:
349,314,54744,2,0,L|273:329,1,76.8,2|0,0:0|0:0,0:0:0:0:
155,184,55022,2,0,L|240:202,1,76.8,8|0,1:0|0:0,0:0:0:0:
104,258,55299,1,2,0:0:0:0:
104,258,55438,1,0,0:0:0:0:
4,152,55577,6,0,L|154:183,1,153.6,2|2,1:2|0:3,0:0:0:0:
110,59,55994,1,2,0:0:0:0:
21,233,56133,2,0,P|18:271|50:326,1,76.8,8|0,1:1|0:0,0:0:0:0:
173,285,56410,2,0,P|141:263|77:263,1,76.8,2|0,2:2|0:0,0:0:0:0:
191,366,56688,2,0,P|225:349|257:294,1,76.8,2|0,1:2|0:0,0:0:0:0:
190,116,56966,6,0,L|166:189,1,76.8,2|0,0:0|0:0,0:0:0:0:
18,26,57244,1,8,1:0:0:0:
18,26,57522,2,0,L|41:99,1,76.8,2|0,0:0|0:0,0:0:0:0:
225,43,57799,6,0,B|173:1|111:30|111:30|127:72,1,153.6,4|2,1:2|0:3,0:0:0:0:
166,189,58216,1,2,0:0:0:0:
296,106,58355,2,0,P|308:147|295:208,1,76.8,8|0,1:0|0:0,0:0:0:0:
293,263,58633,2,0,P|291:301|302:337,1,76.8,2|0,0:0|0:0,0:0:0:0:
225,43,58910,6,0,B|185:37|160:0|160:0|150:41|120:61,1,153.6,2|2,1:2|0:3,0:0:0:0:
166,189,59327,1,2,0:0:0:0:
296,106,59466,2,0,P|294:144|305:180,1,76.8,8|0,1:0|0:0,0:0:0:0:
293,263,59744,2,0,P|304:299|302:337,1,76.8,2|0,0:0|0:0,0:0:0:0:
144,313,60022,6,0,L|245:309,1,76.8,2|0,1:2|0:0,0:0:0:0:
383,323,60299,1,2,0:3:0:0:
289,365,60438,1,2,0:0:0:0:
365,202,60577,2,0,L|353:118,1,76.8,8|0,1:1|0:0,0:0:0:0:
406,342,60855,1,2,0:0:0:0:
238,83,61133,5,2,1:2:0:0:
280,104,61410,1,8,0:2:0:0:
192,94,61688,5,8,0:0:0:0:
323,79,61827,1,8,0:0:0:0:
163,47,61966,5,8,0:0:0:0:
354,125,62105,1,8,0:0:0:0:
181,240,62244,6,0,P|167:284|178:350,1,76.8,4|0,1:1|0:0,0:0:0:0:
335,211,62522,2,0,P|291:196|224:208,1,76.8,2|0,2:3|0:0,0:0:0:0:
364,365,62799,2,0,P|378:321|367:254,1,76.8,8|0,1:1|0:0,0:0:0:0:
345,48,63077,6,0,L|356:149,1,76.8,2|0,0:0|0:0,0:0:0:0:
218,32,63355,2,0,L|261:139,1,76.8,2|0,1:2|0:0,0:0:0:0:
70,83,63633,2,0,L|168:120,1,76.8,2|0,0:3|0:0,0:0:0:0:
16,237,63910,2,0,L|112:195,1,76.8,8|0,1:0|0:0,0:0:0:0:
94,384,64188,2,0,L|120:278,1,76.8,2|0,0:0|0:0,0:0:0:0:
278,377,64466,1,2,1:2:0:0:
346,259,64744,5,2,0:3:0:0:
278,377,64883,1,2,0:0:0:0:
433,332,65022,2,0,P|444:291|385:330,1,153.6,8|2,1:0|0:0,0:0:0:0:
277,108,65577,6,0,P|345:200|374:311,1,230.4,2|0,1:2|0:0,0:0:0:0:
454,204,66133,1,8,1:1:0:0:
454,204,66410,2,0,P|454:169|472:129,1,76.8,2|0,0:0|0:0,0:0:0:0:
512,0,66688,6,0,L|424:11,1,76.8,2|0,1:2|0:0,0:0:0:0:
352,98,66966,2,0,L|264:109,1,76.8,2|0,2:3|0:0,0:0:0:0:
194,196,67244,2,0,L|106:207,1,76.8,8|0,1:1|0:0,0:0:0:0:
0,0,67522,6,0,L|88:11,1,76.8,2|0,2:2|0:0,0:0:0:0:
117,205,67799,2,0,L|193:195,1,76.8,2|0,1:2|0:0,0:0:0:0:
198,48,68077,2,0,L|286:59,1,76.8,2|0,2:3|0:0,0:0:0:0:
315,253,68355,2,0,L|391:243,1,76.8,8|0,1:1|0:0,0:0:0:0:
396,96,68633,2,0,L|484:107,1,76.8,2|0,2:2|0:0,0:0:0:0:
512,301,68910,1,2,1:2:0:0:
391,243,69188,5,2,0:3:0:0:
512,301,69327,1,2,0:0:0:0:
334,352,69466,2,0,B|275:368|275:368|161:297,1,153.6,8|2,1:0|0:0,0:0:0:0:
275,174,70022,5,2,1:2:0:0:
272,223,70299,1,8,2:2:0:0:
225,108,70577,5,8,0:0:0:0:
322,289,70716,1,8,0:0:0:0:
361,151,70855,5,8,0:0:0:0:
186,246,70994,1,8,0:0:0:0:
58,119,71133,6,0,L|186:110,1,76.8,4|0,1:0|0:0,0:0:0:0:
224,107,71410,2,0,L|301:102,1,76.8,2|0,2:3|0:0,0:0:0:0:
82,36,71688,2,0,L|210:27,1,76.8,8|0,1:0|0:0,0:0:0:0:
325,19,71966,6,0,L|248:24,1,76.8,2|0,2:2|0:0,0:0:0:0:
486,12,72244,2,0,L|409:17,1,76.8,2|0,1:2|0:0,0:0:0:0:
300,102,72522,2,0,L|223:107,1,76.8,2|0,2:3|0:0,0:0:0:0:
462,94,72799,2,0,L|385:99,1,76.8,8|0,1:0|0:0,0:0:0:0:
277,185,73077,2,0,L|200:190,1,76.8,2|0,2:0|0:0,0:0:0:0:
508,167,73355,1,2,1:2:0:0:
362,178,73633,5,2,0:3:0:0:
508,167,73772,1,2,0:0:0:0:
459,313,73910,2,0,B|438:370|438:370|425:277,1,153.6,8|2,1:1|0:0,0:0:0:0:
34,317,74466,6,0,L|263:295,1,230.4,2|0,1:2|0:0,0:0:0:0:
426,278,75022,1,8,1:0:0:0:
426,278,75299,2,0,P|427:232|406:185,1,76.8,2|0,0:0|0:0,0:0:0:0:
169,251,75577,6,0,L|245:245,1,76.8,2|0,1:2|0:0,0:0:0:0:
252,92,75855,2,0,L|218:160,1,76.8,2|0,2:3|0:0,0:0:0:0:
346,244,76133,2,0,L|303:180,1,76.8,8|0,1:1|0:0,0:0:0:0:
71,125,76410,6,0,P|104:155|166:160,1,76.8,2|0,0:0|0:0,0:0:0:0:
128,352,76688,2,0,P|167:329|190:272,1,76.8,2|0,1:2|0:0,0:0:0:0:
362,367,76966,2,0,P|352:322|305:282,1,76.8,2|0,0:3|0:0,0:0:0:0:
449,150,77244,2,0,P|404:145|351:177,1,76.8,8|0,1:0|0:0,0:0:0:0:
269,0,77522,2,0,P|250:41|265:101,1,76.8,2|0,0:0|0:0,0:0:0:0:
256,196,77799,1,2,1:2:0:0:
134,163,78077,5,2,0:3:0:0:
256,196,78216,1,2,0:0:0:0:
88,271,78355,2,0,P|144:190|162:202,1,153.6,8|2,1:0|0:0,0:0:0:0:
344,365,78910,5,0,1:0:0:0:
388,330,79188,1,8,0:0:0:0:
301,283,79466,5,8,0:0:0:0:
415,249,79605,1,8,0:0:0:0:
256,196,79744,5,8,0:0:0:0:
442,172,79883,1,8,0:0:0:0:
211,109,80022,5,2,0:0:0:0:
214,118,80438,1,2,0:0:0:0:
217,127,80855,1,2,0:0:0:0:
469,95,81133,5,2,0:0:0:0:
225,367,82244,5,2,0:0:0:0:
222,358,82660,1,2,0:0:0:0:
219,349,83077,1,2,0:0:0:0:
483,353,83355,5,2,0:0:0:0:
262,288,84188,5,2,0:0:0:0:
243,301,84258,1,2,0:0:0:0:
230,321,84327,1,2,0:0:0:0:
223,343,84397,1,2,0:0:0:0:
224,366,84465,1,2,0:0:0:0:
95,206,84744,5,0,0:0:0:0:
151,128,84883,1,2,0:0:0:0:
24,171,85022,2,0,P|20:236|48:271,1,62.3999971435548
122,49,85299,2,0,P|73:92|68:136,1,62.3999971435548,2|0,0:0|0:0,0:0:0:0:
59,307,85577,1,2,0:0:0:0:
59,307,85855,6,0,L|136:314,1,62.3999971435548
171,239,86133,2,0,L|248:232,1,62.3999971435548
400,245,86410,5,0,0:0:0:0:
385,151,86549,1,0,0:0:0:0:
313,288,86688,1,2,0:0:0:0:
375,59,86966,5,0,0:0:0:0:
385,151,87105,2,0,L|391:64,1,62.3999971435548,2|0,0:0|0:0,0:0:0:0:
503,251,87383,1,0,0:0:0:0:
492,153,87522,2,0,L|486:66,1,62.3999971435548,2|0,0:0|0:0,0:0:0:0:
420,348,87799,1,2,0:0:0:0:
420,348,88077,6,0,P|350:363|335:368,1,62.3999971435548
312,280,88355,2,0,P|281:275|251:268,1,62.3999971435548
110,335,88633,5,0,0:0:0:0:
191,383,88772,1,0,0:0:0:0:
148,220,88910,1,2,0:0:0:0:
206,136,89188,5,0,0:0:0:0:
148,220,89327,2,0,L|57:230,1,62.3999971435548,2|0,0:0|0:0,0:0:0:0:
0,53,89605,5,0,0:0:0:0:
26,140,89744,2,0,L|117:150,1,62.3999971435548,2|0,0:0|0:0,0:0:0:0:
149,6,90022,5,2,0:0:0:0:
149,6,90299,2,0,P|140:48|139:96,1,62.3999971435548
272,0,90577,2,0,P|243:31|218:72,1,62.3999971435548
401,63,90855,2,0,P|358:68|313:84,1,62.3999971435548
462,207,91133,2,0,P|430:178|389:153,1,62.3999971435548,2|0,0:2|0:2,0:2:0:0:
395,384,91410,2,0,P|404:341|405:293,1,62.3999971435548,0|2,0:2|0:2,0:2:0:0:
173,376,91688,2,0,P|215:377|263:370,1,62.3999971435548,0|0,0:2|0:2,0:2:0:0:
107,155,91966,1,2,0:2:0:0:
107,155,92244,6,0,L|102:225,1,62.3999971435548,2|0,0:0|0:0,0:0:0:0:
0,72,92522,2,0,L|112:89,1,62.3999971435548
94,304,92799,6,0,L|55:309,2,31.1999985717774,2|0|0,0:0|0:0|0:0,0:0:0:0:
0,186,93077,1,2,0:0:0:0:
0,186,93147,1,0,0:0:0:0:
0,186,93216,2,0,L|39:191,2,31.1999985717774,0|0|2,0:0|0:0|0:0,0:0:0:0:
197,254,93633,5,0,0:0:0:0:
206,155,93772,1,2,0:0:0:0:
274,297,93910,2,0,P|324:311|355:309,1,62.3999971435548
462,366,94188,2,0,P|431:369|401:380,1,62.3999971435548,2|0,0:0|0:0,0:0:0:0:
506,267,94466,1,2,0:0:0:0:
506,267,94744,6,0,L|512:197,1,62.3999971435548
451,136,95022,2,0,L|445:73,1,62.3999971435548
292,80,95299,5,0,0:0:0:0:
368,33,95438,1,0,0:0:0:0:
380,188,95577,1,2,0:0:0:0:
285,366,95855,5,0,0:0:0:0:
293,262,95994,2,0,P|302:312|277:364,1,62.3999971435548,2|0,0:0|0:0,0:0:0:0:
161,374,96272,1,0,0:0:0:0:
161,374,96410,2,0,P|151:323|176:271,1,62.3999971435548,2|0,0:0|0:0,0:0:0:0:
301,158,96688,1,2,0:0:0:0:
301,158,97244,6,0,B|278:141|278:141|240:148,1,57.5999982421876,0|2,0:0|0:0,0:0:0:0:
110,32,98077,5,0,0:0:0:0:
114,120,98216,1,2,0:0:0:0:
0,26,98355,1,0,0:0:0:0:
0,26,98633,2,0,L|6:104,1,62.3999971435548,2|0,0:0|0:0,0:0:0:0:
0,238,98910,1,2,0:0:0:0:
0,238,99188,6,0,P|68:224|102:230,1,62.3999971435548
114,342,99466,2,0,P|83:338|53:327,1,62.3999971435548
212,279,99744,5,0,0:0:0:0:
275,377,99883,1,0,0:0:0:0:
373,314,100022,1,2,0:0:0:0:
279,356,100299,5,0,0:0:0:0:
357,311,100438,1,2,0:0:0:0:
229,279,100577,2,0,P|216:227|221:195,1,62.3999971435548
339,114,100855,1,2,0:0:0:0:
339,114,101133,6,0,L|433:97,1,62.3999971435548,2|0,0:0|0:0,0:0:0:0:
501,290,101410,2,0,L|407:273,1,62.3999971435548
398,0,101688,1,2,0:0:0:0:
476,36,101826,1,0,0:0:0:0:
497,120,101966,1,2,0:0:0:0:
444,190,102104,1,0,0:0:0:0:
296,153,102244,6,0,P|338:109|399:101,1,124.79999428711,2|0,0:0|0:0,0:0:0:0:
399,101,102660,1,0,0:0:0:0:
263,51,102799,2,0,P|229:11|213:-28,1,62.3999971435548,2|0,0:0|0:0,0:0:0:0:
198,134,103077,2,0,P|146:143|104:137,1,62.3999971435548
6,11,103355,6,0,L|0:73,1,62.3999971435548,2|0,0:0|0:0,0:0:0:0:
6,275,103633,2,0,L|0:212,1,62.3999971435548,2|0,0:0|0:0,0:0:0:0:
93,79,103910,2,0,L|-1:100,1,62.3999971435548,2|0,0:0|0:0,0:0:0:0:
87,204,104188,2,0,L|-13:181,1,62.3999971435548
166,373,104466,6,0,P|159:299|242:258,1,124.79999428711,2|0,0:0|0:0,0:0:0:0:
190,265,104883,1,0,0:0:0:0:
301,384,105022,2,0,P|360:383|406:362,1,62.3999971435548,2|0,0:0|0:0,0:0:0:0:
490,272,105299,2,0,P|431:271|385:250,1,62.3999971435548
287,170,105577,2,0,P|346:169|392:148,1,62.3999971435548,2|0,0:0|0:0,0:0:0:0:
439,352,105855,6,0,L|516:364,1,62.3999971435548
344,253,106133,2,0,L|267:265,1,62.3999971435548,2|0,0:0|0:0,0:0:0:0:
437,158,106410,2,0,L|514:170,1,62.3999971435548
306,1,106688,6,0,B|283:63|322:100|322:100|339:82,1,124.79999428711,2|0,0:0|0:0,0:0:0:0:
450,49,107105,1,0,0:0:0:0:
450,49,107244,2,0,L|527:61,1,62.3999971435548,2|0,0:0|0:0,0:0:0:0:
437,158,107522,2,0,L|514:170,1,62.3999971435548
511,370,107799,6,0,B|534:308|495:271|495:271|478:289,1,124.79999428711,2|0,0:0|0:0,0:0:0:0:
437,158,108216,1,0,0:0:0:0:
437,158,108355,2,0,L|514:170,1,62.3999971435548,2|0,0:0|0:0,0:0:0:0:
450,49,108633,2,0,L|527:61,1,62.3999971435548
320,0,108910,6,0,P|333:71|327:106,1,62.3999971435548,2|0,0:0|0:0,0:0:0:0:
210,121,109188,2,0,P|227:95|238:66,1,62.3999971435548,0|0,0:3|0:3,0:3:0:0:
119,0,109466,2,0,P|132:71|126:106,1,62.3999971435548,2|0,0:0|0:0,0:0:0:0:
9,121,109744,1,0,0:0:0:0:
9,121,109883,1,0,0:0:0:0:
9,121,110022,2,0,P|26:95|37:66,1,62.3999971435548,2|0,0:2|0:2,0:2:0:0:
119,0,110299,1,0,0:0:0:0:
119,0,110438,1,0,0:0:0:0:
119,0,110577,6,0,L|155:3,2,31.1999985717774,2|0|0,0:0|0:0|0:0,0:0:0:0:
241,117,110855,1,0,0:0:0:0:
225,119,110924,1,0,0:0:0:0:
210,121,110994,2,0,L|159:129,1,31.1999985717774
101,113,111133,6,0,P|153:191|145:263,1,124.79999428711,2|0,0:0|0:0,0:0:0:0:
155,219,111549,1,0,0:0:0:0:
29,283,111688,2,0,L|107:304,1,62.3999971435548,2|0,0:0|0:0,0:0:0:0:
142,384,111966,2,0,L|220:363,1,62.3999971435548
330,202,112244,6,0,B|314:233|314:233|308:284,1,62.3999971435548,2|0,0:0|0:0,0:0:0:0:
493,322,112522,2,0,B|508:290|508:290|514:239,1,62.3999971435548,2|0,0:0|0:0,0:0:0:0:
512,128,112799,6,0,B|504:164|504:164|484:195,1,62.3999971435548,2|0,0:0|0:0,0:0:0:0:
397,150,113077,2,0,B|405:114|405:114|425:83,1,62.3999971435548
409,265,113355,6,0,P|388:336|306:357,1,124.79999428711,2|0,0:0|0:0,0:0:0:0:
346,358,113772,1,0,0:0:0:0:
139,348,113910,2,0,L|229:339,1,62.3999971435548,2|0,0:0|0:0,0:0:0:0:
109,182,114188,2,0,L|199:191,1,62.3999971435548
135,15,114466,2,0,L|225:6,1,62.3999971435548,2|0,0:0|0:0,0:0:0:0:
76,263,114744,6,0,P|122:266|150:260,1,62.3999971435548
56,113,115022,2,0,P|30:151|21:178,1,62.3999971435548
196,171,115299,2,0,P|175:129|156:108,1,62.3999971435548
0,369,115577,5,2,0:0:0:0:
70,344,115855,1,0,0:0:0:0:
140,370,116133,1,0,0:0:0:0:
211,345,116411,1,0,0:0:0:0:
280,372,116688,1,0,0:0:0:0:
351,347,116966,1,0,0:0:0:0:
420,374,117244,1,0,0:0:0:0:
491,349,117522,1,0,0:0:0:0:
420,374,117799,5,0,0:0:0:0:
414,359,118633,1,0,0:0:0:0:
417,343,118910,1,0,0:0:0:0:
411,328,119188,1,0,0:0:0:0:
404,138,119466,6,0,P|389:187|392:213,1,62.3999971435548,2|0,0:0|0:0,0:0:0:0:
414,312,119744,1,2,0:0:0:0:
346,48,120022,6,0,P|375:115|364:213,1,153.6,4|2,1:0|0:3,0:0:0:0:
251,195,120438,1,2,0:0:0:0:
315,384,120577,2,0,P|305:335|306:267,1,76.8,8|0,1:0|0:0,0:0:0:0:
157,261,120855,2,0,P|153:299|145:336,1,76.8,2|0,0:0|0:0,0:0:0:0:
0,114,121133,5,2,1:2:0:0:
0,114,121272,1,0,0:0:0:0:
79,82,121410,1,2,0:3:0:0:
146,147,121549,1,0,0:0:0:0:
225,83,121688,1,8,1:0:0:0:
292,180,121827,1,0,0:0:0:0:
371,84,121966,2,0,L|380:6,1,76.8,2|0,0:0|0:0,0:0:0:0:
512,147,122244,6,0,B|402:164|402:164|337:247,1,153.6,2|2,1:2|0:3,0:0:0:0:
457,255,122660,1,0,0:0:0:0:
446,72,122799,2,0,L|353:86,1,76.8,8|0,1:0|0:0,0:0:0:0:
304,255,123077,2,0,L|287:149,1,76.8,2|0,0:0|0:0,0:0:0:0:
180,46,123355,5,2,1:2:0:0:
180,46,123633,2,0,P|139:85|79:104,1,76.8,2|0,0:3|0:0,0:0:0:0:
2,230,123910,1,8,1:1:0:0:
2,230,124188,2,0,P|26:200|40:164,1,76.8,2|0,0:2|2:2,0:1:0:0:
204,358,124466,6,0,B|115:340|77:373|77:373|129:378,1,153.6,4|2,1:2|0:3,0:0:0:0:
172,275,124883,1,2,0:0:0:0:
39,164,125022,2,0,L|141:170,1,76.8,8|0,1:1|0:1,0:1:0:0:
146,59,125299,2,0,L|248:53,1,76.8,2|0,0:2|0:1,0:1:0:0:
463,25,125577,6,0,B|334:10|334:10|371:-8,1,153.6,2|2,1:2|0:3,0:0:0:0:
439,103,125994,1,2,0:0:0:0:
323,235,126133,2,0,B|368:231|368:231|429:253,1,76.8,8|0,1:0|0:0,0:0:0:0:
437,369,126410,2,0,B|482:373|482:373|543:351,1,76.8,2|0,0:0|0:0,0:0:0:0:
511,163,126688,6,0,P|490:235|500:269,1,76.8,2|0,1:2|0:0,0:0:0:0:
439,103,126966,2,0,P|376:144|362:177,1,76.8,2|0,0:0|0:0,0:0:0:0:
305,307,127244,2,0,P|322:233|310:200,1,76.8,8|0,1:0|0:0,0:0:0:0:
209,309,127522,2,0,P|175:242|144:223,1,76.8,2|0,0:0|0:0,0:0:0:0:
137,372,127799,2,0,P|68:342|33:348,1,76.8,2|0,1:2|0:0,0:0:0:0:
0,140,128077,6,0,L|5:257,1,76.8,8|0,1:2|0:0,0:0:0:0:
37,39,128355,5,8,1:2:0:0:
168,79,128494,1,8,1:2:0:0:
228,0,128633,5,2,0:0:0:0:
245,177,128772,1,8,1:2:0:0:
403,46,128910,6,0,P|497:65|513:143,1,153.6,4|2,1:1|0:3,0:0:0:0:
428,192,129327,1,2,0:0:0:0:
489,383,129466,2,0,P|511:315|504:263,1,76.8,8|0,1:1|0:0,0:0:0:0:
343,370,129744,2,0,P|403:332|431:287,1,76.8,2|0,0:0|0:0,0:0:0:0:
221,204,130022,6,0,L|226:302,1,76.8,2|0,1:2|0:0,0:0:0:0:
79,135,130299,2,0,L|177:140,1,76.8
108,384,130577,2,0,L|113:286,1,76.8,8|0,1:1|0:0,0:0:0:0:
4,200,130855,1,2,0:0:0:0:
7,289,130994,1,0,0:0:0:0:
57,105,131133,6,0,B|126:73|126:73|195:112,1,153.6,2|2,1:2|0:3,0:0:0:0:
118,212,131549,1,2,0:0:0:0:
229,357,131688,2,0,L|224:272,1,76.8,8|0,1:0|0:0,0:0:0:0:
342,278,131966,2,0,L|337:363,1,76.8,2|0,0:0|0:0,0:0:0:0:
464,206,132244,5,2,0:0:0:0:
464,206,132522,2,0,P|492:176|500:103,1,76.8,2|0,0:3|0:0,0:2:0:0:
354,0,132799,1,8,1:0:0:0:
354,0,133077,2,0,P|395:1|452:47,1,76.8,2|0,0:0|0:0,0:0:0:0:
264,187,133355,6,0,P|335:158|402:120,1,153.6,4|0,1:0|0:0,0:0:0:0:
512,43,133772,1,2,0:0:0:0:
498,222,133910,2,0,P|506:284|527:320,1,76.8,8|0,1:0|0:0,0:0:0:0:
402,364,134188,2,0,P|414:327|415:289,1,76.8,2|0,0:0|0:0,0:0:0:0:
257,103,134466,6,0,P|328:131|395:169,1,153.6,2|0,1:2|0:0,0:0:0:0:
498,222,134883,1,2,0:0:0:0:
512,43,135022,2,0,P|499:79|498:117,1,76.8,8|0,1:1|0:0,0:0:0:0:
398,0,135299,2,0,P|410:36|411:74,1,76.8,2|0,0:0|0:0,0:0:0:0:
264,187,135577,6,0,P|306:169|348:161,1,76.8,2|0,1:2|0:0,0:0:0:0:
91,254,135855,1,2,0:3:0:0:
202,285,135994,1,2,0:0:0:0:
85,140,136133,2,0,P|59:110|29:87,1,76.8,8|0,1:1|0:0,0:0:0:0:
192,98,136410,1,2,0:0:0:0:
10,338,136688,5,2,1:2:0:0:
32,381,136966,1,8,2:2:0:0:
132,253,137244,5,8,0:0:0:0:
149,361,137383,1,8,0:0:0:0:
292,220,137522,5,8,0:0:0:0:
257,384,137660,1,8,0:0:0:0:
58,178,137799,6,0,P|102:147|172:149,1,76.8,4|0,1:0|0:0,0:0:0:0:
135,0,138077,2,0,P|179:30|201:97,1,76.8,2|0,2:3|0:0,0:0:0:0:
340,0,138355,2,0,P|326:52|271:95,1,76.8,8|0,1:0|0:0,0:0:0:0:
175,329,138633,6,0,L|77:276,1,76.8,2|0,0:2|0:3,0:3:0:0:
292,220,138910,2,0,L|234:126,1,76.8,2|0,1:2|0:3,0:3:0:0:
449,189,139188,2,0,L|445:78,1,76.8,2|0,0:3|0:3,0:3:0:0:
197,244,139466,2,0,L|252:296,1,76.8,8|0,1:1|0:3,0:3:0:0:
356,161,139744,2,0,L|378:234,1,76.8,2|0,0:2|0:3,0:3:0:0:
204,64,140022,1,2,1:2:0:0:
90,29,140299,5,2,0:3:0:0:
204,64,140438,1,2,0:0:0:0:
26,121,140577,2,0,B|-21:188|-21:188|82:204,1,153.6,8|2,1:0|0:0,0:0:0:0:
227,310,141133,2,0,L|-7:274,1,230.4,2|0,1:2|0:0,0:0:0:0:
132,213,141688,1,8,1:1:0:0:
132,213,141966,2,0,L|152:101,1,76.8,2|0,0:0|0:0,0:0:0:0:
305,12,142244,6,0,B|319:51|319:51|370:86,1,76.8,6|0,1:2|0:0,0:0:0:0:
510,26,142522,2,0,B|471:40|471:40|436:91,1,76.8,2|0,0:3|0:0,0:0:0:0:
496,231,142799,2,0,B|482:192|482:192|431:157,1,76.8,8|0,1:0|0:0,0:0:0:0:
326,380,143077,6,0,P|404:362|449:322,1,76.8,2|0,0:0|0:0,0:0:0:0:
271,155,143355,2,0,P|241:179|220:211,1,76.8,2|0,1:2|0:0,0:0:0:0:
293,287,143633,2,0,P|351:232|370:175,1,76.8,2|0,0:3|0:0,0:0:0:0:
143,104,143910,2,0,P|129:140|127:178,1,76.8,8|0,1:0|0:0,0:0:0:0:
249,15,144188,2,0,P|212:1|174:0,1,76.8,2|0,0:0|0:0,0:0:0:0:
435,7,144466,1,2,1:2:0:0:
345,77,144744,5,2,0:3:0:0:
435,7,144883,1,2,0:0:0:0:
465,188,145022,2,0,B|463:263|526:269|530:201|488:173,1,153.6,8|2,1:1|0:0,0:0:0:0:
292,247,145577,5,2,1:2:0:0:
285,198,145855,1,8,0:0:0:0:
244,368,146133,5,8,0:0:0:0:
165,252,146272,1,8,0:0:0:0:
65,317,146410,5,8,0:0:0:0:
153,342,146549,1,8,0:0:0:0:
0,384,146688,5,6,1:2:0:0:
0,384,148910,5,2,1:2:0:0:
0,384,150022,1,2,1:2:0:0:
266,335,150299,1,8,1:2:0:0:
101,270,150577,5,8,1:2:0:0:
150,380,150716,1,8,1:2:0:0:
230,71,150994,5,8,1:2:0:0:
193,222,151133,1,2,1:2:0:0:
186,215,151549,1,2,0:0:0:0:
345,177,151688,1,8,1:2:0:0:
142,132,151966,5,2,0:0:0:0:
142,132,152244,1,2,1:2:0:0:
350,162,152799,1,8,1:2:0:0:
225,299,153355,5,2,1:2:0:0:
230,308,153772,1,2,0:0:0:0:
345,177,153910,1,8,1:2:0:0:
335,377,154188,5,2,0:0:0:0:
335,377,154466,1,2,1:2:0:0:
350,189,155022,1,8,1:2:0:0:
170,124,155577,5,2,1:2:0:0:
171,113,155994,1,2,0:0:0:0:
345,177,156133,1,8,1:2:0:0:
243,34,156410,5,2,0:0:0:0:
243,34,156688,1,2,1:2:0:0:
336,192,157244,1,8,1:2:0:0:
141,232,157799,5,2,1:2:0:0:
131,227,158216,1,2,0:0:0:0:
345,177,158355,1,8,1:2:0:0:
444,342,158910,5,0,0:0:0:0:
444,342,159188,1,0,0:0:0:0:
444,342,159466,1,0,0:0:0:0:
444,342,159744,1,0,0:0:0:0:
428,61,160022,6,0,P|400:182|409:261,1,172.799994726563,4|0,1:0|0:0,0:0:0:0:
299,145,160438,1,2,0:0:0:0:
261,334,160577,2,0,P|226:375|146:375,1,86.3999973632813,8|0,1:1|0:0,0:0:0:0:
171,203,160855,2,0,P|224:212|264:282,1,86.3999973632813,2|0,0:2|0:3,0:3:0:0:
10,310,161133,5,2,1:2:0:0:
10,310,161272,1,0,0:0:0:0:
91,353,161410,1,2,0:3:0:0:
184,294,161549,1,0,0:0:0:0:
282,372,161688,1,8,1:0:0:0:
332,234,161827,1,0,0:0:0:0:
427,384,161966,2,0,P|484:386|535:360,1,86.3999973632813,2|0,0:0|0:0,0:0:0:0:
452,153,162244,6,0,B|393:238|445:304|465:298|470:283|464:252,1,172.799994726563,2|2,1:2|0:3,0:0:0:0:
332,234,162660,1,2,0:0:0:0:
238,379,162799,2,0,L|139:385,1,86.3999973632813,8|0,1:1|0:0,0:0:0:0:
26,286,163077,2,0,L|124:292,1,86.3999973632813,2|0,0:0|0:0,0:0:0:0:
1,104,163355,5,2,1:2:0:0:
1,104,163633,2,0,P|6:161|32:185,1,86.3999973632813,2|0,0:3|0:0,0:0:0:0:
182,0,163910,1,8,1:0:0:0:
182,0,164188,2,0,P|135:32|127:67,1,86.3999973632813,2|0,0:2|0:0,0:0:0:0:
418,77,164466,6,0,B|378:14|314:2|314:2|314:25|301:53,1,172.799994726563,6|2,1:2|0:3,0:0:0:0:
221,114,164883,1,2,0:0:0:0:
374,251,165022,2,0,P|391:212|391:169,1,86.3999973632813,8|0,1:0|0:0,0:0:0:0:
470,370,165299,2,0,P|451:331|453:289,1,86.3999973632813,2|0,0:0|0:0,0:0:0:0:
171,201,165577,6,0,B|209:155|288:151|334:179|308:216|270:204,1,172.799994726563,2|2,1:2|0:3,0:0:0:0:
246,92,165994,1,2,0:0:0:0:
78,184,166133,2,0,L|100:271,1,86.3999973632813,8|0,1:0|0:0,0:0:0:0:
206,358,166410,2,0,L|228:271,1,86.3999973632813,2|0,0:0|0:0,0:0:0:0:
459,132,166688,5,2,1:2:0:0:
420,211,166827,1,0,0:0:0:0:
489,266,166966,1,2,0:3:0:0:
428,116,167105,1,2,0:0:0:0:
336,279,167244,2,0,L|364:378,1,86.3999973632813,8|0,1:1|0:0,0:0:0:0:
227,274,167522,1,2,0:0:0:0:
10,366,167799,5,2,1:2:0:0:
52,375,168077,1,8,0:0:0:0:
0,186,168355,5,8,0:0:0:0:
100,275,168494,1,8,0:0:0:0:
217,96,168633,5,8,0:0:0:0:
96,191,168772,1,8,0:0:0:0:
0,12,168910,6,0,P|84:2|133:42,1,86.3999973632813,4|0,1:0|0:0,0:0:0:0:
134,85,169188,2,0,P|218:95|267:55,1,86.3999973632813,2|0,0:3|0:0,0:0:0:0:
268,11,169466,2,0,P|352:1|401:41,1,86.3999973632813,8|0,1:0|0:0,0:0:0:0:
512,214,169744,6,0,P|428:224|379:184,1,86.3999973632813,2|0,0:0|0:0,0:0:0:0:
365,384,170022,2,0,P|329:307|352:248,1,86.3999973632813,2|0,1:2|0:3,0:3:0:0:
157,296,170299,2,0,P|219:238|282:242,1,86.3999973632813,2|0,0:3|0:3,0:3:0:0:
176,72,170578,2,0,P|249:113|265:174,1,86.3999973632813,8|0,1:1|0:3,0:3:0:0:
396,20,170855,2,0,P|379:102|326:137,1,86.3999973632813,2|0,0:2|0:3,0:3:0:0:
325,195,171133,1,2,1:2:0:0:
434,308,171410,5,2,0:3:0:0:
325,195,171549,1,2,0:0:0:0:
265,363,171688,2,0,B|214:378|214:378|131:345|131:345|205:319,1,172.799994726563,8|0,1:0|0:0,0:0:0:0:
9,143,172244,6,0,B|11:114|11:114|51:182|51:182|25:259|25:259|56:321,1,259.199992089844,2|0,1:2|0:0,0:0:0:0:
145,167,172799,1,8,1:0:0:0:
145,167,173077,2,0,B|192:170|192:170|240:137,1,86.3999973632813,2|0,0:0|0:0,0:0:0:0:
324,0,173355,6,0,L|339:106,1,86.3999973632813,6|0,1:2|0:0,0:0:0:0:
479,215,173633,2,0,L|494:109,1,86.3999973632813,2|0,0:3|0:0,0:0:0:0:
331,283,173910,2,0,L|346:389,1,86.3999973632813,8|0,1:0|0:0,0:0:0:0:
84,214,174188,6,0,P|172:179|194:189,1,86.3999973632813,2|0,0:0|0:0,0:0:0:0:
322,32,174466,2,0,P|308:126|288:140,1,86.3999973632813,2|0,1:2|0:0,0:0:0:0:
361,329,174744,2,0,P|286:270|284:246,1,86.3999973632813,2|0,0:3|0:0,0:0:0:0:
129,26,175022,6,0,P|219:98|221:126,1,86.3999973632813,8|0,1:0|0:0,0:0:0:0:
175,383,175299,2,0,P|193:270|216:254,1,86.3999973632813,2|0,0:0|0:0,0:0:0:0:
462,165,175577,1,2,1:2:0:0:
330,168,175855,5,2,0:3:0:0:
462,165,175994,1,2,0:0:0:0:
361,329,176133,2,0,P|399:343|353:283,1,172.799994726563,8|0,1:1|0:0,0:0:0:0:
246,170,176688,5,2,1:2:0:0:
266,214,176966,1,8,2:2:0:0:
266,126,177244,5,8,0:0:0:0:
246,258,177383,1,8,0:0:0:0:
246,82,177522,5,8,0:0:0:0:
266,302,177660,1,8,0:0:0:0:
64,209,177799,6,0,P|15:217|-35:260,1,86.3999973632813,4|0,1:0|0:0,0:0:0:0:
0,41,178077,2,0,P|21:77|27:120,1,86.3999973632813,2|0,0:3|0:3,0:3:0:0:
78,383,178355,2,0,P|56:346|50:303,1,86.3999973632813,8|0,1:0|0:3,0:3:0:0:
228,122,178633,6,0,L|132:116,1,86.3999973632813,2|0,0:0|0:0,0:0:0:0:
161,281,178910,2,0,L|247:275,1,86.3999973632813,2|0,1:2|0:0,0:0:0:0:
409,45,179188,2,0,L|313:39,1,86.3999973632813,2|0,0:3|0:0,0:0:0:0:
368,333,179466,2,0,L|464:327,1,86.3999973632813,8|0,1:0|0:0,0:0:0:0:
512,193,179744,2,0,P|468:188|411:193,1,86.3999973632813,2|0,0:0|0:0,0:0:0:0:
233,199,180022,1,2,1:2:0:0:
110,124,180299,5,2,0:3:0:0:
233,199,180438,1,2,0:0:0:0:
50,295,180577,2,0,B|62:335|57:380|57:380|71:334|113:294,1,172.799994726563,8|2,1:1|0:0,0:0:0:0:
72,110,181133,6,0,B|30:167|89:222|89:222|169:207|155:127,1,259.199992089844,2|0,1:2|0:0,0:0:0:0:
16,14,181688,1,8,1:1:0:0:
16,14,181966,2,0,L|123:31,1,86.3999973632813,2|0,0:0|0:0,0:0:0:0:
297,310,182244,6,0,P|302:240|275:215,1,86.3999973632813,6|0,1:2|0:0,0:0:0:0:
133,168,182522,2,0,P|191:207|226:196,1,86.3999973632813,2|0,0:3|0:0,0:0:0:0:
337,97,182799,2,0,P|274:128|266:164,1,86.3999973632813,8|0,1:1|0:0,0:0:0:0:
128,350,183077,6,0,B|172:336|172:336|217:278,1,86.3999973632813,2|0,0:0|0:0,0:0:0:0:
456,223,183355,2,0,B|422:192|422:192|349:182,1,86.3999973632813,2|0,1:2|0:0,0:0:0:0:
183,2,183633,2,0,B|173:47|173:47|201:115,1,86.3999973632813,2|0,0:3|0:0,0:0:0:0:
30,185,183910,6,0,L|143:176,1,86.3999973632813,8|0,1:1|0:0,0:0:0:0:
374,0,184188,2,0,L|325:102,1,86.3999973632813,2|0,0:0|0:0,0:0:0:0:
256,192,184466,1,2,1:2:0:0:
337,311,184744,5,2,0:3:0:0:
256,192,184883,1,2,0:2:0:0:
182,360,185022,2,0,B|102:394|47:369|47:369|92:355|129:331,1,172.799994726563,8|0,1:0|0:0,0:0:0:0:
28,204,185577,5,2,1:2:0:0:
38,253,185855,1,8,0:0:0:0:
17,103,186133,5,8,0:0:0:0:
119,146,186272,1,8,0:0:0:0:
112,64,186410,5,8,0:0:0:0:
194,53,186549,1,8,0:0:0:0:
54,2,186688,5,2,2:2:0:0:
53,12,187105,1,2,0:0:0:0:
52,22,187522,1,2,0:0:0:0:
241,6,187799,5,2,0:0:0:0:
241,6,188077,2,0,L|315:7,1,48
375,58,188355,2,0,L|449:57,1,48
510,103,188633,2,0,L|514:66,2,24
