osu file format v14

[General]
AudioFilename: audio.mp3
AudioLeadIn: 0
PreviewTime: 68369
Countdown: 1
SampleSet: Normal
StackLeniency: 0.7
Mode: 1
LetterboxInBreaks: 0
WidescreenStoryboard: 1

[Editor]
DistanceSpacing: 0.9
BeatDivisor: 4
GridSize: 4
TimelineZoom: 1.3

[Metadata]
Title:Alone Together (Krewella Remix)
TitleUnicode:Alone Together (Krewella Remix)
Artist:Fall Out Boy
ArtistUnicode:Fall Out Boy
Creator:Jorkseljund
Version:Oni
Source:
Tags:
BeatmapID:1808541
BeatmapSetID:864834

[Difficulty]
HPDrainRate:5
CircleSize:4
OverallDifficulty:6
ApproachRate:5
SliderMultiplier:1.4
SliderTickRate:1

[Events]
//Background and Video events
0,0,"city-person-standing-rooftop-wallpaper.jpg",0,0
//Break Periods
//Storyboard Layer 0 (Background)
//Storyboard Layer 1 (Fail)
//Storyboard Layer 2 (Pass)
//Storyboard Layer 3 (Foreground)
//Storyboard Sound Samples

[TimingPoints]
94,344.827586206897,4,1,0,100,1,0
33800,-95.2380952380952,4,1,0,100,0,0
34490,-90.9090909090909,4,1,0,100,0,0
35180,-100,4,1,0,100,0,0
35956,344.827586206897,4,1,0,100,1,0
63456,-95.2380952380952,4,1,0,100,0,0
66214,-90.9090909090909,4,1,0,100,0,0
69059,-90.9090909090909,4,1,0,100,0,1
91128,-100,4,1,0,100,0,0
129662,-95.2380952380952,4,1,0,100,0,0
132421,-90.9090909090909,4,1,0,100,0,0
135266,-90.9090909090909,4,1,0,100,0,1
157335,-90.9090909090909,4,1,0,100,0,0

[HitObjects]
209,186,3197,5,8,0:0:0:0:
320,33,3714,1,0,0:0:0:0:
234,201,4231,1,0,0:0:0:0:
123,139,4576,1,8,0:0:0:0:
178,169,4749,1,0,0:0:0:0:
178,169,4921,1,8,0:0:0:0:
178,169,5094,1,8,0:0:0:0:
127,237,5956,1,8,0:0:0:0:
315,247,6473,1,0,0:0:0:0:
126,237,6990,1,0,0:0:0:0:
251,225,7335,1,8,0:0:0:0:
251,225,7507,1,0,0:0:0:0:
251,225,7680,1,8,0:0:0:0:
251,225,7852,1,8,0:0:0:0:
251,225,8025,1,0,0:0:0:0:
251,225,8197,1,0,0:0:0:0:
100,110,8714,1,8,0:0:0:0:
261,207,9231,1,0,0:0:0:0:
98,109,9749,1,0,0:0:0:0:
207,171,10094,1,8,0:0:0:0:
207,171,10266,1,0,0:0:0:0:
207,171,10438,1,8,0:0:0:0:
207,171,10611,1,8,0:0:0:0:
82,130,11473,1,8,0:0:0:0:
251,213,11990,1,0,0:0:0:0:
81,130,12507,1,0,0:0:0:0:
193,187,12852,1,0,0:0:0:0:
193,187,13025,1,0,0:0:0:0:
165,171,13197,1,8,0:0:0:0:
262,91,13542,1,0,0:0:0:0:
262,91,13714,1,8,0:0:0:0:
208,77,13887,1,0,0:0:0:0:
170,197,14231,1,8,0:0:0:0:
170,197,14576,1,0,0:0:0:0:
170,197,14749,1,0,0:0:0:0:
170,197,14921,1,8,0:0:0:0:
165,71,15266,1,0,0:0:0:0:
285,108,15611,1,8,0:0:0:0:
168,133,15783,1,0,0:0:0:0:
165,69,15956,1,8,0:0:0:0:
168,131,16128,1,8,0:0:0:0:
165,67,16301,1,0,0:0:0:0:
168,129,16645,1,0,0:0:0:0:
288,165,16990,1,8,0:0:0:0:
197,252,17335,1,0,0:0:0:0:
197,252,17507,1,0,0:0:0:0:
197,252,17680,1,8,0:0:0:0:
272,151,18025,1,0,0:0:0:0:
147,170,18369,1,8,0:0:0:0:
209,161,18542,1,0,0:0:0:0:
146,170,18714,1,8,0:0:0:0:
208,161,18887,1,8,0:0:0:0:
145,171,19059,1,0,0:0:0:0:
207,161,19231,1,8,0:0:0:0:
125,65,19576,1,0,0:0:0:0:
166,113,19749,1,8,0:0:0:0:
189,236,20094,1,0,0:0:0:0:
189,236,20266,1,0,0:0:0:0:
189,236,20438,1,8,0:0:0:0:
127,125,20783,1,0,0:0:0:0:
252,130,21128,1,8,0:0:0:0:
189,128,21300,1,0,0:0:0:0:
252,130,21473,1,8,0:0:0:0:
202,168,21645,1,0,0:0:0:0:
152,207,21818,1,8,0:0:0:0:
210,184,21990,1,8,0:0:0:0:
239,173,22162,1,0,0:0:0:0:
131,106,22507,1,8,0:0:0:0:
194,102,22680,1,0,0:0:0:0:
319,97,23025,1,0,0:0:0:0:
256,99,23197,1,8,0:0:0:0:
156,176,23542,1,0,0:0:0:0:
107,136,23714,1,0,0:0:0:0:
169,209,23887,1,8,0:0:0:0:
200,206,23973,1,0,0:0:0:0:
231,203,24059,1,0,0:0:0:0:
256,99,24231,1,8,0:0:0:0:
256,99,24318,1,8,0:0:0:0:
256,99,24404,1,0,0:0:0:0:
256,99,24490,1,0,0:0:0:0:
256,99,24576,1,8,0:0:0:0:
293,149,24749,1,8,0:0:0:0:
133,127,24921,1,6,0:0:0:0:
83,242,25266,1,8,0:0:0:0:
103,265,25352,1,8,0:0:0:0:
103,265,25438,1,8,0:0:0:0:
103,265,25611,1,0,0:0:0:0:
160,239,25783,1,0,0:0:0:0:
217,213,25956,1,8,0:0:0:0:
184,91,26300,1,8,0:0:0:0:
192,121,26387,1,0,0:0:0:0:
200,151,26473,1,8,0:0:0:0:
235,98,26645,1,8,0:0:0:0:
285,135,26990,1,0,0:0:0:0:
237,251,27335,1,8,0:0:0:0:
237,251,27507,1,0,0:0:0:0:
237,251,27680,1,0,0:0:0:0:
237,251,28025,1,0,0:0:0:0:
217,226,28111,1,0,0:0:0:0:
197,201,28197,1,0,0:0:0:0:
170,183,28283,1,8,0:0:0:0:
175,142,28369,1,8,0:0:0:0:
213,92,28542,1,8,0:0:0:0:
274,79,28714,1,8,0:0:0:0:
302,135,29059,1,0,0:0:0:0:
316,162,29145,1,0,0:0:0:0:
330,189,29231,1,0,0:0:0:0:
272,214,29404,1,8,0:0:0:0:
243,226,29490,1,0,0:0:0:0:
214,238,29576,1,8,0:0:0:0:
174,188,29749,1,8,0:0:0:0:
193,128,30094,1,8,0:0:0:0:
202,98,30180,1,8,0:0:0:0:
202,98,30267,1,0,0:0:0:0:
264,101,30438,1,8,0:0:0:0:
275,226,30783,1,0,0:0:0:0:
275,226,30956,1,0,0:0:0:0:
275,226,31128,1,8,0:0:0:0:
170,156,31473,1,8,0:0:0:0:
295,142,31818,1,0,0:0:0:0:
263,145,31904,1,0,0:0:0:0:
231,148,31990,1,0,0:0:0:0:
218,209,32162,1,8,0:0:0:0:
196,333,32507,1,8,0:0:0:0:
228,211,32852,1,8,0:0:0:0:
244,149,33025,1,0,0:0:0:0:
261,88,33197,1,8,0:0:0:0:
204,116,33283,1,0,0:0:0:0:
175,130,33369,1,0,0:0:0:0:
147,144,33542,1,8,0:0:0:0:
277,165,33887,1,8,0:0:0:0:
309,170,33973,1,8,0:0:0:0:
341,176,34059,1,0,0:0:0:0:
230,103,34231,1,8,0:0:0:0:
192,158,34404,1,0,0:0:0:0:
202,85,34576,1,8,0:0:0:0:
174,67,34662,1,8,0:0:0:0:
174,67,34748,1,0,0:0:0:0:
174,67,34835,1,0,0:0:0:0:
179,133,34921,1,8,0:0:0:0:
300,97,35266,1,8,0:0:0:0:
179,135,35611,1,0,0:0:0:0:
299,97,35956,1,4,0:0:0:0:
156,304,36645,1,8,0:0:0:0:
232,63,37335,1,4,0:0:0:0:
243,124,37507,1,8,0:0:0:0:
254,186,37680,1,8,0:0:0:0:
191,182,37852,1,4,0:0:0:0:
128,178,38024,1,8,0:0:0:0:
135,115,38197,1,8,0:0:0:0:
142,52,38369,1,4,0:0:0:0:
135,114,38542,1,8,0:0:0:0:
142,51,38714,1,4,0:0:0:0:
312,237,39404,1,8,0:0:0:0:
232,63,40093,1,4,0:0:0:0:
243,124,40265,1,8,0:0:0:0:
254,186,40438,1,8,0:0:0:0:
191,182,40610,1,4,0:0:0:0:
128,178,40782,1,8,0:0:0:0:
135,115,40955,1,8,0:0:0:0:
142,52,41128,1,4,0:0:0:0:
135,114,41300,1,8,0:0:0:0:
142,51,41472,1,4,0:0:0:0:
357,181,42162,1,8,0:0:0:0:
232,63,42852,1,4,0:0:0:0:
243,124,43024,1,8,0:0:0:0:
254,186,43197,1,8,0:0:0:0:
191,182,43369,1,4,0:0:0:0:
128,178,43541,1,8,0:0:0:0:
135,115,43714,1,8,0:0:0:0:
142,52,43886,1,4,0:0:0:0:
135,114,44059,1,8,0:0:0:0:
197,119,44231,1,0,0:0:0:0:
140,231,44576,1,0,0:0:0:0:
115,289,44749,1,0,0:0:0:0:
312,237,44921,1,8,0:0:0:0:
94,95,45007,1,8,0:0:0:0:
285,179,45093,1,8,0:0:0:0:
188,261,45266,1,0,0:0:0:0:
188,261,45438,1,0,0:0:0:0:
158,205,45611,1,0,0:0:0:0:
186,190,45697,1,0,0:0:0:0:
126,150,45783,1,8,0:0:0:0:
94,95,45956,1,0,0:0:0:0:
215,126,46300,1,8,0:0:0:0:
276,141,46473,1,8,0:0:0:0:
276,141,46645,1,0,0:0:0:0:
276,141,46818,1,0,0:0:0:0:
276,141,46990,1,8,0:0:0:0:
163,197,47335,1,0,0:0:0:0:
51,255,47680,1,8,0:0:0:0:
232,63,48369,1,4,0:0:0:0:
243,124,48541,1,8,0:0:0:0:
254,186,48714,1,8,0:0:0:0:
191,182,48886,1,4,0:0:0:0:
128,178,49058,1,8,0:0:0:0:
135,115,49231,1,8,0:0:0:0:
142,52,49403,1,4,0:0:0:0:
135,114,49576,1,8,0:0:0:0:
142,51,49748,1,4,0:0:0:0:
312,237,50438,1,8,0:0:0:0:
232,63,51127,1,4,0:0:0:0:
243,124,51299,1,8,0:0:0:0:
254,186,51472,1,8,0:0:0:0:
191,182,51644,1,4,0:0:0:0:
128,178,51816,1,8,0:0:0:0:
135,115,51989,1,8,0:0:0:0:
142,52,52162,1,4,0:0:0:0:
135,114,52334,1,8,0:0:0:0:
142,51,52506,1,4,0:0:0:0:
295,251,53197,1,8,0:0:0:0:
232,63,53887,1,4,0:0:0:0:
243,124,54059,1,8,0:0:0:0:
254,186,54232,1,8,0:0:0:0:
191,182,54404,1,4,0:0:0:0:
128,178,54576,1,8,0:0:0:0:
135,115,54749,1,8,0:0:0:0:
142,52,54921,1,4,0:0:0:0:
135,114,55094,1,8,0:0:0:0:
197,119,55266,1,0,0:0:0:0:
140,231,55611,1,0,0:0:0:0:
115,289,55784,1,0,0:0:0:0:
312,237,55956,1,8,0:0:0:0:
94,95,56042,1,8,0:0:0:0:
285,179,56128,1,8,0:0:0:0:
188,261,56301,1,0,0:0:0:0:
188,261,56473,1,0,0:0:0:0:
158,205,56646,1,0,0:0:0:0:
186,190,56732,1,0,0:0:0:0:
126,150,56818,1,8,0:0:0:0:
94,95,56991,1,0,0:0:0:0:
219,106,57335,1,8,0:0:0:0:
250,108,57421,1,8,0:0:0:0:
281,111,57507,1,0,0:0:0:0:
312,114,57593,1,0,0:0:0:0:
343,117,57680,1,8,0:0:0:0:
285,126,57852,1,8,0:0:0:0:
343,117,58024,1,8,0:0:0:0:
206,282,58542,1,8,0:0:0:0:
262,169,59059,1,8,0:0:0:0:
147,116,59404,1,0,0:0:0:0:
31,66,59749,1,0,0:0:0:0:
88,90,59921,1,8,0:0:0:0:
203,141,60266,1,0,0:0:0:0:
145,115,60438,1,8,0:0:0:0:
250,183,60783,1,0,0:0:0:0:
407,287,61300,1,8,0:0:0:0:
297,225,61645,1,0,0:0:0:0:
249,182,61818,1,8,0:0:0:0:
134,129,62162,1,0,0:0:0:0:
76,102,62335,1,0,0:0:0:0:
132,129,62507,1,0,0:0:0:0:
75,101,62680,1,8,0:0:0:0:
215,171,63024,1,0,0:0:0:0:
186,156,63197,1,8,0:0:0:0:
132,129,63542,1,8,0:0:0:0:
132,129,63714,1,0,0:0:0:0:
132,129,63887,1,8,0:0:0:0:
132,129,64059,1,8,0:0:0:0:
196,116,64231,1,8,0:0:0:0:
196,116,64318,1,0,0:0:0:0:
196,116,64404,1,8,0:0:0:0:
250,152,64576,1,8,0:0:0:0:
305,188,64749,1,0,0:0:0:0:
239,199,64921,1,8,0:0:0:0:
173,210,65093,1,0,0:0:0:0:
107,221,65266,1,8,0:0:0:0:
42,233,65438,1,8,0:0:0:0:
196,116,65611,1,8,0:0:0:0:
196,116,65698,1,0,0:0:0:0:
196,116,65784,1,8,0:0:0:0:
228,117,65869,1,8,0:0:0:0:
261,118,65956,1,0,0:0:0:0:
215,70,66128,1,0,0:0:0:0:
314,43,66300,1,8,0:0:0:0:
281,52,66387,1,0,0:0:0:0:
347,34,66473,1,8,0:0:0:0:
347,34,66559,1,0,0:0:0:0:
347,34,66645,1,8,0:0:0:0:
285,67,66818,1,8,0:0:0:0:
231,110,66990,1,0,0:0:0:0:
204,132,67076,1,0,0:0:0:0:
177,154,67162,1,0,0:0:0:0:
151,177,67249,1,0,0:0:0:0:
151,177,67335,1,8,0:0:0:0:
213,206,67507,1,0,0:0:0:0:
244,220,67593,1,0,0:0:0:0:
275,235,67680,1,8,0:0:0:0:
250,210,67766,1,8,0:0:0:0:
225,185,67852,1,0,0:0:0:0:
286,154,68024,1,8,0:0:0:0:
354,142,68197,1,0,0:0:0:0:
70,80,68369,1,8,0:0:0:0:
203,118,68714,1,0,0:0:0:0:
332,69,69059,1,12,0:0:0:0:
384,197,69404,1,0,0:0:0:0:
410,260,69576,1,0,0:0:0:0:
383,195,69749,1,8,0:0:0:0:
320,164,69921,1,0,0:0:0:0:
315,181,70094,1,0,0:0:0:0:
281,174,70180,1,0,0:0:0:0:
246,167,70266,1,8,0:0:0:0:
111,134,70611,1,8,0:0:0:0:
43,117,70783,1,0,0:0:0:0:
111,106,70956,1,8,0:0:0:0:
145,101,71042,1,0,0:0:0:0:
179,96,71128,1,8,0:0:0:0:
248,92,71300,1,8,0:0:0:0:
282,90,71387,1,8,0:0:0:0:
282,90,71473,1,0,0:0:0:0:
257,154,71645,1,0,0:0:0:0:
232,219,71818,1,8,0:0:0:0:
137,118,72162,1,0,0:0:0:0:
113,92,72249,1,0,0:0:0:0:
89,66,72335,1,0,0:0:0:0:
156,81,72507,1,8,0:0:0:0:
225,77,72680,1,0,0:0:0:0:
223,98,72852,1,0,0:0:0:0:
256,106,72938,1,0,0:0:0:0:
289,114,73024,1,8,0:0:0:0:
97,195,73369,1,8,0:0:0:0:
160,168,73541,1,0,0:0:0:0:
160,168,73714,1,0,0:0:0:0:
175,100,73887,1,8,0:0:0:0:
241,82,74059,1,0,0:0:0:0:
274,74,74145,1,0,0:0:0:0:
274,74,74231,1,8,0:0:0:0:
274,74,74318,1,8,0:0:0:0:
274,74,74404,1,0,0:0:0:0:
302,136,74576,1,8,0:0:0:0:
172,185,74921,1,0,0:0:0:0:
107,210,75093,1,0,0:0:0:0:
107,210,75266,1,8,0:0:0:0:
274,74,75438,1,0,0:0:0:0:
157,163,75611,1,0,0:0:0:0:
182,139,75697,1,0,0:0:0:0:
208,115,75784,1,8,0:0:0:0:
190,92,76128,1,8,0:0:0:0:
190,92,76301,1,0,0:0:0:0:
190,92,76473,1,0,0:0:0:0:
254,118,76646,1,8,0:0:0:0:
317,145,76818,1,8,0:0:0:0:
348,158,76904,1,0,0:0:0:0:
379,171,76990,1,8,0:0:0:0:
411,184,77077,1,8,0:0:0:0:
411,184,77163,1,0,0:0:0:0:
343,171,77335,1,8,0:0:0:0:
273,166,77507,1,0,0:0:0:0:
203,162,77680,1,0,0:0:0:0:
201,92,77852,1,8,0:0:0:0:
202,127,78024,1,8,0:0:0:0:
77,64,78369,1,8,0:0:0:0:
138,96,78542,1,0,0:0:0:0:
76,63,78714,1,8,0:0:0:0:
143,80,78887,1,0,0:0:0:0:
209,98,79059,1,0,0:0:0:0:
346,114,79404,1,8,0:0:0:0:
346,114,79490,1,8,0:0:0:0:
346,114,79576,1,8,0:0:0:0:
346,114,79662,1,8,0:0:0:0:
346,114,79749,1,0,0:0:0:0:
346,114,79835,1,0,0:0:0:0:
346,114,79921,1,0,0:0:0:0:
346,114,80007,1,0,0:0:0:0:
346,114,80093,1,8,0:0:0:0:
384,197,80438,1,0,0:0:0:0:
410,260,80610,1,0,0:0:0:0:
383,195,80783,1,8,0:0:0:0:
320,164,80955,1,0,0:0:0:0:
315,181,81128,1,0,0:0:0:0:
281,174,81214,1,0,0:0:0:0:
246,167,81300,1,8,0:0:0:0:
111,134,81645,1,8,0:0:0:0:
43,117,81817,1,0,0:0:0:0:
111,106,81990,1,8,0:0:0:0:
145,101,82076,1,0,0:0:0:0:
179,96,82162,1,8,0:0:0:0:
248,92,82334,1,8,0:0:0:0:
282,90,82421,1,8,0:0:0:0:
282,90,82507,1,0,0:0:0:0:
257,154,82679,1,0,0:0:0:0:
232,219,82852,1,8,0:0:0:0:
137,118,83196,1,0,0:0:0:0:
113,92,83283,1,0,0:0:0:0:
89,66,83369,1,0,0:0:0:0:
156,81,83541,1,8,0:0:0:0:
225,77,83714,1,0,0:0:0:0:
223,98,83886,1,0,0:0:0:0:
256,106,83972,1,0,0:0:0:0:
289,114,84058,1,8,0:0:0:0:
97,195,84403,1,8,0:0:0:0:
160,168,84575,1,0,0:0:0:0:
160,168,84748,1,0,0:0:0:0:
175,100,84921,1,8,0:0:0:0:
241,82,85093,1,0,0:0:0:0:
274,74,85179,1,0,0:0:0:0:
274,74,85265,1,8,0:0:0:0:
274,74,85352,1,8,0:0:0:0:
274,74,85438,1,0,0:0:0:0:
302,136,85610,1,8,0:0:0:0:
172,185,85955,1,0,0:0:0:0:
107,210,86127,1,0,0:0:0:0:
107,210,86300,1,8,0:0:0:0:
274,74,86472,1,0,0:0:0:0:
157,163,86645,1,0,0:0:0:0:
182,139,86731,1,0,0:0:0:0:
208,115,86818,1,8,0:0:0:0:
190,92,87162,1,8,0:0:0:0:
190,92,87335,1,0,0:0:0:0:
190,92,87507,1,0,0:0:0:0:
254,118,87680,1,8,0:0:0:0:
317,145,87852,1,8,0:0:0:0:
348,158,87938,1,0,0:0:0:0:
379,171,88024,1,8,0:0:0:0:
411,184,88111,1,8,0:0:0:0:
411,184,88197,1,0,0:0:0:0:
343,171,88369,1,8,0:0:0:0:
273,166,88541,1,0,0:0:0:0:
203,162,88714,1,0,0:0:0:0:
201,92,88886,1,8,0:0:0:0:
202,127,89058,1,8,0:0:0:0:
77,64,89403,1,8,0:0:0:0:
138,96,89576,1,0,0:0:0:0:
76,63,89748,1,8,0:0:0:0:
143,80,89921,1,0,0:0:0:0:
209,98,90093,1,0,0:0:0:0:
346,114,90438,1,8,0:0:0:0:
346,114,90524,1,8,0:0:0:0:
346,114,90610,1,8,0:0:0:0:
346,114,90696,1,8,0:0:0:0:
346,114,90783,1,0,0:0:0:0:
346,114,90869,1,0,0:0:0:0:
346,114,90955,1,0,0:0:0:0:
346,114,91041,1,0,0:0:0:0:
346,114,91127,1,8,0:0:0:0:
223,145,91473,1,0,0:0:0:0:
162,160,91645,1,0,0:0:0:0:
100,176,91818,1,8,0:0:0:0:
188,86,92162,1,0,0:0:0:0:
64,61,92507,1,8,0:0:0:0:
125,73,92680,1,0,0:0:0:0:
125,73,92852,1,8,0:0:0:0:
235,133,93197,1,8,0:0:0:0:
269,11,93542,1,8,0:0:0:0:
252,71,93714,1,8,0:0:0:0:
252,71,93887,1,0,0:0:0:0:
152,147,94231,1,8,0:0:0:0:
177,128,94318,1,8,0:0:0:0:
204,142,94404,1,8,0:0:0:0:
177,128,94576,1,0,0:0:0:0:
293,79,94921,1,8,0:0:0:0:
293,79,95093,1,0,0:0:0:0:
176,29,95438,1,0,0:0:0:0:
195,88,95611,1,8,0:0:0:0:
225,209,95956,1,8,0:0:0:0:
225,209,96128,1,8,0:0:0:0:
250,151,96300,1,0,0:0:0:0:
275,93,96473,1,0,0:0:0:0:
212,101,96645,1,8,0:0:0:0:
86,87,96990,1,8,0:0:0:0:
148,93,97162,1,0,0:0:0:0:
148,93,97335,1,8,0:0:0:0:
151,30,97507,1,8,0:0:0:0:
273,107,97680,1,0,0:0:0:0:
203,170,97852,1,0,0:0:0:0:
179,191,98024,1,8,0:0:0:0:
112,83,98369,1,8,0:0:0:0:
112,83,98542,1,0,0:0:0:0:
112,83,98714,1,8,0:0:0:0:
112,83,99059,1,0,0:0:0:0:
112,83,99404,1,12,0:0:0:0:
112,83,99576,1,0,0:0:0:0:
209,162,99921,1,0,0:0:0:0:
209,162,100093,1,12,0:0:0:0:
209,162,100266,1,0,0:0:0:0:
318,100,100611,1,0,0:0:0:0:
199,77,100783,1,8,0:0:0:0:
171,91,100869,1,8,0:0:0:0:
199,77,100956,1,0,0:0:0:0:
171,91,101042,1,0,0:0:0:0:
143,106,101128,1,8,0:0:0:0:
197,137,101300,1,0,0:0:0:0:
251,168,101473,1,8,0:0:0:0:
278,183,101559,1,8,0:0:0:0:
278,183,101645,1,8,0:0:0:0:
278,183,101731,1,8,0:0:0:0:
278,183,101818,1,0,0:0:0:0:
278,183,101904,1,0,0:0:0:0:
278,183,101990,1,0,0:0:0:0:
278,183,102076,1,0,0:0:0:0:
278,183,102162,1,0,0:0:0:0:
168,121,102507,1,8,0:0:0:0:
140,105,102593,1,0,0:0:0:0:
112,89,102680,1,8,0:0:0:0:
174,84,102852,1,8,0:0:0:0:
299,76,103197,1,0,0:0:0:0:
216,170,103542,1,8,0:0:0:0:
216,170,103714,1,0,0:0:0:0:
216,170,103887,1,8,0:0:0:0:
147,64,104231,1,8,0:0:0:0:
216,169,104576,1,0,0:0:0:0:
180,115,104749,1,8,0:0:0:0:
163,88,104921,1,0,0:0:0:0:
288,95,105266,1,8,0:0:0:0:
319,96,105352,1,8,0:0:0:0:
319,96,105438,1,8,0:0:0:0:
319,96,105611,1,0,0:0:0:0:
199,134,105956,1,8,0:0:0:0:
139,153,106128,1,0,0:0:0:0:
259,115,106473,1,0,0:0:0:0:
259,115,106645,1,8,0:0:0:0:
225,209,106990,1,8,0:0:0:0:
225,209,107162,1,0,0:0:0:0:
250,151,107334,1,8,0:0:0:0:
275,93,107507,1,8,0:0:0:0:
212,101,107680,1,0,0:0:0:0:
86,87,108024,1,8,0:0:0:0:
148,93,108196,1,8,0:0:0:0:
148,93,108369,1,0,0:0:0:0:
151,30,108541,1,0,0:0:0:0:
273,107,108714,1,8,0:0:0:0:
203,170,108887,1,8,0:0:0:0:
222,45,109231,1,0,0:0:0:0:
112,83,109403,1,8,0:0:0:0:
112,83,109576,1,8,0:0:0:0:
112,83,109748,1,0,0:0:0:0:
112,83,110093,1,8,0:0:0:0:
112,83,110438,1,12,0:0:0:0:
112,83,110610,1,0,0:0:0:0:
209,162,110955,1,0,0:0:0:0:
209,162,111127,1,12,0:0:0:0:
209,162,111300,1,0,0:0:0:0:
318,100,111645,1,0,0:0:0:0:
199,77,111817,1,8,0:0:0:0:
171,91,111903,1,8,0:0:0:0:
199,77,111990,1,0,0:0:0:0:
171,91,112076,1,0,0:0:0:0:
143,106,112162,1,8,0:0:0:0:
197,137,112334,1,0,0:0:0:0:
251,168,112507,1,8,0:0:0:0:
278,183,112593,1,8,0:0:0:0:
278,183,112679,1,8,0:0:0:0:
278,183,112765,1,8,0:0:0:0:
278,183,112852,1,0,0:0:0:0:
278,183,112938,1,0,0:0:0:0:
278,183,113024,1,0,0:0:0:0:
278,183,113110,1,0,0:0:0:0:
278,183,113196,1,8,0:0:0:0:
328,224,113887,1,0,0:0:0:0:
83,162,114576,1,8,0:0:0:0:
139,134,114749,1,0,0:0:0:0:
196,108,114921,1,0,0:0:0:0:
204,192,115094,1,8,0:0:0:0:
204,192,115266,1,8,0:0:0:0:
204,192,115611,1,0,0:0:0:0:
204,192,115783,1,8,0:0:0:0:
204,192,115956,1,0,0:0:0:0:
76,153,116645,1,0,0:0:0:0:
328,148,117335,1,8,0:0:0:0:
265,149,117507,1,0,0:0:0:0:
201,150,117680,1,8,0:0:0:0:
233,203,117852,1,8,0:0:0:0:
192,24,118024,1,0,0:0:0:0:
200,149,118369,1,0,0:0:0:0:
196,85,118542,1,8,0:0:0:0:
192,22,118714,1,0,0:0:0:0:
161,272,119404,1,0,0:0:0:0:
95,28,120094,1,8,0:0:0:0:
111,88,120266,1,0,0:0:0:0:
128,148,120438,1,0,0:0:0:0:
187,125,120611,1,0,0:0:0:0:
188,129,120783,1,8,0:0:0:0:
246,105,120956,1,0,0:0:0:0:
233,132,121128,1,0,0:0:0:0:
170,128,121300,1,0,0:0:0:0:
216,72,121473,1,8,0:0:0:0:
216,261,122162,1,0,0:0:0:0:
131,23,122852,1,0,0:0:0:0:
167,272,123542,1,8,0:0:0:0:
149,147,123887,1,0,0:0:0:0:
23,151,124231,1,12,0:0:0:0:
147,165,124576,1,0,0:0:0:0:
167,141,124662,1,0,0:0:0:0:
187,117,124749,1,8,0:0:0:0:
212,98,124835,1,8,0:0:0:0:
249,121,124921,1,0,0:0:0:0:
312,125,125094,1,0,0:0:0:0:
312,125,125266,1,0,0:0:0:0:
193,167,125611,1,8,0:0:0:0:
133,188,125783,1,0,0:0:0:0:
133,188,125956,1,0,0:0:0:0:
169,137,126128,1,8,0:0:0:0:
198,125,126214,1,0,0:0:0:0:
207,87,126300,1,8,0:0:0:0:
230,210,126645,1,0,0:0:0:0:
230,210,126818,1,0,0:0:0:0:
230,210,126990,1,8,0:0:0:0:
134,127,127335,1,0,0:0:0:0:
185,90,127507,1,0,0:0:0:0:
228,135,127680,1,8,0:0:0:0:
212,162,127766,1,0,0:0:0:0:
196,189,127852,1,8,0:0:0:0:
241,145,128025,1,0,0:0:0:0:
122,104,128369,1,8,0:0:0:0:
62,84,128542,1,0,0:0:0:0:
91,94,128628,1,0,0:0:0:0:
121,103,128714,1,0,0:0:0:0:
60,84,128887,1,8,0:0:0:0:
120,102,129059,1,8,0:0:0:0:
186,208,129404,1,0,0:0:0:0:
182,176,129490,1,0,0:0:0:0:
152,154,129576,1,0,0:0:0:0:
169,180,129749,1,8,0:0:0:0:
231,108,130094,1,0,0:0:0:0:
282,144,130266,1,0,0:0:0:0:
284,206,130438,1,8,0:0:0:0:
252,202,130525,1,8,0:0:0:0:
220,198,130611,1,8,0:0:0:0:
157,197,130783,1,0,0:0:0:0:
148,71,131128,1,8,0:0:0:0:
148,71,131300,1,0,0:0:0:0:
148,71,131473,1,0,0:0:0:0:
148,71,131645,1,8,0:0:0:0:
110,122,131818,1,8,0:0:0:0:
166,149,131990,1,0,0:0:0:0:
222,176,132162,1,8,0:0:0:0:
243,116,132335,1,0,0:0:0:0:
203,164,132507,1,8,0:0:0:0:
210,130,132593,1,0,0:0:0:0:
155,205,132680,1,8,0:0:0:0:
169,173,132766,1,8,0:0:0:0:
107,246,132852,1,0,0:0:0:0:
198,222,133024,1,0,0:0:0:0:
156,130,133197,1,8,0:0:0:0:
157,95,133284,1,8,0:0:0:0:
156,130,133369,1,0,0:0:0:0:
208,56,133456,1,0,0:0:0:0:
184,143,133542,1,8,0:0:0:0:
252,132,133714,1,0,0:0:0:0:
156,130,133887,1,8,0:0:0:0:
184,142,133973,1,8,0:0:0:0:
212,155,134059,1,8,0:0:0:0:
183,174,134145,1,8,0:0:0:0:
245,146,134231,1,0,0:0:0:0:
269,181,134317,1,0,0:0:0:0:
298,162,134404,1,0,0:0:0:0:
327,143,134490,1,0,0:0:0:0:
208,56,134576,1,8,0:0:0:0:
100,143,134921,1,0,0:0:0:0:
332,69,135266,1,12,0:0:0:0:
384,197,135611,1,0,0:0:0:0:
410,260,135783,1,0,0:0:0:0:
383,195,135956,1,8,0:0:0:0:
320,164,136128,1,0,0:0:0:0:
315,181,136301,1,0,0:0:0:0:
281,174,136387,1,0,0:0:0:0:
246,167,136473,1,8,0:0:0:0:
111,134,136818,1,8,0:0:0:0:
43,117,136990,1,0,0:0:0:0:
111,106,137163,1,8,0:0:0:0:
145,101,137249,1,0,0:0:0:0:
179,96,137335,1,8,0:0:0:0:
248,92,137507,1,8,0:0:0:0:
282,90,137594,1,8,0:0:0:0:
282,90,137680,1,0,0:0:0:0:
257,154,137852,1,0,0:0:0:0:
232,219,138025,1,8,0:0:0:0:
137,118,138369,1,0,0:0:0:0:
113,92,138456,1,0,0:0:0:0:
89,66,138542,1,0,0:0:0:0:
156,81,138714,1,8,0:0:0:0:
225,77,138887,1,0,0:0:0:0:
223,98,139059,1,0,0:0:0:0:
256,106,139145,1,0,0:0:0:0:
289,114,139231,1,8,0:0:0:0:
97,195,139576,1,8,0:0:0:0:
160,168,139748,1,0,0:0:0:0:
160,168,139921,1,0,0:0:0:0:
175,100,140094,1,8,0:0:0:0:
241,82,140266,1,0,0:0:0:0:
274,74,140352,1,0,0:0:0:0:
274,74,140438,1,8,0:0:0:0:
274,74,140525,1,8,0:0:0:0:
274,74,140611,1,0,0:0:0:0:
302,136,140783,1,8,0:0:0:0:
172,185,141128,1,0,0:0:0:0:
107,210,141300,1,0,0:0:0:0:
107,210,141473,1,8,0:0:0:0:
274,74,141645,1,0,0:0:0:0:
157,163,141818,1,0,0:0:0:0:
182,139,141904,1,0,0:0:0:0:
208,115,141991,1,8,0:0:0:0:
190,92,142335,1,8,0:0:0:0:
190,92,142508,1,0,0:0:0:0:
190,92,142680,1,0,0:0:0:0:
254,118,142853,1,8,0:0:0:0:
317,145,143025,1,8,0:0:0:0:
348,158,143111,1,0,0:0:0:0:
379,171,143197,1,8,0:0:0:0:
411,184,143284,1,8,0:0:0:0:
411,184,143370,1,0,0:0:0:0:
343,171,143542,1,8,0:0:0:0:
273,166,143714,1,0,0:0:0:0:
203,162,143887,1,0,0:0:0:0:
201,92,144059,1,8,0:0:0:0:
202,127,144231,1,8,0:0:0:0:
77,64,144576,1,8,0:0:0:0:
138,96,144749,1,0,0:0:0:0:
76,63,144921,1,8,0:0:0:0:
143,80,145094,1,0,0:0:0:0:
209,98,145266,1,0,0:0:0:0:
346,114,145611,1,8,0:0:0:0:
346,114,145697,1,8,0:0:0:0:
346,114,145783,1,8,0:0:0:0:
346,114,145869,1,8,0:0:0:0:
346,114,145956,1,0,0:0:0:0:
346,114,146042,1,0,0:0:0:0:
346,114,146128,1,0,0:0:0:0:
346,114,146214,1,0,0:0:0:0:
346,114,146300,1,8,0:0:0:0:
384,197,146645,1,0,0:0:0:0:
410,260,146817,1,0,0:0:0:0:
383,195,146990,1,8,0:0:0:0:
320,164,147162,1,0,0:0:0:0:
315,181,147335,1,0,0:0:0:0:
281,174,147421,1,0,0:0:0:0:
246,167,147507,1,8,0:0:0:0:
111,134,147852,1,8,0:0:0:0:
43,117,148024,1,0,0:0:0:0:
111,106,148197,1,8,0:0:0:0:
145,101,148283,1,0,0:0:0:0:
179,96,148369,1,8,0:0:0:0:
248,92,148541,1,8,0:0:0:0:
282,90,148628,1,8,0:0:0:0:
282,90,148714,1,0,0:0:0:0:
257,154,148886,1,0,0:0:0:0:
232,219,149059,1,8,0:0:0:0:
137,118,149403,1,0,0:0:0:0:
113,92,149490,1,0,0:0:0:0:
89,66,149576,1,0,0:0:0:0:
156,81,149748,1,8,0:0:0:0:
225,77,149921,1,0,0:0:0:0:
223,98,150093,1,0,0:0:0:0:
256,106,150179,1,0,0:0:0:0:
289,114,150265,1,8,0:0:0:0:
97,195,150610,1,8,0:0:0:0:
160,168,150782,1,0,0:0:0:0:
160,168,150955,1,0,0:0:0:0:
175,100,151128,1,8,0:0:0:0:
241,82,151300,1,0,0:0:0:0:
274,74,151386,1,0,0:0:0:0:
274,74,151472,1,8,0:0:0:0:
274,74,151559,1,8,0:0:0:0:
274,74,151645,1,0,0:0:0:0:
302,136,151817,1,8,0:0:0:0:
172,185,152162,1,0,0:0:0:0:
107,210,152334,1,0,0:0:0:0:
107,210,152507,1,8,0:0:0:0:
274,74,152679,1,0,0:0:0:0:
157,163,152852,1,0,0:0:0:0:
182,139,152938,1,0,0:0:0:0:
208,115,153025,1,8,0:0:0:0:
190,92,153369,1,8,0:0:0:0:
190,92,153542,1,0,0:0:0:0:
190,92,153714,1,0,0:0:0:0:
254,118,153887,1,8,0:0:0:0:
317,145,154059,1,8,0:0:0:0:
348,158,154145,1,0,0:0:0:0:
379,171,154231,1,8,0:0:0:0:
411,184,154318,1,8,0:0:0:0:
411,184,154404,1,0,0:0:0:0:
343,171,154576,1,8,0:0:0:0:
273,166,154748,1,0,0:0:0:0:
203,162,154921,1,0,0:0:0:0:
201,92,155093,1,8,0:0:0:0:
202,127,155265,1,8,0:0:0:0:
77,64,155610,1,8,0:0:0:0:
138,96,155783,1,0,0:0:0:0:
76,63,155955,1,8,0:0:0:0:
143,80,156128,1,0,0:0:0:0:
209,98,156300,1,0,0:0:0:0:
346,114,156645,1,8,0:0:0:0:
346,114,156731,1,8,0:0:0:0:
346,114,156817,1,8,0:0:0:0:
346,114,156903,1,8,0:0:0:0:
346,114,156990,1,0,0:0:0:0:
346,114,157076,1,0,0:0:0:0:
346,114,157162,1,0,0:0:0:0:
346,114,157248,1,0,0:0:0:0:
346,114,157334,1,8,0:0:0:0:
206,109,157680,1,8,0:0:0:0:
268,232,158024,1,0,0:0:0:0:
268,232,158197,1,8,0:0:0:0:
149,159,158542,1,0,0:0:0:0:
89,123,158714,1,8,0:0:0:0:
227,116,159059,1,0,0:0:0:0:
227,116,159231,1,0,0:0:0:0:
227,116,159404,1,8,0:0:0:0:
227,116,159576,1,8,0:0:0:0:
53,114,160093,1,0,0:0:0:0:
53,114,160438,1,8,0:0:0:0:
191,121,160783,1,0,0:0:0:0:
121,117,160956,1,8,0:0:0:0:
250,68,161300,1,8,0:0:0:0:
315,43,161473,1,0,0:0:0:0:
191,105,161818,1,0,0:0:0:0:
129,137,161990,1,0,0:0:0:0:
68,169,162162,1,8,0:0:0:0:
129,137,162335,1,8,0:0:0:0:
68,169,162507,1,0,0:0:0:0:
129,137,162680,1,0,0:0:0:0:
206,109,163197,1,8,0:0:0:0:
268,232,163541,1,0,0:0:0:0:
268,232,163714,1,8,0:0:0:0:
149,159,164059,1,0,0:0:0:0:
89,123,164231,1,8,0:0:0:0:
227,116,164576,1,0,0:0:0:0:
227,116,164748,1,0,0:0:0:0:
227,116,164921,1,8,0:0:0:0:
227,116,165093,1,8,0:0:0:0:
53,114,165610,1,0,0:0:0:0:
53,114,165955,1,8,0:0:0:0:
191,121,166300,1,0,0:0:0:0:
121,117,166473,1,8,0:0:0:0:
250,68,166817,1,8,0:0:0:0:
315,43,166990,1,0,0:0:0:0:
191,105,167335,1,0,0:0:0:0:
129,137,167507,1,0,0:0:0:0:
68,169,167679,1,8,0:0:0:0:
101,159,167766,1,8,0:0:0:0:
129,137,167852,1,8,0:0:0:0:
68,169,168024,1,0,0:0:0:0:
129,137,168197,1,0,0:0:0:0:
192,108,168369,1,4,0:0:0:0:
206,109,168714,1,8,0:0:0:0:
268,232,169058,1,0,0:0:0:0:
268,232,169231,1,8,0:0:0:0:
149,159,169576,1,0,0:0:0:0:
89,123,169748,1,8,0:0:0:0:
227,116,170093,1,0,0:0:0:0:
227,116,170265,1,0,0:0:0:0:
227,116,170438,1,8,0:0:0:0:
227,116,170610,1,8,0:0:0:0:
53,114,171127,1,0,0:0:0:0:
53,114,171472,1,8,0:0:0:0:
191,121,171817,1,0,0:0:0:0:
121,117,171990,1,8,0:0:0:0:
250,68,172334,1,8,0:0:0:0:
315,43,172507,1,0,0:0:0:0:
191,105,172852,1,0,0:0:0:0:
129,137,173024,1,0,0:0:0:0:
68,169,173196,1,8,0:0:0:0:
129,137,173369,1,8,0:0:0:0:
68,169,173541,1,0,0:0:0:0:
129,137,173714,1,0,0:0:0:0:
206,109,174231,1,8,0:0:0:0:
268,232,174575,1,0,0:0:0:0:
268,232,174748,1,8,0:0:0:0:
149,159,175093,1,0,0:0:0:0:
89,123,175265,1,8,0:0:0:0:
227,116,175610,1,0,0:0:0:0:
227,116,175782,1,0,0:0:0:0:
227,116,175955,1,8,0:0:0:0:
227,116,176127,1,8,0:0:0:0:
53,114,176644,1,0,0:0:0:0:
53,114,176989,1,8,0:0:0:0:
191,121,177334,1,0,0:0:0:0:
121,117,177507,1,8,0:0:0:0:
250,68,177851,1,8,0:0:0:0:
315,43,178024,1,0,0:0:0:0:
191,105,178369,1,0,0:0:0:0:
129,137,178541,1,0,0:0:0:0:
68,169,178713,1,8,0:0:0:0:
129,137,178886,1,8,0:0:0:0:
68,169,179058,1,0,0:0:0:0:
129,137,179231,1,0,0:0:0:0:
206,109,179749,1,8,0:0:0:0:
268,232,180093,1,0,0:0:0:0:
268,232,180266,1,8,0:0:0:0:
149,159,180611,1,0,0:0:0:0:
89,123,180783,1,8,0:0:0:0:
227,116,181128,1,0,0:0:0:0:
227,116,181300,1,0,0:0:0:0:
227,116,181473,1,8,0:0:0:0:
227,116,181645,1,8,0:0:0:0:
53,114,182162,1,0,0:0:0:0:
53,114,182507,1,8,0:0:0:0:
191,121,182852,1,0,0:0:0:0:
121,117,183025,1,8,0:0:0:0:
250,68,183369,1,8,0:0:0:0:
315,43,183542,1,0,0:0:0:0:
191,105,183887,1,0,0:0:0:0:
129,137,184059,1,0,0:0:0:0:
68,169,184231,1,8,0:0:0:0:
129,137,184404,1,8,0:0:0:0:
68,169,184576,1,0,0:0:0:0:
129,137,184749,1,0,0:0:0:0:
206,109,185266,1,8,0:0:0:0:
268,232,185610,1,0,0:0:0:0:
268,232,185783,1,8,0:0:0:0:
149,159,186128,1,0,0:0:0:0:
89,123,186300,1,8,0:0:0:0:
227,116,186645,1,0,0:0:0:0:
227,116,186817,1,0,0:0:0:0:
227,116,186990,1,8,0:0:0:0:
227,116,187162,1,8,0:0:0:0:
53,114,187679,1,0,0:0:0:0:
53,114,188024,1,8,0:0:0:0:
191,121,188369,1,0,0:0:0:0:
121,117,188542,1,8,0:0:0:0:
250,68,188886,1,8,0:0:0:0:
315,43,189059,1,0,0:0:0:0:
191,105,189404,1,0,0:0:0:0:
129,137,189576,1,0,0:0:0:0:
68,169,189748,1,8,0:0:0:0:
129,137,189921,1,8,0:0:0:0:
68,169,190093,1,0,0:0:0:0:
129,137,190266,1,0,0:0:0:0:
