osu file format v14

[General]
AudioFilename: audio.mp3
AudioLeadIn: 0
PreviewTime: 68369
Countdown: 1
SampleSet: Normal
StackLeniency: 0.7
Mode: 1
LetterboxInBreaks: 0
WidescreenStoryboard: 0

[Editor]
DistanceSpacing: 0.9
BeatDivisor: 4
GridSize: 4
TimelineZoom: 1

[Metadata]
Title:Alone Together (Krewella Remix)
TitleUnicode:Alone Together (Krewella Remix)
Artist:Fall Out Boy
ArtistUnicode:Fall Out Boy
Creator:Jorkseljund
Version:Muzukashii
Source:
Tags:
BeatmapID:1808540
BeatmapSetID:864834

[Difficulty]
HPDrainRate:6
CircleSize:4
OverallDifficulty:5
ApproachRate:5
SliderMultiplier:1.4
SliderTickRate:1

[Events]
//Background and Video events
0,0,"city-person-standing-rooftop-wallpaper.jpg",0,0
//Break Periods
//Storyboard Layer 0 (Background)
//Storyboard Layer 1 (Fail)
//Storyboard Layer 2 (Pass)
//Storyboard Layer 3 (Foreground)
//Storyboard Sound Samples

[TimingPoints]
94,344.827586206897,4,1,0,100,1,0
3111,-111.111111111111,4,1,0,100,0,0
13800,-100,4,1,0,100,0,0
24835,-95.2380952380952,4,1,0,100,0,0
33800,-90.9090909090909,4,1,0,100,0,0
35869,-100,4,1,0,100,0,0
63456,-95.2380952380952,4,1,0,100,0,0
66214,-90.9090909090909,4,1,0,100,0,0
69059,-90.9090909090909,4,1,0,100,0,1
91128,-100,4,1,0,100,0,0
99318,-95.2380952380952,4,1,0,100,0,0
101042,-90.9090909090909,4,1,0,100,0,0
102076,-100,4,1,0,100,0,0
110352,-95.2380952380952,4,1,0,100,0,0
112076,-90.9090909090909,4,1,0,100,0,0
113111,-100,4,1,0,100,0,0
124145,-95.2380952380952,4,1,0,100,0,0
129662,-90.9090909090909,4,1,0,100,0,0
135266,-90.9090909090909,4,1,0,100,0,1
157335,-100,4,1,0,100,0,0

[HitObjects]
212,145,3197,5,8,0:0:0:0:
353,270,3714,1,0,0:0:0:0:
169,223,4231,1,0,0:0:0:0:
177,33,4576,1,8,0:0:0:0:
174,95,4748,1,0,0:0:0:0:
174,95,4921,1,8,0:0:0:0:
174,95,5093,1,8,0:0:0:0:
414,299,5956,1,8,0:0:0:0:
247,209,6473,1,0,0:0:0:0:
80,119,6990,1,0,0:0:0:0:
203,142,7335,1,8,0:0:0:0:
264,155,7507,1,0,0:0:0:0:
202,141,7680,1,8,0:0:0:0:
243,188,7852,1,8,0:0:0:0:
153,257,8025,1,0,0:0:0:0:
153,257,8197,1,0,0:0:0:0:
300,139,8714,1,8,0:0:0:0:
154,259,9231,1,0,0:0:0:0:
300,138,9749,1,0,0:0:0:0:
173,136,10094,1,8,0:0:0:0:
173,136,10266,1,0,0:0:0:0:
173,136,10438,1,8,0:0:0:0:
173,136,10611,1,8,0:0:0:0:
226,242,11473,1,8,0:0:0:0:
226,242,11990,1,0,0:0:0:0:
226,242,12507,1,0,0:0:0:0:
141,148,12852,1,0,0:0:0:0:
99,100,13025,1,0,0:0:0:0:
140,147,13197,1,8,0:0:0:0:
265,137,13542,1,0,0:0:0:0:
202,143,13714,1,8,0:0:0:0:
178,201,13887,1,0,0:0:0:0:
72,132,14231,1,8,0:0:0:0:
196,148,14576,1,0,0:0:0:0:
133,140,14749,1,0,0:0:0:0:
195,148,14921,1,8,0:0:0:0:
320,136,15266,1,0,0:0:0:0:
206,81,15611,1,8,0:0:0:0:
204,207,15956,1,8,0:0:0:0:
205,144,16128,1,0,0:0:0:0:
205,144,16300,1,8,0:0:0:0:
206,81,16645,1,0,0:0:0:0:
206,81,16990,1,8,0:0:0:0:
164,200,17335,1,0,0:0:0:0:
164,200,17507,1,0,0:0:0:0:
164,200,17680,1,8,0:0:0:0:
111,85,18025,1,0,0:0:0:0:
221,145,18369,1,8,0:0:0:0:
221,145,18542,1,0,0:0:0:0:
221,145,18714,1,0,0:0:0:0:
95,149,19059,1,8,0:0:0:0:
95,149,19231,1,0,0:0:0:0:
126,203,19404,1,8,0:0:0:0:
279,189,19749,1,8,0:0:0:0:
165,134,20094,1,0,0:0:0:0:
165,134,20266,1,0,0:0:0:0:
165,134,20438,1,8,0:0:0:0:
55,196,20783,1,0,0:0:0:0:
166,136,21128,1,8,0:0:0:0:
110,166,21300,1,8,0:0:0:0:
54,197,21473,1,0,0:0:0:0:
179,190,21818,1,8,0:0:0:0:
226,73,22162,1,0,0:0:0:0:
226,73,22507,1,8,0:0:0:0:
251,196,22852,1,0,0:0:0:0:
275,319,23197,1,8,0:0:0:0:
180,236,23542,1,0,0:0:0:0:
132,194,23714,1,0,0:0:0:0:
84,152,23887,1,8,0:0:0:0:
209,148,24231,1,0,0:0:0:0:
240,147,24318,1,0,0:0:0:0:
240,147,24404,1,0,0:0:0:0:
82,160,24576,1,0,0:0:0:0:
116,212,24749,1,0,0:0:0:0:
150,264,24921,1,6,0:0:0:0:
101,147,25266,1,8,0:0:0:0:
101,147,25438,1,8,0:0:0:0:
101,147,25611,1,0,0:0:0:0:
225,128,25956,1,8,0:0:0:0:
347,154,26300,1,0,0:0:0:0:
285,140,26473,1,0,0:0:0:0:
223,128,26645,1,8,0:0:0:0:
284,140,26818,1,8,0:0:0:0:
222,128,26990,1,0,0:0:0:0:
115,195,27335,1,8,0:0:0:0:
226,253,27680,1,0,0:0:0:0:
170,223,27852,1,0,0:0:0:0:
170,223,28025,1,8,0:0:0:0:
196,100,28369,1,0,0:0:0:0:
196,100,28714,1,8,0:0:0:0:
196,100,28887,1,8,0:0:0:0:
196,100,29059,1,0,0:0:0:0:
146,216,29404,1,8,0:0:0:0:
270,233,29749,1,8,0:0:0:0:
196,100,30094,1,8,0:0:0:0:
196,100,30266,1,0,0:0:0:0:
196,100,30438,1,8,0:0:0:0:
156,219,30783,1,0,0:0:0:0:
156,219,30956,1,0,0:0:0:0:
156,219,31128,1,8,0:0:0:0:
181,95,31473,1,8,0:0:0:0:
239,206,31818,1,0,0:0:0:0:
176,197,31990,1,0,0:0:0:0:
297,317,32162,1,8,0:0:0:0:
238,205,32507,1,8,0:0:0:0:
113,186,32852,1,8,0:0:0:0:
113,186,33025,1,0,0:0:0:0:
113,186,33197,1,8,0:0:0:0:
167,154,33369,1,0,0:0:0:0:
167,154,33542,1,8,0:0:0:0:
282,103,33887,1,8,0:0:0:0:
253,116,33973,1,8,0:0:0:0:
253,116,34059,1,8,0:0:0:0:
154,195,34231,1,0,0:0:0:0:
144,114,34403,1,0,0:0:0:0:
199,143,34576,1,8,0:0:0:0:
291,228,34921,1,0,0:0:0:0:
291,228,35007,1,0,0:0:0:0:
291,228,35094,1,0,0:0:0:0:
293,165,35266,1,8,0:0:0:0:
169,141,35611,1,0,0:0:0:0:
169,141,35956,1,4,0:0:0:0:
121,83,36645,1,8,0:0:0:0:
351,184,37335,1,4,0:0:0:0:
276,285,37680,1,8,0:0:0:0:
234,133,37853,1,4,0:0:0:0:
173,242,38369,1,0,0:0:0:0:
173,242,38542,1,0,0:0:0:0:
173,242,38714,1,4,0:0:0:0:
210,115,39404,1,8,0:0:0:0:
232,96,40094,1,4,0:0:0:0:
145,4,40438,1,8,0:0:0:0:
112,136,40611,1,4,0:0:0:0:
91,260,41128,1,0,0:0:0:0:
134,214,41300,1,0,0:0:0:0:
178,168,41473,1,4,0:0:0:0:
408,268,42162,1,8,0:0:0:0:
172,176,42852,1,4,0:0:0:0:
53,132,43197,1,8,0:0:0:0:
111,153,43369,1,4,0:0:0:0:
228,107,43886,1,0,0:0:0:0:
169,130,44058,1,0,0:0:0:0:
178,192,44231,1,4,0:0:0:0:
338,292,44921,1,0,0:0:0:0:
236,61,45611,1,0,0:0:0:0:
311,234,46300,1,8,0:0:0:0:
191,195,46645,1,0,0:0:0:0:
71,155,46990,1,4,0:0:0:0:
121,83,47680,1,8,0:0:0:0:
351,184,48370,1,4,0:0:0:0:
276,285,48715,1,8,0:0:0:0:
234,133,48888,1,4,0:0:0:0:
173,242,49404,1,0,0:0:0:0:
173,242,49577,1,0,0:0:0:0:
173,242,49749,1,4,0:0:0:0:
210,115,50439,1,8,0:0:0:0:
232,96,51129,1,4,0:0:0:0:
145,4,51473,1,8,0:0:0:0:
112,136,51646,1,4,0:0:0:0:
91,260,52163,1,0,0:0:0:0:
134,214,52335,1,0,0:0:0:0:
178,168,52508,1,4,0:0:0:0:
408,268,53197,1,8,0:0:0:0:
172,176,53887,1,4,0:0:0:0:
53,132,54232,1,8,0:0:0:0:
111,153,54404,1,4,0:0:0:0:
228,107,54921,1,0,0:0:0:0:
169,130,55093,1,0,0:0:0:0:
178,192,55266,1,4,0:0:0:0:
338,292,55956,1,0,0:0:0:0:
236,61,56646,1,0,0:0:0:0:
311,234,57335,1,8,0:0:0:0:
191,195,57680,1,0,0:0:0:0:
71,155,58025,1,4,0:0:0:0:
259,170,58542,1,8,0:0:0:0:
133,162,58887,1,0,0:0:0:0:
195,166,59059,1,8,0:0:0:0:
234,46,59404,1,0,0:0:0:0:
244,171,59749,1,8,0:0:0:0:
239,108,59921,1,8,0:0:0:0:
249,233,60266,1,0,0:0:0:0:
244,170,60438,1,8,0:0:0:0:
120,142,60783,1,0,0:0:0:0:
259,170,61300,1,8,0:0:0:0:
133,162,61645,1,0,0:0:0:0:
195,166,61817,1,8,0:0:0:0:
234,46,62162,1,0,0:0:0:0:
244,171,62507,1,8,0:0:0:0:
239,108,62679,1,8,0:0:0:0:
249,233,63024,1,0,0:0:0:0:
244,170,63196,1,8,0:0:0:0:
120,142,63542,1,8,0:0:0:0:
131,204,63714,1,0,0:0:0:0:
142,266,63887,1,8,0:0:0:0:
182,218,64059,1,8,0:0:0:0:
263,122,64404,1,0,0:0:0:0:
263,122,64576,1,8,0:0:0:0:
138,140,64921,1,8,0:0:0:0:
138,140,65094,1,0,0:0:0:0:
138,140,65266,1,8,0:0:0:0:
138,140,65438,1,8,0:0:0:0:
263,152,65783,1,0,0:0:0:0:
263,152,65956,1,8,0:0:0:0:
138,133,66300,1,8,0:0:0:0:
200,141,66473,1,0,0:0:0:0:
200,141,66645,1,8,0:0:0:0:
200,141,66818,1,8,0:0:0:0:
262,137,66990,1,0,0:0:0:0:
293,136,67076,1,0,0:0:0:0:
293,136,67162,1,0,0:0:0:0:
231,123,67335,1,8,0:0:0:0:
169,110,67507,1,0,0:0:0:0:
241,172,67680,1,8,0:0:0:0:
215,190,67766,1,8,0:0:0:0:
189,208,67852,1,8,0:0:0:0:
144,162,68025,1,0,0:0:0:0:
55,73,68369,1,8,0:0:0:0:
263,215,69059,1,6,0:0:0:0:
130,172,69404,1,0,0:0:0:0:
63,151,69576,1,0,0:0:0:0:
129,172,69749,1,8,0:0:0:0:
266,155,70094,1,0,0:0:0:0:
266,155,70266,1,8,0:0:0:0:
193,36,70611,1,8,0:0:0:0:
229,94,70783,1,0,0:0:0:0:
229,94,70956,1,8,0:0:0:0:
229,94,71128,1,8,0:0:0:0:
229,94,71300,1,8,0:0:0:0:
229,94,71387,1,8,0:0:0:0:
229,94,71473,1,8,0:0:0:0:
188,150,71645,1,8,0:0:0:0:
154,210,71818,1,0,0:0:0:0:
88,331,72162,1,8,0:0:0:0:
122,270,72335,1,0,0:0:0:0:
122,270,72507,1,8,0:0:0:0:
193,151,72852,1,0,0:0:0:0:
193,151,73025,1,8,0:0:0:0:
56,127,73369,1,8,0:0:0:0:
56,127,73542,1,0,0:0:0:0:
56,127,73714,1,8,0:0:0:0:
119,154,73887,1,8,0:0:0:0:
182,181,74059,1,0,0:0:0:0:
213,194,74145,1,0,0:0:0:0:
244,207,74231,1,0,0:0:0:0:
227,139,74404,1,8,0:0:0:0:
180,87,74576,1,8,0:0:0:0:
309,135,74921,1,0,0:0:0:0:
309,135,75094,1,0,0:0:0:0:
309,135,75266,1,8,0:0:0:0:
171,155,75611,1,0,0:0:0:0:
102,167,75783,1,8,0:0:0:0:
204,73,76128,1,8,0:0:0:0:
204,73,76300,1,0,0:0:0:0:
204,73,76473,1,0,0:0:0:0:
200,142,76645,1,8,0:0:0:0:
139,176,76818,1,0,0:0:0:0:
79,210,76990,1,0,0:0:0:0:
94,72,77335,1,8,0:0:0:0:
88,140,77507,1,0,0:0:0:0:
94,70,77680,1,0,0:0:0:0:
88,138,77852,1,8,0:0:0:0:
94,68,78025,1,8,0:0:0:0:
186,170,78369,1,8,0:0:0:0:
231,222,78542,1,0,0:0:0:0:
185,169,78714,1,8,0:0:0:0:
223,111,79059,1,8,0:0:0:0:
223,111,79231,1,0,0:0:0:0:
198,175,79404,1,0,0:0:0:0:
176,147,79490,1,0,0:0:0:0:
154,119,79576,1,0,0:0:0:0:
150,305,79749,1,0,0:0:0:0:
179,169,80094,1,6,0:0:0:0:
130,172,80438,1,0,0:0:0:0:
63,151,80610,1,0,0:0:0:0:
129,172,80783,1,8,0:0:0:0:
266,155,81128,1,0,0:0:0:0:
266,155,81300,1,8,0:0:0:0:
193,36,81645,1,8,0:0:0:0:
229,94,81817,1,0,0:0:0:0:
229,94,81990,1,8,0:0:0:0:
229,94,82162,1,8,0:0:0:0:
229,94,82334,1,8,0:0:0:0:
229,94,82421,1,8,0:0:0:0:
229,94,82507,1,8,0:0:0:0:
188,150,82679,1,8,0:0:0:0:
154,210,82852,1,0,0:0:0:0:
88,331,83196,1,8,0:0:0:0:
122,270,83369,1,0,0:0:0:0:
122,270,83541,1,8,0:0:0:0:
193,151,83886,1,0,0:0:0:0:
193,151,84059,1,8,0:0:0:0:
56,127,84403,1,8,0:0:0:0:
56,127,84576,1,0,0:0:0:0:
56,127,84748,1,8,0:0:0:0:
119,154,84921,1,8,0:0:0:0:
182,181,85093,1,0,0:0:0:0:
213,194,85179,1,0,0:0:0:0:
244,207,85265,1,0,0:0:0:0:
227,139,85438,1,8,0:0:0:0:
180,87,85610,1,8,0:0:0:0:
309,135,85955,1,0,0:0:0:0:
309,135,86128,1,0,0:0:0:0:
309,135,86300,1,8,0:0:0:0:
171,155,86645,1,0,0:0:0:0:
102,167,86817,1,8,0:0:0:0:
204,73,87162,1,8,0:0:0:0:
204,73,87334,1,0,0:0:0:0:
204,73,87507,1,0,0:0:0:0:
200,142,87679,1,8,0:0:0:0:
139,176,87852,1,0,0:0:0:0:
79,210,88024,1,0,0:0:0:0:
94,72,88369,1,8,0:0:0:0:
88,140,88541,1,0,0:0:0:0:
94,70,88714,1,0,0:0:0:0:
88,138,88886,1,8,0:0:0:0:
120,76,89059,1,8,0:0:0:0:
186,170,89403,1,0,0:0:0:0:
231,222,89576,1,0,0:0:0:0:
185,169,89748,1,8,0:0:0:0:
223,111,90094,1,0,0:0:0:0:
223,111,90265,1,0,0:0:0:0:
198,175,90438,1,8,0:0:0:0:
176,147,90524,1,8,0:0:0:0:
154,119,90610,1,8,0:0:0:0:
150,305,90783,1,0,0:0:0:0:
184,244,90956,1,0,0:0:0:0:
218,184,91128,1,6,0:0:0:0:
141,68,91473,1,8,0:0:0:0:
179,125,91645,1,0,0:0:0:0:
141,66,91818,1,0,0:0:0:0:
166,201,92162,1,8,0:0:0:0:
247,88,92507,1,8,0:0:0:0:
207,145,92680,1,0,0:0:0:0:
247,88,92852,1,8,0:0:0:0:
117,136,93197,1,8,0:0:0:0:
79,151,93542,1,8,0:0:0:0:
79,151,93714,1,8,0:0:0:0:
79,151,93887,1,0,0:0:0:0:
214,177,94231,1,8,0:0:0:0:
214,177,94404,1,0,0:0:0:0:
214,177,94576,1,0,0:0:0:0:
92,109,94921,1,8,0:0:0:0:
152,143,95094,1,0,0:0:0:0:
32,73,95438,1,0,0:0:0:0:
92,108,95611,1,8,0:0:0:0:
215,171,95956,1,0,0:0:0:0:
335,238,96300,1,0,0:0:0:0:
213,170,96645,1,8,0:0:0:0:
153,44,96990,1,8,0:0:0:0:
183,106,97162,1,8,0:0:0:0:
183,106,97335,1,0,0:0:0:0:
155,241,97680,1,0,0:0:0:0:
155,241,98025,1,8,0:0:0:0:
83,122,98369,1,8,0:0:0:0:
118,181,98542,1,0,0:0:0:0:
83,121,98714,1,8,0:0:0:0:
216,158,99059,1,0,0:0:0:0:
83,117,99404,1,12,0:0:0:0:
88,143,99576,1,0,0:0:0:0:
281,177,99921,1,0,0:0:0:0:
347,196,100094,1,12,0:0:0:0:
277,192,100266,1,0,0:0:0:0:
68,182,100783,1,8,0:0:0:0:
198,136,101128,1,0,0:0:0:0:
165,148,101214,1,0,0:0:0:0:
165,148,101300,1,0,0:0:0:0:
232,165,101473,1,8,0:0:0:0:
232,165,101645,1,0,0:0:0:0:
232,165,101818,1,0,0:0:0:0:
98,199,102162,1,6,0:0:0:0:
141,68,102507,1,8,0:0:0:0:
179,125,102679,1,0,0:0:0:0:
141,66,102852,1,0,0:0:0:0:
166,201,103196,1,8,0:0:0:0:
247,88,103541,1,8,0:0:0:0:
207,145,103714,1,0,0:0:0:0:
247,88,103886,1,8,0:0:0:0:
117,136,104231,1,8,0:0:0:0:
79,151,104576,1,8,0:0:0:0:
79,151,104748,1,8,0:0:0:0:
79,151,104921,1,0,0:0:0:0:
214,177,105265,1,8,0:0:0:0:
214,177,105438,1,0,0:0:0:0:
214,177,105610,1,0,0:0:0:0:
92,109,105955,1,8,0:0:0:0:
152,143,106128,1,0,0:0:0:0:
32,73,106472,1,0,0:0:0:0:
92,108,106645,1,8,0:0:0:0:
215,171,106990,1,8,0:0:0:0:
335,238,107334,1,0,0:0:0:0:
213,170,107679,1,8,0:0:0:0:
153,44,108024,1,8,0:0:0:0:
183,106,108196,1,8,0:0:0:0:
183,106,108369,1,0,0:0:0:0:
155,241,108714,1,0,0:0:0:0:
219,214,108887,1,8,0:0:0:0:
83,122,109403,1,8,0:0:0:0:
118,181,109576,1,0,0:0:0:0:
83,121,109748,1,8,0:0:0:0:
216,158,110093,1,8,0:0:0:0:
83,117,110438,1,12,0:0:0:0:
281,177,110955,1,0,0:0:0:0:
347,196,111128,1,12,0:0:0:0:
68,182,111817,1,8,0:0:0:0:
198,136,112162,1,0,0:0:0:0:
165,148,112248,1,0,0:0:0:0:
165,148,112334,1,0,0:0:0:0:
232,165,112507,1,8,0:0:0:0:
232,165,112852,1,0,0:0:0:0:
108,102,113197,1,12,0:0:0:0:
328,224,113887,1,0,0:0:0:0:
83,162,114576,1,8,0:0:0:0:
204,192,115094,1,8,0:0:0:0:
204,192,115266,1,0,0:0:0:0:
204,192,115611,1,0,0:0:0:0:
204,192,115783,1,0,0:0:0:0:
204,192,115956,1,8,0:0:0:0:
76,153,116645,1,0,0:0:0:0:
328,148,117335,1,8,0:0:0:0:
265,149,117507,1,0,0:0:0:0:
201,150,117680,1,8,0:0:0:0:
192,24,118025,1,8,0:0:0:0:
200,149,118369,1,0,0:0:0:0:
196,85,118542,1,0,0:0:0:0:
192,22,118714,1,8,0:0:0:0:
161,272,119404,1,0,0:0:0:0:
95,28,120094,1,8,0:0:0:0:
111,88,120266,1,0,0:0:0:0:
128,148,120438,1,0,0:0:0:0:
188,129,120783,1,8,0:0:0:0:
233,132,121128,1,0,0:0:0:0:
216,72,121300,1,8,0:0:0:0:
216,261,122162,1,0,0:0:0:0:
131,23,122852,1,0,0:0:0:0:
167,272,123542,1,8,0:0:0:0:
149,147,123887,1,0,0:0:0:0:
23,151,124231,1,12,0:0:0:0:
147,165,124576,1,0,0:0:0:0:
167,141,124662,1,0,0:0:0:0:
187,117,124749,1,0,0:0:0:0:
249,121,124921,1,8,0:0:0:0:
312,125,125094,1,0,0:0:0:0:
312,125,125266,1,0,0:0:0:0:
193,167,125611,1,8,0:0:0:0:
133,188,125783,1,0,0:0:0:0:
133,188,125956,1,0,0:0:0:0:
169,137,126128,1,8,0:0:0:0:
207,87,126300,1,8,0:0:0:0:
230,210,126645,1,0,0:0:0:0:
230,210,126818,1,0,0:0:0:0:
230,210,126990,1,8,0:0:0:0:
134,127,127335,1,0,0:0:0:0:
185,90,127507,1,0,0:0:0:0:
228,135,127680,1,8,0:0:0:0:
212,162,127766,1,8,0:0:0:0:
196,189,127852,1,8,0:0:0:0:
241,145,128025,1,0,0:0:0:0:
122,104,128369,1,8,0:0:0:0:
62,84,128542,1,0,0:0:0:0:
121,103,128714,1,0,0:0:0:0:
60,84,128887,1,8,0:0:0:0:
120,102,129059,1,8,0:0:0:0:
186,208,129404,1,0,0:0:0:0:
152,154,129576,1,0,0:0:0:0:
169,180,129749,1,8,0:0:0:0:
231,108,130094,1,0,0:0:0:0:
282,144,130266,1,0,0:0:0:0:
284,206,130438,1,8,0:0:0:0:
252,202,130525,1,8,0:0:0:0:
220,198,130611,1,8,0:0:0:0:
157,197,130783,1,0,0:0:0:0:
148,71,131128,1,8,0:0:0:0:
148,71,131300,1,0,0:0:0:0:
148,71,131473,1,0,0:0:0:0:
148,71,131645,1,8,0:0:0:0:
110,122,131818,1,8,0:0:0:0:
166,149,131990,1,0,0:0:0:0:
222,176,132162,1,0,0:0:0:0:
195,192,132249,1,0,0:0:0:0:
243,116,132335,1,0,0:0:0:0:
203,164,132507,1,8,0:0:0:0:
155,205,132680,1,0,0:0:0:0:
107,246,132852,1,0,0:0:0:0:
168,230,133025,1,8,0:0:0:0:
198,222,133111,1,8,0:0:0:0:
156,130,133197,1,8,0:0:0:0:
156,130,133369,1,0,0:0:0:0:
184,143,133542,1,0,0:0:0:0:
156,130,133887,1,8,0:0:0:0:
184,142,133973,1,8,0:0:0:0:
212,155,134059,1,8,0:0:0:0:
269,181,134231,1,0,0:0:0:0:
208,56,134576,1,8,0:0:0:0:
263,215,135266,1,6,0:0:0:0:
130,172,135611,1,0,0:0:0:0:
63,151,135783,1,0,0:0:0:0:
129,172,135956,1,8,0:0:0:0:
266,155,136301,1,0,0:0:0:0:
266,155,136473,1,8,0:0:0:0:
193,36,136818,1,8,0:0:0:0:
229,94,136990,1,0,0:0:0:0:
229,94,137163,1,8,0:0:0:0:
229,94,137335,1,8,0:0:0:0:
229,94,137507,1,8,0:0:0:0:
229,94,137594,1,8,0:0:0:0:
229,94,137680,1,8,0:0:0:0:
188,150,137852,1,8,0:0:0:0:
154,210,138025,1,0,0:0:0:0:
88,331,138369,1,8,0:0:0:0:
122,270,138542,1,0,0:0:0:0:
122,270,138714,1,8,0:0:0:0:
193,151,139059,1,0,0:0:0:0:
193,151,139232,1,8,0:0:0:0:
56,127,139576,1,8,0:0:0:0:
56,127,139749,1,0,0:0:0:0:
56,127,139921,1,8,0:0:0:0:
119,154,140094,1,8,0:0:0:0:
182,181,140266,1,0,0:0:0:0:
213,194,140352,1,0,0:0:0:0:
244,207,140438,1,0,0:0:0:0:
227,139,140611,1,8,0:0:0:0:
180,87,140783,1,8,0:0:0:0:
309,135,141128,1,0,0:0:0:0:
309,135,141301,1,0,0:0:0:0:
309,135,141473,1,8,0:0:0:0:
171,155,141818,1,0,0:0:0:0:
102,167,141990,1,8,0:0:0:0:
204,73,142335,1,8,0:0:0:0:
204,73,142507,1,0,0:0:0:0:
204,73,142680,1,0,0:0:0:0:
200,142,142852,1,8,0:0:0:0:
139,176,143025,1,0,0:0:0:0:
79,210,143197,1,0,0:0:0:0:
94,72,143542,1,8,0:0:0:0:
88,140,143714,1,0,0:0:0:0:
94,70,143887,1,0,0:0:0:0:
88,138,144059,1,8,0:0:0:0:
94,68,144232,1,8,0:0:0:0:
186,170,144576,1,8,0:0:0:0:
231,222,144749,1,0,0:0:0:0:
185,169,144921,1,8,0:0:0:0:
223,111,145266,1,8,0:0:0:0:
223,111,145438,1,0,0:0:0:0:
198,175,145611,1,0,0:0:0:0:
176,147,145697,1,0,0:0:0:0:
154,119,145783,1,0,0:0:0:0:
150,305,145956,1,0,0:0:0:0:
179,169,146301,1,6,0:0:0:0:
130,172,146645,1,0,0:0:0:0:
63,151,146817,1,0,0:0:0:0:
129,172,146990,1,8,0:0:0:0:
266,155,147335,1,0,0:0:0:0:
266,155,147507,1,8,0:0:0:0:
193,36,147852,1,8,0:0:0:0:
229,94,148024,1,0,0:0:0:0:
229,94,148197,1,8,0:0:0:0:
229,94,148369,1,8,0:0:0:0:
229,94,148541,1,8,0:0:0:0:
229,94,148628,1,8,0:0:0:0:
229,94,148714,1,8,0:0:0:0:
188,150,148886,1,8,0:0:0:0:
154,210,149059,1,0,0:0:0:0:
88,331,149403,1,8,0:0:0:0:
122,270,149576,1,0,0:0:0:0:
122,270,149748,1,8,0:0:0:0:
193,151,150093,1,0,0:0:0:0:
193,151,150266,1,8,0:0:0:0:
56,127,150610,1,8,0:0:0:0:
56,127,150783,1,0,0:0:0:0:
56,127,150955,1,8,0:0:0:0:
119,154,151128,1,8,0:0:0:0:
182,181,151300,1,0,0:0:0:0:
213,194,151386,1,0,0:0:0:0:
244,207,151472,1,0,0:0:0:0:
227,139,151645,1,8,0:0:0:0:
180,87,151817,1,8,0:0:0:0:
309,135,152162,1,0,0:0:0:0:
309,135,152335,1,0,0:0:0:0:
309,135,152507,1,8,0:0:0:0:
171,155,152852,1,0,0:0:0:0:
102,167,153024,1,8,0:0:0:0:
204,73,153369,1,8,0:0:0:0:
204,73,153541,1,0,0:0:0:0:
204,73,153714,1,0,0:0:0:0:
200,142,153886,1,8,0:0:0:0:
139,176,154059,1,0,0:0:0:0:
79,210,154231,1,0,0:0:0:0:
94,72,154576,1,8,0:0:0:0:
88,140,154748,1,0,0:0:0:0:
94,70,154921,1,0,0:0:0:0:
88,138,155093,1,8,0:0:0:0:
120,76,155266,1,8,0:0:0:0:
186,170,155610,1,0,0:0:0:0:
231,222,155783,1,0,0:0:0:0:
185,169,155955,1,8,0:0:0:0:
223,111,156301,1,0,0:0:0:0:
223,111,156472,1,0,0:0:0:0:
198,175,156645,1,8,0:0:0:0:
176,147,156731,1,8,0:0:0:0:
154,119,156817,1,8,0:0:0:0:
150,305,156990,1,0,0:0:0:0:
218,184,157335,1,6,0:0:0:0:
154,119,157680,1,8,0:0:0:0:
283,168,158197,1,8,0:0:0:0:
76,145,158714,1,0,0:0:0:0:
213,160,159059,1,0,0:0:0:0:
281,168,159231,1,0,0:0:0:0:
211,159,159404,1,8,0:0:0:0:
279,168,159576,1,8,0:0:0:0:
92,75,160094,1,0,0:0:0:0:
215,136,160438,1,8,0:0:0:0:
90,73,160956,1,8,0:0:0:0:
269,177,161473,1,0,0:0:0:0:
77,95,161818,1,0,0:0:0:0:
140,122,161990,1,0,0:0:0:0:
203,149,162162,1,8,0:0:0:0:
139,121,162335,1,0,0:0:0:0:
134,189,162507,1,8,0:0:0:0:
138,121,162680,1,0,0:0:0:0:
283,168,163197,1,8,0:0:0:0:
76,145,163714,1,8,0:0:0:0:
250,31,164231,1,0,0:0:0:0:
213,160,164576,1,8,0:0:0:0:
281,168,164748,1,0,0:0:0:0:
211,159,164921,1,8,0:0:0:0:
279,168,165093,1,8,0:0:0:0:
92,75,165611,1,0,0:0:0:0:
215,136,165955,1,8,0:0:0:0:
90,73,166473,1,8,0:0:0:0:
269,177,166990,1,0,0:0:0:0:
77,95,167335,1,8,0:0:0:0:
140,122,167507,1,0,0:0:0:0:
203,149,167680,1,8,0:0:0:0:
139,121,167852,1,8,0:0:0:0:
134,189,168024,1,0,0:0:0:0:
259,130,168369,1,4,0:0:0:0:
154,119,168714,1,8,0:0:0:0:
283,168,169231,1,8,0:0:0:0:
76,145,169748,1,0,0:0:0:0:
213,160,170093,1,0,0:0:0:0:
281,168,170265,1,0,0:0:0:0:
211,159,170438,1,8,0:0:0:0:
279,168,170610,1,8,0:0:0:0:
92,75,171128,1,0,0:0:0:0:
215,136,171472,1,8,0:0:0:0:
90,73,171990,1,8,0:0:0:0:
269,177,172507,1,0,0:0:0:0:
77,95,172852,1,0,0:0:0:0:
140,122,173024,1,0,0:0:0:0:
203,149,173196,1,8,0:0:0:0:
139,121,173369,1,0,0:0:0:0:
134,189,173541,1,8,0:0:0:0:
138,121,173714,1,0,0:0:0:0:
283,168,174231,1,8,0:0:0:0:
76,145,174748,1,8,0:0:0:0:
250,31,175265,1,0,0:0:0:0:
213,160,175610,1,8,0:0:0:0:
281,168,175782,1,0,0:0:0:0:
211,159,175955,1,8,0:0:0:0:
279,168,176127,1,8,0:0:0:0:
92,75,176645,1,0,0:0:0:0:
215,136,176989,1,8,0:0:0:0:
90,73,177507,1,8,0:0:0:0:
269,177,178024,1,0,0:0:0:0:
77,95,178369,1,8,0:0:0:0:
140,122,178541,1,0,0:0:0:0:
203,149,178714,1,8,0:0:0:0:
139,121,178886,1,8,0:0:0:0:
134,189,179058,1,0,0:0:0:0:
138,121,179231,1,0,0:0:0:0:
154,119,179749,1,8,0:0:0:0:
283,168,180266,1,0,0:0:0:0:
76,145,180783,1,8,0:0:0:0:
213,160,181128,1,0,0:0:0:0:
281,168,181300,1,0,0:0:0:0:
211,159,181473,1,8,0:0:0:0:
279,168,181645,1,8,0:0:0:0:
92,75,182163,1,0,0:0:0:0:
215,136,182507,1,8,0:0:0:0:
90,73,183025,1,8,0:0:0:0:
269,177,183542,1,0,0:0:0:0:
77,95,183887,1,0,0:0:0:0:
140,122,184059,1,0,0:0:0:0:
203,149,184231,1,8,0:0:0:0:
139,121,184404,1,0,0:0:0:0:
134,189,184576,1,8,0:0:0:0:
138,121,184749,1,0,0:0:0:0:
283,168,185266,1,8,0:0:0:0:
76,145,185783,1,8,0:0:0:0:
250,31,186300,1,0,0:0:0:0:
213,160,186645,1,8,0:0:0:0:
281,168,186817,1,0,0:0:0:0:
211,159,186990,1,8,0:0:0:0:
279,168,187162,1,8,0:0:0:0:
92,75,187680,1,0,0:0:0:0:
215,136,188024,1,8,0:0:0:0:
90,73,188542,1,8,0:0:0:0:
269,177,189059,1,0,0:0:0:0:
77,95,189404,1,8,0:0:0:0:
140,122,189576,1,0,0:0:0:0:
203,149,189749,1,8,0:0:0:0:
139,121,189921,1,8,0:0:0:0:
134,189,190093,1,0,0:0:0:0:
138,121,190266,1,0,0:0:0:0:
