osu file format v14

[General]
AudioFilename: audio.mp3
AudioLeadIn: 0
PreviewTime: 48623
Countdown: 0
SampleSet: None
StackLeniency: 0.7
Mode: 0
LetterboxInBreaks: 0
WidescreenStoryboard: 1

[Editor]
Bookmarks: 5716,16530,28042,38507,39205,44088,47577,48972,50367,60309,76181,76879,77577,78274,78972,79670,80367,81763,85949,87344,91530,92926
DistanceSpacing: 1.8
BeatDivisor: 4
GridSize: 8
TimelineZoom: 1.1

[Metadata]
Title:Ninelie - Intense Symphonic Metal Cover
TitleUnicode:Ninelie - Intense Symphonic Metal Cover
Artist:Falkkone Ft. Akano
ArtistUnicode:Falkkone Ft. Akano
Creator:doctorsonic46
Version:Insane
Source:Kabaneri of the Iron Fortress
Tags:Intense Symphonic Metal Cover Falkkone Akano Arrangement
BeatmapID:1341577
BeatmapSetID:630401

[Difficulty]
HPDrainRate:6
CircleSize:4
OverallDifficulty:6
ApproachRate:9
SliderMultiplier:1.6
SliderTickRate:1

[Events]
//Background and Video events
0,0,"mumei.jpg",0,0
//Break Periods
//Storyboard Layer 0 (Background)
//Storyboard Layer 1 (Fail)
//Storyboard Layer 2 (Pass)
//Storyboard Layer 3 (Foreground)
//Storyboard Sound Samples

[TimingPoints]
135,348.837209302326,4,3,0,60,1,0
5716,-133.333333333333,4,2,0,60,0,0
16530,-117.647058823529,4,3,0,60,0,0
28042,-100,4,3,0,60,0,0
39204,-83.3333333333333,4,3,0,60,0,0
48972,-83.3333333333333,4,3,0,60,0,1
50018,-66.6666666666667,4,3,0,60,0,1
50367,-83.3333333333333,4,3,0,60,0,1
75483,-100,4,3,0,60,0,0

[Colours]
Combo1 : 179,58,0
Combo2 : 128,64,64
Combo3 : 128,0,0

[HitObjects]
136,256,5716,6,0,P|104:216|144:160,1,120.000004577637
248,120,6414,1,0,0:0:0:0:
360,168,6763,2,0,P|328:136|304:128,1,60.0000022888184
264,96,7112,2,0,P|296:64|320:56,1,60.0000022888184
368,64,7460,1,0,0:0:0:0:
416,104,7635,2,0,P|428:147|423:172,1,60.0000022888184
424,224,7984,1,0,0:0:0:0:
376,272,8158,6,0,P|330:273|307:263,1,60.0000022888184
272,232,8507,2,0,P|224:184|168:176,1,120.000004577637
128,288,9205,2,0,P|176:336|232:344,1,120.000004577637
288,336,9728,2,0,P|324:309|336:286,1,60.0000022888184
360,240,10077,1,0,0:0:0:0:
368,184,10251,2,0,P|386:142|405:125,1,60.0000022888184
336,128,10600,1,0,0:0:0:0:
232,64,10949,1,0,0:0:0:0:
184,96,11123,1,0,0:0:0:0:
160,152,11298,6,0,P|150:202|212:233,1,120.000004577637
256,208,11821,1,0,0:0:0:0:
304,176,11995,2,0,P|354:185|360:253,1,120.000004577637
416,216,12519,2,0,P|428:172|424:147,1,60.0000022888184
416,96,12867,1,0,0:0:0:0:
392,80,12955,1,0,0:0:0:0:
360,72,13042,2,0,P|316:83|296:100,1,60.0000022888184
280,152,13391,6,0,P|251:194|185:172,1,120.000004577637
152,136,13914,2,0,P|106:129|82:136,1,60.0000022888184
88,192,14263,2,0,P|133:198|157:191,1,60.0000022888184
200,168,14612,2,0,P|267:162|315:191,1,120.000004577637
352,232,15135,2,0,P|397:238|421:231,1,60.0000022888184
464,216,15483,2,0,P|464:192|448:176,1,30.0000011444092
432,136,15658,2,0,P|398:105|374:98,1,60.0000022888184
328,96,16007,1,0,0:0:0:0:
288,136,16181,2,0,P|239:151|200:93,1,120.000004577637
96,184,16879,6,0,P|88:232|168:272,1,136.000002593994
216,240,17402,1,0,0:0:0:0:
216,168,17577,2,0,P|245:110|309:113,1,136.000002593994
360,160,18100,2,0,P|368:200|360:240,1,68.0000012969971
320,280,18449,1,0,0:0:0:0:
256,296,18623,1,0,0:0:0:0:
224,296,18710,1,0,0:0:0:0:
192,280,18798,1,0,0:0:0:0:
160,224,18972,2,0,P|155:159|212:129,1,136.000002593994
280,136,19495,6,0,P|310:162|329:199,1,68.0000012969971
320,256,19844,1,0,0:0:0:0:
192,304,20193,2,0,P|161:277|142:240,1,68.0000012969971
144,184,20542,1,0,0:0:0:0:
184,128,20716,2,0,P|219:108|260:103,1,68.0000012969971
312,104,21065,2,0,P|361:144|345:207,1,136.000002593994
320,232,21501,1,0,0:0:0:0:
288,240,21588,1,0,0:0:0:0:
256,232,21676,1,0,0:0:0:0:
232,216,21763,2,0,P|210:181|204:140,1,68.0000012969971
200,88,22112,1,0,0:0:0:0:
144,48,22286,1,0,0:0:0:0:
80,80,22460,6,0,P|62:116|58:158,1,68.0000012969971
64,208,22809,2,0,P|80:245|110:274,1,68.0000012969971
160,296,23158,2,0,P|221:282|236:219,1,136.000002593994
280,272,23681,1,0,0:0:0:0:
336,304,23856,2,0,P|397:290|412:227,1,136.000002593994
400,192,24292,1,0,0:0:0:0:
376,168,24379,1,0,0:0:0:0:
344,160,24466,1,0,0:0:0:0:
312,176,24553,1,0,0:0:0:0:
280,232,24728,2,0,P|251:260|213:277,1,68.0000012969971
160,264,25077,1,0,0:0:0:0:
104,224,25251,6,0,P|75:168|114:116,1,136.000002593994
152,176,25774,1,0,0:0:0:0:
200,224,25949,2,0,P|171:168|210:116,1,136.000002593994
248,176,26472,1,0,0:0:0:0:
288,232,26646,2,0,P|316:260|354:277,1,68.0000012969971
408,272,26995,1,0,0:0:0:0:
432,248,27083,1,0,0:0:0:0:
440,216,27170,1,0,0:0:0:0:
432,184,27257,1,0,0:0:0:0:
408,136,27344,2,0,P|380:108|342:90,1,68.0000012969971
256,120,27693,1,0,0:0:0:0:
320,200,27867,6,0,P|352:192|328:152,1,68.0000012969971
256,88,28216,2,0,P|192:80|168:96,1,80
104,176,28565,1,0,0:0:0:0:
192,264,28739,1,0,0:0:0:0:
200,144,28914,1,0,0:0:0:0:
128,240,29088,1,0,0:0:0:0:
248,208,29263,2,0,P|296:164|299:136,1,80
464,328,29786,1,0,0:0:0:0:
224,328,30135,1,0,0:0:0:0:
408,168,30484,1,0,0:0:0:0:
424,112,30571,1,0,0:0:0:0:
392,64,30658,1,0,0:0:0:0:
336,56,30745,1,0,0:0:0:0:
280,80,30833,6,0,P|240:112|232:152,1,80
208,256,31181,1,0,0:0:0:0:
288,176,31355,1,0,0:0:0:0:
168,184,31530,1,0,0:0:0:0:
264,256,31704,1,0,0:0:0:0:
232,144,31879,1,0,0:0:0:0:
160,240,32053,1,0,0:0:0:0:
128,120,32228,1,0,0:0:0:0:
216,200,32402,1,0,0:0:0:0:
96,192,32576,1,0,0:0:0:0:
200,128,32751,1,0,0:0:0:0:
128,224,32926,6,0,P|152:272|248:240,1,160
272,200,33361,1,0,0:0:0:0:
280,144,33448,1,0,0:0:0:0:
256,88,33536,1,0,0:0:0:0:
200,64,33623,2,0,P|160:56|112:96,1,80
72,176,33972,1,0,0:0:0:0:
192,152,34146,1,0,0:0:0:0:
160,272,34321,1,0,0:0:0:0:
248,200,34495,1,0,0:0:0:0:
280,312,34670,1,0,0:0:0:0:
328,200,34844,1,0,0:0:0:0:
400,296,35019,6,0,P|453:297|470:197,1,160
280,48,35716,1,0,0:0:0:0:
120,224,36065,1,0,0:0:0:0:
136,280,36152,1,0,0:0:0:0:
192,304,36239,1,0,0:0:0:0:
248,288,36327,1,0,0:0:0:0:
288,240,36414,2,0,P|293:199|251:153,1,80
168,112,36763,1,0,0:0:0:0:
120,224,36937,1,0,0:0:0:0:
208,144,37112,1,0,0:0:0:0:
288,232,37286,1,0,0:0:0:0:
320,120,37460,1,0,0:0:0:0:
232,200,37635,1,0,0:0:0:0:
344,248,37809,6,0,P|393:228|369:129,1,160
152,80,38507,1,0,0:0:0:0:
280,176,38681,1,0,0:0:0:0:
120,168,38855,1,0,0:0:0:0:
272,112,39030,1,0,0:0:0:0:
248,256,39204,6,0,P|208:288|144:272,1,95.9999970703126
216,200,39553,2,0,P|176:232|112:216,1,95.9999970703126
168,136,39902,2,0,P|208:104|272:120,1,95.9999970703126
328,168,40251,1,0,0:0:0:0:
328,168,40425,1,0,0:0:0:0:
328,264,40600,2,0,P|288:295|224:280,1,95.9999970703126
288,208,40948,2,0,P|236:206|198:153,1,95.9999970703126
224,80,41297,2,0,P|288:48|256:120,1,191.999994140625
216,128,41733,1,0,0:0:0:0:
168,128,41821,1,0,0:0:0:0:
136,160,41908,1,0,0:0:0:0:
128,208,41995,6,0,P|150:253|215:266,1,95.9999970703126
320,208,42344,2,0,P|297:253|232:266,1,95.9999970703126
176,136,42693,2,0,P|198:181|263:194,1,95.9999970703126
328,72,43041,2,0,P|305:117|240:130,1,95.9999970703126
168,136,43390,2,0,P|139:178|161:240,1,95.9999970703126
192,304,43739,2,0,P|234:332|296:310,1,95.9999970703126
360,280,44088,5,0,0:0:0:0:
360,280,44262,2,0,P|384:208|320:256,1,191.999994140625
224,352,44786,1,0,0:0:0:0:
136,240,44960,1,0,0:0:0:0:
136,240,45047,1,0,0:0:0:0:
136,240,45135,1,0,0:0:0:0:
264,176,45309,1,0,0:0:0:0:
144,96,45483,1,0,0:0:0:0:
288,80,45658,1,0,0:0:0:0:
288,80,45745,1,0,0:0:0:0:
288,80,45832,1,0,0:0:0:0:
344,216,46007,5,0,0:0:0:0:
216,144,46181,1,0,0:0:0:0:
240,288,46355,1,0,0:0:0:0:
240,288,46443,1,0,0:0:0:0:
240,288,46530,1,0,0:0:0:0:
296,152,46704,1,0,0:0:0:0:
360,280,46879,1,0,0:0:0:0:
416,152,47053,1,0,0:0:0:0:
416,152,47140,1,0,0:0:0:0:
416,152,47228,2,0,P|424:208|392:184,1,95.9999970703126
296,152,47576,5,0,0:0:0:0:
192,312,47751,1,0,0:0:0:0:
216,120,47925,1,0,0:0:0:0:
296,296,48100,1,0,0:0:0:0:
336,112,48274,1,0,0:0:0:0:
240,280,48448,1,0,0:0:0:0:
152,112,48623,2,0,P|104:112|120:144,1,95.9999970703126
144,192,48885,1,0,0:0:0:0:
192,232,48972,6,0,P|288:232|296:144,1,191.999994140625
200,56,49495,2,0,P|144:88|232:152,1,191.999994140625
384,208,50018,2,0,P|344:288|240:200,1,240.000009155274
240,176,50454,1,0,0:0:0:0:
256,128,50541,1,0,0:0:0:0:
304,112,50629,1,0,0:0:0:0:
360,128,50716,1,0,0:0:0:0:
376,168,50803,1,0,0:0:0:0:
352,208,50890,1,0,0:0:0:0:
304,216,50978,1,0,0:0:0:0:
264,200,51065,6,0,B|200:184|200:120|200:120|104:208|232:296|232:296,1,287.999991210938
336,336,51762,2,0,P|376:320|328:288,1,95.9999970703126
240,200,52111,2,0,P|213:166|270:162,1,95.9999970703126
368,224,52460,1,0,0:0:0:0:
296,96,52635,1,0,0:0:0:0:
288,240,52809,1,0,0:0:0:0:
192,128,52983,2,0,P|128:120|80:224,1,191.999994140625
88,264,53419,1,0,0:0:0:0:
128,296,53507,1,0,0:0:0:0:
264,336,53681,2,0,P|306:327|304:264,1,95.9999970703126
216,176,54030,1,0,0:0:0:0:
360,192,54204,1,0,0:0:0:0:
272,80,54379,1,0,0:0:0:0:
112,216,54902,6,0,B|96:264|96:264|152:232,1,95.9999970703126
208,120,55251,2,0,B|229:73|229:73|248:120,1,95.9999970703126
240,216,55600,1,0,0:0:0:0:
264,256,55687,1,0,0:0:0:0:
304,280,55774,1,0,0:0:0:0:
352,272,55861,1,0,0:0:0:0:
376,224,55948,1,0,0:0:0:0:
376,80,56123,1,0,0:0:0:0:
296,200,56297,6,0,B|256:232|256:232|216:200,1,95.9999970703126
216,56,56646,2,0,B|256:24|256:24|296:56,1,95.9999970703126
360,120,56995,1,0,0:0:0:0:
384,160,57082,1,0,0:0:0:0:
376,208,57169,1,0,0:0:0:0:
352,248,57257,1,0,0:0:0:0:
312,272,57344,1,0,0:0:0:0:
120,280,57693,6,0,B|72:280|72:280|72:224,1,95.9999970703126
136,168,58041,2,0,B|184:168|184:168|184:224,1,95.9999970703126
184,312,58390,2,0,L|288:312,1,95.9999970703126
280,216,58739,2,0,L|280:104,1,95.9999970703126
184,128,59088,1,0,0:0:0:0:
280,120,59262,1,0,0:0:0:0:
376,128,59437,2,0,P|416:168|360:288,1,191.999994140625
232,288,59960,1,0,0:0:0:0:
288,160,60135,2,0,L|320:112,2,47.9999985351563
144,160,60483,2,0,L|104:120,2,47.9999985351563
160,232,60745,2,0,L|152:280,1,47.9999985351563
224,152,61007,1,0,0:0:0:0:
320,264,61181,1,0,0:0:0:0:
368,128,61355,1,0,0:0:0:0:
440,256,61530,6,0,P|416:312|400:312,1,47.9999985351563
376,344,61704,2,0,P|328:352|280:304,1,95.9999970703126
224,200,62053,1,0,0:0:0:0:
336,112,62228,2,0,L|368:72,1,47.9999985351563
376,144,62402,2,0,L|424:152,1,47.9999985351563
376,208,62576,2,0,P|367:255|305:284,1,95.9999970703126
184,296,62925,1,0,0:0:0:0:
184,296,63012,1,0,0:0:0:0:
184,296,63100,2,0,P|148:262|158:195,1,95.9999970703126
200,88,63448,1,0,0:0:0:0:
264,216,63623,1,0,0:0:0:0:
128,160,63797,2,0,P|115:132|136:104,1,47.9999985351563
168,64,63972,2,0,P|216:53|266:98,1,95.9999970703126
336,200,64321,5,0,0:0:0:0:
336,200,64408,1,0,0:0:0:0:
336,200,64495,2,0,P|287:210|237:165,1,95.9999970703126
152,88,64844,1,0,0:0:0:0:
112,64,64931,1,0,0:0:0:0:
64,72,65018,2,0,P|19:93|8:160,1,95.9999970703126
48,272,65367,1,0,0:0:0:0:
152,176,65541,1,0,0:0:0:0:
192,312,65716,1,0,0:0:0:0:
192,312,65803,1,0,0:0:0:0:
192,312,65890,1,0,0:0:0:0:
88,208,66065,6,0,B|80:152|80:152|112:104,1,95.9999970703126
232,48,66414,2,0,B|280:24|280:24|352:40,1,95.9999970703126
448,104,66762,2,0,B|488:160|488:160|464:224,1,95.9999970703126
376,288,67111,1,0,0:0:0:0:
336,312,67198,1,0,0:0:0:0:
288,320,67286,1,0,0:0:0:0:
240,312,67373,1,0,0:0:0:0:
200,288,67460,2,0,P|160:240|264:240,1,191.999994140625
496,344,68158,1,0,0:0:0:0:
432,216,68332,2,0,P|416:160|432:120,1,95.9999970703126
472,40,68681,1,0,0:0:0:0:
352,120,68855,6,0,P|312:160|328:80,1,191.999994140625
184,336,69553,2,0,P|128:352|96:296,1,95.9999970703126
32,64,70076,1,0,0:0:0:0:
32,64,70164,1,0,0:0:0:0:
32,64,70251,2,0,P|96:48|144:64,1,95.9999970703126
200,176,70600,1,0,0:0:0:0:
336,136,70774,1,0,0:0:0:0:
336,136,70861,1,0,0:0:0:0:
336,136,70948,2,0,P|344:88|296:112,1,95.9999970703126
176,144,71297,2,0,P|120:160|112:176,1,47.9999985351563
96,216,71472,2,0,P|128:200|144:168,1,47.9999985351563
184,136,71646,2,0,P|232:120|288:160,1,95.9999970703126
352,256,71995,5,0,0:0:0:0:
472,176,72169,1,0,0:0:0:0:
352,256,72344,2,0,P|376:200|352:168,1,95.9999970703126
336,72,72693,1,0,0:0:0:0:
264,192,72867,1,0,0:0:0:0:
208,56,73041,1,0,0:0:0:0:
320,152,73216,1,0,0:0:0:0:
184,120,73390,1,0,0:0:0:0:
328,104,73565,1,0,0:0:0:0:
208,184,73739,1,0,0:0:0:0:
208,184,73826,1,0,0:0:0:0:
208,184,73914,1,0,0:0:0:0:
296,72,74088,6,0,P|352:64|384:120,1,95.9999970703126
400,136,74350,1,0,0:0:0:0:
400,184,74437,1,0,0:0:0:0:
384,232,74524,1,0,0:0:0:0:
344,272,74611,2,0,P|296:264|272:200,1,95.9999970703126
256,80,74960,1,0,0:0:0:0:
112,80,75135,1,0,0:0:0:0:
216,176,75309,1,0,0:0:0:0:
320,120,75483,6,0,P|344:112|360:80,2,40
200,120,75832,2,0,P|128:128|104:144,1,80
56,232,76181,2,0,L|40:272,2,40
136,320,76530,2,0,L|144:368,2,40
248,280,76879,2,0,L|304:304,2,40
144,224,77228,2,0,L|80:216,2,40
256,192,77576,2,0,L|304:176,2,40
152,128,77925,2,0,L|112:104,2,40
232,40,78274,6,0,L|264:0,2,40
336,104,78623,2,0,L|392:120,2,40
304,216,78972,2,0,L|312:256,2,40
184,216,79321,2,0,L|160:256,2,40
168,96,79669,2,0,L|144:64,2,40
288,96,80018,2,0,L|320:72,2,40
192,168,80367,2,0,P|128:200|88:192,1,80
8,152,80716,1,0,0:0:0:0:
8,272,80890,1,0,0:0:0:0:
112,328,81065,1,0,0:0:0:0:
112,328,81152,1,0,0:0:0:0:
112,328,81239,2,0,P|160:320|200:280,2,80
24,240,81762,6,0,P|16:176|40:136,1,80
104,80,82111,1,0,0:0:0:0:
104,80,82286,1,0,0:0:0:0:
128,200,82460,2,0,P|136:248|168:280,1,80
272,312,82809,1,0,0:0:0:0:
272,312,82983,1,0,0:0:0:0:
232,200,83158,2,0,P|216:136|232:96,1,80
296,32,83507,1,0,0:0:0:0:
296,32,83681,1,0,0:0:0:0:
392,104,83855,6,0,P|400:144|352:168,1,80
256,184,84204,1,0,0:0:0:0:
256,184,84379,1,0,0:0:0:0:
168,104,84553,2,0,P|120:80|80:120,1,80
48,200,84902,1,0,0:0:0:0:
48,200,85076,1,0,0:0:0:0:
104,304,85251,2,0,P|160:312|184:288,1,80
256,208,85600,1,0,0:0:0:0:
256,208,85774,1,0,0:0:0:0:
304,96,85948,6,0,P|304:56|272:72,1,80
276,62,86210,1,0,0:0:0:0:
276,62,86297,1,0,0:0:0:0:
176,120,86472,1,0,0:0:0:0:
144,232,86646,1,0,0:0:0:0:
176,280,86733,1,0,0:0:0:0:
232,304,86821,1,0,0:0:0:0:
288,296,86908,1,0,0:0:0:0:
344,272,86995,2,0,P|376:240|384:200,1,80
360,48,87344,5,0,0:0:0:0:
232,152,87518,1,0,0:0:0:0:
392,160,87693,1,0,0:0:0:0:
256,72,87867,1,0,0:0:0:0:
288,232,88041,1,0,0:0:0:0:
168,120,88216,1,0,0:0:0:0:
112,272,88390,1,0,0:0:0:0:
240,176,88565,1,0,0:0:0:0:
80,160,88739,1,0,0:0:0:0:
200,264,88914,1,0,0:0:0:0:
256,112,89088,2,0,P|288:72|328:56,1,80
472,40,89437,5,0,0:0:0:0:
376,168,89611,1,0,0:0:0:0:
360,8,89786,1,0,0:0:0:0:
448,136,89960,1,0,0:0:0:0:
288,144,90135,1,0,0:0:0:0:
368,280,90309,1,0,0:0:0:0:
392,120,90483,1,0,0:0:0:0:
472,264,90658,1,0,0:0:0:0:
312,264,90832,1,0,0:0:0:0:
440,168,91007,1,0,0:0:0:0:
288,112,91181,1,0,0:0:0:0:
248,264,91355,1,0,0:0:0:0:
168,120,91530,6,0,P|128:88|128:168,1,160
184,256,92053,1,0,0:0:0:0:
240,152,92228,1,0,0:0:0:0:
240,152,92315,1,0,0:0:0:0:
240,152,92402,2,0,P|264:120|312:112,1,80
416,144,92751,1,0,0:0:0:0:
392,264,92925,5,0,0:0:0:0:
392,264,93012,1,0,0:0:0:0:
392,264,93100,1,0,0:0:0:0:
256,176,93274,1,0,0:0:0:0:
256,176,93361,1,0,0:0:0:0:
256,176,93448,1,0,0:0:0:0:
288,336,93623,1,0,0:0:0:0:
288,336,93710,1,0,0:0:0:0:
288,336,93797,1,0,0:0:0:0:
360,192,93972,1,0,0:0:0:0:
360,192,94059,1,0,0:0:0:0:
360,192,94146,1,0,0:0:0:0:
264,64,94321,2,0,L|312:96,2,40
112,104,94669,6,0,L|80:136,2,40
168,136,95018,2,0,P|168:200|184:224,1,80
312,128,95367,2,0,P|336:160|336:208,1,80
224,88,95716,2,0,P|232:136|256:160,1,80
384,72,96065,2,0,P|400:120|392:160,1,80
312,288,96414,1,0,0:0:0:0:
176,200,96588,1,0,0:0:0:0:
320,136,96762,1,0,0:0:0:0:
248,280,96937,1,0,0:0:0:0:
240,120,97111,1,0,0:0:0:0:
352,232,97286,1,0,0:0:0:0:
352,232,97373,1,0,0:0:0:0:
384,256,97460,5,0,0:0:0:0:
384,304,97547,1,0,0:0:0:0:
336,336,97635,1,0,0:0:0:0:
272,320,97722,1,0,0:0:0:0:
240,256,97809,1,0,0:0:0:0:
