osu file format v14

[General]
AudioFilename: Mach Sigma.mp3
AudioLeadIn: 0
PreviewTime: 58870
Countdown: 0
SampleSet: Soft
StackLeniency: 0.7
Mode: 3
LetterboxInBreaks: 0
SpecialStyle: 0
WidescreenStoryboard: 0

[Editor]
DistanceSpacing: 2
BeatDivisor: 4
GridSize: 4
TimelineZoom: 2.099999

[Metadata]
Title:Mach Sigma - For Dream Dance Act 1
TitleUnicode:Mach Σ - For Dream Dance Act 1
Artist:Falk
ArtistUnicode:Falk
Creator:Kuo Kyoka
Version:Shattered Illusions
Source:Sonic: After the Sequel
Tags:Zone Boss ATS Falk Au Yeong LakeFeperd Original Soundtrack Finale Sonic the Hedgehog Miles "Tails" Prower
BeatmapID:1637207
BeatmapSetID:779660

[Difficulty]
HPDrainRate:8.5
CircleSize:7
OverallDifficulty:8
ApproachRate:5
SliderMultiplier:1.4
SliderTickRate:1

[Events]
//Background and Video events
0,0,"BG.png",0,0
//Break Periods
//Storyboard Layer 0 (Background)
//Storyboard Layer 1 (Fail)
//Storyboard Layer 2 (Pass)
//Storyboard Layer 3 (Foreground)
//Storyboard Sound Samples
Sample,11057,0,"hihat.wav",45
Sample,14057,0,"hihat.wav",45
Sample,17057,0,"hihat.wav",45
Sample,20057,0,"hihat.wav",45
Sample,32057,0,"hihat.wav",45
Sample,34776,0,"drum.wav",60
Sample,40682,0,"hihat.wav",45
Sample,45557,0,"drum.wav",60
Sample,46682,0,"hihat.wav",45
Sample,49307,0,"hihat.wav",45
Sample,49682,0,"hihat.wav",45
Sample,55307,0,"hihat.wav",45
Sample,55682,0,"hihat.wav",45
Sample,57557,0,"hihat.wav",45
Sample,58495,0,"snare.wav",60
Sample,69932,0,"drum.wav",60
Sample,77057,0,"drum.wav",60
Sample,77526,0,"drum.wav",60
Sample,77807,0,"drum.wav",60
Sample,78557,0,"drum.wav",60
Sample,78932,0,"drum.wav",60
Sample,79307,0,"drum.wav",60
Sample,80057,0,"drum.wav",60
Sample,80526,0,"drum.wav",60
Sample,80807,0,"drum.wav",60
Sample,82307,0,"drum.wav",60
Sample,82682,0,"drum.wav",60
Sample,82776,0,"drum.wav",60

[TimingPoints]
1120,375,4,2,1,30,1,0
10870,375,4,2,1,30,1,0
58870,-100,4,2,1,30,0,1
70682,-100,4,2,1,30,0,0
70870,-100,4,2,1,30,0,1
82870,-100,4,2,1,30,0,0

[HitObjects]
329,192,1120,128,0,1870:0:0:0:60:drum.wav
36,192,1120,1,0,0:0:0:60:kick.wav
182,192,1120,128,0,1870:0:0:0:0:
475,192,1120,1,0,0:0:0:0:
36,192,1870,1,0,0:0:0:60:drum.wav
475,192,1870,1,0,0:0:0:0:
36,192,2120,128,0,2182:0:0:0:0:
182,192,2245,128,0,2307:0:0:0:0:
256,192,2370,128,0,2432:0:0:0:0:
329,192,2495,128,0,2557:0:0:0:0:
475,192,2495,1,0,0:0:0:0:
329,192,2620,1,0,0:0:0:0:
475,192,2620,128,0,3557:0:0:0:0:
36,192,2807,1,0,0:0:0:60:drum.wav
182,192,2807,1,0,0:0:0:0:
36,192,3182,1,0,0:0:0:0:
109,192,3276,1,0,0:0:0:0:
182,192,3370,128,0,3932:0:0:0:60:drum.wav
329,192,3370,128,0,3557:0:0:0:0:
402,192,3370,128,0,3557:0:0:0:0:
329,192,3745,128,0,3932:0:0:0:60:drum.wav
475,192,3745,128,0,3932:0:0:0:0:
402,192,3745,128,0,3932:0:0:0:0:
109,192,3932,1,0,0:0:0:0:
182,192,4026,1,0,0:0:0:0:
256,192,4120,128,0,4307:0:0:0:60:drum.wav
329,192,4120,128,0,4307:0:0:0:60:cymbal.wav
402,192,4120,128,0,4307:0:0:0:60:kick.wav
36,192,4120,1,0,0:0:0:0:
475,192,4120,1,0,0:0:0:0:
256,192,4495,128,0,4870:0:0:0:60:drum.wav
36,192,4495,1,0,0:0:0:0:
475,192,4495,1,0,0:0:0:0:
182,192,4682,128,0,4870:0:0:0:0:
329,192,4682,128,0,4870:0:0:0:0:
36,192,4870,1,0,0:0:0:60:drum.wav
475,192,4870,1,0,0:0:0:0:
256,192,5057,128,0,5245:0:0:0:0:
109,192,5057,128,0,5245:0:0:0:0:
36,192,5245,1,0,0:0:0:60:drum.wav
475,192,5245,1,0,0:0:0:0:
182,192,5432,128,0,6932:0:0:0:0:
36,192,5432,128,0,6932:0:0:0:0:
329,192,5620,1,0,0:0:0:60:drum.wav
475,192,5620,1,0,0:0:0:60:kick.wav
329,192,5995,1,0,0:0:0:60:drum.wav
475,192,5995,1,0,0:0:0:0:
109,192,6182,1,0,0:0:0:0:
329,192,6370,1,0,0:0:0:60:drum.wav
475,192,6370,1,0,0:0:0:0:
109,192,6370,128,0,6932:0:0:0:0:
329,192,6745,1,0,0:0:0:60:drum.wav
475,192,6745,1,0,0:0:0:0:
475,192,6932,1,0,0:0:0:60:drum.wav
475,192,7026,1,0,0:0:0:60:drum.wav
182,192,7120,128,0,7213:0:0:0:60:drum.wav
36,192,7120,128,0,7213:0:0:0:60:kick.wav
475,192,7120,1,0,0:0:0:60:cymbal.wav
329,192,7120,1,0,0:0:0:0:
402,192,7307,128,0,7401:0:0:0:0:
256,192,7307,128,0,7401:0:0:0:60:drum.wav
109,192,7495,128,0,7588:0:0:0:0:
256,192,7495,128,0,7588:0:0:0:60:drum.wav
329,192,7682,128,0,7776:0:0:0:60:drum.wav
475,192,7682,128,0,7776:0:0:0:0:
36,192,7682,1,0,0:0:0:0:
182,192,7682,1,0,0:0:0:0:
182,192,8245,1,0,0:0:0:60:drum.wav
36,192,8245,1,0,0:0:0:60:kick.wav
329,192,8245,128,0,8338:0:0:0:0:
475,192,8245,128,0,8338:0:0:0:0:
256,192,8432,128,0,8526:0:0:0:60:drum.wav
109,192,8432,128,0,8526:0:0:0:0:
256,192,8620,128,0,8713:0:0:0:60:drum.wav
402,192,8620,128,0,8713:0:0:0:0:
182,192,8807,128,0,8901:0:0:0:60:drum.wav
36,192,8807,128,0,8901:0:0:0:0:
329,192,8807,1,0,0:0:0:0:
475,192,8807,1,0,0:0:0:0:
36,192,9370,128,0,10495:0:0:0:60:kick.wav
475,192,9370,128,0,10495:0:0:0:60:drum.wav
182,192,9370,1,0,0:0:0:60:cymbal.wav
329,192,9370,1,0,0:0:0:0:
182,192,10307,1,0,0:0:0:60:drum.wav
256,192,10401,1,0,0:0:0:60:drum.wav
329,192,10495,1,0,0:0:0:60:drum.wav
256,192,10682,1,0,0:0:0:60:kick.wav
109,192,10682,1,0,0:0:0:0:
182,192,10870,1,0,0:0:0:60:kick.wav
36,192,10870,1,0,0:0:0:60:cymbal.wav
329,192,10870,128,0,11432:0:0:0:0:
475,192,10870,128,0,11432:0:0:0:0:
36,192,11245,1,0,0:0:0:60:kick.wav
182,192,11245,1,0,0:0:0:0:
182,192,11432,128,0,11620:0:0:0:45:hihat.wav
36,192,11432,128,0,11620:0:0:0:0:
329,192,11620,1,0,0:0:0:60:kick.wav
475,192,11620,1,0,0:0:0:0:
109,192,11807,128,0,11995:0:0:0:45:hihat.wav
256,192,11807,128,0,11995:0:0:0:0:
475,192,11995,1,0,0:0:0:60:kick.wav
329,192,11995,1,0,0:0:0:0:
182,192,12182,128,0,13120:0:0:0:45:hihat.wav
329,192,12182,128,0,13120:0:0:0:0:
36,192,12370,1,0,0:0:0:60:kick.wav
475,192,12370,1,0,0:0:0:0:
402,192,12557,1,0,0:0:0:45:hihat.wav
36,192,12745,1,0,0:0:0:60:kick.wav
475,192,12745,1,0,0:0:0:0:
402,192,12932,1,0,0:0:0:45:hihat.wav
475,192,13120,1,0,0:0:0:60:kick.wav
36,192,13120,1,0,0:0:0:60:drum.wav
256,192,13120,1,0,0:0:0:0:
182,192,13307,128,0,13401:0:0:0:45:hihat.wav
475,192,13307,1,0,0:0:0:60:drum.wav
109,192,13307,1,0,0:0:0:0:
256,192,13495,128,0,13588:0:0:0:60:kick.wav
36,192,13495,1,0,0:0:0:0:
329,192,13682,128,0,13776:0:0:0:45:hihat.wav
109,192,13682,1,0,0:0:0:60:drum.wav
475,192,13682,1,0,0:0:0:0:
475,192,13870,128,0,14432:0:0:0:60:kick.wav
329,192,13870,128,0,14432:0:0:0:0:
36,192,13870,1,0,0:0:0:0:
182,192,13870,1,0,0:0:0:0:
182,192,14245,1,0,0:0:0:60:kick.wav
36,192,14245,1,0,0:0:0:0:
109,192,14432,128,0,14620:0:0:0:45:hihat.wav
256,192,14432,128,0,14620:0:0:0:0:
475,192,14620,1,0,0:0:0:60:kick.wav
402,192,14620,1,0,0:0:0:0:
182,192,14807,128,0,14995:0:0:0:45:hihat.wav
329,192,14807,128,0,14995:0:0:0:0:
109,192,14995,1,0,0:0:0:60:kick.wav
36,192,14995,1,0,0:0:0:0:
256,192,15182,128,0,16120:0:0:0:45:hihat.wav
402,192,15182,128,0,16120:0:0:0:0:
475,192,15370,1,0,0:0:0:60:kick.wav
36,192,15370,1,0,0:0:0:0:
109,192,15557,1,0,0:0:0:45:hihat.wav
475,192,15745,1,0,0:0:0:60:kick.wav
182,192,15745,1,0,0:0:0:0:
36,192,15932,1,0,0:0:0:45:hihat.wav
109,192,16120,1,0,0:0:0:60:kick.wav
475,192,16120,1,0,0:0:0:60:drum.wav
329,192,16120,1,0,0:0:0:0:
182,192,16307,1,0,0:0:0:45:hihat.wav
329,192,16307,128,0,16401:0:0:0:0:
402,192,16495,128,0,16588:0:0:0:60:kick.wav
109,192,16495,1,0,0:0:0:60:drum.wav
256,192,16495,1,0,0:0:0:0:
475,192,16682,128,0,16776:0:0:0:45:hihat.wav
36,192,16682,1,0,0:0:0:60:drum.wav
329,192,16682,1,0,0:0:0:0:
329,192,16870,128,0,17432:0:0:0:60:kick.wav
475,192,16870,128,0,17432:0:0:0:60:cymbal.wav
182,192,16870,1,0,0:0:0:0:
36,192,16870,1,0,0:0:0:0:
36,192,17245,1,0,0:0:0:60:kick.wav
182,192,17245,1,0,0:0:0:0:
109,192,17432,128,0,17620:0:0:0:45:hihat.wav
36,192,17432,128,0,17620:0:0:0:0:
329,192,17620,1,0,0:0:0:60:kick.wav
475,192,17620,1,0,0:0:0:0:
109,192,17807,128,0,17995:0:0:0:45:hihat.wav
182,192,17807,128,0,17995:0:0:0:0:
329,192,17995,1,0,0:0:0:60:kick.wav
475,192,17995,1,0,0:0:0:0:
182,192,18182,128,0,19120:0:0:0:45:hihat.wav
256,192,18182,128,0,19120:0:0:0:0:
36,192,18370,1,0,0:0:0:60:kick.wav
475,192,18370,1,0,0:0:0:0:
402,192,18557,1,0,0:0:0:45:hihat.wav
475,192,18745,1,0,0:0:0:60:kick.wav
36,192,18745,1,0,0:0:0:0:
402,192,18932,1,0,0:0:0:45:hihat.wav
475,192,19120,1,0,0:0:0:60:kick.wav
36,192,19120,1,0,0:0:0:60:drum.wav
329,192,19120,1,0,0:0:0:0:
109,192,19307,1,0,0:0:0:45:hihat.wav
475,192,19307,128,0,19401:0:0:0:0:
182,192,19495,1,0,0:0:0:60:drum.wav
402,192,19495,128,0,19588:0:0:0:60:kick.wav
329,192,19495,1,0,0:0:0:0:
256,192,19682,1,0,0:0:0:45:hihat.wav
329,192,19682,128,0,19776:0:0:0:60:drum.wav
109,192,19682,1,0,0:0:0:0:
182,192,19870,128,0,20245:0:0:0:60:kick.wav
36,192,19870,128,0,20245:0:0:0:0:
329,192,19870,1,0,0:0:0:0:
475,192,19870,1,0,0:0:0:0:
402,192,20245,128,0,20432:0:0:0:60:kick.wav
329,192,20245,1,0,0:0:0:0:
475,192,20245,1,0,0:0:0:0:
109,192,20432,128,0,20620:0:0:0:45:hihat.wav
256,192,20432,128,0,20620:0:0:0:0:
329,192,20620,1,0,0:0:0:60:kick.wav
475,192,20620,1,0,0:0:0:0:
182,192,20807,128,0,20995:0:0:0:45:hihat.wav
329,192,20807,128,0,20995:0:0:0:0:
109,192,20995,1,0,0:0:0:60:kick.wav
36,192,20995,1,0,0:0:0:0:
256,192,21182,128,0,21370:0:0:0:45:hihat.wav
402,192,21182,128,0,21370:0:0:0:0:
109,192,21370,1,0,0:0:0:60:kick.wav
182,192,21370,1,0,0:0:0:0:
329,192,21557,128,0,21745:0:0:0:45:hihat.wav
475,192,21557,128,0,21745:0:0:0:0:
182,192,21745,1,0,0:0:0:60:kick.wav
256,192,21745,1,0,0:0:0:0:
182,192,21932,128,0,22026:0:0:0:45:hihat.wav
256,192,22026,128,0,22120:0:0:0:0:
329,192,22120,128,0,22213:0:0:0:60:kick.wav
475,192,22120,128,0,22213:0:0:0:60:drum.wav
36,192,22120,1,0,0:0:0:0:
402,192,22307,128,0,22401:0:0:0:45:hihat.wav
256,192,22307,128,0,22401:0:0:0:60:drum.wav
36,192,22307,1,0,0:0:0:0:
329,192,22495,128,0,22588:0:0:0:60:kick.wav
182,192,22495,128,0,22588:0:0:0:0:
256,192,22682,128,0,22776:0:0:0:45:hihat.wav
109,192,22682,128,0,22776:0:0:0:60:drum.wav
475,192,22682,1,0,0:0:0:0:
182,192,22870,128,0,23245:0:0:0:60:cymbal.wav
36,192,22870,128,0,23245:0:0:0:60:kick.wav
329,192,22870,1,0,0:0:0:0:
475,192,22870,1,0,0:0:0:0:
402,192,23057,1,0,0:0:0:45:hihat.wav
329,192,23245,128,0,23338:0:0:0:60:kick.wav
475,192,23245,1,0,0:0:0:0:
329,192,23432,128,0,25495:0:0:0:45:hihat.wav
109,192,23432,1,0,0:0:0:0:
182,192,23620,1,0,0:0:0:60:kick.wav
36,192,23620,1,0,0:0:0:0:
109,192,23807,1,0,0:0:0:45:hihat.wav
475,192,23995,128,0,24088:0:0:0:60:kick.wav
182,192,23995,1,0,0:0:0:0:
36,192,23995,1,0,0:0:0:0:
475,192,24182,128,0,25495:0:0:0:45:hihat.wav
109,192,24182,1,0,0:0:0:0:
182,192,24370,1,0,0:0:0:60:kick.wav
36,192,24370,1,0,0:0:0:0:
402,192,24557,128,0,25495:0:0:0:45:hihat.wav
109,192,24557,1,0,0:0:0:0:
182,192,24745,1,0,0:0:0:60:kick.wav
36,192,24745,1,0,0:0:0:0:
109,192,24932,1,0,0:0:0:45:hihat.wav
182,192,25120,128,0,25213:0:0:0:60:kick.wav
36,192,25120,128,0,25213:0:0:0:60:drum.wav
182,192,25307,128,0,25401:0:0:0:45:hihat.wav
36,192,25307,128,0,25401:0:0:0:60:drum.wav
182,192,25495,128,0,25776:0:0:0:60:kick.wav
36,192,25495,128,0,25776:0:0:0:0:
329,192,25682,1,0,0:0:0:45:hihat.wav
475,192,25682,1,0,0:0:0:60:drum.wav
329,192,25776,1,0,0:0:0:0:
475,192,25776,1,0,0:0:0:0:
475,192,25870,128,0,26245:0:0:0:60:kick.wav
329,192,25870,128,0,26245:0:0:0:60:cymbal.wav
36,192,25870,1,0,0:0:0:0:
182,192,25870,1,0,0:0:0:0:
109,192,26057,1,0,0:0:0:45:hihat.wav
182,192,26245,128,0,26338:0:0:0:60:kick.wav
36,192,26245,1,0,0:0:0:0:
402,192,26432,1,0,0:0:0:45:hihat.wav
182,192,26432,128,0,28401:0:0:0:0:
329,192,26620,1,0,0:0:0:60:kick.wav
475,192,26620,1,0,0:0:0:0:
402,192,26807,1,0,0:0:0:45:hihat.wav
36,192,26995,128,0,27088:0:0:0:60:kick.wav
329,192,26995,1,0,0:0:0:0:
475,192,26995,1,0,0:0:0:0:
36,192,27182,128,0,28401:0:0:0:45:hihat.wav
402,192,27182,1,0,0:0:0:0:
329,192,27370,1,0,0:0:0:60:kick.wav
475,192,27370,1,0,0:0:0:0:
109,192,27557,128,0,28401:0:0:0:45:hihat.wav
402,192,27557,1,0,0:0:0:0:
329,192,27745,1,0,0:0:0:60:kick.wav
475,192,27745,1,0,0:0:0:0:
402,192,27932,1,0,0:0:0:45:hihat.wav
475,192,28120,128,0,28213:0:0:0:60:kick.wav
329,192,28120,128,0,28213:0:0:0:60:drum.wav
475,192,28307,128,0,28401:0:0:0:45:hihat.wav
329,192,28307,128,0,28401:0:0:0:60:drum.wav
109,192,28495,128,0,28588:0:0:0:60:kick.wav
182,192,28495,128,0,28588:0:0:0:0:
329,192,28495,128,0,28776:0:0:0:0:
475,192,28495,128,0,28776:0:0:0:0:
256,192,28682,128,0,28776:0:0:0:45:hihat.wav
182,192,28682,128,0,28776:0:0:0:60:drum.wav
329,192,28870,128,0,29526:0:0:0:60:kick.wav
256,192,28870,128,0,29526:0:0:0:60:cymbal.wav
36,192,28870,1,0,0:0:0:0:
182,192,28870,1,0,0:0:0:0:
475,192,28870,1,0,0:0:0:0:
109,192,29057,1,0,0:0:0:45:hihat.wav
182,192,29245,1,0,0:0:0:60:kick.wav
36,192,29245,1,0,0:0:0:0:
402,192,29245,128,0,29526:0:0:0:0:
475,192,29245,128,0,29526:0:0:0:0:
109,192,29432,1,0,0:0:0:45:hihat.wav
475,192,29620,128,0,29807:0:0:0:60:kick.wav
182,192,29620,1,0,0:0:0:0:
36,192,29620,1,0,0:0:0:0:
329,192,29620,128,0,29807:0:0:0:0:
109,192,29807,1,0,0:0:0:45:hihat.wav
256,192,29901,128,0,30088:0:0:0:0:
402,192,29901,128,0,30088:0:0:0:0:
182,192,29995,1,0,0:0:0:60:kick.wav
36,192,29995,1,0,0:0:0:0:
329,192,30182,128,0,30370:0:0:0:45:hihat.wav
109,192,30182,1,0,0:0:0:0:
182,192,30182,128,0,30370:0:0:0:0:
256,192,30370,1,0,0:0:0:60:kick.wav
475,192,30370,128,0,30651:0:0:0:0:
36,192,30370,128,0,30651:0:0:0:0:
256,192,30557,1,0,0:0:0:45:hihat.wav
402,192,30745,128,0,30838:0:0:0:60:kick.wav
109,192,30745,128,0,30838:0:0:0:0:
256,192,30745,1,0,0:0:0:0:
329,192,30932,128,0,31213:0:0:0:45:hihat.wav
182,192,30932,128,0,31213:0:0:0:0:
475,192,31120,1,0,0:0:0:60:kick.wav
36,192,31120,1,0,0:0:0:0:
475,192,31307,128,0,31401:0:0:0:45:hihat.wav
182,192,31307,128,0,31401:0:0:0:0:
329,192,31307,1,0,0:0:0:0:
402,192,31495,128,0,31588:0:0:0:60:kick.wav
109,192,31495,128,0,31588:0:0:0:0:
256,192,31495,1,0,0:0:0:0:
329,192,31682,128,0,31776:0:0:0:45:hihat.wav
36,192,31682,128,0,31776:0:0:0:0:
182,192,31682,1,0,0:0:0:0:
36,192,31870,128,0,32245:0:0:0:60:kick.wav
329,192,31870,128,0,32245:0:0:0:60:cymbal.wav
475,192,31870,1,0,0:0:0:0:
182,192,31870,1,0,0:0:0:0:
475,192,32245,1,0,0:0:0:60:kick.wav
182,192,32245,1,0,0:0:0:0:
402,192,32432,128,0,32620:0:0:0:45:hihat.wav
109,192,32432,128,0,32620:0:0:0:0:
329,192,32620,1,0,0:0:0:60:kick.wav
182,192,32620,1,0,0:0:0:0:
182,192,32807,128,0,32995:0:0:0:45:hihat.wav
475,192,32807,128,0,32995:0:0:0:0:
329,192,32995,1,0,0:0:0:60:kick.wav
36,192,32995,1,0,0:0:0:0:
475,192,33182,128,0,33557:0:0:0:45:hihat.wav
182,192,33182,128,0,33557:0:0:0:0:
329,192,33370,1,0,0:0:0:60:cymbal.wav
402,192,33370,1,0,0:0:0:60:drum.wav
109,192,33370,1,0,0:0:0:60:kick.wav
36,192,33370,1,0,0:0:0:0:
329,192,33557,1,0,0:0:0:0:
256,192,33651,1,0,0:0:0:0:
182,192,33745,1,0,0:0:0:60:drum.wav
36,192,33745,1,0,0:0:0:0:
329,192,33932,128,0,34307:0:0:0:0:
475,192,33932,128,0,34307:0:0:0:0:
36,192,34120,128,0,34182:0:0:0:60:drum.wav
109,192,34245,128,0,34307:0:0:0:0:
402,192,34307,1,0,0:0:0:60:drum.wav
182,192,34370,128,0,34432:0:0:0:0:
329,192,34401,1,0,0:0:0:60:drum.wav
256,192,34495,128,0,34557:0:0:0:60:drum.wav
402,192,34682,128,0,34870:0:0:0:60:drum.wav
109,192,34682,128,0,34870:0:0:0:60:kick.wav
329,192,34870,1,0,0:0:0:60:kick.wav
182,192,34870,1,0,0:0:0:60:cymbal.wav
36,192,34870,1,0,0:0:0:0:
475,192,34870,1,0,0:0:0:0:
256,192,34870,1,0,0:0:0:0:
256,192,35057,1,0,0:0:0:45:hihat.wav
109,192,35245,1,0,0:0:0:60:snare.wav
402,192,35245,1,0,0:0:0:0:
256,192,35432,1,0,0:0:0:45:hihat.wav
36,192,35432,1,0,0:0:0:0:
475,192,35432,1,0,0:0:0:0:
182,192,35432,1,0,0:0:0:0:
329,192,35432,1,0,0:0:0:0:
109,192,35620,1,0,0:0:0:60:kick.wav
402,192,35620,1,0,0:0:0:0:
256,192,35807,1,0,0:0:0:45:hihat.wav
109,192,35995,1,0,0:0:0:60:snare.wav
256,192,35995,1,0,0:0:0:0:
402,192,35995,1,0,0:0:0:0:
36,192,35995,1,0,0:0:0:0:
475,192,35995,1,0,0:0:0:0:
256,192,36182,1,0,0:0:0:45:hihat.wav
182,192,36370,1,0,0:0:0:60:kick.wav
329,192,36370,1,0,0:0:0:0:
256,192,36557,1,0,0:0:0:45:hihat.wav
109,192,36557,1,0,0:0:0:0:
36,192,36557,1,0,0:0:0:0:
402,192,36557,1,0,0:0:0:0:
475,192,36557,1,0,0:0:0:0:
182,192,36745,1,0,0:0:0:60:snare.wav
329,192,36745,1,0,0:0:0:0:
256,192,36932,1,0,0:0:0:45:hihat.wav
109,192,37120,128,0,37401:0:0:0:60:kick.wav
36,192,37120,128,0,37401:0:0:0:0:
402,192,37120,128,0,37401:0:0:0:0:
475,192,37120,128,0,37401:0:0:0:0:
256,192,37307,1,0,0:0:0:45:hihat.wav
109,192,37495,128,0,37776:0:0:0:60:snare.wav
182,192,37495,128,0,37776:0:0:0:0:
402,192,37495,128,0,37776:0:0:0:0:
475,192,37495,128,0,37776:0:0:0:0:
256,192,37682,1,0,0:0:0:45:hihat.wav
182,192,37870,128,0,38151:0:0:0:60:kick.wav
256,192,37870,128,0,38151:0:0:0:0:
36,192,37870,1,0,0:0:0:0:
402,192,37870,128,0,38151:0:0:0:0:
475,192,37870,128,0,38151:0:0:0:0:
109,192,38057,1,0,0:0:0:45:hihat.wav
36,192,38245,1,0,0:0:0:60:snare.wav
475,192,38245,1,0,0:0:0:0:
256,192,38245,1,0,0:0:0:0:
109,192,38432,1,0,0:0:0:45:hihat.wav
182,192,38432,128,0,38620:0:0:0:0:
329,192,38432,128,0,38620:0:0:0:0:
36,192,38620,1,0,0:0:0:60:kick.wav
475,192,38620,1,0,0:0:0:0:
109,192,38807,1,0,0:0:0:45:hihat.wav
256,192,38807,128,0,38995:0:0:0:0:
402,192,38807,128,0,38995:0:0:0:0:
36,192,38995,1,0,0:0:0:60:snare.wav
329,192,38995,1,0,0:0:0:0:
475,192,38995,1,0,0:0:0:0:
109,192,39182,1,0,0:0:0:45:hihat.wav
329,192,39182,128,0,39557:0:0:0:0:
475,192,39182,128,0,39557:0:0:0:0:
36,192,39370,1,0,0:0:0:60:kick.wav
256,192,39370,1,0,0:0:0:0:
109,192,39557,1,0,0:0:0:45:hihat.wav
36,192,39745,1,0,0:0:0:60:snare.wav
256,192,39745,1,0,0:0:0:0:
475,192,39745,1,0,0:0:0:0:
109,192,39932,1,0,0:0:0:45:hihat.wav
402,192,39932,128,0,40120:0:0:0:0:
256,192,39932,128,0,40120:0:0:0:0:
36,192,40120,1,0,0:0:0:60:kick.wav
475,192,40120,1,0,0:0:0:0:
109,192,40307,1,0,0:0:0:45:hihat.wav
329,192,40307,128,0,40682:0:0:0:0:
182,192,40307,128,0,40682:0:0:0:0:
36,192,40495,1,0,0:0:0:60:snare.wav
475,192,40495,1,0,0:0:0:0:
256,192,40495,1,0,0:0:0:0:
182,192,40870,1,0,0:0:0:60:kick.wav
36,192,40870,1,0,0:0:0:0:
329,192,40870,1,0,0:0:0:0:
475,192,40870,1,0,0:0:0:0:
256,192,40870,1,0,0:0:0:0:
256,192,41057,1,0,0:0:0:45:hihat.wav
109,192,41245,1,0,0:0:0:60:snare.wav
402,192,41245,1,0,0:0:0:0:
256,192,41432,1,0,0:0:0:45:hihat.wav
36,192,41432,1,0,0:0:0:0:
475,192,41432,1,0,0:0:0:0:
182,192,41432,1,0,0:0:0:0:
329,192,41432,1,0,0:0:0:0:
109,192,41620,1,0,0:0:0:60:kick.wav
402,192,41620,1,0,0:0:0:0:
256,192,41807,1,0,0:0:0:45:hihat.wav
109,192,41995,1,0,0:0:0:60:snare.wav
256,192,41995,1,0,0:0:0:0:
402,192,41995,1,0,0:0:0:0:
36,192,41995,1,0,0:0:0:0:
475,192,41995,1,0,0:0:0:0:
256,192,42182,1,0,0:0:0:45:hihat.wav
182,192,42370,1,0,0:0:0:60:kick.wav
329,192,42370,1,0,0:0:0:0:
256,192,42557,1,0,0:0:0:45:hihat.wav
109,192,42557,1,0,0:0:0:0:
36,192,42557,1,0,0:0:0:0:
402,192,42557,1,0,0:0:0:0:
475,192,42557,1,0,0:0:0:0:
182,192,42745,1,0,0:0:0:60:snare.wav
329,192,42745,1,0,0:0:0:0:
256,192,42932,1,0,0:0:0:45:hihat.wav
402,192,43120,128,0,43401:0:0:0:60:kick.wav
475,192,43120,128,0,43401:0:0:0:0:
109,192,43120,128,0,43401:0:0:0:0:
36,192,43120,128,0,43401:0:0:0:0:
256,192,43307,1,0,0:0:0:45:hihat.wav
402,192,43495,128,0,43776:0:0:0:60:snare.wav
329,192,43495,128,0,43776:0:0:0:0:
109,192,43495,128,0,43776:0:0:0:0:
36,192,43495,128,0,43776:0:0:0:0:
256,192,43682,1,0,0:0:0:45:hihat.wav
329,192,43870,128,0,44151:0:0:0:60:kick.wav
256,192,43870,128,0,44151:0:0:0:0:
475,192,43870,1,0,0:0:0:0:
109,192,43870,128,0,44151:0:0:0:0:
36,192,43870,128,0,44151:0:0:0:0:
402,192,44057,1,0,0:0:0:45:hihat.wav
475,192,44245,1,0,0:0:0:60:snare.wav
36,192,44245,1,0,0:0:0:0:
256,192,44245,1,0,0:0:0:0:
402,192,44432,1,0,0:0:0:45:hihat.wav
329,192,44432,128,0,44620:0:0:0:0:
182,192,44432,128,0,44620:0:0:0:0:
475,192,44620,1,0,0:0:0:60:kick.wav
36,192,44620,1,0,0:0:0:0:
402,192,44807,1,0,0:0:0:45:hihat.wav
256,192,44807,128,0,44995:0:0:0:0:
109,192,44807,128,0,44995:0:0:0:0:
475,192,44995,1,0,0:0:0:60:snare.wav
182,192,44995,1,0,0:0:0:0:
36,192,44995,1,0,0:0:0:0:
402,192,45182,1,0,0:0:0:45:hihat.wav
182,192,45182,128,0,45557:0:0:0:60:drum.wav
36,192,45182,128,0,45557:0:0:0:0:
329,192,45276,1,0,0:0:0:60:drum.wav
475,192,45370,1,0,0:0:0:60:kick.wav
256,192,45370,1,0,0:0:0:60:drum.wav
402,192,45557,1,0,0:0:0:45:hihat.wav
475,192,45745,1,0,0:0:0:60:snare.wav
256,192,45745,1,0,0:0:0:0:
36,192,45745,1,0,0:0:0:0:
402,192,45932,1,0,0:0:0:45:hihat.wav
36,192,45932,128,0,46120:0:0:0:60:drum.wav
109,192,46026,128,0,46213:0:0:0:60:drum.wav
475,192,46120,1,0,0:0:0:60:kick.wav
182,192,46120,128,0,46307:0:0:0:60:drum.wav
256,192,46120,1,0,0:0:0:0:
402,192,46307,1,0,0:0:0:45:hihat.wav
109,192,46307,128,0,46495:0:0:0:0:
182,192,46401,128,0,46588:0:0:0:0:
475,192,46495,1,0,0:0:0:60:snare.wav
256,192,46495,128,0,46682:0:0:0:60:drum.wav
36,192,46495,1,0,0:0:0:0:
36,192,46870,1,0,0:0:0:60:cymbal.wav
329,192,46870,128,0,47057:0:0:0:60:kick.wav
475,192,46870,128,0,47057:0:0:0:60:drum.wav
182,192,46870,1,0,0:0:0:0:
402,192,46870,1,0,0:0:0:0:
109,192,47057,1,0,0:0:0:45:hihat.wav
109,192,47245,1,0,0:0:0:60:snare.wav
256,192,47245,1,0,0:0:0:0:
402,192,47245,1,0,0:0:0:0:
329,192,47432,128,0,47620:0:0:0:45:hihat.wav
475,192,47432,128,0,47620:0:0:0:60:drum.wav
182,192,47432,1,0,0:0:0:0:
36,192,47432,1,0,0:0:0:0:
109,192,47620,1,0,0:0:0:60:kick.wav
402,192,47620,1,0,0:0:0:0:
109,192,47807,1,0,0:0:0:45:hihat.wav
329,192,47995,128,0,48182:0:0:0:60:snare.wav
475,192,47995,128,0,48182:0:0:0:60:drum.wav
182,192,47995,1,0,0:0:0:0:
36,192,47995,1,0,0:0:0:0:
256,192,47995,1,0,0:0:0:0:
402,192,47995,1,0,0:0:0:0:
109,192,48182,1,0,0:0:0:45:hihat.wav
109,192,48370,1,0,0:0:0:60:kick.wav
402,192,48370,1,0,0:0:0:0:
329,192,48557,128,0,48745:0:0:0:45:hihat.wav
475,192,48557,128,0,48745:0:0:0:60:drum.wav
182,192,48557,1,0,0:0:0:0:
36,192,48557,1,0,0:0:0:0:
109,192,48745,1,0,0:0:0:60:snare.wav
402,192,48745,1,0,0:0:0:0:
256,192,48745,1,0,0:0:0:0:
109,192,48932,1,0,0:0:0:45:hihat.wav
36,192,49120,128,0,49495:0:0:0:60:kick.wav
182,192,49120,128,0,49495:0:0:0:60:drum.wav
329,192,49120,128,0,49245:0:0:0:0:
256,192,49245,128,0,49370:0:0:0:0:
402,192,49370,128,0,49495:0:0:0:0:
329,192,49495,128,0,49620:0:0:0:60:snare.wav
109,192,49495,128,0,49870:0:0:0:60:drum.wav
256,192,49495,128,0,49870:0:0:0:0:
475,192,49620,128,0,49745:0:0:0:0:
402,192,49745,128,0,49870:0:0:0:0:
182,192,49870,128,0,50245:0:0:0:60:cymbal.wav
329,192,49870,128,0,50245:0:0:0:60:drum.wav
36,192,49870,1,0,0:0:0:60:kick.wav
475,192,49870,1,0,0:0:0:0:
109,192,50057,1,0,0:0:0:45:hihat.wav
36,192,50245,1,0,0:0:0:60:snare.wav
475,192,50245,1,0,0:0:0:0:
256,192,50245,1,0,0:0:0:0:
109,192,50432,1,0,0:0:0:45:hihat.wav
329,192,50432,128,0,50620:0:0:0:60:drum.wav
182,192,50432,128,0,50620:0:0:0:0:
36,192,50620,1,0,0:0:0:60:kick.wav
475,192,50620,1,0,0:0:0:0:
109,192,50807,1,0,0:0:0:45:hihat.wav
402,192,50807,128,0,50995:0:0:0:60:drum.wav
256,192,50807,128,0,50995:0:0:0:0:
36,192,50995,1,0,0:0:0:60:snare.wav
329,192,50995,1,0,0:0:0:0:
475,192,50995,1,0,0:0:0:0:
475,192,51182,128,0,51745:0:0:0:45:hihat.wav
109,192,51182,1,0,0:0:0:60:drum.wav
329,192,51182,128,0,51745:0:0:0:0:
256,192,51370,1,0,0:0:0:60:kick.wav
36,192,51370,1,0,0:0:0:0:
109,192,51557,1,0,0:0:0:45:hihat.wav
36,192,51745,1,0,0:0:0:60:snare.wav
256,192,51745,1,0,0:0:0:60:drum.wav
402,192,51745,1,0,0:0:0:0:
109,192,51932,1,0,0:0:0:45:hihat.wav
256,192,51932,128,0,52120:0:0:0:60:drum.wav
402,192,51932,128,0,52120:0:0:0:0:
36,192,52120,1,0,0:0:0:60:kick.wav
475,192,52120,1,0,0:0:0:0:
109,192,52307,1,0,0:0:0:45:hihat.wav
329,192,52307,128,0,52682:0:0:0:60:drum.wav
182,192,52307,128,0,52682:0:0:0:0:
36,192,52495,1,0,0:0:0:60:snare.wav
256,192,52495,1,0,0:0:0:0:
475,192,52495,1,0,0:0:0:0:
402,192,52682,128,0,52729:0:0:0:45:hihat.wav
329,192,52776,128,0,52823:0:0:0:0:
109,192,52870,128,0,53057:0:0:0:60:kick.wav
256,192,52870,128,0,53057:0:0:0:60:cymbal.wav
36,192,52870,1,0,0:0:0:60:drum.wav
475,192,52870,1,0,0:0:0:0:
182,192,52870,1,0,0:0:0:0:
402,192,53057,1,0,0:0:0:45:hihat.wav
475,192,53245,1,0,0:0:0:60:snare.wav
36,192,53245,1,0,0:0:0:0:
182,192,53245,1,0,0:0:0:0:
109,192,53432,128,0,53620:0:0:0:45:hihat.wav
256,192,53432,128,0,53620:0:0:0:60:drum.wav
402,192,53432,1,0,0:0:0:0:
329,192,53432,1,0,0:0:0:0:
475,192,53620,1,0,0:0:0:60:kick.wav
36,192,53620,1,0,0:0:0:0:
402,192,53807,1,0,0:0:0:45:hihat.wav
109,192,53995,128,0,54182:0:0:0:60:snare.wav
256,192,53995,128,0,54182:0:0:0:60:drum.wav
329,192,53995,1,0,0:0:0:0:
475,192,53995,1,0,0:0:0:0:
36,192,53995,1,0,0:0:0:0:
182,192,53995,1,0,0:0:0:0:
402,192,54182,128,0,54229:0:0:0:45:hihat.wav
329,192,54276,128,0,54323:0:0:0:0:
475,192,54370,1,0,0:0:0:60:kick.wav
36,192,54370,1,0,0:0:0:60:cymbal.wav
256,192,54370,128,0,54416:0:0:0:0:
182,192,54370,1,0,0:0:0:0:
109,192,54557,128,0,54745:0:0:0:60:drum.wav
256,192,54557,128,0,54745:0:0:0:45:hihat.wav
402,192,54557,1,0,0:0:0:0:
329,192,54557,1,0,0:0:0:0:
182,192,54745,1,0,0:0:0:60:snare.wav
475,192,54745,1,0,0:0:0:0:
36,192,54745,1,0,0:0:0:0:
402,192,54932,1,0,0:0:0:45:hihat.wav
329,192,55120,128,0,55495:0:0:0:60:drum.wav
475,192,55120,128,0,55495:0:0:0:60:kick.wav
36,192,55120,1,0,0:0:0:0:
182,192,55120,1,0,0:0:0:0:
109,192,55307,1,0,0:0:0:60:drum.wav
36,192,55495,1,0,0:0:0:60:snare.wav
182,192,55495,1,0,0:0:0:60:drum.wav
256,192,55495,128,0,55870:0:0:0:0:
402,192,55495,128,0,55870:0:0:0:0:
109,192,55682,1,0,0:0:0:60:drum.wav
36,192,55870,1,0,0:0:0:60:drum.wav
182,192,55870,128,0,56245:0:0:0:60:cymbal.wav
329,192,55870,128,0,56245:0:0:0:60:kick.wav
475,192,55870,1,0,0:0:0:0:
402,192,56057,1,0,0:0:0:45:hihat.wav
475,192,56245,1,0,0:0:0:60:snare.wav
36,192,56245,1,0,0:0:0:0:
256,192,56245,1,0,0:0:0:0:
402,192,56432,1,0,0:0:0:45:hihat.wav
329,192,56432,128,0,56620:0:0:0:60:drum.wav
182,192,56432,128,0,56620:0:0:0:0:
475,192,56620,1,0,0:0:0:60:kick.wav
36,192,56620,1,0,0:0:0:0:
109,192,56807,128,0,56995:0:0:0:45:hihat.wav
402,192,56807,128,0,56995:0:0:0:60:drum.wav
256,192,56807,1,0,0:0:0:0:
475,192,56995,1,0,0:0:0:60:snare.wav
256,192,56995,1,0,0:0:0:0:
36,192,56995,1,0,0:0:0:0:
36,192,57182,128,0,57557:0:0:0:45:hihat.wav
475,192,57182,128,0,57557:0:0:0:60:drum.wav
182,192,57182,1,0,0:0:0:0:
329,192,57182,1,0,0:0:0:0:
109,192,57370,1,0,0:0:0:60:kick.wav
402,192,57370,1,0,0:0:0:0:
182,192,57526,128,0,57588:0:0:0:0:
256,192,57651,128,0,57713:0:0:0:0:
36,192,57745,1,0,0:0:0:60:snare.wav
475,192,57745,1,0,0:0:0:0:
329,192,57776,128,0,57838:0:0:0:0:
36,192,57932,128,0,58120:0:0:0:45:hihat.wav
182,192,57932,128,0,58120:0:0:0:60:drum.wav
475,192,58120,128,0,58166:0:0:0:60:kick.wav
329,192,58120,1,0,0:0:0:0:
182,192,58213,128,0,58260:0:0:0:0:
109,192,58307,128,0,58354:0:0:0:45:hihat.wav
329,192,58307,128,0,58682:0:0:0:60:drum.wav
475,192,58307,128,0,58682:0:0:0:0:
36,192,58401,128,0,58448:0:0:0:0:
182,192,58682,1,0,0:0:0:45:hihat.wav
36,192,58682,1,0,0:0:0:60:kick.wav
475,192,58870,128,0,59245:0:0:0:60:cymbal.wav
36,192,58870,1,0,0:0:0:60:kick.wav
329,192,58870,1,0,0:0:0:0:
182,192,58870,1,0,0:0:0:0:
256,192,59057,1,0,0:0:0:45:hihat.wav
329,192,59245,1,0,0:0:0:60:snare.wav
182,192,59245,1,0,0:0:0:0:
109,192,59245,1,0,0:0:0:0:
402,192,59432,128,0,59807:0:0:0:45:hihat.wav
256,192,59432,1,0,0:0:0:0:
182,192,59620,1,0,0:0:0:60:kick.wav
36,192,59620,1,0,0:0:0:0:
256,192,59807,1,0,0:0:0:45:hihat.wav
329,192,59995,128,0,60370:0:0:0:60:snare.wav
182,192,59995,1,0,0:0:0:0:
109,192,59995,1,0,0:0:0:0:
475,192,59995,1,0,0:0:0:0:
256,192,60182,1,0,0:0:0:45:hihat.wav
36,192,60370,128,0,60745:0:0:0:60:kick.wav
475,192,60370,1,0,0:0:0:0:
182,192,60370,1,0,0:0:0:0:
329,192,60557,1,0,0:0:0:45:hihat.wav
182,192,60745,1,0,0:0:0:60:snare.wav
256,192,60745,1,0,0:0:0:0:
402,192,60745,1,0,0:0:0:0:
109,192,60932,128,0,61307:0:0:0:45:hihat.wav
329,192,60932,1,0,0:0:0:0:
475,192,61120,1,0,0:0:0:60:kick.wav
182,192,61120,1,0,0:0:0:0:
329,192,61307,1,0,0:0:0:45:hihat.wav
182,192,61495,128,0,61870:0:0:0:60:snare.wav
402,192,61495,1,0,0:0:0:0:
256,192,61495,1,0,0:0:0:0:
36,192,61495,1,0,0:0:0:0:
329,192,61682,1,0,0:0:0:45:hihat.wav
475,192,61870,128,0,62432:0:0:0:60:kick.wav
36,192,61870,1,0,0:0:0:0:
329,192,61870,1,0,0:0:0:0:
182,192,62057,1,0,0:0:0:45:hihat.wav
329,192,62245,128,0,62432:0:0:0:60:snare.wav
109,192,62245,1,0,0:0:0:0:
36,192,62245,1,0,0:0:0:0:
256,192,62245,1,0,0:0:0:0:
182,192,62432,128,0,62620:0:0:0:45:hihat.wav
36,192,62620,1,0,0:0:0:60:kick.wav
475,192,62620,1,0,0:0:0:0:
109,192,62807,128,0,62995:0:0:0:45:hihat.wav
329,192,62807,1,0,0:0:0:0:
402,192,62995,1,0,0:0:0:60:snare.wav
256,192,62995,1,0,0:0:0:0:
182,192,62995,1,0,0:0:0:0:
36,192,63182,128,0,64120:0:0:0:45:hihat.wav
329,192,63182,1,0,0:0:0:0:
475,192,63370,1,0,0:0:0:60:kick.wav
182,192,63370,1,0,0:0:0:0:
402,192,63557,1,0,0:0:0:45:hihat.wav
329,192,63745,1,0,0:0:0:60:snare.wav
256,192,63745,1,0,0:0:0:0:
109,192,63745,1,0,0:0:0:0:
402,192,63932,1,0,0:0:0:45:hihat.wav
475,192,64120,1,0,0:0:0:60:kick.wav
182,192,64120,1,0,0:0:0:0:
182,192,64307,128,0,64401:0:0:0:45:hihat.wav
329,192,64307,1,0,0:0:0:0:
475,192,64495,128,0,64588:0:0:0:60:snare.wav
402,192,64495,1,0,0:0:0:0:
36,192,64495,1,0,0:0:0:0:
256,192,64495,1,0,0:0:0:0:
182,192,64682,128,0,64776:0:0:0:45:hihat.wav
329,192,64682,1,0,0:0:0:0:
475,192,64870,128,0,65245:0:0:0:60:kick.wav
182,192,64870,1,0,0:0:0:0:
36,192,64870,1,0,0:0:0:0:
109,192,65057,1,0,0:0:0:45:hihat.wav
182,192,65245,1,0,0:0:0:60:snare.wav
329,192,65245,1,0,0:0:0:0:
36,192,65245,1,0,0:0:0:0:
402,192,65432,128,0,65807:0:0:0:45:hihat.wav
109,192,65432,1,0,0:0:0:0:
182,192,65620,1,0,0:0:0:60:kick.wav
36,192,65620,1,0,0:0:0:0:
109,192,65807,1,0,0:0:0:45:hihat.wav
329,192,65995,128,0,66370:0:0:0:60:snare.wav
182,192,65995,1,0,0:0:0:0:
36,192,65995,1,0,0:0:0:0:
475,192,65995,1,0,0:0:0:0:
109,192,66182,1,0,0:0:0:45:hihat.wav
182,192,66370,128,0,67682:0:0:0:60:kick.wav
36,192,66370,1,0,0:0:0:0:
475,192,66370,1,0,0:0:0:0:
402,192,66557,1,0,0:0:0:45:hihat.wav
36,192,66745,1,0,0:0:0:60:snare.wav
329,192,66745,1,0,0:0:0:0:
256,192,66745,1,0,0:0:0:0:
475,192,66932,1,0,0:0:0:45:hihat.wav
36,192,67120,128,0,67682:0:0:0:60:kick.wav
109,192,67120,1,0,0:0:0:0:
402,192,67120,1,0,0:0:0:0:
329,192,67307,1,0,0:0:0:45:hihat.wav
109,192,67495,1,0,0:0:0:60:snare.wav
402,192,67495,1,0,0:0:0:0:
256,192,67495,1,0,0:0:0:0:
475,192,67682,1,0,0:0:0:45:hihat.wav
109,192,67870,128,0,68245:0:0:0:60:kick.wav
402,192,67870,128,0,67963:0:0:0:60:drum.wav
475,192,67870,128,0,67963:0:0:0:0:
329,192,67870,1,0,0:0:0:0:
36,192,67870,1,0,0:0:0:0:
256,192,68057,1,0,0:0:0:45:hihat.wav
402,192,68245,128,0,68338:0:0:0:60:snare.wav
475,192,68245,128,0,68338:0:0:0:60:drum.wav
182,192,68245,1,0,0:0:0:0:
36,192,68245,1,0,0:0:0:0:
182,192,68432,128,0,68807:0:0:0:45:hihat.wav
109,192,68432,1,0,0:0:0:0:
402,192,68620,128,0,68713:0:0:0:60:kick.wav
475,192,68620,128,0,68713:0:0:0:60:drum.wav
36,192,68620,1,0,0:0:0:0:
329,192,68620,1,0,0:0:0:0:
256,192,68807,1,0,0:0:0:45:hihat.wav
256,192,68995,128,0,69370:0:0:0:60:snare.wav
402,192,68995,128,0,69088:0:0:0:60:drum.wav
475,192,68995,128,0,69088:0:0:0:0:
182,192,68995,1,0,0:0:0:0:
36,192,68995,1,0,0:0:0:0:
109,192,69182,1,0,0:0:0:45:hihat.wav
36,192,69370,1,0,0:0:0:60:kick.wav
182,192,69370,1,0,0:0:0:60:drum.wav
475,192,69370,1,0,0:0:0:0:
329,192,69370,1,0,0:0:0:0:
402,192,69370,128,0,70682:0:0:0:0:
182,192,69557,1,0,0:0:0:45:hihat.wav
256,192,69745,1,0,0:0:0:60:snare.wav
36,192,69745,1,0,0:0:0:60:drum.wav
109,192,69745,1,0,0:0:0:0:
329,192,69745,1,0,0:0:0:0:
36,192,69932,1,0,0:0:0:45:hihat.wav
329,192,69932,1,0,0:0:0:60:kick.wav
109,192,70026,1,0,0:0:0:0:
256,192,70026,1,0,0:0:0:0:
475,192,70120,1,0,0:0:0:60:kick.wav
182,192,70120,1,0,0:0:0:60:drum.wav
182,192,70307,1,0,0:0:0:45:hihat.wav
36,192,70495,1,0,0:0:0:60:snare.wav
109,192,70495,1,0,0:0:0:60:drum.wav
256,192,70495,1,0,0:0:0:0:
329,192,70495,1,0,0:0:0:0:
475,192,70682,1,0,0:0:0:45:hihat.wav
182,192,70682,1,0,0:0:0:60:drum.wav
402,192,70776,1,0,0:0:0:60:drum.wav
256,192,70776,1,0,0:0:0:0:
36,192,70870,128,0,71245:0:0:0:60:kick.wav
329,192,70870,128,0,71057:0:0:0:60:cymbal.wav
182,192,70870,1,0,0:0:0:0:
475,192,71057,1,0,0:0:0:45:hihat.wav
182,192,71245,1,0,0:0:0:60:snare.wav
402,192,71245,1,0,0:0:0:0:
329,192,71245,1,0,0:0:0:0:
109,192,71432,128,0,71807:0:0:0:45:hihat.wav
475,192,71432,1,0,0:0:0:0:
402,192,71620,128,0,71807:0:0:0:60:kick.wav
256,192,71620,1,0,0:0:0:0:
36,192,71807,1,0,0:0:0:45:hihat.wav
182,192,71995,128,0,72370:0:0:0:60:snare.wav
329,192,71995,1,0,0:0:0:0:
475,192,71995,1,0,0:0:0:0:
256,192,71995,1,0,0:0:0:0:
36,192,72182,128,0,72370:0:0:0:45:hihat.wav
402,192,72182,1,0,0:0:0:0:
475,192,72370,128,0,72745:0:0:0:60:kick.wav
329,192,72370,128,0,72557:0:0:0:0:
109,192,72370,1,0,0:0:0:0:
182,192,72557,1,0,0:0:0:45:hihat.wav
256,192,72745,1,0,0:0:0:60:snare.wav
36,192,72745,1,0,0:0:0:0:
402,192,72745,1,0,0:0:0:0:
402,192,72932,128,0,73307:0:0:0:45:hihat.wav
109,192,72932,1,0,0:0:0:0:
256,192,73120,128,0,73307:0:0:0:60:kick.wav
182,192,73120,1,0,0:0:0:0:
109,192,73307,1,0,0:0:0:45:hihat.wav
329,192,73495,128,0,73870:0:0:0:60:snare.wav
36,192,73495,1,0,0:0:0:0:
256,192,73495,1,0,0:0:0:0:
475,192,73495,1,0,0:0:0:0:
182,192,73682,1,0,0:0:0:45:hihat.wav
36,192,73870,128,0,74432:0:0:0:60:kick.wav
109,192,73870,1,0,0:0:0:0:
475,192,73870,1,0,0:0:0:0:
329,192,74057,1,0,0:0:0:45:hihat.wav
329,192,74245,128,0,74432:0:0:0:60:snare.wav
256,192,74245,1,0,0:0:0:0:
109,192,74245,1,0,0:0:0:0:
402,192,74245,1,0,0:0:0:0:
475,192,74432,128,0,74620:0:0:0:45:hihat.wav
182,192,74432,128,0,74620:0:0:0:0:
329,192,74620,1,0,0:0:0:60:kick.wav
36,192,74620,1,0,0:0:0:0:
402,192,74807,128,0,74995:0:0:0:45:hihat.wav
109,192,74807,128,0,74995:0:0:0:0:
256,192,74995,1,0,0:0:0:60:snare.wav
475,192,74995,1,0,0:0:0:0:
36,192,74995,1,0,0:0:0:0:
329,192,75182,128,0,76120:0:0:0:45:hihat.wav
36,192,75182,128,0,76120:0:0:0:0:
182,192,75370,1,0,0:0:0:60:kick.wav
475,192,75370,1,0,0:0:0:0:
402,192,75557,1,0,0:0:0:45:hihat.wav
475,192,75745,1,0,0:0:0:60:snare.wav
256,192,75745,1,0,0:0:0:0:
109,192,75745,1,0,0:0:0:0:
402,192,75932,1,0,0:0:0:45:hihat.wav
475,192,76120,1,0,0:0:0:60:kick.wav
182,192,76120,1,0,0:0:0:0:
475,192,76307,128,0,76401:0:0:0:45:hihat.wav
36,192,76307,1,0,0:0:0:0:
182,192,76495,128,0,76588:0:0:0:60:snare.wav
256,192,76495,1,0,0:0:0:0:
109,192,76495,1,0,0:0:0:0:
329,192,76495,1,0,0:0:0:0:
475,192,76682,128,0,76776:0:0:0:45:hihat.wav
36,192,76682,1,0,0:0:0:0:
182,192,76870,128,0,77245:0:0:0:60:kick.wav
36,192,76870,128,0,77245:0:0:0:60:cymbal.wav
329,192,76870,1,0,0:0:0:60:drum.wav
475,192,76870,1,0,0:0:0:0:
402,192,77057,1,0,0:0:0:45:hihat.wav
475,192,77245,1,0,0:0:0:60:snare.wav
329,192,77245,1,0,0:0:0:0:
109,192,77245,1,0,0:0:0:0:
109,192,77432,128,0,77807:0:0:0:45:hihat.wav
256,192,77432,128,0,77807:0:0:0:60:drum.wav
402,192,77432,1,0,0:0:0:0:
475,192,77620,1,0,0:0:0:60:kick.wav
329,192,77620,1,0,0:0:0:60:drum.wav
402,192,77807,1,0,0:0:0:45:hihat.wav
182,192,77995,128,0,78370:0:0:0:60:snare.wav
329,192,77995,128,0,78370:0:0:0:0:
475,192,77995,1,0,0:0:0:0:
36,192,77995,1,0,0:0:0:0:
256,192,77995,1,0,0:0:0:0:
402,192,78182,1,0,0:0:0:45:hihat.wav
475,192,78370,128,0,79870:0:0:0:60:kick.wav
36,192,78370,1,0,0:0:0:60:drum.wav
256,192,78370,1,0,0:0:0:60:cymbal.wav
182,192,78557,1,0,0:0:0:45:hihat.wav
256,192,78651,1,0,0:0:0:0:
109,192,78745,1,0,0:0:0:60:snare.wav
36,192,78745,1,0,0:0:0:0:
329,192,78745,1,0,0:0:0:0:
402,192,78745,1,0,0:0:0:0:
182,192,78932,1,0,0:0:0:45:hihat.wav
109,192,79026,1,0,0:0:0:60:drum.wav
329,192,79120,128,0,79870:0:0:0:60:kick.wav
256,192,79120,1,0,0:0:0:60:drum.wav
36,192,79120,1,0,0:0:0:0:
109,192,79213,1,0,0:0:0:0:
182,192,79307,1,0,0:0:0:45:hihat.wav
36,192,79495,1,0,0:0:0:60:snare.wav
256,192,79495,1,0,0:0:0:0:
109,192,79495,1,0,0:0:0:0:
402,192,79495,1,0,0:0:0:0:
182,192,79682,1,0,0:0:0:45:hihat.wav
256,192,79870,128,0,80245:0:0:0:60:kick.wav
109,192,79870,128,0,80245:0:0:0:60:drum.wav
36,192,79870,1,0,0:0:0:60:cymbal.wav
402,192,79870,1,0,0:0:0:0:
329,192,80057,1,0,0:0:0:45:hihat.wav
402,192,80245,1,0,0:0:0:60:snare.wav
475,192,80245,1,0,0:0:0:0:
36,192,80245,1,0,0:0:0:0:
182,192,80432,128,0,80807:0:0:0:45:hihat.wav
329,192,80432,128,0,80807:0:0:0:60:drum.wav
109,192,80432,1,0,0:0:0:0:
36,192,80620,1,0,0:0:0:60:kick.wav
475,192,80620,1,0,0:0:0:60:drum.wav
109,192,80807,1,0,0:0:0:45:hihat.wav
256,192,80995,128,0,81370:0:0:0:60:snare.wav
402,192,80995,128,0,81370:0:0:0:0:
36,192,80995,1,0,0:0:0:0:
475,192,80995,1,0,0:0:0:0:
329,192,80995,1,0,0:0:0:0:
109,192,81182,1,0,0:0:0:45:hihat.wav
36,192,81370,128,0,82776:0:0:0:60:kick.wav
182,192,81370,1,0,0:0:0:60:drum.wav
475,192,81370,1,0,0:0:0:60:cymbal.wav
182,192,81557,1,0,0:0:0:45:hihat.wav
475,192,81557,1,0,0:0:0:60:drum.wav
402,192,81651,1,0,0:0:0:60:drum.wav
329,192,81745,1,0,0:0:0:60:snare.wav
256,192,81745,1,0,0:0:0:60:drum.wav
109,192,81745,1,0,0:0:0:0:
182,192,81932,1,0,0:0:0:45:hihat.wav
402,192,81932,1,0,0:0:0:60:drum.wav
329,192,82026,1,0,0:0:0:60:drum.wav
182,192,82120,128,0,82776:0:0:0:60:kick.wav
256,192,82120,1,0,0:0:0:60:drum.wav
475,192,82120,1,0,0:0:0:0:
475,192,82307,1,0,0:0:0:45:hihat.wav
402,192,82401,1,0,0:0:0:60:drum.wav
109,192,82495,1,0,0:0:0:60:snare.wav
256,192,82495,1,0,0:0:0:60:drum.wav
329,192,82495,1,0,0:0:0:0:
329,192,82682,128,0,82776:0:0:0:45:hihat.wav
475,192,82682,128,0,82776:0:0:0:60:kick.wav
475,192,82870,1,0,0:0:0:60:cymbal.wav
36,192,82870,1,0,0:0:0:60:kick.wav
182,192,82870,1,0,0:0:0:0:
329,192,82870,1,0,0:0:0:0:
109,192,82870,1,0,0:0:0:0:
402,192,82870,1,0,0:0:0:0:
