osu file format v14

[General]
AudioFilename: Mach Sigma.mp3
AudioLeadIn: 0
PreviewTime: 58870
Countdown: 0
SampleSet: Soft
StackLeniency: 0.7
Mode: 3
LetterboxInBreaks: 0
SpecialStyle: 0
WidescreenStoryboard: 0

[Editor]
DistanceSpacing: 2
BeatDivisor: 4
GridSize: 4
TimelineZoom: 0.7999989

[Metadata]
Title:Mach Sigma - For Dream Dance Act 1
TitleUnicode:Mach Σ - For Dream Dance Act 1
Artist:Falk
ArtistUnicode:Falk
Creator:Kuo Kyoka
Version:Intro
Source:Sonic: After the Sequel
Tags:Zone Boss ATS Falk Au Yeong LakeFeperd Original Soundtrack Finale Sonic the Hedgehog Miles "Tails" Prower
BeatmapID:1654173
BeatmapSetID:779660

[Difficulty]
HPDrainRate:6.5
CircleSize:7
OverallDifficulty:6
ApproachRate:5
SliderMultiplier:1.4
SliderTickRate:1

[Events]
//Background and Video events
0,0,"BG.png",0,0
//Break Periods
//Storyboard Layer 0 (Background)
//Storyboard Layer 1 (Fail)
//Storyboard Layer 2 (Pass)
//Storyboard Layer 3 (Foreground)
//Storyboard Sound Samples
Sample,2807,0,"drum.wav",60
Sample,3745,0,"drum.wav",60
Sample,4120,0,"cymbal.wav",60
Sample,4120,0,"kick.wav",60
Sample,4870,0,"drum.wav",60
Sample,5245,0,"drum.wav",60
Sample,5620,0,"drum.wav",60
Sample,5620,0,"kick.wav",60
Sample,5995,0,"drum.wav",60
Sample,6370,0,"drum.wav",60
Sample,6745,0,"drum.wav",60
Sample,7120,0,"cymbal.wav",60
Sample,7307,0,"drum.wav",60
Sample,7495,0,"drum.wav",60
Sample,8432,0,"drum.wav",60
Sample,8620,0,"drum.wav",60
Sample,9370,0,"cymbal.wav",60
Sample,10682,0,"kick.wav",60
Sample,10870,0,"cymbal.wav",60
Sample,11057,0,"hihat.wav",45
Sample,11245,0,"kick.wav",60
Sample,11432,0,"hihat.wav",45
Sample,11620,0,"kick.wav",60
Sample,11807,0,"hihat.wav",45
Sample,11995,0,"kick.wav",60
Sample,12370,0,"kick.wav",60
Sample,12557,0,"hihat.wav",45
Sample,12745,0,"kick.wav",60
Sample,12932,0,"hihat.wav",45
Sample,13120,0,"drum.wav",60
Sample,13307,0,"hihat.wav",45
Sample,13307,0,"drum.wav",60
Sample,13682,0,"hihat.wav",45
Sample,13682,0,"drum.wav",60
Sample,14057,0,"hihat.wav",45
Sample,14245,0,"kick.wav",60
Sample,14432,0,"hihat.wav",45
Sample,14620,0,"kick.wav",60
Sample,14807,0,"hihat.wav",45
Sample,14995,0,"kick.wav",60
Sample,15370,0,"kick.wav",60
Sample,15557,0,"hihat.wav",45
Sample,15745,0,"kick.wav",60
Sample,15932,0,"hihat.wav",45
Sample,16120,0,"drum.wav",60
Sample,16307,0,"hihat.wav",45
Sample,16495,0,"drum.wav",60
Sample,16682,0,"hihat.wav",45
Sample,16682,0,"drum.wav",60
Sample,16870,0,"cymbal.wav",60
Sample,17057,0,"hihat.wav",45
Sample,17245,0,"kick.wav",60
Sample,17432,0,"hihat.wav",45
Sample,17620,0,"kick.wav",60
Sample,17807,0,"hihat.wav",45
Sample,17995,0,"kick.wav",60
Sample,18370,0,"kick.wav",60
Sample,18557,0,"hihat.wav",45
Sample,18745,0,"kick.wav",60
Sample,18932,0,"hihat.wav",45
Sample,19120,0,"drum.wav",60
Sample,19307,0,"hihat.wav",45
Sample,19495,0,"kick.wav",60
Sample,19682,0,"drum.wav",60
Sample,19682,0,"hihat.wav",45
Sample,20057,0,"hihat.wav",45
Sample,20245,0,"kick.wav",60
Sample,20432,0,"hihat.wav",45
Sample,20620,0,"kick.wav",60
Sample,20807,0,"hihat.wav",45
Sample,20995,0,"kick.wav",60
Sample,21370,0,"kick.wav",60
Sample,21557,0,"hihat.wav",45
Sample,21745,0,"kick.wav",60
Sample,21932,0,"hihat.wav",45
Sample,22120,0,"drum.wav",60
Sample,22307,0,"drum.wav",60
Sample,22307,0,"hihat.wav",45
Sample,22682,0,"hihat.wav",45
Sample,22682,0,"drum.wav",60
Sample,22870,0,"kick.wav",60
Sample,23057,0,"hihat.wav",45
Sample,23245,0,"kick.wav",60
Sample,23620,0,"kick.wav",60
Sample,23807,0,"hihat.wav",45
Sample,23995,0,"kick.wav",60
Sample,24182,0,"hihat.wav",45
Sample,24370,0,"kick.wav",60
Sample,24745,0,"kick.wav",60
Sample,24932,0,"hihat.wav",45
Sample,25120,0,"kick.wav",60
Sample,25120,0,"drum.wav",60
Sample,25307,0,"hihat.wav",45
Sample,25307,0,"drum.wav",60
Sample,25495,0,"kick.wav",60
Sample,25682,0,"drum.wav",60
Sample,25682,0,"hihat.wav",45
Sample,25870,0,"cymbal.wav",60
Sample,26057,0,"hihat.wav",45
Sample,26245,0,"kick.wav",60
Sample,26620,0,"kick.wav",60
Sample,26807,0,"hihat.wav",45
Sample,26995,0,"kick.wav",60
Sample,27182,0,"hihat.wav",45
Sample,27370,0,"kick.wav",60
Sample,27745,0,"kick.wav",60
Sample,27932,0,"hihat.wav",45
Sample,28120,0,"drum.wav",60
Sample,28120,0,"kick.wav",60
Sample,28307,0,"drum.wav",60
Sample,28307,0,"hihat.wav",45
Sample,28495,0,"kick.wav",60
Sample,28682,0,"hihat.wav",45
Sample,28682,0,"drum.wav",60
Sample,28870,0,"cymbal.wav",60
Sample,29057,0,"hihat.wav",45
Sample,29432,0,"hihat.wav",45
Sample,29620,0,"kick.wav",60
Sample,29807,0,"hihat.wav",45
Sample,29995,0,"kick.wav",60
Sample,30182,0,"hihat.wav",45
Sample,30557,0,"hihat.wav",45
Sample,30745,0,"kick.wav",60
Sample,30932,0,"hihat.wav",45
Sample,31120,0,"kick.wav",60
Sample,31307,0,"hihat.wav",45
Sample,31495,0,"kick.wav",60
Sample,31682,0,"hihat.wav",45
Sample,31870,0,"cymbal.wav",60
Sample,32057,0,"hihat.wav",45
Sample,32245,0,"kick.wav",60
Sample,32432,0,"hihat.wav",45
Sample,32620,0,"kick.wav",60
Sample,32807,0,"hihat.wav",45
Sample,32995,0,"kick.wav",60
Sample,33182,0,"hihat.wav",45
Sample,33370,0,"drum.wav",60
Sample,33370,0,"kick.wav",60
Sample,33745,0,"drum.wav",60
Sample,34120,0,"drum.wav",60
Sample,34495,0,"drum.wav",60
Sample,34682,0,"kick.wav",60
Sample,35057,0,"hihat.wav",45
Sample,35245,0,"snare.wav",60
Sample,35620,0,"kick.wav",60
Sample,35807,0,"hihat.wav",45
Sample,36182,0,"hihat.wav",45
Sample,36370,0,"kick.wav",60
Sample,36745,0,"snare.wav",60
Sample,36932,0,"hihat.wav",45
Sample,37307,0,"hihat.wav",45
Sample,37682,0,"hihat.wav",45
Sample,38057,0,"hihat.wav",45
Sample,38245,0,"snare.wav",60
Sample,38432,0,"hihat.wav",45
Sample,38620,0,"kick.wav",60
Sample,38807,0,"hihat.wav",45
Sample,38995,0,"snare.wav",60
Sample,39370,0,"kick.wav",60
Sample,39557,0,"hihat.wav",45
Sample,39745,0,"snare.wav",60
Sample,39932,0,"hihat.wav",45
Sample,40120,0,"kick.wav",60
Sample,40495,0,"snare.wav",60
Sample,40682,0,"hihat.wav",45
Sample,41057,0,"hihat.wav",45
Sample,41245,0,"snare.wav",60
Sample,41620,0,"kick.wav",60
Sample,41807,0,"hihat.wav",45
Sample,42182,0,"hihat.wav",45
Sample,42370,0,"kick.wav",60
Sample,42745,0,"snare.wav",60
Sample,42932,0,"hihat.wav",45
Sample,43307,0,"hihat.wav",45
Sample,43682,0,"hihat.wav",45
Sample,44057,0,"hihat.wav",45
Sample,44245,0,"snare.wav",60
Sample,44432,0,"hihat.wav",45
Sample,44620,0,"kick.wav",60
Sample,44807,0,"hihat.wav",45
Sample,44995,0,"snare.wav",60
Sample,45370,0,"kick.wav",60
Sample,45557,0,"hihat.wav",45
Sample,45745,0,"snare.wav",60
Sample,45932,0,"hihat.wav",45
Sample,46120,0,"drum.wav",60
Sample,46120,0,"kick.wav",60
Sample,46495,0,"drum.wav",60
Sample,46495,0,"snare.wav",60
Sample,46682,0,"hihat.wav",45
Sample,46870,0,"drum.wav",60
Sample,47057,0,"hihat.wav",45
Sample,47245,0,"snare.wav",60
Sample,47432,0,"drum.wav",60
Sample,47620,0,"kick.wav",60
Sample,47807,0,"hihat.wav",45
Sample,47995,0,"drum.wav",60
Sample,48182,0,"hihat.wav",45
Sample,48370,0,"kick.wav",60
Sample,48557,0,"drum.wav",60
Sample,48745,0,"snare.wav",60
Sample,48932,0,"hihat.wav",45
Sample,49120,0,"drum.wav",60
Sample,49307,0,"hihat.wav",45
Sample,49495,0,"drum.wav",60
Sample,49682,0,"hihat.wav",45
Sample,49870,0,"drum.wav",60
Sample,49870,0,"kick.wav",60
Sample,50057,0,"hihat.wav",45
Sample,50245,0,"snare.wav",60
Sample,50432,0,"hihat.wav",45
Sample,50432,0,"drum.wav",60
Sample,50620,0,"kick.wav",60
Sample,50807,0,"hihat.wav",45
Sample,50807,0,"drum.wav",60
Sample,50995,0,"snare.wav",60
Sample,51182,0,"drum.wav",60
Sample,51370,0,"kick.wav",60
Sample,51557,0,"hihat.wav",45
Sample,51745,0,"drum.wav",60
Sample,51745,0,"snare.wav",60
Sample,51932,0,"drum.wav",60
Sample,51932,0,"hihat.wav",45
Sample,52120,0,"kick.wav",60
Sample,52307,0,"drum.wav",60
Sample,52495,0,"snare.wav",60
Sample,52682,0,"hihat.wav",45
Sample,52870,0,"drum.wav",60
Sample,53057,0,"hihat.wav",45
Sample,53245,0,"snare.wav",60
Sample,53432,0,"drum.wav",60
Sample,53620,0,"kick.wav",60
Sample,53807,0,"hihat.wav",45
Sample,53995,0,"drum.wav",60
Sample,54182,0,"hihat.wav",45
Sample,54370,0,"kick.wav",60
Sample,54370,0,"cymbal.wav",60
Sample,54557,0,"hihat.wav",45
Sample,54745,0,"snare.wav",60
Sample,54932,0,"hihat.wav",45
Sample,55120,0,"kick.wav",60
Sample,55307,0,"hihat.wav",45
Sample,55307,0,"drum.wav",60
Sample,55495,0,"drum.wav",60
Sample,55682,0,"drum.wav",60
Sample,55682,0,"hihat.wav",45
Sample,55870,0,"kick.wav",60
Sample,56057,0,"hihat.wav",45
Sample,56245,0,"snare.wav",60
Sample,56432,0,"drum.wav",60
Sample,56432,0,"hihat.wav",45
Sample,56620,0,"kick.wav",60
Sample,56807,0,"hihat.wav",45
Sample,56807,0,"drum.wav",60
Sample,56995,0,"snare.wav",60
Sample,57182,0,"drum.wav",60
Sample,57370,0,"kick.wav",60
Sample,57557,0,"hihat.wav",45
Sample,57745,0,"snare.wav",60
Sample,57932,0,"hihat.wav",45
Sample,57932,0,"drum.wav",60
Sample,58120,0,"kick.wav",60
Sample,58307,0,"drum.wav",60
Sample,58495,0,"snare.wav",60
Sample,58682,0,"kick.wav",60
Sample,58682,0,"hihat.wav",45
Sample,59057,0,"hihat.wav",45
Sample,59245,0,"snare.wav",60
Sample,59432,0,"hihat.wav",45
Sample,59620,0,"kick.wav",60
Sample,59807,0,"hihat.wav",45
Sample,59995,0,"snare.wav",60
Sample,60182,0,"hihat.wav",45
Sample,60557,0,"hihat.wav",45
Sample,60745,0,"snare.wav",60
Sample,60932,0,"hihat.wav",45
Sample,61120,0,"kick.wav",60
Sample,61307,0,"hihat.wav",45
Sample,61495,0,"snare.wav",60
Sample,61682,0,"hihat.wav",45
Sample,62057,0,"hihat.wav",45
Sample,62245,0,"snare.wav",60
Sample,62432,0,"hihat.wav",45
Sample,62620,0,"kick.wav",60
Sample,62807,0,"hihat.wav",45
Sample,62995,0,"snare.wav",60
Sample,63370,0,"kick.wav",60
Sample,63557,0,"hihat.wav",45
Sample,63745,0,"snare.wav",60
Sample,63932,0,"hihat.wav",45
Sample,64120,0,"kick.wav",60
Sample,64307,0,"hihat.wav",45
Sample,64682,0,"hihat.wav",45
Sample,65057,0,"hihat.wav",45
Sample,65245,0,"snare.wav",60
Sample,65432,0,"hihat.wav",45
Sample,65620,0,"kick.wav",60
Sample,65807,0,"hihat.wav",45
Sample,65995,0,"snare.wav",60
Sample,66182,0,"hihat.wav",45
Sample,66557,0,"hihat.wav",45
Sample,66745,0,"snare.wav",60
Sample,66932,0,"hihat.wav",45
Sample,67120,0,"kick.wav",60
Sample,67307,0,"hihat.wav",45
Sample,67495,0,"snare.wav",60
Sample,67682,0,"hihat.wav",45
Sample,67870,0,"drum.wav",60
Sample,68057,0,"hihat.wav",45
Sample,68245,0,"drum.wav",60
Sample,68245,0,"snare.wav",60
Sample,68432,0,"hihat.wav",45
Sample,68620,0,"kick.wav",60
Sample,68620,0,"drum.wav",60
Sample,68807,0,"hihat.wav",45
Sample,68995,0,"drum.wav",60
Sample,68995,0,"snare.wav",60
Sample,69182,0,"hihat.wav",45
Sample,69370,0,"drum.wav",60
Sample,69557,0,"hihat.wav",45
Sample,69745,0,"snare.wav",60
Sample,69745,0,"drum.wav",60
Sample,69932,0,"hihat.wav",45
Sample,69932,0,"kick.wav",60
Sample,70120,0,"kick.wav",60
Sample,70120,0,"drum.wav",60
Sample,70307,0,"hihat.wav",45
Sample,70495,0,"drum.wav",60
Sample,70495,0,"snare.wav",60
Sample,70682,0,"hihat.wav",45
Sample,71057,0,"hihat.wav",45
Sample,71245,0,"snare.wav",60
Sample,71432,0,"hihat.wav",45
Sample,71620,0,"kick.wav",60
Sample,71807,0,"hihat.wav",45
Sample,71995,0,"snare.wav",60
Sample,72182,0,"hihat.wav",45
Sample,72557,0,"hihat.wav",45
Sample,72745,0,"snare.wav",60
Sample,72932,0,"hihat.wav",45
Sample,73120,0,"kick.wav",60
Sample,73307,0,"hihat.wav",45
Sample,73495,0,"snare.wav",60
Sample,73682,0,"hihat.wav",45
Sample,74057,0,"hihat.wav",45
Sample,74245,0,"snare.wav",60
Sample,74432,0,"hihat.wav",45
Sample,74620,0,"kick.wav",60
Sample,74807,0,"hihat.wav",45
Sample,74995,0,"snare.wav",60
Sample,75370,0,"kick.wav",60
Sample,75557,0,"hihat.wav",45
Sample,75745,0,"snare.wav",60
Sample,75932,0,"hihat.wav",45
Sample,76120,0,"kick.wav",60
Sample,76307,0,"hihat.wav",45
Sample,76682,0,"hihat.wav",45
Sample,76870,0,"drum.wav",60
Sample,77057,0,"hihat.wav",45
Sample,77245,0,"snare.wav",60
Sample,77432,0,"hihat.wav",45
Sample,77620,0,"kick.wav",60
Sample,77807,0,"hihat.wav",45
Sample,77995,0,"snare.wav",60
Sample,78182,0,"hihat.wav",45
Sample,78370,0,"cymbal.wav",60
Sample,78557,0,"hihat.wav",45
Sample,78745,0,"snare.wav",60
Sample,78932,0,"hihat.wav",45
Sample,79120,0,"kick.wav",60
Sample,79307,0,"hihat.wav",45
Sample,79495,0,"snare.wav",60
Sample,79682,0,"hihat.wav",45
Sample,79870,0,"cymbal.wav",60
Sample,80057,0,"hihat.wav",45
Sample,80245,0,"snare.wav",60
Sample,80432,0,"hihat.wav",45
Sample,80620,0,"kick.wav",60
Sample,80807,0,"hihat.wav",45
Sample,80995,0,"snare.wav",60
Sample,81182,0,"hihat.wav",45
Sample,81370,0,"cymbal.wav",60
Sample,81557,0,"hihat.wav",45
Sample,81745,0,"snare.wav",60
Sample,81932,0,"hihat.wav",45
Sample,82307,0,"hihat.wav",45
Sample,82495,0,"snare.wav",60
Sample,82682,0,"kick.wav",60
Sample,82682,0,"hihat.wav",45

[TimingPoints]
1120,375,4,2,1,30,1,0
10870,375,4,2,1,30,1,0
58870,-100,4,2,1,30,0,1
70682,-100,4,2,1,30,0,0
70870,-100,4,2,1,30,0,1
82870,-100,4,2,1,30,0,0

[HitObjects]
475,192,1120,1,0,0:0:0:60:kick.wav
36,192,1120,128,0,1870:0:0:0:60:drum.wav
182,192,1870,128,0,2620:0:0:0:60:drum.wav
329,192,2620,128,0,3370:0:0:0:0:
475,192,3370,128,0,4120:0:0:0:60:drum.wav
36,192,4120,1,0,0:0:0:60:drum.wav
182,192,4495,1,0,0:0:0:60:drum.wav
329,192,4682,1,0,0:0:0:0:
475,192,5057,1,0,0:0:0:0:
256,192,5432,128,0,7120:0:0:0:0:
36,192,7120,1,0,0:0:0:60:drum.wav
475,192,7120,1,0,0:0:0:60:kick.wav
256,192,7682,1,0,0:0:0:60:drum.wav
36,192,8245,1,0,0:0:0:60:drum.wav
475,192,8245,1,0,0:0:0:60:kick.wav
256,192,8807,1,0,0:0:0:60:drum.wav
36,192,9370,128,0,10495:0:0:0:60:kick.wav
475,192,9370,128,0,10495:0:0:0:60:drum.wav
256,192,10870,128,0,11807:0:0:0:60:kick.wav
402,192,12182,128,0,13120:0:0:0:45:hihat.wav
36,192,13120,1,0,0:0:0:60:kick.wav
109,192,13495,1,0,0:0:0:60:kick.wav
182,192,13870,128,0,14807:0:0:0:60:kick.wav
329,192,15182,128,0,16120:0:0:0:45:hihat.wav
109,192,16120,1,0,0:0:0:60:kick.wav
182,192,16495,1,0,0:0:0:60:kick.wav
256,192,16870,128,0,17807:0:0:0:60:kick.wav
109,192,18182,128,0,19120:0:0:0:45:hihat.wav
475,192,19120,1,0,0:0:0:60:kick.wav
402,192,19495,1,0,0:0:0:60:drum.wav
329,192,19870,128,0,20807:0:0:0:60:kick.wav
182,192,21182,128,0,22120:0:0:0:45:hihat.wav
402,192,22120,1,0,0:0:0:60:kick.wav
329,192,22495,1,0,0:0:0:60:kick.wav
256,192,22870,1,0,0:0:0:60:cymbal.wav
256,192,23432,128,0,24182:0:0:0:45:hihat.wav
402,192,24557,128,0,25870:0:0:0:45:hihat.wav
109,192,25870,1,0,0:0:0:60:kick.wav
109,192,26432,128,0,27182:0:0:0:45:hihat.wav
256,192,27557,128,0,28870:0:0:0:45:hihat.wav
475,192,28870,1,0,0:0:0:60:kick.wav
475,192,29245,128,0,31870:0:0:0:60:kick.wav
329,192,30370,128,0,31870:0:0:0:60:kick.wav
36,192,31870,128,0,34870:0:0:0:60:kick.wav
182,192,33370,128,0,34870:0:0:0:60:cymbal.wav
329,192,34870,1,0,0:0:0:60:kick.wav
475,192,34870,1,0,0:0:0:60:cymbal.wav
329,192,35432,1,0,0:0:0:45:hihat.wav
329,192,35995,1,0,0:0:0:60:snare.wav
329,192,36557,1,0,0:0:0:45:hihat.wav
329,192,37120,1,0,0:0:0:60:kick.wav
402,192,37495,1,0,0:0:0:60:snare.wav
475,192,37870,128,0,38432:0:0:0:60:kick.wav
256,192,39182,128,0,39745:0:0:0:45:hihat.wav
36,192,40307,128,0,40870:0:0:0:45:hihat.wav
182,192,40870,1,0,0:0:0:60:kick.wav
182,192,41432,1,0,0:0:0:45:hihat.wav
182,192,41995,1,0,0:0:0:60:snare.wav
182,192,42557,1,0,0:0:0:45:hihat.wav
182,192,43120,1,0,0:0:0:60:kick.wav
109,192,43495,1,0,0:0:0:60:snare.wav
36,192,43870,128,0,44432:0:0:0:60:kick.wav
256,192,45182,128,0,45745:0:0:0:45:hihat.wav
475,192,46307,128,0,46870:0:0:0:45:hihat.wav
36,192,46870,1,0,0:0:0:60:cymbal.wav
329,192,46870,1,0,0:0:0:60:kick.wav
36,192,47432,1,0,0:0:0:45:hihat.wav
36,192,47995,1,0,0:0:0:60:snare.wav
36,192,48557,1,0,0:0:0:45:hihat.wav
36,192,49120,1,0,0:0:0:60:kick.wav
109,192,49495,1,0,0:0:0:60:snare.wav
182,192,49870,128,0,50432:0:0:0:60:cymbal.wav
256,192,51182,128,0,51745:0:0:0:45:hihat.wav
329,192,52307,128,0,52870:0:0:0:45:hihat.wav
475,192,52870,1,0,0:0:0:60:kick.wav
36,192,52870,1,0,0:0:0:60:cymbal.wav
475,192,53432,1,0,0:0:0:45:hihat.wav
475,192,53995,1,0,0:0:0:60:snare.wav
475,192,54557,1,0,0:0:0:60:drum.wav
475,192,55120,1,0,0:0:0:60:drum.wav
402,192,55495,1,0,0:0:0:60:snare.wav
329,192,55870,128,0,56432:0:0:0:60:drum.wav
36,192,55870,1,0,0:0:0:60:cymbal.wav
256,192,57182,128,0,57745:0:0:0:45:hihat.wav
182,192,58307,128,0,58870:0:0:0:45:hihat.wav
475,192,58870,1,0,0:0:0:60:cymbal.wav
36,192,58870,128,0,60370:0:0:0:60:kick.wav
109,192,60370,128,0,61870:0:0:0:60:kick.wav
182,192,61870,128,0,63182:0:0:0:60:kick.wav
329,192,63182,128,0,64120:0:0:0:45:hihat.wav
402,192,64495,1,0,0:0:0:60:snare.wav
475,192,64870,128,0,66370:0:0:0:60:kick.wav
402,192,66370,128,0,67870:0:0:0:60:kick.wav
329,192,67870,128,0,69370:0:0:0:60:kick.wav
256,192,69370,128,0,70870:0:0:0:60:kick.wav
36,192,70870,128,0,72370:0:0:0:60:kick.wav
475,192,70870,1,0,0:0:0:60:cymbal.wav
109,192,72370,128,0,73870:0:0:0:60:kick.wav
182,192,73870,128,0,75182:0:0:0:60:kick.wav
329,192,75182,128,0,76120:0:0:0:45:hihat.wav
402,192,76495,1,0,0:0:0:60:snare.wav
109,192,76870,128,0,78370:0:0:0:60:kick.wav
475,192,76870,1,0,0:0:0:60:cymbal.wav
182,192,78370,128,0,79870:0:0:0:60:kick.wav
475,192,78370,1,0,0:0:0:60:drum.wav
256,192,79870,128,0,81370:0:0:0:60:kick.wav
475,192,79870,1,0,0:0:0:60:drum.wav
36,192,81370,1,0,0:0:0:60:kick.wav
475,192,81370,128,0,82870:0:0:0:60:drum.wav
36,192,82120,128,0,82870:0:0:0:60:kick.wav
182,192,82870,1,0,0:0:0:60:cymbal.wav
329,192,82870,1,0,0:0:0:60:kick.wav
