osu file format v14

[General]
AudioFilename: audio.mp3
AudioLeadIn: 0
PreviewTime: 59994
Countdown: 0
SampleSet: Soft
StackLeniency: 0.7
Mode: 0
LetterboxInBreaks: 0
WidescreenStoryboard: 1

[Editor]
Bookmarks: 23357,46630,61175,63539,84448,84539,84630,84721,84812,84903,84994,85085,85175,85266,85357,85448,85539,85630,85721,85812,85903,85994,86085,86175,86266,86357,86448,86539,86630,86721,86812,86903,86994,87085,87175,87266,87357,87539,87630,87721,87812,87903,87994,88085,88175,88266,88357,88448,88539,88630,88721,88812,88903,88994,89085,89175,89266,89357,89448,89539,89630,89721,89812,89903,89994,90085,90175,90266,90357,90448,90539,90630,90721,90812,90903,90994,91085,91175,91266,91357,91448,91539,91630,91721,91812,91903,91994,92085,92175,92266,92357,92448,92539,92630,92721,92812,92903,92994,93085,93175,93266,93357,93448,93539,93630,93721,93812,93903,93994,94085,94175,94266,94357,94448,94539,94630,94721,94812,94903,94994,95085,95175,95266,95357,95448,95539,95630,95721,95812,95903,95994,96085,107539,107721,130994,145539,161539,168812
DistanceSpacing: 0.4
BeatDivisor: 4
GridSize: 32
TimelineZoom: 1.5

[Metadata]
Title:Jam Over The Barrier!
TitleUnicode:Jam Over The Barrier!
Artist:Falcom Sound Team jdk vs. Quad City DJ's
ArtistUnicode:Falcom Sound Team jdk vs. Quad City DJ's
Creator:Deca
Version:YOGURTT'S NIGHTMARE!!!
Source:英雄伝説 零の軌跡
Tags:碧の軌跡 michael lloyd bannings jordan saki mordred momiyama impurepug fixxis shurelia yogurtt 籾山 紗希 get trails to azure from zero no kiseki eiyuu densetsu the legend of black man heroes crossball crossbell slam space bugs mishy bunny ost original soundtrack theaggyyu j.d.k. hip hop english jrpg videogame japanese role playing game versus
BeatmapID:2824711
BeatmapSetID:1337586

[Difficulty]
HPDrainRate:5.5
CircleSize:4
OverallDifficulty:8
ApproachRate:9
SliderMultiplier:1.72
SliderTickRate:1

[Events]
//Background and Video events
0,0,"dKDRSex[1]_waifu2x_art_noise1_scale_tta_1.jpg",0,0
//Break Periods
2,6103,8212
2,84648,95485
//Storyboard Layer 0 (Background)
//Storyboard Layer 1 (Fail)
//Storyboard Layer 2 (Pass)
//Storyboard Layer 3 (Foreground)
//Storyboard Layer 4 (Overlay)
//Storyboard Sound Samples

[TimingPoints]
85,363.636363636364,4,2,1,76,1,0
85,-133.333333333333,4,2,1,76,0,0
11721,-83.3333333333333,4,2,1,76,0,0
23357,-76.9230769230769,4,2,1,66,0,0
46630,-76.9230769230769,4,2,1,76,0,0
48630,-66.6666666666667,4,2,1,76,0,0
48994,-76.9230769230769,4,2,1,76,0,0
60448,-76.9230769230769,4,2,1,81,0,0
61175,-71.4285714285714,4,2,1,81,0,0
96085,-83.3333333333333,4,2,1,81,0,0
96266,-83.3333333333333,4,2,1,66,0,0
107721,-76.9230769230769,4,2,1,66,0,0
119357,-66.6666666666667,4,2,1,66,0,0
119721,-76.9230769230769,4,2,1,66,0,0
120812,-66.6666666666667,4,2,1,66,0,0
121175,-76.9230769230769,4,2,1,66,0,0
130994,-76.9230769230769,4,2,1,76,0,0
144448,-76.9230769230769,4,2,1,81,0,0
145539,-71.4285714285714,4,2,1,81,0,0
151357,-66.6666666666667,4,2,1,81,0,0
152085,-71.4285714285714,4,2,1,81,0,0
161539,-58.8235294117647,4,2,1,81,0,0
162994,-71.4285714285714,4,2,1,81,0,0
167357,-64.5161290322581,4,2,1,81,0,0

[Colours]
Combo1 : 109,188,205
Combo2 : 200,62,62
Combo3 : 67,138,224
Combo4 : 208,136,64

[HitObjects]
155,63,85,6,0,B|137:51|159:-13|192:-2|235:37|213:72|213:72|246:90|246:90|329:79|328:232|425:237|425:237|350:346|240:386|129:345|129:345|200:279|101:163|172:117|172:117|181:92,2,1032.00003936768,0|0|0,1:2|1:2|1:2,0:2:0:0:
256,192,8812,5,0,1:2:0:0:
256,192,8903,12,0,11357,0:2:0:0:
431,94,11539,5,0,1:2:0:0:
431,94,11630,1,0,1:2:0:0:
431,94,11721,2,2,P|365:98|250:139,1,154.799995275879,14|0,1:1|1:2,0:1:0:0:
202,77,12085,2,0,P|189:133|215:188,1,103.199996850586,8|0,0:2|1:2,0:2:0:0:
343,204,12448,1,0,1:2:0:0:
176,301,12630,1,0,1:2:0:0:
404,332,12812,2,0,P|383:315|337:305,1,51.599998425293,8|0,0:2|0:0,0:2:0:0:
254,299,12994,2,0,P|227:301|187:327,1,51.599998425293,0|0,0:0|0:2,0:0:0:0:
49,202,13175,6,2,B|170:167|120:247|247:210,1,206.399993701172,10|8,1:1|0:2,0:1:0:0:
247,209,13630,1,0,0:0:0:0:
247,209,13721,1,0,1:2:0:0:
200,103,13903,2,2,P|131:90|73:97,1,103.199996850586,2|0,1:2|0:0,0:1:0:0:
293,116,14266,2,0,P|310:77|318:50,1,51.599998425293,8|0,0:2|0:0,0:0:0:0:
441,50,14448,2,0,P|424:89|416:116,1,51.599998425293,0|0,1:2|1:2,0:0:0:0:
391,250,14630,6,2,P|412:155|508:140,1,206.399993701172,10|8,1:1|0:2,0:1:0:0:
508,140,15085,1,0,0:0:0:0:
508,140,15175,1,0,1:2:0:0:
492,321,15357,1,0,1:2:0:0:
354,182,15539,1,0,1:2:0:0:
317,362,15721,1,8,0:2:0:0:
478,238,15903,1,0,0:0:0:0:
305,277,16085,6,0,P|241:263|131:252,1,154.799995275879,10|0,1:1|0:0,0:2:0:0:
84,201,16448,2,0,P|72:153|55:84,1,103.199996850586,10|0,0:2|1:2,0:0:0:0:
249,157,16812,1,0,1:2:0:0:
136,46,16994,1,0,1:2:0:0:
171,156,17175,2,0,P|200:147|241:133,1,51.599998425293,10|0,0:2|0:2,0:2:0:0:
273,64,17357,2,2,P|302:55|343:41,1,51.599998425293,0|0,1:1|0:0,0:1:0:0:
410,113,17539,5,12,1:1:0:0:
318,222,17721,1,2,0:2:0:0:
465,184,17903,1,10,0:2:0:0:
333,231,18085,1,2,1:2:0:0:
459,198,18266,2,0,B|341:181|385:266|226:223,1,206.399993701172,2|8,1:2|0:2,0:2:0:0:
156,182,18812,5,2,1:2:0:0:
156,182,18903,1,2,0:2:0:0:
156,182,18994,1,2,1:2:0:0:
71,251,19175,1,2,0:2:0:0:
98,109,19357,1,10,0:2:0:0:
61,243,19539,1,0,1:2:0:0:
84,117,19721,2,2,P|192:106|316:85,1,206.399993701172,2|8,1:2|0:2,0:1:0:0:
288,90,20175,1,0,0:0:0:0:
288,90,20266,1,2,1:2:0:0:
383,47,20448,5,8,1:1:0:0:
488,186,20630,1,2,0:2:0:0:
387,130,20812,1,10,0:2:0:0:
294,261,20994,1,2,1:2:0:0:
398,217,21175,2,0,P|290:228|166:249,1,206.399993701172,2|8,1:2|0:2,0:2:0:0:
105,270,21721,1,2,1:1:0:0:
105,270,22085,5,2,0:2:0:0:
166,145,22266,1,10,0:2:0:0:
291,206,22448,1,2,1:2:0:0:
230,331,22630,2,2,B|227:250|227:250|204:212|204:212|200:104,1,206.399993701172,2|8,1:2|0:2,0:1:0:0:
201,131,23085,1,0,0:0:0:0:
201,131,23175,1,0,0:0:0:0:
80,129,23357,6,0,P|163:101|306:88,1,223.599989764405,12|8,1:1|0:2,0:0:0:0:
472,120,23903,2,0,P|421:163|362:194,1,111.799994882202,2|0,1:2|0:0,0:2:0:0:
382,185,24175,1,0,0:2:0:0:
382,185,24266,1,0,1:2:0:0:
251,179,24448,1,10,0:2:0:0:
421,299,24630,1,0,1:2:0:0:
258,269,24812,6,0,P|193:251|128:253,1,111.799994882202,8|0,1:1|0:0,0:2:0:0:
39,286,25175,1,8,0:2:0:0:
0,130,25357,2,0,P|65:148|130:146,1,111.799994882202,2|0,1:2|0:0,0:2:0:0:
109,148,25630,1,0,0:2:0:0:
109,148,25721,1,0,1:2:0:0:
218,154,25903,2,0,P|271:111|396:99,1,167.699992323304,10|0,0:2|0:0,0:2:0:0:
422,20,26266,6,0,P|412:110|405:255,1,223.599989764405,8|8,1:1|0:2,0:2:0:0:
405,242,26721,1,0,0:0:0:0:
405,242,26812,1,0,1:2:0:0:
492,206,26994,2,0,P|498:250|514:321,1,111.799994882202,0|0,1:2|1:2,0:0:0:0:
345,321,27357,2,0,P|330:301|322:239,1,55.8999974411012,8|0,0:2|0:0,0:2:0:0:
209,160,27539,2,0,P|224:180|232:242,1,55.8999974411012,0|0,0:0|0:2,0:0:0:0:
212,305,27721,6,0,P|157:323|46:315,1,167.699992323304,8|0,1:1|1:2,0:2:0:0:
6,248,28085,2,0,P|15:188|23:117,1,111.799994882202,8|0,0:2|1:2,0:0:0:0:
167,136,28448,1,0,1:2:0:0:
282,243,28630,1,0,1:2:0:0:
98,206,28812,2,0,P|171:179|281:154,1,167.699992323304,8|0,0:2|0:2,0:2:0:0:
345,152,29175,5,12,1:1:0:0:
263,253,29357,1,2,0:2:0:0:
416,313,29539,1,10,0:2:0:0:
282,243,29721,1,2,1:2:0:0:
406,296,29903,2,0,P|285:301|154:313,1,223.599989764405,2|10,1:2|0:2,0:2:0:0:
371,138,30448,5,0,1:2:0:0:
371,138,30539,1,0,0:0:0:0:
371,138,30630,1,2,1:2:0:0:
193,216,30812,1,2,0:2:0:0:
273,41,30994,1,10,0:2:0:0:
228,239,31175,1,2,1:2:0:0:
288,69,31357,6,0,P|167:94|147:208,1,223.599989764405,2|8,1:2|0:2,0:2:0:0:
139,178,31812,1,0,0:0:0:0:
139,178,31903,1,2,1:2:0:0:
418,218,32085,5,0,0:0:0:0:
243,161,32266,1,2,0:2:0:0:
147,323,32448,1,10,0:2:0:0:
63,125,32630,1,2,1:2:0:0:
242,301,32812,2,0,B|352:271|352:271|450:339,1,223.599989764405,2|8,1:2|0:2,0:2:0:0:
453,173,33357,1,2,1:2:0:0:
453,173,33721,5,2,0:2:0:0:
316,122,33903,1,10,0:2:0:0:
271,253,34085,1,2,1:2:0:0:
431,188,34266,2,0,P|320:155|191:134,1,223.599989764405,2|8,1:2|0:2,0:2:0:0:
213,136,34721,1,0,0:0:0:0:
213,136,34812,1,0,1:2:0:0:
172,38,34994,6,0,P|107:98|147:242,1,223.599989764405,12|8,1:1|0:2,0:2:0:0:
353,262,35539,2,0,B|305:235|305:235|230:257,1,111.799994882202,2|0,1:2|1:2,0:0:0:0:
250,250,35812,1,0,0:0:0:0:
250,250,35903,1,0,1:2:0:0:
449,378,36085,1,10,0:2:0:0:
381,161,36266,1,0,1:2:0:0:
163,195,36448,6,0,P|181:142|198:77,1,111.799994882202,8|0,1:1|0:0,0:2:0:0:
392,58,36812,1,8,0:2:0:0:
276,273,36994,1,0,1:2:0:0:
276,273,37085,1,0,0:0:0:0:
276,273,37175,2,0,P|229:317|156:333,1,111.799994882202,2|0,1:2|1:2,0:0:0:0:
46,209,37539,2,0,P|61:247|70:287,1,55.8999974411012,10|0,0:2|0:2,0:2:0:0:
163,195,37721,1,2,1:2:0:0:
163,195,37812,1,0,0:2:0:0:
163,195,37903,6,0,P|255:120|370:167,1,223.599989764405,8|8,1:1|0:2,0:2:0:0:
348,144,38357,1,0,0:0:0:0:
348,144,38448,1,0,1:2:0:0:
463,58,38630,2,0,P|460:95|463:133,1,55.8999974411012,0|0,1:2|0:0,0:2:0:0:
511,239,38812,1,0,1:2:0:0:
335,164,38994,1,8,0:2:0:0:
434,333,39175,1,0,1:2:0:0:
438,210,39357,6,0,P|304:198|162:187,1,223.599989764405,8|8,1:1|0:2,0:2:0:0:
215,190,39812,1,0,0:0:0:0:
215,190,39903,1,0,1:2:0:0:
143,131,40085,2,0,P|125:155|120:202,1,55.8999974411012,0|0,1:2|0:0,0:0:0:0:
244,293,40266,1,0,1:2:0:0:
82,187,40448,1,8,0:2:0:0:
47,373,40630,1,0,1:2:0:0:
165,297,40812,6,0,P|264:324|348:324,1,167.699992323304,12|0,1:1|1:2,0:2:0:0:
350,311,41175,2,0,P|347:278|333:228,1,55.8999974411012,10|0,0:2|0:0,0:2:0:0:
442,160,41448,1,2,0:2:0:0:
442,160,41539,1,0,0:0:0:0:
258,230,41721,1,2,1:2:0:0:
410,158,41903,1,10,0:2:0:0:
490,286,42085,2,0,P|453:272|416:252,1,55.8999974411012,0|0,1:2|0:0,0:0:0:0:
307,156,42266,6,0,B|243:147|243:147|209:165|209:165|146:156,1,167.699992323304,8|0,1:1|1:2,0:2:0:0:
129,136,42630,2,0,P|125:96|119:57,1,55.8999974411012,10|0,0:2|0:0,0:2:0:0:
26,245,42903,1,2,0:2:0:0:
26,245,42994,1,0,0:0:0:0:
188,361,43175,1,2,1:2:0:0:
116,205,43357,1,10,0:2:0:0:
12,370,43539,2,0,L|76:341,1,55.8999974411012,0|0,1:2|0:0,0:0:0:0:
291,296,43721,6,0,B|250:256|198:275|198:275|254:278|275:329,1,167.699992323304,8|0,1:1|1:2,0:2:0:0:
309,309,44085,2,0,P|335:304|379:297,1,55.8999974411012,10|0,0:2|0:0,0:2:0:0:
510,314,44357,1,2,0:2:0:0:
510,314,44448,1,0,0:0:0:0:
306,198,44630,1,2,1:2:0:0:
440,136,44812,1,10,0:2:0:0:
366,36,44994,2,0,P|373:72|379:104,1,55.8999974411012,0|0,1:2|0:0,0:0:0:0:
235,142,45175,6,0,B|147:146|173:200|56:192,1,167.699992323304,8|0,1:1|1:2,0:2:0:0:
51,216,45539,2,0,P|38:260|34:300,1,55.8999974411012,10|0,0:2|0:0,0:2:0:0:
99,98,45812,1,2,0:2:0:0:
99,98,45903,1,0,0:0:0:0:
261,171,46085,1,2,1:2:0:0:
200,5,46266,2,0,P|183:45|174:76,1,55.8999974411012,10|0,0:2|0:2,0:2:0:0:
264,262,46448,2,0,P|273:235|284:210,1,55.8999974411012,2|0,1:2|0:2,0:2:0:0:
356,72,46630,6,2,P|413:52|503:170,1,223.599989764405,12|10,1:1|0:2,0:1:0:0:
506,161,47085,1,0,0:2:0:0:
506,161,47175,1,2,1:2:0:0:
372,183,47357,1,0,0:0:0:0:
372,183,47448,1,2,0:2:0:0:
372,183,47539,2,0,P|318:176|286:167,1,55.8999974411012,0|2,1:1|0:2,0:0:0:0:
204,67,47721,2,0,P|226:106|221:143,1,55.8999974411012,10|0,0:2|0:0,0:0:0:0:
78,188,47903,2,0,P|56:149|61:112,1,55.8999974411012,2|0,1:1|0:0,0:0:0:0:
141,128,48085,6,0,P|160:195|175:263,1,111.799994882202,8|2,1:1|0:2,0:2:0:0:
162,280,48357,1,0,0:0:0:0:
160,302,48448,2,0,P|150:346|142:385,1,55.8999974411012,10|0,0:2|0:0,0:2:0:0:
271,205,48630,2,0,B|323:184|366:225|366:225|410:197|466:197|466:197|435:207|424:241,1,258.000009841919,2|0,1:2|0:0,0:0:0:0:
493,272,49085,1,0,0:2:0:0:
493,272,49175,2,2,P|498:319|502:348,1,55.8999974411012,10|0,0:2|0:0,0:1:0:0:
430,150,49357,2,0,P|433:122|436:94,1,55.8999974411012,0|0,0:0|0:2,0:0:0:0:
271,205,49539,6,0,P|215:224|94:245,1,167.699992323304,10|0,1:1|0:0,0:2:0:0:
28,232,49903,1,10,0:2:0:0:
195,112,50085,1,2,1:2:0:0:
195,112,50175,1,2,0:2:0:0:
195,112,50266,1,2,1:1:0:0:
302,229,50448,1,2,1:2:0:0:
112,163,50630,2,2,P|132:207|146:244,1,55.8999974411012,8|0,0:2|0:0,0:1:0:0:
288,112,50812,2,0,P|268:68|254:31,1,55.8999974411012,0|0,0:0|0:2,0:0:0:0:
103,50,50994,5,8,1:1:0:0:
318,121,51175,1,2,0:2:0:0:
318,121,51266,1,0,1:2:0:0:
318,121,51357,1,10,0:2:0:0:
64,277,51539,2,0,P|134:247|312:206,1,223.599989764405,2|0,1:2|1:2,0:0:0:0:
440,309,52085,2,0,P|432:271|424:230,1,55.8999974411012,8|0,0:2|0:0,0:0:0:0:
470,153,52266,2,0,P|462:115|454:74,1,55.8999974411012,2|0,1:2|0:2,0:2:0:0:
353,133,52448,6,2,P|301:104|169:198,1,223.599989764405,14|8,1:1|0:2,0:1:0:0:
172,178,52903,1,0,0:0:0:0:
172,178,52994,1,2,1:2:0:0:
296,320,53175,2,0,P|286:247|268:187,1,111.799994882202,2|2,1:1|1:2,0:0:0:0:
90,214,53539,2,0,P|111:251|146:273,1,55.8999974411012,8|0,0:2|0:0,0:0:0:0:
242,309,53721,2,0,P|283:320|323:311,1,55.8999974411012,2|0,1:1|0:0,0:0:0:0:
443,374,53903,6,0,P|451:263|470:153,1,223.599989764405,2|8,1:2|0:2,0:2:0:0:
470,152,54357,1,0,0:0:0:0:
470,152,54448,1,2,1:2:0:0:
344,225,54630,2,2,P|290:184|228:177,1,111.799994882202,2|2,1:2|1:2,0:1:0:0:
135,348,54994,2,0,P|124:320|104:283,1,55.8999974411012,8|0,0:2|0:0,0:0:0:0:
147,107,55175,2,0,P|158:135|178:172,1,55.8999974411012,2|0,1:1|1:2,0:0:0:0:
16,249,55357,5,8,1:1:0:0:
109,91,55539,1,0,0:2:0:0:
133,273,55721,1,10,0:2:0:0:
133,273,55812,1,0,0:0:0:0:
133,273,55903,1,0,1:2:0:0:
0,151,56085,5,2,1:2:0:0:
208,49,56266,1,0,1:2:0:0:
208,49,56357,1,0,1:2:0:0:
208,49,56448,2,0,P|244:43|279:35,1,55.8999974411012,10|0,0:2|0:0,0:0:0:0:
405,128,56630,2,0,P|377:122|350:117,1,55.8999974411012,0|0,1:2|0:0,0:0:0:0:
241,176,56812,5,8,1:1:0:0:
393,257,56994,1,0,0:2:0:0:
172,323,57175,1,8,0:2:0:0:
172,323,57266,1,0,0:0:0:0:
172,323,57357,1,0,1:2:0:0:
347,179,57539,5,0,1:2:0:0:
145,113,57721,1,0,1:2:0:0:
145,113,57812,1,0,1:2:0:0:
145,113,57903,2,0,P|113:149|111:167,1,55.8999974411012,8|0,0:2|0:0,0:0:0:0:
261,303,58085,2,0,P|293:267|295:249,1,55.8999974411012,0|0,1:2|0:0,0:0:0:0:
65,248,58266,5,14,1:1:0:0:
303,172,58448,1,2,0:2:0:0:
189,182,58630,1,10,0:2:0:0:
189,182,58721,1,0,0:0:0:0:
189,182,58812,1,2,1:1:0:0:
437,275,58994,5,2,1:1:0:0:
238,113,59175,1,2,1:2:0:0:
399,160,59357,1,10,0:2:0:0:
399,160,59448,1,0,0:0:0:0:
399,160,59539,2,0,P|363:173|331:182,1,55.8999974411012,0|0,1:2|1:2,0:0:0:0:
105,82,59721,5,14,1:1:0:0:
345,39,59903,2,0,P|339:75|334:109,1,55.8999974411012,0|0,0:2|0:0,0:0:0:0:
406,256,60085,1,10,0:2:0:0:
189,182,60266,2,0,P|195:218|200:252,1,55.8999974411012,0|0,1:2|0:0,0:0:0:0:
100,362,60448,1,2,1:2:0:0:
313,310,60630,2,0,P|307:346|302:380,1,55.8999974411012,0|0,1:2|0:2,0:0:0:0:
279,149,60812,1,8,0:2:0:0:
247,103,60902,1,0,0:0:0:0:
197,81,60993,1,0,1:2:0:0:
142,89,61084,1,0,1:2:0:0:
101,125,61175,6,2,P|246:113|374:123,1,240.799992651367,10|10,1:1|0:2,0:1:0:0:
340,118,61630,1,0,0:0:0:0:
340,118,61721,1,2,1:2:0:0:
452,44,61903,2,2,P|485:114|470:175,1,120.399996325684,2|0,1:2|1:2,0:1:0:0:
423,227,62175,1,0,0:2:0:0:
413,235,62266,2,0,P|380:241|350:248,1,60.1999981628419,10|0,0:2|0:0,0:0:0:0:
204,242,62448,2,0,P|213:277|217:305,1,60.1999981628419,2|0,1:2|0:0,0:0:0:0:
12,379,62630,6,2,B|27:287|27:287|57:256|57:256|73:140,1,240.799992651367,8|10,1:1|0:2,0:1:0:0:
61,115,63085,1,0,0:2:0:0:
55,102,63175,1,2,1:1:0:0:
267,8,63357,1,2,1:2:0:0:
145,117,63539,1,2,1:2:0:0:
347,126,63721,2,0,P|312:110|277:100,1,60.1999981628419,10|0,0:2|0:0,0:2:0:0:
138,204,63903,2,0,P|166:213|193:226,1,60.1999981628419,0|0,1:2|0:2,0:0:0:0:
416,262,64085,6,2,B|281:252|340:347|170:321,1,240.799992651367,8|10,1:1|0:2,0:1:0:0:
191,323,64539,1,0,0:2:0:0:
191,323,64630,1,2,1:2:0:0:
70,152,64812,2,0,B|44:205|44:205|76:280,1,120.399996325684,2|2,1:1|1:2,0:0:0:0:
259,87,65175,2,0,P|236:78|183:69,1,60.1999981628419,10|0,0:2|0:0,0:0:0:0:
193,226,65357,2,2,P|216:235|269:244,1,60.1999981628419,2|0,1:2|0:0,0:1:0:0:
467,82,65539,6,0,P|370:71|379:213,1,240.799992651367,0|10,0:0|0:2,0:0:0:0:
387,204,65994,1,0,0:0:0:0:
404,200,66085,1,0,1:2:0:0:
259,87,66266,2,0,P|188:68|58:80,1,180.599994488526,2|0,1:2|0:2,0:2:0:0:
41,49,66630,2,0,P|51:91|59:126,1,60.1999981628419,10|0,0:2|0:2,0:2:0:0:
193,226,66812,2,0,P|183:183|175:149,1,60.1999981628419,2|0,1:2|0:0,0:0:0:0:
62,313,66994,6,2,P|174:270|313:248,1,240.799992651367,10|10,1:1|0:2,0:1:0:0:
292,249,67448,1,0,0:0:0:0:
292,249,67539,1,0,0:0:0:0:
276,358,67721,2,0,P|335:351|405:359,1,120.399996325684,2|0,1:1|1:2,0:0:0:0:
480,377,67994,1,0,0:0:0:0:
480,377,68085,2,0,P|472:345|467:314,1,60.1999981628419,10|0,0:2|0:2,0:2:0:0:
512,149,68266,2,0,P|504:178|499:207,1,60.1999981628419,2|0,1:1|0:2,0:0:0:0:
409,200,68448,6,0,B|349:215|252:180|252:180|288:215|297:268,1,240.799992651367,8|10,1:1|0:2,0:2:0:0:
292,248,68903,1,0,0:0:0:0:
292,248,68994,1,2,1:2:0:0:
141,368,69175,2,0,P|100:323|78:268,1,120.399996325684,2|0,1:1|1:2,0:0:0:0:
227,192,69539,1,10,0:2:0:0:
38,100,69721,1,2,1:2:0:0:
11,191,69903,6,2,P|132:163|306:142,1,240.799992651367,10|10,1:1|0:2,0:1:0:0:
247,146,70357,1,0,0:0:0:0:
247,146,70448,1,0,0:0:0:0:
410,29,70630,2,0,P|398:98|391:172,1,120.399996325684,2|0,1:1|1:2,0:0:0:0:
448,216,70903,1,0,0:0:0:0:
448,216,70994,2,0,P|407:234|371:225,1,60.1999981628419,8|0,0:2|0:0,0:0:0:0:
246,71,71175,2,2,P|276:73|302:89,1,60.1999981628419,2|0,1:2|0:0,0:1:0:0:
154,260,71357,6,0,P|73:243|71:96,1,240.799992651367,8|8,1:1|0:2,0:0:0:0:
93,90,71812,1,0,0:2:0:0:
110,93,71903,1,0,1:2:0:0:
255,263,72085,5,2,1:1:0:0:
47,344,72266,1,0,1:2:0:0:
125,169,72448,5,10,0:2:0:0:
324,212,72630,1,0,1:2:0:0:
237,45,72812,6,2,P|110:69|-7:87,1,240.799992651367,14|8,1:1|0:2,0:1:0:0:
84,195,73357,1,2,1:1:0:0:
84,195,73448,1,2,0:2:0:0:
84,195,73539,2,0,P|147:183|206:174,1,120.399996325684,2|2,1:2|1:2,0:2:0:0:
273,196,73812,1,0,0:2:0:0:
281,202,73903,2,0,P|296:248|301:284,1,60.1999981628419,10|0,0:2|0:0,0:0:0:0:
443,323,74085,2,0,P|428:277|423:241,1,60.1999981628419,2|0,1:2|0:0,0:0:0:0:
411,110,74266,6,2,B|354:38|260:77|260:77|314:75|343:122,1,240.799992651367,10|10,1:1|0:2,0:1:0:0:
453,180,74721,1,0,0:0:0:0:
453,180,74812,2,0,P|483:173|517:169,1,60.1999981628419,0|0,1:2|0:0,0:0:0:0:
356,326,74994,2,0,P|326:329|296:336,1,60.1999981628419,2|0,1:1|0:0,0:0:0:0:
358,170,75175,1,0,1:2:0:0:
207,288,75357,1,10,0:2:0:0:
180,83,75539,2,0,P|192:128|205:175,1,60.1999981628419,2|2,1:2|0:2,0:0:0:0:
0,275,75721,6,0,P|10:207|43:29,1,240.799992651367,10|8,1:1|0:2,0:0:0:0:
41,37,76175,1,0,0:0:0:0:
41,37,76266,1,2,1:1:0:0:
220,227,76448,1,8,1:1:0:0:
52,162,76630,1,2,1:2:0:0:
194,7,76812,2,2,P|198:45|207:93,1,60.1999981628419,10|0,0:2|0:0,0:1:0:0:
339,148,76994,2,0,P|334:118|331:88,1,60.1999981628419,0|0,0:0|0:2,0:0:0:0:
108,248,77175,6,2,B|246:217|220:305|353:250,1,240.799992651367,10|8,1:1|0:2,0:1:0:0:
342,254,77630,1,0,0:0:0:0:
342,254,77721,1,0,1:0:0:0:
246,169,77903,2,0,P|190:162|121:158,1,120.399996325684,0|0,1:2|1:2,0:0:0:0:
87,350,78266,2,0,P|143:357|212:361,1,120.399996325684,8|0,0:2|1:2,0:2:0:0:
435,200,78630,6,0,P|345:207|313:346,1,240.799992651367,10|10,1:1|0:2,0:0:0:0:
498,329,79175,1,2,1:2:0:0:
498,329,79266,1,0,0:0:0:0:
498,329,79357,1,2,1:2:0:0:
323,120,79539,2,0,P|337:152|352:206,1,60.1999981628419,0|0,0:0|0:2,0:0:0:0:
226,232,79721,2,2,P|194:246|140:261,1,60.1999981628419,10|0,0:2|0:0,0:1:0:0:
176,135,79903,2,0,P|208:121|262:106,1,60.1999981628419,0|0,1:2|0:0,0:0:0:0:
57,368,80085,6,2,B|92:244|17:272|73:126,1,240.799992651367,8|8,1:1|0:2,0:1:0:0:
158,42,80539,1,0,0:0:0:0:
166,59,80630,2,0,L|158:118,1,60.1999981628419,2|0,1:1|0:0,0:0:0:0:
234,291,80812,2,0,L|226:232,1,60.1999981628419,0|0,1:2|0:0,0:0:0:0:
357,76,80994,1,0,1:2:0:0:
306,224,81175,1,8,0:2:0:0:
472,128,81357,2,2,P|437:133|401:146,1,60.1999981628419,6|0,1:2|0:0,0:1:0:0:
386,314,81539,6,0,P|383:238|354:64,1,240.799992651367,0|8,1:2|0:2,0:0:0:0:
357,76,81994,1,0,0:0:0:0:
356,75,82085,1,2,1:2:0:0:
234,291,82266,2,0,P|196:225|151:177,1,120.399996325684,2|2,1:2|1:2,0:2:0:0:
56,227,82630,1,10,0:2:0:0:
255,124,82812,1,0,0:0:0:0:
150,358,82994,6,2,P|218:338|402:313,1,240.799992651367,10|10,1:1|0:2,0:1:0:0:
385,313,83448,1,0,0:0:0:0:
385,313,83539,1,0,1:2:0:0:
197,200,83721,1,0,1:2:0:0:
425,124,83903,1,0,1:2:0:0:
192,52,84085,5,10,0:2:0:0:
475,224,84266,1,0,0:0:0:0:
255,124,84448,5,12,1:1:0:0:
96,36,96085,5,8,1:1:0:0:
258,69,96266,1,2,0:2:0:0:
73,162,96447,1,10,0:2:0:0:
250,96,96629,1,2,1:2:0:0:
105,169,96811,2,0,P|183:147|346:133,1,206.399993701172,2|8,1:2|0:2,0:2:0:0:
489,224,97357,5,2,1:2:0:0:
489,224,97448,1,0,1:2:0:0:
489,224,97539,1,8,1:1:0:0:
368,67,97721,1,2,0:2:0:0:
251,253,97903,1,10,0:2:0:0:
403,169,98085,1,0,1:2:0:0:
418,310,98266,2,0,P|340:288|177:274,1,206.399993701172,2|8,1:2|0:2,0:2:0:0:
215,273,98721,1,0,0:0:0:0:
215,273,98812,1,0,0:0:0:0:
53,172,98994,5,8,1:1:0:0:
215,96,99175,1,2,0:2:0:0:
97,289,99357,1,10,0:2:0:0:
188,104,99539,1,2,1:2:0:0:
100,263,99721,2,0,P|86:152|66:19,1,206.399993701172,2|8,1:2|0:2,0:2:0:0:
257,170,100266,1,2,1:2:0:0:
257,170,100630,5,2,0:2:0:0:
367,118,100812,1,10,0:2:0:0:
465,210,100994,1,2,1:2:0:0:
331,237,101175,2,0,B|241:204|241:204|143:275,1,206.399993701172,2|8,1:2|0:2,0:2:0:0:
151,268,101630,1,0,0:0:0:0:
151,268,101721,1,0,1:2:0:0:
391,378,101903,5,8,1:1:0:0:
475,233,102085,1,2,0:2:0:0:
276,131,102266,1,10,0:2:0:0:
465,210,102448,1,2,1:2:0:0:
298,114,102630,2,0,P|219:125|57:141,1,206.399993701172,2|8,1:2|0:2,0:2:0:0:
9,305,103175,5,0,1:2:0:0:
9,305,103266,1,0,1:2:0:0:
9,305,103357,1,8,1:1:0:0:
176,355,103539,1,2,0:2:0:0:
57,167,103721,1,10,0:2:0:0:
191,327,103903,1,2,1:2:0:0:
104,252,104085,2,0,P|206:241|308:227,1,206.399993701172,2|8,1:2|0:2,0:2:0:0:
308,227,104539,1,0,0:0:0:0:
308,227,104630,1,0,0:0:0:0:
427,201,104812,5,8,1:1:0:0:
334,347,104994,1,2,0:2:0:0:
137,225,105175,1,10,0:2:0:0:
305,212,105357,1,2,1:2:0:0:
190,122,105539,2,0,P|176:200|149:338,1,206.399993701172,2|8,1:2|0:2,0:2:0:0:
16,162,106085,1,2,1:2:0:0:
16,162,106448,5,2,0:2:0:0:
177,88,106630,1,10,0:2:0:0:
283,250,106812,1,2,1:2:0:0:
370,100,106994,2,0,P|302:127|268:133,1,103.199996850586,2|0,1:2|0:0,0:2:0:0:
100,317,107357,2,0,P|128:320|169:330,1,51.599998425293,8|0,0:2|0:0,0:0:0:0:
256,218,107539,2,0,P|228:215|187:205,1,51.599998425293
301,346,107721,6,0,P|348:320|444:320,1,111.799994882202,12|0,1:1|0:0,0:2:0:0:
507,260,107994,1,0,1:2:0:0:
498,242,108085,2,0,P|488:176|484:111,1,111.799994882202,10|0,0:2|1:2,0:2:0:0:
341,84,108448,1,2,1:2:0:0:
321,93,108539,1,0,0:2:0:0:
301,99,108630,2,0,P|270:105|221:108,1,55.8999974411012,2|2,1:2|0:2,0:0:0:0:
171,56,108812,2,0,P|158:84|159:129,1,55.8999974411012,8|0,0:2|0:2,0:0:0:0:
52,135,108994,2,0,P|65:163|64:208,1,55.8999974411012,0|0,1:2|0:0,0:0:0:0:
2,325,109175,5,8,1:1:0:0:
2,325,109266,1,0,0:2:0:0:
2,325,109357,2,0,P|49:310|93:298,1,55.8999974411012,2|0,0:2|0:0,0:0:0:0:
161,221,109539,2,0,P|211:256|294:238,1,111.799994882202,10|2,0:2|1:2,0:2:0:0:
423,153,109812,1,0,0:0:0:0:
423,153,109903,2,0,P|362:163|316:235,1,111.799994882202,2|0,1:2|0:0,0:2:0:0:
465,290,110266,2,0,P|451:258|445:227,1,55.8999974411012,8|0,0:2|0:0,0:0:0:0:
349,314,110448,2,0,P|363:346|369:377,1,55.8999974411012,0|0,1:2|1:2,0:0:0:0:
254,341,110630,5,8,1:1:0:0:
254,341,110721,1,0,0:2:0:0:
254,341,110812,2,0,P|192:331|126:322,1,111.799994882202,2|10,0:2|0:2,0:0:0:0:
18,181,111175,1,2,1:2:0:0:
43,159,111266,1,0,0:0:0:0:
74,151,111357,2,0,P|107:149|148:157,1,55.8999974411012,2|0,1:2|0:0,0:0:0:0:
183,63,111539,2,0,P|207:84|231:119,1,55.8999974411012,2|2,1:2|0:2,0:0:0:0:
329,105,111721,2,0,P|310:173|256:204,1,111.799994882202,8|0,0:2|1:2,0:0:0:0:
502,300,112085,6,0,P|493:268|487:233,1,55.8999974411012,8|0,1:1|0:2,0:2:0:0:
375,209,112266,2,0,P|384:241|390:276,1,55.8999974411012,2|0,0:2|0:0,0:0:0:0:
283,334,112448,2,0,B|234:363|234:363|145:338,1,111.799994882202,10|2,0:2|1:2,0:2:0:0:
101,250,112721,1,0,0:0:0:0:
101,250,112812,2,0,B|150:221|150:221|239:246,1,111.799994882202,2|2,1:2|1:2,0:0:0:0:
183,63,113175,2,0,P|157:83|142:118,1,55.8999974411012,8|0,0:2|0:2,0:0:0:0:
303,96,113357,2,0,P|307:63|293:28,1,55.8999974411012,0|0,1:2|0:0,0:0:0:0:
287,181,113539,6,0,B|324:189|357:165|357:165|427:221|427:221|453:201|482:197,1,223.599989764405,12|10,1:1|0:2,0:2:0:0:
418,71,113994,1,0,0:0:0:0:
418,71,114085,2,0,P|432:110|444:153,1,55.8999974411012,2|0,1:2|0:2,0:2:0:0:
337,253,114266,1,2,1:2:0:0:
183,144,114448,2,0,P|217:128|273:109,1,55.8999974411012,2|2,1:2|0:2,0:0:0:0:
408,206,114630,2,0,P|421:264|372:328,1,111.799994882202,8|0,0:2|1:2,0:0:0:0:
367,333,114903,5,0,0:0:0:0:
351,339,114994,2,0,P|309:329|265:320,1,55.8999974411012,8|0,1:1|0:0,0:2:0:0:
220,216,115175,2,0,P|210:258|201:302,1,55.8999974411012,0|2,0:2|1:2,0:0:0:0:
140,359,115357,2,0,P|99:310|114:235,1,111.799994882202,10|2,0:2|1:2,0:2:0:0:
98,264,115630,1,0,0:2:0:0:
98,264,115721,1,2,1:2:0:0:
78,164,115903,2,0,P|120:174|164:183,1,55.8999974411012,2|0,1:2|0:0,0:0:0:0:
291,48,116085,2,0,P|213:55|106:67,1,167.699992323304,10|0,0:2|0:2,0:2:0:0:
46,19,116448,6,0,P|34:48|42:89,1,55.8999974411012,8|0,1:1|0:0,0:2:0:0:
203,143,116630,1,2,0:2:0:0:
203,143,116721,1,0,1:2:0:0:
203,143,116812,2,0,P|215:114|207:73,2,55.8999974411012,8|0|0,0:2|0:0|1:2,0:0:0:0:
228,291,117175,2,0,P|271:277|306:270,1,55.8999974411012,2|0,1:2|0:2,0:2:0:0:
375,145,117357,1,2,1:2:0:0:
375,145,117448,1,2,0:2:0:0:
375,145,117539,2,0,P|332:159|297:166,1,55.8999974411012,8|0,0:2|0:2,0:0:0:0:
448,301,117721,1,2,1:2:0:0:
302,193,117903,5,8,1:1:0:0:
171,356,118085,1,2,0:2:0:0:
203,143,118266,1,10,0:2:0:0:
355,301,118448,1,2,1:2:0:0:
133,243,118630,1,2,1:2:0:0:
324,69,118812,2,0,P|281:83|246:90,2,55.8999974411012,2|2|8,1:2|0:2|0:2,0:0:0:0:
503,207,119175,5,2,1:2:0:0:
503,207,119266,1,0,0:2:0:0:
503,207,119357,2,0,B|364:188|410:315|203:264,1,258.000009841919,12|8,1:1|0:2,0:2:0:0:
102,181,119903,1,2,1:2:0:0:
204,139,120085,1,2,1:2:0:0:
212,157,120175,1,0,0:0:0:0:
135,316,120357,1,2,0:2:0:0:
143,298,120447,1,8,0:2:0:0:
3,82,120630,5,2,1:2:0:0:
3,82,120721,1,0,0:2:0:0:
3,82,120812,2,0,B|7:132|57:198|195:166|161:37|89:57|62:80,1,258.000009841919,8|8,1:1|0:2,0:2:0:0:
35,259,121357,1,2,1:2:0:0:
212,157,121539,1,2,1:2:0:0:
204,175,121629,1,0,0:0:0:0:
339,316,121812,1,2,0:2:0:0:
331,298,121902,1,8,0:2:0:0:
435,197,122085,5,2,1:2:0:0:
435,197,122175,1,0,0:0:0:0:
435,197,122266,1,0,0:0:0:0:
248,278,122448,1,2,0:2:0:0:
349,139,122630,1,10,0:2:0:0:
455,317,122812,1,2,1:2:0:0:
455,317,122903,1,0,1:2:0:0:
455,317,122994,2,0,P|390:333|335:357,1,111.799994882202,2|2,1:2|1:2,0:0:0:0:
326,215,123266,1,2,0:2:0:0:
326,215,123357,2,0,P|263:199|206:177,1,111.799994882202,8|0,0:2|1:2,0:0:0:0:
107,211,123630,1,0,0:0:0:0:
107,211,123721,1,8,1:1:0:0:
0,105,123903,6,0,P|14:148|21:181,1,55.8999974411012,2|0,0:2|0:0,0:0:0:0:
107,289,124085,2,0,P|93:246|86:213,1,55.8999974411012,10|0,0:2|0:2,0:0:0:0:
126,102,124266,1,2,1:2:0:0:
126,102,124357,1,0,0:2:0:0:
126,102,124448,2,0,P|179:70|254:73,1,111.799994882202,2|0,1:2|1:2,0:0:0:0:
299,112,124721,1,2,0:2:0:0:
299,112,124812,2,0,P|325:108|371:96,1,55.8999974411012,8|0,0:2|0:0,0:0:0:0:
478,191,124994,2,0,P|452:187|406:175,1,55.8999974411012,0|0,1:2|0:0,0:0:0:0:
223,277,125175,5,8,1:1:0:0:
484,373,125357,1,2,0:2:0:0:
420,294,125539,2,0,P|347:303|286:323,1,111.799994882202,8|2,0:2|1:2,0:0:0:0:
141,201,125812,1,0,0:0:0:0:
141,201,125903,2,0,P|214:192|275:172,1,111.799994882202,2|2,1:2|1:2,0:0:0:0:
313,123,126175,1,2,0:2:0:0:
313,123,126266,2,0,P|333:153|333:199,1,55.8999974411012,8|0,0:2|0:0,0:2:0:0:
328,262,126448,2,0,P|320:297|288:329,1,55.8999974411012,0|0,1:2|0:0,0:0:0:0:
165,336,126630,5,8,1:1:0:0:
227,66,126812,1,2,0:2:0:0:
445,196,126994,2,0,P|375:177|297:169,1,111.799994882202,8|0,0:2|1:2,0:0:0:0:
222,260,127357,2,0,P|192:206|200:138,1,111.799994882202,2|2,1:2|1:2,0:0:0:0:
301,16,127630,1,2,0:2:0:0:
301,16,127721,2,0,P|315:53|307:93,1,55.8999974411012,8|0,0:2|0:2,0:0:0:0:
428,164,127903,2,0,P|429:136|441:111,1,55.8999974411012,0|0,1:2|0:0,0:2:0:0:
512,317,128085,6,0,P|452:289|367:282,1,111.799994882202,8|0,1:1|0:0,0:0:0:0:
382,285,128357,1,2,1:2:0:0:
362,295,128448,1,10,0:2:0:0:
247,282,128630,1,2,1:2:0:0:
247,282,128721,1,2,0:2:0:0:
247,282,128812,2,0,P|255:332|263:373,1,55.8999974411012,0|2,1:2|0:2,0:0:0:0:
157,370,128994,2,0,P|149:320|141:279,1,55.8999974411012,0|2,0:0|0:2,0:0:0:0:
49,307,129175,1,10,0:2:0:0:
190,198,129357,1,2,1:2:0:0:
7,158,129539,6,0,B|143:123|90:219|265:162,1,223.599989764405,8|8,1:1|0:2,0:2:0:0:
277,71,130085,2,0,P|242:66|199:65,1,55.8999974411012,2|0,1:2|0:0,0:0:0:0:
167,293,130266,1,2,1:2:0:0:
350,208,130448,1,0,1:2:0:0:
121,215,130630,2,0,P|86:248|80:273,1,55.8999974411012,10|0,0:2|0:0,0:0:0:0:
316,364,130812,2,0,P|317:315|303:293,1,55.8999974411012,2|0,1:2|0:0,0:0:0:0:
156,112,130994,6,2,B|114:69|34:90|34:90|99:86|132:145,1,223.599989764405,12|10,1:1|0:2,0:1:0:0:
117,123,131448,1,0,0:0:0:0:
117,123,131539,1,2,1:2:0:0:
330,184,131721,1,2,1:2:0:0:
330,184,131812,1,0,1:2:0:0:
330,184,131903,2,0,P|336:153|338:115,1,55.8999974411012,2|0,1:2|0:0,0:0:0:0:
439,106,132085,2,0,P|442:148|423:179,1,55.8999974411012,10|0,0:2|0:2,0:2:0:0:
245,155,132266,2,2,P|241:112|260:81,1,55.8999974411012,2|0,1:2|0:0,0:1:0:0:
453,305,132448,6,0,P|389:286|321:282,1,111.799994882202,0|2,0:0|0:2,0:0:0:0:
296,301,132721,1,0,1:2:0:0:
282,306,132812,2,0,P|257:313|209:317,1,55.8999974411012,10|0,0:2|0:0,0:0:0:0:
20,266,132994,1,2,1:2:0:0:
220,174,133175,1,2,1:2:0:0:
35,133,133357,1,0,1:2:0:0:
35,133,133448,1,0,0:2:0:0:
35,133,133539,2,2,B|35:126|24:109|24:109|26:88|32:64,1,55.8999974411012,10|0,0:2|0:0,0:1:0:0:
176,68,133721,2,0,P|203:63|231:59,1,55.8999974411012,0|0,0:0|0:2,0:0:0:0:
336,37,133903,6,0,P|272:78|250:191,1,167.699992323304,10|0,1:1|1:2,0:0:0:0:
317,209,134266,1,10,0:2:0:0:
466,94,134448,1,0,1:2:0:0:
466,94,134539,1,0,0:0:0:0:
466,94,134630,1,2,1:2:0:0:
512,291,134812,1,0,1:2:0:0:
398,186,134994,2,0,P|375:184|333:172,1,55.8999974411012,10|0,0:2|0:0,0:0:0:0:
242,291,135175,2,0,P|265:293|307:305,1,55.8999974411012,0|0,1:2|1:2,0:0:0:0:
213,126,135357,5,8,1:1:0:0:
42,262,135539,1,0,0:0:0:0:
42,262,135630,1,0,1:2:0:0:
42,262,135721,1,10,0:2:0:0:
151,47,135903,2,0,B|170:122|170:122|149:184|149:184|172:283,1,223.599989764405,0|2,1:2|1:2,0:0:0:0:
54,344,136448,2,0,P|75:335|116:328,1,55.8999974411012,10|0,0:2|0:0,0:0:0:0:
286,216,136630,2,0,P|258:210|232:200,1,55.8999974411012,2|0,1:2|0:0,0:0:0:0:
52,177,136812,6,2,P|22:97|149:97,1,223.599989764405,12|10,1:1|0:2,0:1:0:0:
129,68,137266,1,0,0:0:0:0:
129,68,137357,1,0,0:0:0:0:
293,114,137539,2,0,P|261:183|199:205,1,111.799994882202,2|0,1:1|1:2,0:0:0:0:
146,218,137903,2,0,P|169:259|214:261,1,55.8999974411012,10|0,0:2|0:2,0:2:0:0:
231,374,138085,2,0,P|276:386|309:356,1,55.8999974411012,2|0,1:2|1:2,0:0:0:0:
430,361,138266,6,2,P|418:287|400:127,1,223.599989764405,8|10,1:1|0:2,0:1:0:0:
401,139,138721,1,0,0:0:0:0:
401,139,138812,1,2,1:2:0:0:
333,224,138994,1,2,1:2:0:0:
488,104,139175,1,0,1:2:0:0:
302,24,139357,2,0,P|310:61|321:101,1,55.8999974411012,10|0,0:2|0:0,0:0:0:0:
231,199,139539,2,0,P|224:172|219:145,1,55.8999974411012,2|0,1:2|0:2,0:2:0:0:
111,88,139721,5,8,1:1:0:0:
20,248,139994,1,0,1:2:0:0:
20,248,140085,1,8,0:2:0:0:
98,206,140266,1,0,1:2:0:0:
152,278,140448,1,0,0:0:0:0:
325,210,140630,1,0,1:2:0:0:
325,210,140721,1,0,0:0:0:0:
325,210,140812,1,8,0:2:0:0:
248,337,140994,5,0,1:2:0:0:
248,337,141085,1,0,0:0:0:0:
248,337,141175,2,0,P|231:264|214:211,1,111.799994882202,8|0,1:1|0:2,0:2:0:0:
320,93,141448,1,0,1:2:0:0:
320,93,141539,2,0,P|337:166|354:219,1,111.799994882202,8|0,0:2|1:2,0:0:0:0:
248,149,141903,1,0,1:2:0:0:
436,230,142085,1,0,0:0:0:0:
436,230,142175,1,0,0:2:0:0:
436,230,142266,1,8,0:2:0:0:
249,250,142448,1,0,0:0:0:0:
353,65,142630,5,14,1:1:0:0:
189,13,142903,1,0,0:0:0:0:
189,13,142994,1,8,0:2:0:0:
52,110,143175,1,2,1:1:0:0:
260,64,143357,2,2,P|233:128|223:183,1,111.799994882202,0|0,1:2|0:0,0:1:0:0:
84,84,143721,1,8,0:2:0:0:
16,212,143903,5,2,1:1:0:0:
16,212,143994,1,0,0:2:0:0:
16,212,144085,2,2,P|43:276|53:331,1,111.799994882202,8|0,1:1|0:0,0:1:0:0:
267,236,144448,2,0,B|219:211|219:211|142:232,1,111.799994882202,10|0,0:2|1:2,0:0:0:0:
163,226,144721,1,0,0:0:0:0:
163,226,144812,1,2,1:1:0:0:
292,375,144994,2,0,P|304:336|316:309,1,55.8999974411012,0|0,1:2|0:0,0:0:0:0:
302,101,145175,2,0,P|290:140|278:167,1,55.8999974411012,10|0,0:2|0:2,0:2:0:0:
410,219,145357,1,2,1:2:0:0:
456,236,145448,1,0,1:2:0:0:
500,217,145539,6,2,B|378:186|406:274|263:234,1,240.799992651367,12|8,1:1|0:2,0:1:0:0:
266,235,145994,1,0,0:0:0:0:
266,235,146085,1,0,1:2:0:0:
179,114,146266,2,2,P|130:154|122:236,1,120.399996325684,2|0,1:2|0:0,0:1:0:0:
159,328,146539,1,0,0:2:0:0:
174,335,146630,2,0,P|213:322|236:317,1,60.1999981628419,8|0,0:2|0:0,0:0:0:0:
375,251,146812,2,0,P|367:280|357:308,1,60.1999981628419,2|0,1:1|0:2,0:2:0:0:
506,340,146994,6,0,P|493:251|477:94,1,240.799992651367,8|10,1:1|0:2,0:0:0:0:
489,61,147448,1,0,0:0:0:0:
495,47,147539,1,0,1:2:0:0:
363,228,147721,1,2,1:2:0:0:
296,53,147903,1,0,0:0:0:0:
202,196,148085,2,0,P|235:188|267:184,1,60.1999981628419,8|0,0:2|0:2,0:0:0:0:
447,122,148266,2,0,P|417:117|387:110,1,60.1999981628419,2|0,1:1|0:2,0:2:0:0:
195,31,148448,5,10,1:1:0:0:
366,131,148630,1,2,0:2:0:0:
153,119,148812,2,0,P|99:107|2:83,1,120.399996325684,10|0,0:2|0:0,0:2:0:0:
35,91,149085,1,0,0:2:0:0:
35,91,149175,1,2,1:1:0:0:
109,256,149357,2,0,P|100:217|84:178,1,60.1999981628419,0|0,1:2|0:0,0:0:0:0:
288,202,149539,1,8,0:2:0:0:
181,352,149721,1,2,1:1:0:0:
410,233,149903,6,0,P|353:211|307:348,1,240.799992651367,0|8,0:0|0:2,0:0:0:0:
300,342,150357,1,0,0:0:0:0:
300,342,150448,1,2,1:2:0:0:
512,108,150630,2,2,B|519:51|436:17|436:17|421:55|444:97,1,180.599994488526,2|0,1:2|0:2,0:1:0:0:
389,144,150994,2,0,P|363:154|317:153,1,60.1999981628419,10|0,0:2|0:0,0:2:0:0:
250,87,151175,2,0,P|228:119|229:159,1,60.1999981628419,0|0,0:0|0:2,0:0:0:0:
140,276,151357,6,2,B|258:260|258:260|279:267|279:267|409:250,1,258.000009841919,10|8,1:1|0:2,0:1:0:0:
394,251,151812,1,0,0:0:0:0:
394,251,151903,1,0,1:2:0:0:
472,166,152085,2,2,P|509:216|510:281,1,120.399996325684,2|0,1:2|1:2,0:1:0:0:
451,356,152357,1,0,0:2:0:0:
438,362,152448,2,0,L|375:342,1,60.1999981628419,8|0,0:2|0:0,0:0:0:0:
245,337,152630,2,0,L|182:357,1,60.1999981628419,0|0,1:1|0:2,0:2:0:0:
38,373,152812,6,0,B|86:221|-6:287|71:128,1,240.799992651367,8|10,1:1|0:2,0:0:0:0:
65,140,153266,1,0,0:0:0:0:
65,140,153357,1,0,1:2:0:0:
274,188,153539,2,2,P|190:207|141:213,1,120.399996325684,2|0,1:2|0:0,0:1:0:0:
276,44,153903,1,8,0:2:0:0:
450,161,154085,1,2,1:1:0:0:
362,14,154266,6,0,P|356:123|352:273,1,240.799992651367,10|10,1:1|0:2,0:2:0:0:
352,254,154721,1,0,0:0:0:0:
352,254,154812,1,0,0:0:0:0:
245,134,154994,2,0,P|168:100|108:109,1,120.399996325684,2|0,1:1|1:2,0:0:0:0:
54,160,155266,1,0,0:0:0:0:
66,174,155357,2,0,P|111:198|138:193,1,60.1999981628419,8|0,0:2|0:0,0:0:0:0:
280,328,155539,2,0,P|250:333|227:351,1,60.1999981628419,2|0,1:1|0:0,0:0:0:0:
34,322,155721,6,0,P|157:268|303:238,1,240.799992651367,8|10,1:1|0:2,0:0:0:0:
303,248,156175,1,0,1:2:0:0:
320,255,156266,1,2,1:2:0:0:
495,112,156448,5,2,1:1:0:0:
285,167,156630,1,0,1:2:0:0:
191,39,156812,5,10,0:2:0:0:
405,108,156994,1,0,1:2:0:0:
264,79,157175,6,2,B|214:62|155:98|155:98|131:159|34:168,1,240.799992651367,10|8,1:1|0:2,0:1:0:0:
0,317,157721,2,0,P|21:347|41:394,1,60.1999981628419,2|2,1:2|0:2,0:0:0:0:
107,296,157903,2,0,P|181:268|249:263,1,120.399996325684,0|2,0:0|1:2,0:0:0:0:
221,262,158175,1,2,0:2:0:0:
221,262,158266,1,10,0:0:0:0:
341,308,158448,1,2,1:2:0:0:
512,174,158630,6,2,B|466:175|444:136|444:136|379:118|325:195,1,180.599994488526,8|0,1:0|1:0,0:1:0:0:
276,191,158994,2,0,P|244:185|199:176,1,60.1999981628419,10|0,0:2|0:2,0:2:0:0:
125,55,159175,2,0,P|131:87|140:132,1,60.1999981628419,2|0,1:2|0:2,0:2:0:0:
0,243,159357,2,2,B|56:212|120:208|120:208|141:226|160:252,1,180.599994488526,2|0,1:2|0:2,0:1:0:0:
159,324,159721,2,2,B|221:362|219:325|279:359|279:359|282:339|319:315,1,180.599994488526,10|0,0:2|0:2,0:1:0:0:
394,290,160085,5,10,1:1:0:0:
288,115,160266,2,0,P|297:85|307:40,2,60.1999981628419,2|2|8,0:2|1:2|0:2,0:0:0:0:
114,110,160630,2,0,P|123:140|133:185,2,60.1999981628419,0|2|0,1:1|0:2|1:2,0:0:0:0:
8,258,160994,1,2,1:2:0:0:
40,241,161085,1,2,0:2:0:0:
71,251,161175,2,0,P|123:271|162:269,1,60.1999981628419,10|0,0:2|0:0,0:0:0:0:
209,346,161357,2,0,P|261:326|300:328,1,60.1999981628419,2|0,1:2|0:0,0:0:0:0:
425,348,161539,6,2,B|484:181|356:238|414:64,3,292.400005577087,8|10|2|10,1:1|0:2|1:2|0:2,0:1:0:0:
297,142,162812,5,0,1:2:0:0:
265,155,162903,1,0,0:2:0:0:
230,157,162994,2,2,B|184:170|128:125|128:125|52:148|58:196|58:196|105:202,1,240.799992651367,12|8,1:1|0:2,0:1:0:0:
218,288,163539,2,0,P|310:262|362:258,1,120.399996325684,2|0,1:2|1:2,0:0:0:0:
334,259,163812,1,0,0:0:0:0:
334,259,163903,1,0,1:2:0:0:
512,154,164085,2,2,P|500:197|496:236,1,60.1999981628419,10|0,0:2|0:0,0:1:0:0:
399,361,164266,2,0,P|411:318|415:279,1,60.1999981628419,0|0,1:2|0:0,0:0:0:0:
385,141,164448,6,2,B|308:130|338:161|268:159|268:159|245:135|176:132,1,180.599994488526,8|0,1:1|1:2,0:1:0:0:
136,78,164812,2,0,P|117:120|126:166,1,60.1999981628419,10|0,0:2|0:2,0:2:0:0:
41,201,164994,2,0,P|77:229|123:231,1,60.1999981628419,2|0,1:1|0:2,0:2:0:0:
227,290,165175,2,0,B|197:261|209:214|209:214|175:263|214:340,1,180.599994488526,2|0,1:2|0:2,0:0:0:0:
279,358,165539,2,0,P|324:348|366:339,1,60.1999981628419,10|0,0:2|0:2,0:2:0:0:
479,243,165721,2,2,P|434:253|392:262,1,60.1999981628419,6|0,1:2|0:0,0:1:0:0:
284,235,165903,5,0,0:0:0:0:
387,96,166085,2,0,P|379:72|368:26,2,60.1999981628419,2|0|8,0:2|1:2|0:2,0:2:0:0:
197,193,166448,2,0,P|205:169|216:123,2,60.1999981628419,0|0|2,1:2|0:0|1:2,0:0:0:0:
426,176,166812,1,2,1:2:0:0:
393,184,166903,1,2,0:2:0:0:
361,175,166994,2,0,P|322:166|275:164,1,60.1999981628419,8|0,0:2|0:2,0:0:0:0:
96,82,167175,2,0,P|135:73|182:71,1,60.1999981628419,2|0,1:2|0:0,0:0:0:0:
314,284,167357,6,2,B|218:272|218:272|165:307|165:307|35:284,3,266.600002033997,10|10|2|10,1:1|0:2|1:2|0:2,0:1:0:0:
253,87,168630,5,0,1:2:0:0:
253,87,168721,1,0,1:2:0:0:
253,87,168812,1,12,1:1:0:0:
