osu file format v14

[General]
AudioFilename: audio.mp3
AudioLeadIn: 0
PreviewTime: 59994
Countdown: 0
SampleSet: Soft
StackLeniency: 0.7
Mode: 0
LetterboxInBreaks: 0
WidescreenStoryboard: 1

[Editor]
DistanceSpacing: 0.4
BeatDivisor: 4
GridSize: 32
TimelineZoom: 2.799999

[Metadata]
Title:Jam Over The Barrier!
TitleUnicode:Jam Over The Barrier!
Artist:Falcom Sound Team jdk vs. Quad City DJ's
ArtistUnicode:Falcom Sound Team jdk vs. Quad City DJ's
Creator:Deca
Version:SHURELIA'S NORMAL!!!
Source:英雄伝説 零の軌跡
Tags:碧の軌跡 michael lloyd bannings jordan saki mordred momiyama impurepug fixxis shurelia yogurtt 籾山 紗希 get trails to azure from zero no kiseki eiyuu densetsu the legend of black man heroes crossball crossbell slam space bugs mishy bunny ost original soundtrack theaggyyu j.d.k. hip hop english jrpg videogame japanese role playing game versus
BeatmapID:2893501
BeatmapSetID:1337586

[Difficulty]
HPDrainRate:4.5
CircleSize:3
OverallDifficulty:5.4
ApproachRate:5.5
SliderMultiplier:1.3
SliderTickRate:1

[Events]
//Background and Video events
0,0,"dKDRSex[1]_waifu2x_art_noise1_scale_tta_1.jpg",0,0
//Break Periods
2,84648,94960
//Storyboard Layer 0 (Background)
//Storyboard Layer 1 (Fail)
//Storyboard Layer 2 (Pass)
//Storyboard Layer 3 (Foreground)
//Storyboard Layer 4 (Overlay)
//Storyboard Sound Samples

[TimingPoints]
85,363.636363636364,4,2,1,76,1,0
85,-100,4,2,1,76,0,0
11721,-100,4,2,1,76,0,0
17357,-100,4,2,1,76,0,0
17721,-100,4,2,1,76,0,0
23357,-100,4,2,1,66,0,0
29175,-100,4,2,1,66,0,0
29357,-100,4,2,1,66,0,0
34994,-100,4,2,1,66,0,0
40812,-100,4,2,1,66,0,0
46266,-100,4,2,1,66,0,0
46630,-100,4,2,1,76,0,0
46994,-100,4,2,1,76,0,0
48630,-100,4,2,1,76,0,0
48812,-100,4,2,1,76,0,0
49175,-100,4,2,1,76,0,0
52448,-100,4,2,1,76,0,0
52812,-100,4,2,1,76,0,0
60448,-100,4,2,1,81,0,0
61175,-100,4,2,1,81,0,0
62630,-100,4,2,1,81,0,0
69903,-100,4,2,1,81,0,0
70266,-100,4,2,1,81,0,0
71175,-100,4,2,1,81,0,0
72812,-100,4,2,1,81,0,0
74266,-100,4,2,1,81,0,0
75357,-100,4,2,1,81,0,0
76812,-100,4,2,1,81,0,0
77175,-100,4,2,1,81,0,0
78266,-100,4,2,1,81,0,0
81357,-100,4,2,1,81,0,0
82630,-100,4,2,1,81,0,0
84448,-100,4,2,1,81,0,0
96266,-100,4,2,1,66,0,0
107721,-100,4,2,1,66,0,0
108721,-100,4,2,1,66,0,0
109175,-100,4,2,1,66,0,0
110448,-100,4,2,1,66,0,0
112085,-100,4,2,1,66,0,0
113539,-100,4,2,1,66,0,0
114994,-100,4,2,1,66,0,0
117721,-100,4,2,1,66,0,0
119175,-100,4,2,1,66,0,0
119903,-100,4,2,1,66,0,0
120630,-100,4,2,1,66,0,0
121357,-100,4,2,1,66,0,0
122085,-100,4,2,1,66,0,0
122630,-100,4,2,1,66,0,0
123721,-100,4,2,1,66,0,0
124994,-100,4,2,1,66,0,0
125357,-100,4,2,1,66,0,0
126630,-100,4,2,1,66,0,0
127357,-100,4,2,1,66,0,0
129539,-100,4,2,1,66,0,0
130266,-100,4,2,1,66,0,0
130994,-100,4,2,1,76,0,0
133175,-100,4,2,1,76,0,0
135357,-100,4,2,1,76,0,0
135721,-100,4,2,1,76,0,0
136812,-100,4,2,1,76,0,0
137903,-100,4,2,1,76,0,0
138266,-100,4,2,1,76,0,0
138994,-100,4,2,1,76,0,0
141903,-100,4,2,1,76,0,0
142994,-100,4,2,1,76,0,0
144085,-100,4,2,1,76,0,0
144448,-100,4,2,1,81,0,0
145175,-100,4,2,1,81,0,0
145539,-100,4,2,1,81,0,0
146266,-100,4,2,1,81,0,0
147721,-100,4,2,1,81,0,0
150085,-100,4,2,1,81,0,0
150630,-100,4,2,1,81,0,0
151357,-100,4,2,1,81,0,0
157175,-100,4,2,1,81,0,0
157539,-100,4,2,1,81,0,0
159357,-100,4,2,1,81,0,0
160357,-100,4,2,1,81,0,0
161539,-100,4,2,1,81,0,0
162994,-100,4,2,1,81,0,0
164448,-100,4,2,1,81,0,0
165721,-100,4,2,1,81,0,0
167357,-100,4,2,1,81,0,0
168630,-100,4,2,1,81,0,0

[Colours]
Combo1 : 109,188,205
Combo2 : 200,62,62
Combo3 : 67,138,224
Combo4 : 208,136,64

[HitObjects]
4,7,10994,5,0,0:0:0:0:
55,164,11357,1,0,0:2:0:0:
55,164,11539,1,0,1:2:0:0:
55,164,11721,6,2,P|72:191|79:223,1,65,14|0,1:1|0:0,0:1:0:0:
104,297,12085,2,0,P|134:284|165:279,1,65,8|0,0:2|1:2,0:2:0:0:
243,291,12448,1,0,1:2:0:0:
383,360,12812,2,0,L|388:295,1,65,8|0,0:2|0:0,0:2:0:0:
465,305,13175,6,2,P|457:243|402:212,1,130,10|8,1:1|0:2,0:1:0:0:
327,235,13721,1,0,1:2:0:0:
252,213,13903,2,2,P|272:155|333:142,1,130,2|8,1:2|0:2,0:1:0:0:
414,131,14448,1,0,1:2:0:0:
414,131,14630,1,10,1:1:0:0:
304,17,14994,6,0,P|272:25|239:27,1,65,8|0,0:2|1:2,0:0:0:0:
161,28,15357,1,0,1:2:0:0:
101,172,15721,2,0,P|109:203|115:235,1,65,8|0,0:2|0:0,0:2:0:0:
192,236,16085,2,0,P|184:267|177:299,1,65,10|0,1:1|0:2,0:2:0:0:
209,370,16448,5,10,0:2:0:0:
55,343,16812,1,0,1:2:0:0:
21,206,17175,1,10,0:2:0:0:
21,206,17357,1,0,1:1:0:0:
21,205,17539,6,0,P|23:173|32:142,1,65,12|2,1:1|0:2,0:0:0:0:
64,70,17903,2,0,P|95:75|128:73,1,65,10|2,0:2|1:2,0:2:0:0:
205,62,18266,1,2,1:2:0:0:
296,188,18630,1,8,0:2:0:0:
447,149,18994,6,2,P|471:127|500:113,2,65,2|2|10,1:2|0:2|0:2,0:1:0:0:
445,230,19539,1,0,1:2:0:0:
445,230,19721,1,2,1:2:0:0:
336,341,20085,1,8,0:2:0:0:
208,260,20448,5,8,1:1:0:0:
208,260,20630,1,2,0:2:0:0:
208,259,20812,2,0,P|177:269|147:284,1,65,10|2,0:2|1:2,0:2:0:0:
70,275,21175,2,0,P|76:211|65:147,1,130,2|8,1:2|0:0,0:0:0:0:
38,72,21721,1,2,1:1:0:0:
196,108,22085,1,2,0:2:0:0:
195,108,22266,2,0,P|201:140|203:172,1,65,10|2,0:2|1:2,0:2:0:0:
235,244,22630,2,2,P|266:249|297:261,1,65,2|0,1:2|0:0,0:1:0:0:
370,289,22994,1,8,0:2:0:0:
491,189,23357,6,0,P|444:147|427:85,1,130,12|8,1:1|0:2,0:0:0:0:
380,21,23903,2,0,P|317:14|263:48,1,130,2|0,1:2|1:2,0:2:0:0:
227,118,24448,1,10,0:2:0:0:
82,58,24812,2,0,P|91:123|91:188,1,130,8|8,1:1|0:2,0:2:0:0:
91,266,25357,2,0,B|158:249|158:249|208:282,1,130,2|0,1:2|1:2,0:2:0:0:
269,332,25903,1,10,0:2:0:0:
375,218,26266,6,0,B|469:209|469:209|481:175,2,130,8|8|0,1:1|0:2|1:2,0:2:0:0:
218,216,27357,1,8,0:2:0:0:
77,285,27721,1,8,1:1:0:0:
43,132,28085,2,0,B|31:66|31:66|81:27,1,130,8|0,0:2|1:2,0:0:0:0:
236,26,28812,1,8,0:2:0:0:
364,112,29175,6,0,P|392:56|453:38,1,130,12|10,1:1|0:2,0:0:0:0:
489,113,29721,1,2,0:2:0:0:
489,113,29903,2,0,P|479:177|467:241,1,130,2|10,1:2|0:2,0:2:0:0:
312,221,30630,2,0,P|273:209|250:200,1,65,2|0,1:2|0:0,0:0:0:0:
171,200,30994,2,0,P|140:211|109:220,1,65,2|8,0:2|1:1,0:0:0:0:
38,252,31357,2,0,P|67:309|91:370,1,130,0|8,0:0|0:2,0:0:0:0:
247,352,32085,6,0,P|276:364|308:369,1,65,8|0,1:1|0:0,0:0:0:0:
387,370,32448,2,0,P|418:364|448:352,1,65,8|0,0:0|0:0,0:0:0:0:
502,295,32812,2,0,P|464:242|462:178,1,130,8|8,0:1|0:2,0:0:0:0:
494,108,33357,1,8,1:1:0:0:
355,35,33721,1,0,0:0:0:0:
353,35,33903,2,0,P|323:49|291:50,1,65,8|0,0:2|0:0,0:0:0:0:
215,44,34266,2,0,P|223:108|230:173,1,130,2|8,0:0|0:2,0:0:0:0:
361,251,34994,6,0,P|400:297|365:346,1,130,12|8,1:1|0:2,0:2:0:0:
285,348,35539,2,0,P|222:333|158:330,1,130,2|2,1:2|0:2,0:2:0:0:
102,274,36085,1,10,0:2:0:0:
135,121,36448,6,0,P|199:124|255:93,1,130,8|8,1:1|0:2,0:2:0:0:
394,14,37175,2,0,P|440:58|452:121,1,130,2|10,1:2|0:2,0:0:0:0:
445,202,37721,1,2,1:2:0:0:
445,202,37903,5,8,1:1:0:0:
475,354,38266,1,8,0:2:0:0:
322,318,38630,2,0,B|301:295|301:295|268:294,1,65,0|0,1:2|1:2,0:2:0:0:
202,338,38994,1,8,0:2:0:0:
48,363,39357,2,0,L|38:233,1,130,8|8,1:1|0:2,0:2:0:0:
35,75,40085,2,0,P|86:39|150:44,1,130,0|8,1:2|0:2,0:0:0:0:
240,172,40812,6,0,P|303:180|361:153,1,130,12|10,1:1|0:2,0:2:0:0:
388,79,41357,2,0,P|440:46|498:70,1,130,0|2,1:2|1:2,0:0:0:0:
448,132,41903,1,10,0:2:0:0:
480,284,42266,2,0,P|416:289|375:337,1,130,8|10,1:1|0:2,0:2:0:0:
220,359,42994,1,0,0:0:0:0:
66,334,43357,1,10,0:2:0:0:
66,334,43539,1,0,1:2:0:0:
64,334,43721,6,0,B|74:258|74:258|22:243,2,130,8|10|0,1:1|0:2|0:0,0:2:0:0:
206,269,44812,1,10,0:2:0:0:
350,210,45175,2,0,B|340:134|340:134|391:119,2,130,8|10|0,1:1|0:2|0:0,0:2:0:0:
497,276,46266,1,10,0:2:0:0:
497,276,46448,1,2,1:2:0:0:
497,276,46630,6,2,L|471:148,1,130,12|10,1:1|0:2,0:1:0:0:
459,71,47175,1,2,1:2:0:0:
309,26,47539,2,0,L|244:29,1,65,0|10,1:1|0:2,0:0:0:0:
169,34,47903,1,2,1:1:0:0:
168,33,48085,2,0,P|108:55|80:112,1,130,8|10,1:1|0:2,0:2:0:0:
74,190,48630,1,2,1:2:0:0:
74,190,48812,1,4,0:0:0:0:
224,149,49175,1,10,0:2:0:0:
333,260,49539,6,0,P|294:311|237:342,1,130,10|10,1:1|0:2,0:2:0:0:
159,348,50085,1,2,1:2:0:0:
76,229,50448,5,2,1:2:0:0:
76,229,50630,1,8,0:2:0:0:
76,229,50812,1,0,0:0:0:0:
230,182,51175,1,2,0:2:0:0:
230,182,51357,1,10,0:2:0:0:
230,182,51539,1,2,1:2:0:0:
356,381,52085,1,8,0:2:0:0:
488,299,52448,6,2,P|447:252|450:188,1,130,14|8,1:1|0:2,0:1:0:0:
379,49,53175,2,0,P|317:65|253:76,1,130,2|8,1:1|0:2,0:0:0:0:
174,75,53721,2,0,B|105:46|105:46|85:67|64:83,1,130,2|2,1:1|0:2,0:0:0:0:
13,141,54266,1,8,0:2:0:0:
26,296,54630,1,2,1:2:0:0:
177,363,54994,1,8,0:2:0:0:
177,363,55175,1,2,1:1:0:0:
177,363,55357,6,0,B|265:354|265:354|284:317,2,130,8|10|2,1:1|0:2|1:2,0:0:0:0:
181,206,56448,2,0,L|188:141,1,65,10|0,0:2|1:2,0:0:0:0:
203,63,56812,2,0,P|264:48|319:80,1,130,8|8,1:1|0:2,0:0:0:0:
357,232,57539,1,0,1:2:0:0:
456,351,57903,2,0,P|461:320|470:288,1,65,8|0,0:2|1:2,0:0:0:0:
478,210,58266,6,0,P|457:149|456:85,1,130,14|10,1:1|0:2,0:0:0:0:
406,25,58812,1,2,1:1:0:0:
347,78,58994,2,0,P|287:99|226:80,1,130,2|10,1:1|0:2,0:0:0:0:
160,38,59539,1,0,1:2:0:0:
160,38,59721,1,14,1:1:0:0:
68,164,60085,5,10,0:2:0:0:
146,298,60448,1,2,1:2:0:0:
302,266,60812,1,8,0:2:0:0:
302,266,60994,1,0,1:2:0:0:
302,266,61175,6,2,B|340:198|340:198|390:186,1,130,10|10,1:1|0:2,0:1:0:0:
454,329,61903,2,2,P|390:341|325:348,1,130,2|10,1:2|0:2,0:1:0:0:
247,359,62448,2,0,L|117:346,1,130,2|0,1:2|0:2,0:0:0:0:
34,212,63175,2,0,P|44:148|47:83,1,130,2|2,1:1|1:2,0:0:0:0:
97,23,63721,1,10,0:2:0:0:
97,23,63903,6,2,P|148:61|211:74,1,130,8|2,1:1|0:2,0:1:0:0:
281,40,64448,1,8,1:2:0:0:
432,76,64812,2,0,L|444:205,1,130,2|10,1:1|0:2,0:0:0:0:
367,210,65357,2,2,P|323:163|262:145,1,130,2|0,1:2|0:2,0:1:0:0:
204,198,65903,1,10,0:2:0:0:
161,349,66266,1,2,1:2:0:0:
24,285,66630,1,10,0:2:0:0:
24,285,66812,1,2,1:2:0:0:
24,284,66994,6,2,P|40:222|62:161,1,130,10|10,1:1|0:2,0:1:0:0:
175,53,67721,2,0,P|191:115|213:176,1,130,2|10,1:1|0:2,0:0:0:0:
259,240,68266,2,0,L|379:288,1,130,2|0,1:1|0:2,0:0:0:0:
451,320,68812,1,10,0:2:0:0:
487,167,69175,1,2,1:1:0:0:
374,66,69539,1,10,0:2:0:0:
374,66,69721,6,0,B|332:67|332:67|301:29|301:29|262:27,1,130,2|0,1:2|0:0,0:0:0:0:
192,62,70266,2,0,L|229:192,1,130,10|2,0:2|1:1,0:2:0:0:
294,333,70993,1,8,0:2:0:0:
294,333,71175,6,2,B|252:334|252:334|221:296|221:296|182:294,1,130,2|0,1:2|0:2,0:1:0:0:
106,314,71721,1,8,0:2:0:0:
56,165,72085,1,2,1:1:0:0:
157,46,72448,1,10,0:2:0:0:
312,35,72812,6,2,P|376:26|440:33,1,130,14|2,1:1|1:1,0:1:0:0:
466,107,73357,2,0,P|442:167|435:231,1,130,2|0,0:2|0:0,0:0:0:0:
459,306,73903,1,8,0:2:0:0:
313,360,74266,1,10,1:1:0:0:
166,304,74630,1,10,0:2:0:0:
309,243,74994,1,2,1:1:0:0:
309,85,75357,2,0,P|278:78|252:59,1,65,10|2,0:2|1:2,0:2:0:0:
185,18,75721,6,0,L|138:139,1,130,10|8,1:1|0:2,0:0:0:0:
67,105,76266,2,0,B|97:231,1,130,2|2,1:1|1:2,0:0:0:0:
102,309,76812,1,10,0:2:0:0:
251,355,77175,2,2,P|307:324|371:328,1,130,10|8,1:1|0:2,0:1:0:0:
447,190,77903,2,0,P|458:127|473:63,1,130,0|8,1:2|0:2,0:0:0:0:
319,35,78630,6,0,P|221:30|124:24,1,195,10|2,1:1|1:2,0:0:0:0:
13,230,79721,1,10,0:2:0:0:
151,162,80085,2,2,P|248:157|345:150,1,195,8|2,1:1|1:1,0:1:0:0:
448,358,81175,2,0,P|423:339|391:331,1,65,8|6,0:2|1:2,0:2:0:0:
316,349,81539,6,0,P|251:356|186:362,1,130,0|8,1:2|0:2,0:0:0:0:
45,295,82266,1,2,1:2:0:0:
42,138,82630,1,10,0:2:0:0:
149,25,82994,2,2,P|213:37|278:46,1,130,10|10,1:1|0:2,0:1:0:0:
350,184,83721,2,0,P|414:175|478:163,1,130,0|10,1:2|0:2,0:0:0:0:
498,8,84448,5,12,1:1:0:0:
29,150,96085,6,0,B|75:138|75:138|120:69,1,130,8|10,1:1|0:2,0:0:0:0:
206,90,96630,1,2,1:2:0:0:
206,90,96812,2,0,L|134:198,1,130,2|8,1:2|0:2,0:2:0:0:
32,318,97539,6,0,B|54:340|54:340|87:335,1,65,8|2,1:1|0:2,0:2:0:0:
155,296,97903,2,0,B|188:291|188:291|210:313,1,65,10|0,0:2|1:2,0:2:0:0:
271,361,98266,1,2,1:2:0:0:
426,348,98630,1,8,0:2:0:0:
470,198,98994,6,0,B|474:116|474:116|433:90,1,130,8|10,1:1|0:2,0:0:0:0:
362,118,99539,1,2,1:2:0:0:
362,118,99721,2,0,L|356:247,1,130,2|8,1:2|0:2,0:2:0:0:
355,325,100266,1,8,1:1:0:0:
200,346,100630,5,0,0:0:0:0:
200,346,100812,2,0,B|152:337|152:337|140:325,1,65,8|0,0:2|0:0,0:0:0:0:
125,249,101175,2,0,B|139:180|139:180|100:134,1,130,2|8,0:2|0:2,0:2:0:0:
219,34,101903,6,0,B|274:73|274:73|334:56,1,130,12|10,1:1|0:2,0:0:0:0:
407,30,102448,1,2,1:2:0:0:
407,30,102630,2,0,L|406:159,1,130,2|8,1:2|0:2,0:2:0:0:
341,302,103357,6,0,L|281:274,1,65,8|2,1:1|0:2,0:2:0:0:
203,275,103721,2,0,L|146:306,1,65,10|2,0:2|1:2,0:2:0:0:
79,346,104084,1,2,1:2:0:0:
71,190,104448,1,8,0:2:0:0:
226,171,104812,6,0,B|261:116|261:116|324:129,1,130,8|10,1:1|0:2,0:0:0:0:
404,147,105357,1,2,1:2:0:0:
404,147,105539,2,0,B|432:58|432:58|468:55,1,130,2|8,1:2|0:2,0:2:0:0:
492,129,106085,1,8,0:1:0:0:
408,260,106448,5,0,0:0:0:0:
408,260,106630,2,0,B|343:249,1,65,10|2,0:2|1:2,0:2:0:0:
268,228,106994,2,0,B|186:191|186:191|182:151,1,130,2|8,1:2|1:2,1:2:0:0:
39,87,107721,6,0,B|59:129|59:129|33:205|33:205|49:271,1,195,12|0,1:1|1:2,0:2:0:0:
257,378,108812,1,8,0:2:0:0:
348,252,109175,2,0,B|420:138|420:138|480:137,2,195,8|2|8,1:1|1:2|0:2,0:2:0:0:
232,362,110630,6,0,P|203:347|184:321,1,65,8|2,1:1|0:2,0:2:0:0:
179,243,110994,1,10,0:2:0:0:
198,88,111357,2,0,P|227:100|259:98,1,65,2|2,1:2|1:2,0:0:0:0:
330,64,111721,1,8,0:2:0:0:
480,22,112085,1,8,1:1:0:0:
493,177,112448,1,10,0:2:0:0:
494,332,112812,2,0,P|465:320|432:322,1,65,2|2,1:2|1:2,0:0:0:0:
369,368,113176,1,8,0:2:0:0:
212,359,113539,6,0,P|148:351|84:356,1,130,12|10,1:1|0:2,0:2:0:0:
10,373,114085,1,2,1:2:0:0:
10,373,114266,1,2,1:2:0:0:
52,222,114630,1,8,0:2:0:0:
198,167,114994,2,0,B|201:136|183:83|183:83|139:73,2,130,8|10|2,1:1|0:2|1:2,0:2:0:0:
312,281,116085,1,10,0:2:0:0:
312,281,116266,1,0,0:0:0:0:
311,281,116448,6,0,P|349:228|374:168,1,130,8|8,1:1|0:2,0:2:0:0:
332,17,117175,2,0,P|309:39|277:43,1,65,2|2,1:2|1:2,0:2:0:0:
199,37,117539,1,8,0:2:0:0:
47,77,117903,2,0,P|106:100|135:156,1,130,8|10,1:1|0:2,0:0:0:0:
70,197,118448,1,2,1:2:0:0:
70,197,118630,2,0,P|78:261|89:325,1,130,2|8,1:2|0:2,0:0:0:0:
168,349,119175,1,2,1:2:0:0:
168,349,119357,6,0,B|316:344|316:344|277:317,1,195,12|2,1:1|1:2,0:2:0:0:
251,84,120448,1,8,0:2:0:0:
100,46,120812,2,0,B|34:22|5:39|5:39|-17:84|15:130,1,195,8|2,1:1|1:2,0:2:0:0:
15,208,121539,2,0,B|-3:309|-3:309|17:327,1,130,2|8,1:2|0:2,0:0:0:0:
99,331,122085,1,2,1:2:0:0:
99,331,122266,6,0,P|128:344|159:340,1,65,0|2,0:0|0:2,0:0:0:0:
235,320,122630,1,10,0:2:0:0:
369,243,122994,2,0,P|388:216|391:184,1,65,2|2,1:2|1:2,0:0:0:0:
386,106,123358,1,8,0:2:0:0:
267,4,123721,1,8,1:1:0:0:
120,55,124084,1,10,0:2:0:0:
41,188,124448,2,0,P|26:217|32:249,1,65,2|0,1:2|1:2,0:0:0:0:
75,315,124812,1,8,0:2:0:0:
228,339,125175,6,0,B|301:363|366:334|366:334|414:356,1,195,8|2,1:1|1:2,0:2:0:0:
487,134,126266,1,8,0:2:0:0:
360,39,126630,2,0,P|297:38|243:73,2,130,8|8|2,1:1|0:2|1:2,0:2:0:0:
334,193,127721,1,8,0:2:0:0:
334,193,127902,1,0,1:2:0:0:
334,192,128085,6,0,P|276:222|212:222,1,130,8|10,1:1|0:2,0:0:0:0:
70,289,128812,2,0,P|102:290|127:311,1,65,0|0,1:2|0:0,0:0:0:0:
169,377,129176,1,10,0:2:0:0:
323,366,129539,2,0,P|341:305|392:266,1,130,8|8,1:1|0:2,0:2:0:0:
467,238,130084,1,2,1:2:0:0:
466,238,130266,2,0,P|402:235|337:226,1,130,2|10,1:2|0:2,0:2:0:0:
270,196,130811,1,2,1:2:0:0:
269,196,130994,6,2,P|261:131|248:67,1,130,12|10,1:1|0:2,0:1:0:0:
310,19,131539,1,2,1:2:0:0:
465,25,131903,2,0,P|476:56|478:88,1,65,2|10,1:2|0:2,0:0:0:0:
478,170,132267,1,2,1:2:0:0:
478,169,132449,2,0,P|467:233|436:290,1,130,0|10,0:0|0:2,0:0:0:0:
379,342,132994,2,0,P|323:309|260:315,1,130,2|2,1:2|3:2,0:2:0:0:
198,363,133539,1,8,3:2:0:0:
40,358,133903,6,0,P|40:294|31:229,1,130,10|10,1:1|0:2,0:0:0:0:
11,153,134449,1,0,1:2:0:0:
128,50,134812,5,0,1:2:0:0:
128,50,134994,1,10,0:2:0:0:
128,50,135176,1,0,1:2:0:0:
271,135,135539,1,0,0:0:0:0:
271,135,135721,1,10,0:2:0:0:
271,135,135903,1,0,1:2:0:0:
306,366,136448,1,10,0:2:0:0:
453,315,136812,6,2,P|424:258|444:198,1,130,12|10,1:1|0:2,0:1:0:0:
460,43,137539,2,0,P|397:59|333:72,1,130,2|10,1:1|0:2,0:0:0:0:
257,93,138085,2,0,B|178:47|178:47|139:50,1,130,2|0,1:2|0:0,0:0:0:0:
64,69,138630,1,10,0:2:0:0:
14,214,138994,1,2,1:2:0:0:
82,365,139358,1,10,0:2:0:0:
82,365,139539,1,2,1:2:0:0:
82,365,139721,6,0,B|160:326|160:326|193:352,2,130,8|8|0,1:1|0:2|0:0,0:1:0:0:
15,223,140812,2,0,L|74:195,1,65,8|0,0:2|1:2,0:2:0:0:
149,173,141176,2,0,L|235:269,1,130,8|8,1:1|0:2,0:2:0:0:
349,377,141903,1,0,1:2:0:0:
430,243,142267,2,0,P|437:212|423:183,1,65,8|0,0:2|0:0,0:2:0:0:
367,127,142630,6,2,P|305:134|259:90,1,130,14|8,1:1|0:2,0:1:0:0:
189,68,143176,1,2,1:1:0:0:
189,68,143358,2,2,L|165:195,1,130,0|8,1:2|0:2,0:1:0:0:
153,276,143903,1,2,1:1:0:0:
153,276,144085,1,8,1:1:0:0:
299,330,144449,5,10,0:2:0:0:
269,177,144812,1,2,1:1:0:0:
297,30,145176,1,10,0:2:0:0:
297,30,145358,1,2,1:2:0:0:
297,30,145539,6,2,B|167:43,1,130,12|8,1:1|0:2,0:1:0:0:
60,158,146267,2,2,L|99:281,1,130,2|8,1:2|0:2,0:1:0:0:
134,351,146812,2,2,P|198:360|263:356,1,130,8|8,1:1|0:1,0:1:0:0:
415,336,147539,2,2,P|400:273|352:231,1,130,8|0,1:1|0:1,0:1:0:0:
277,209,148085,1,8,0:2:0:0:
276,208,148266,6,0,P|339:197|382:150,1,130,10|2,1:1|0:2,0:0:0:0:
409,76,148812,1,8,0:2:0:0:
260,23,149176,2,0,P|199:46|137:64,1,130,2|8,1:1|0:2,0:0:0:0:
64,90,149721,2,0,P|122:114|152:171,1,130,2|2,1:1|0:2,0:0:0:0:
147,249,150267,1,8,0:2:0:0:
272,341,150630,1,2,1:2:0:0:
383,232,150994,2,0,P|409:213|440:208,1,65,10|0,0:2|0:0,0:2:0:0:
509,243,151358,6,2,P|455:277|427:335,1,130,10|8,1:1|0:2,0:1:0:0:
272,340,152085,2,2,P|257:278|206:241,1,130,2|8,1:2|0:2,0:1:0:0:
129,252,152630,2,0,P|65:257|15:218,1,130,0|0,1:1|0:0,0:2:0:0:
52,148,153176,1,10,0:2:0:0:
191,79,153539,1,2,1:2:0:0:
337,147,153903,1,8,0:2:0:0:
337,147,154085,6,0,B|278:173|262:247,1,130,2|2,1:1|0:2,0:0:0:0:
300,314,154630,2,0,L|426:283,1,130,10|2,0:2|1:1,0:2:0:0:
504,149,155357,1,8,0:2:0:0:
504,149,155539,6,0,B|477:84|405:74,1,130,2|2,1:1|0:2,0:0:0:0:
328,64,156085,1,10,0:2:0:0:
183,135,156449,1,2,1:1:0:0:
33,91,156812,1,10,0:2:0:0:
99,232,157175,6,2,B|199:255|199:255|222:241,1,130,10|2,1:1|1:2,0:1:0:0:
242,165,157721,2,2,B|226:142|226:142|126:121,1,130,8|2,1:1|1:2,0:1:0:0:
59,161,158266,1,8,0:2:0:0:
65,315,158630,2,0,P|128:334|192:338,1,130,2|10,0:1|0:2,0:0:0:0:
282,223,159357,1,2,1:2:0:0:
415,267,159721,2,2,P|437:290|453:318,1,65,10|0,0:2|0:0,0:1:0:0:
498,383,160085,6,0,L|480:254,1,130,10|8,1:1|0:2,0:0:0:0:
468,177,160630,2,0,P|410:152|374:99,1,130,0|2,1:1|1:2,0:0:0:0:
332,31,161175,2,0,P|301:32|278:54,1,65,10|2,0:2|1:2,0:0:0:0:
296,130,161539,2,2,P|319:190|317:254,1,130,8|10,1:1|0:2,0:1:0:0:
181,332,162267,2,0,P|176:267|197:206,1,130,2|10,1:2|0:2,0:0:0:0:
220,52,162994,6,2,B|72:90|72:90|103:87|113:96,1,195,12|2,1:1|1:2,0:1:0:0:
139,328,164085,1,10,0:2:0:0:
287,377,164449,2,2,B|311:298|376:259|376:259|412:282,1,195,8|2,1:1|1:1,0:1:0:0:
389,59,165539,1,10,0:2:0:0:
389,59,165721,1,6,1:2:0:0:
389,59,165903,6,0,B|326:73|326:73|262:56,1,130,0|8,0:0|0:2,0:0:0:0:
108,42,166630,1,2,1:2:0:0:
89,198,166994,1,8,0:2:0:0:
244,212,167357,2,2,B|307:226|307:226|370:209,1,130,10|10,1:1|0:2,0:1:0:0:
365,365,168085,2,0,B|302:379|302:379|238:362,1,130,2|10,1:2|0:2,0:0:0:0:
86,327,168812,5,12,1:1:0:0:
