osu file format v14

[General]
AudioFilename: audio.mp3
AudioLeadIn: 0
PreviewTime: 59994
Countdown: 0
SampleSet: Soft
StackLeniency: 0.7
Mode: 0
LetterboxInBreaks: 0
WidescreenStoryboard: 1

[Editor]
DistanceSpacing: 0.4
BeatDivisor: 4
GridSize: 32
TimelineZoom: 2.799999

[Metadata]
Title:Jam Over The Barrier!
TitleUnicode:Jam Over The Barrier!
Artist:Falcom Sound Team jdk vs. Quad City DJ's
ArtistUnicode:Falcom Sound Team jdk vs. Quad City DJ's
Creator:Deca
Version:LLOYD WILL NEVER BE BALLIN!!!
Source:英雄伝説 零の軌跡
Tags:碧の軌跡 michael lloyd bannings jordan saki mordred momiyama impurepug fixxis shurelia yogurtt 籾山 紗希 get trails to azure from zero no kiseki eiyuu densetsu the legend of black man heroes crossball crossbell slam space bugs mishy bunny ost original soundtrack theaggyyu j.d.k. hip hop english jrpg videogame japanese role playing game versus
BeatmapID:2786148
BeatmapSetID:1337586

[Difficulty]
HPDrainRate:6
CircleSize:4
OverallDifficulty:8
ApproachRate:9.2
SliderMultiplier:1.72
SliderTickRate:1

[Events]
//Background and Video events
0,0,"dKDRSex[1]_waifu2x_art_noise1_scale_tta_1.jpg",0,0
//Break Periods
2,6103,8242
2,84648,95151
//Storyboard Layer 0 (Background)
//Storyboard Layer 1 (Fail)
//Storyboard Layer 2 (Pass)
//Storyboard Layer 3 (Foreground)
//Storyboard Layer 4 (Overlay)
//Storyboard Sound Samples

[TimingPoints]
85,363.636363636364,4,2,2,76,1,0
85,-133.333333333333,4,2,2,76,0,0
11721,-76.9230769230769,4,2,2,76,0,0
17357,-83.3333333333333,4,2,2,76,0,0
17721,-76.9230769230769,4,2,2,76,0,0
23357,-90.9090909090909,4,2,2,66,0,0
29175,-76.9230769230769,4,2,2,66,0,0
29357,-83.3333333333333,4,2,2,66,0,0
34994,-90.9090909090909,4,2,2,66,0,0
40812,-83.3333333333333,4,2,2,66,0,0
46266,-66.6666666666667,4,2,2,66,0,0
46630,-66.6666666666667,4,2,2,76,0,0
46994,-76.9230769230769,4,2,2,76,0,0
48630,-55.5555555555556,4,2,2,76,0,0
48812,-55.5555555555556,4,2,2,76,0,0
49175,-76.9230769230769,4,2,2,76,0,0
52448,-66.6666666666667,4,2,2,76,0,0
52812,-76.9230769230769,4,2,2,76,0,0
60448,-76.9230769230769,4,2,2,81,0,0
61175,-71.4285714285714,4,2,2,81,0,0
62630,-71.4285714285714,4,2,2,81,0,0
69903,-66.6666666666667,4,2,2,81,0,0
70266,-66.6666666666667,4,2,2,81,0,0
71175,-71.4285714285714,4,2,2,81,0,0
72812,-66.6666666666667,4,2,2,81,0,0
74266,-58.8235294117647,4,2,2,81,0,0
75357,-66.6666666666667,4,2,2,81,0,0
76812,-58.8235294117647,4,2,2,81,0,0
77175,-66.6666666666667,4,2,2,81,0,0
78266,-76.9230769230769,4,2,2,81,0,0
81357,-66.6666666666667,4,2,2,81,0,0
82630,-76.9230769230769,4,2,2,81,0,0
84448,-100,4,2,2,81,0,0
96266,-83.3333333333333,4,2,2,66,0,0
107721,-76.9230769230769,4,2,2,66,0,0
108721,-76.9230769230769,4,2,2,66,0,0
109175,-76.9230769230769,4,2,2,66,0,0
110448,-76.9230769230769,4,2,2,66,0,0
112085,-76.9230769230769,4,2,2,66,0,0
113539,-76.9230769230769,4,2,2,66,0,0
114994,-76.9230769230769,4,2,2,66,0,0
117721,-66.6666666666667,4,2,2,66,0,0
119175,-50,4,2,2,66,0,0
119903,-76.9230769230769,4,2,2,66,0,0
120630,-50,4,2,2,66,0,0
121357,-76.9230769230769,4,2,2,66,0,0
122085,-76.9230769230769,4,2,2,66,0,0
122630,-83.3333333333333,4,2,2,66,0,0
123721,-76.9230769230769,4,2,2,66,0,0
124994,-50,4,2,2,66,0,0
125357,-62.5,4,2,2,66,0,0
126630,-62.5,4,2,2,66,0,0
127357,-76.9230769230769,4,2,2,66,0,0
129539,-66.6666666666667,4,2,2,66,0,0
130266,-58.8235294117647,4,2,2,66,0,0
130994,-58.8235294117647,4,2,2,76,0,0
133175,-83.3333333333333,4,2,2,76,0,0
135357,-71.4285714285714,4,2,2,76,0,0
135721,-90.9090909090909,4,2,2,76,0,0
136812,-76.9230769230769,4,2,2,76,0,0
137903,-66.6666666666667,4,2,2,76,0,0
138266,-71.4285714285714,4,2,2,76,0,0
138994,-83.3333333333333,4,2,2,76,0,0
141903,-71.4285714285714,4,2,2,76,0,0
142994,-83.3333333333333,4,2,2,76,0,0
144085,-83.3333333333333,4,2,2,76,0,0
144448,-83.3333333333333,4,2,2,81,0,0
145175,-66.6666666666667,4,2,2,81,0,0
145539,-66.6666666666667,4,2,2,81,0,0
146266,-66.6666666666667,4,2,2,81,0,0
147721,-76.9230769230769,4,2,2,81,0,0
150085,-66.6666666666667,4,2,2,81,0,0
150630,-66.6666666666667,4,2,2,81,0,0
151357,-71.4285714285714,4,2,2,81,0,0
156448,-62.5,4,2,2,81,0,0
157175,-58.8235294117647,4,2,2,81,0,0
157539,-66.6666666666667,4,2,2,81,0,0
159357,-58.8235294117647,4,2,2,81,0,0
160357,-52.6315789473684,4,2,2,81,0,0
161539,-43.4782608695652,4,2,2,81,0,0
162994,-66.6666666666667,4,2,2,81,0,0
164448,-76.9230769230769,4,2,2,81,0,0
165721,-62.5,4,2,2,81,0,0
167357,-58.8235294117647,4,2,2,81,0,0
168630,-76.9230769230769,4,2,2,81,0,0

[Colours]
Combo1 : 109,188,205
Combo2 : 200,62,62
Combo3 : 67,138,224
Combo4 : 208,136,64

[HitObjects]
155,63,85,6,0,B|137:51|159:-13|192:-2|235:37|213:72|213:72|246:90|246:90|329:79|328:232|425:237|425:237|350:346|240:386|129:345|129:345|200:279|101:163|172:117|172:117|181:92,2,1032.00003936768,2|2|2,1:2|1:2|1:2,0:2:0:0:
256,192,8812,5,2,1:2:0:0:
256,192,8903,12,0,11357,0:2:0:0:
64,96,11539,5,2,1:2:0:0:
64,96,11630,1,2,1:2:0:0:
64,95,11721,2,2,P|47:149|36:204,1,111.799994882202,14|0,1:1|0:0,0:1:0:0:
61,272,11994,1,0,1:2:0:0:
120,314,12085,2,0,P|146:305|174:300,1,55.8999974411012,8|0,0:2|0:0,0:2:0:0:
394,335,12266,2,0,P|367:343|340:349,1,55.8999974411012,0|0,1:2|0:0,0:0:0:0:
243,372,12448,1,0,1:2:0:0:
271,277,12630,1,0,1:2:0:0:
299,182,12812,1,8,0:2:0:0:
125,39,12994,5,0,0:0:0:0:
125,39,13085,1,0,0:2:0:0:
124,38,13175,2,2,P|179:52|234:55,1,111.799994882202,2|0,1:2|0:2,0:1:0:0:
298,16,13448,1,0,1:2:0:0:
372,8,13539,2,0,P|427:10|481:24,1,111.799994882202,8|0,0:2|1:2,0:0:0:0:
508,93,13812,1,0,0:0:0:0:
456,145,13903,2,0,P|442:199|439:254,1,111.799994882202,2|0,1:2|0:0,0:1:0:0:
439,254,14175,1,0,0:2:0:0:
439,254,14266,1,8,0:2:0:0:
288,384,14448,5,2,1:2:0:0:
288,384,14539,1,2,1:2:0:0:
288,384,14630,2,0,B|319:339|319:339|293:288,1,111.799994882202,2|0,1:2|0:0,0:1:0:0:
226,263,14903,1,0,1:2:0:0:
157,243,14994,2,0,L|146:188,1,55.8999974411012,8|0,0:2|0:0,0:0:0:0:
192,0,15175,2,0,L|202:54,1,55.8999974411012,0|0,1:2|0:0,0:0:0:0:
272,144,15357,1,0,1:2:0:0:
174,121,15539,1,0,1:2:0:0:
76,98,15721,1,8,0:2:0:0:
272,144,15903,1,0,0:0:0:0:
53,196,16085,5,2,1:2:0:0:
295,46,16357,1,0,0:0:0:0:
295,46,16448,2,0,P|347:68|402:61,1,111.799994882202,10|0,0:2|1:2,0:0:0:0:
229,279,16812,2,0,P|210:226|189:174,1,111.799994882202,2|0,1:2|1:2,0:0:0:0:
504,72,17175,2,0,P|493:97|484:124,1,55.8999974411012,10|0,0:2|0:2,0:2:0:0:
493,232,17357,1,2,1:2:0:0:
493,232,17448,1,0,0:0:0:0:
493,232,17539,1,12,1:1:0:0:
351,384,17721,6,0,P|367:360|376:334,1,55.8999974411012,2|0,0:2|0:0,0:0:0:0:
370,261,17903,2,0,P|364:233|351:208,1,55.8999974411012,10|0,0:2|0:2,0:2:0:0:
295,161,18085,2,0,P|271:145|245:136,1,55.8999974411012,2|0,1:2|0:2,0:2:0:0:
43,225,18266,2,0,P|98:215|151:199,1,111.799994882202,2|0,1:2|0:0,0:2:0:0:
165,183,18539,1,0,0:2:0:0:
176,164,18630,1,8,0:2:0:0:
59,304,18812,2,0,P|64:331|72:358,1,55.8999974411012,2|0,1:2|0:2,0:0:0:0:
192,384,18994,6,0,P|197:356|205:329,1,55.8999974411012,2|0,1:2|0:0,0:1:0:0:
270,294,19175,2,0,P|297:299|324:307,1,55.8999974411012,2|0,0:2|1:2,0:0:0:0:
422,378,19357,2,0,P|449:373|476:365,1,55.8999974411012,10|0,0:2|0:0,0:0:0:0:
512,300,19539,2,0,P|507:272|499:245,1,55.8999974411012,2|0,1:2|0:2,0:2:0:0:
428,77,19721,2,0,B|395:81|362:58|362:58|327:121|412:212,1,223.599989764405,2|8,1:2|0:2,0:1:0:0:
512,160,20266,1,2,1:2:0:0:
512,160,20357,1,0,1:0:0:0:
512,160,20448,1,8,1:1:0:0:
399,197,20630,6,0,L|329:206,1,55.8999974411012,2|0,0:2|1:2,0:2:0:0:
185,173,20812,2,0,L|240:165,1,55.8999974411012,10|0,0:2|0:2,0:2:0:0:
263,290,20994,2,0,L|193:299,1,55.8999974411012,2|0,1:2|0:2,0:2:0:0:
0,224,21175,2,0,L|116:238,1,111.799994882202,2|0,1:2|0:0,0:2:0:0:
110,238,21448,1,0,0:2:0:0:
110,238,21539,1,8,0:2:0:0:
336,112,21721,5,2,1:2:0:0:
336,112,22085,2,0,L|342:56,1,55.8999974411012,2|0,0:2|1:2,0:2:0:0:
450,182,22266,2,0,L|443:237,1,55.8999974411012,10|0,0:2|0:2,0:2:0:0:
229,248,22448,2,0,L|235:192,1,55.8999974411012,2|0,1:2|0:2,0:2:0:0:
80,16,22630,2,0,B|14:79|14:79|62:202,1,223.599989764405,2|8,1:2|0:2,0:1:0:0:
290,364,23175,5,0,3:0:0:0:
220,384,23266,1,0,3:2:0:0:
156,348,23357,2,0,L|141:206,1,141.900004330444,14|0,1:1|1:2,0:0:0:0:
153,187,23721,1,8,0:2:0:0:
448,160,23903,1,2,1:2:0:0:
305,62,24085,1,0,0:0:0:0:
293,234,24266,1,0,1:2:0:0:
349,152,24448,1,10,0:2:0:0:
349,152,24539,1,0,1:0:0:0:
349,152,24630,1,0,1:2:0:0:
511,352,24812,6,0,P|445:371|384:340,1,141.900004330444,10|0,1:1|1:0,0:2:0:0:
383,310,25175,1,8,0:2:0:0:
256,384,25357,2,0,P|229:293|197:204,1,189.200005773926,2|0,1:2|1:2,0:2:0:0:
378,62,25903,2,0,P|362:106|349:152,1,94.600002886963,10|0,0:2|1:2,0:2:0:0:
400,240,26175,1,0,1:0:0:0:
400,240,26266,2,0,P|355:188|286:191,1,141.900004330444,10|0,1:1|1:2,0:2:0:0:
270,217,26630,1,8,0:2:0:0:
96,288,26812,2,0,P|50:274|6:258,1,94.600002886963,0|0,1:2|1:2,0:0:0:0:
86,192,27175,1,0,1:2:0:0:
223,353,27357,2,0,P|267:336|312:323,1,94.600002886963,8|0,0:2|0:0,0:2:0:0:
335,330,27630,1,0,1:2:0:0:
357,337,27721,1,8,1:1:0:0:
512,64,27994,5,0,1:2:0:0:
512,64,28085,1,8,0:2:0:0:
416,128,28266,1,0,1:2:0:0:
394,121,28357,1,0,1:0:0:0:
372,114,28448,1,0,1:2:0:0:
289,88,28630,1,0,1:2:0:0:
205,62,28812,1,8,0:2:0:0:
122,36,28994,1,0,1:2:0:0:
100,29,29085,1,0,1:2:0:0:
78,22,29176,1,12,1:1:0:0:
0,224,29357,6,0,P|25:220|49:211,1,51.599998425293,2|0,0:2|1:2,0:2:0:0:
123,109,29539,2,0,P|113:132|109:158,1,51.599998425293,10|0,0:2|0:0,0:0:0:0:
125,236,29721,2,0,P|140:256|160:272,1,51.599998425293,2|0,1:2|0:2,0:2:0:0:
386,298,29903,2,0,P|337:279|288:265,1,103.199996850586,2|0,1:2|0:0,0:2:0:0:
263,272,30175,1,0,0:2:0:0:
238,279,30266,1,8,0:2:0:0:
482,384,30448,2,0,P|472:359|465:335,1,51.599998425293,2|0,1:2|0:0,0:0:0:0:
512,192,30630,6,0,P|487:201|463:208,1,51.599998425293,2|0,1:2|0:2,0:2:0:0:
397,174,30812,2,0,P|386:150|374:127,1,51.599998425293,2|0,0:2|0:0,0:0:0:0:
264,44,30994,2,0,P|239:34|215:27,1,51.599998425293,10|0,0:2|0:2,0:2:0:0:
148,61,31176,2,0,P|138:85|126:108,1,51.599998425293,2|0,1:2|0:0,0:0:0:0:
79,309,31357,2,0,B|26:338|26:338|-17:266|45:186,1,206.399993701172,2|8,1:2|0:2,0:2:0:0:
134,115,31903,1,2,1:2:0:0:
134,115,31994,1,0,1:0:0:0:
134,115,32085,1,0,1:0:0:0:
224,224,32266,6,0,P|249:228|273:237,1,51.599998425293,2|0,0:2|1:2,0:2:0:0:
384,175,32448,2,0,P|364:191|349:212,1,51.599998425293,10|0,0:2|0:2,0:2:0:0:
347,339,32630,2,0,P|336:315|332:289,1,51.599998425293,2|0,1:2|0:2,0:2:0:0:
496,112,32812,2,0,L|478:213,1,103.199996850586,2|0,1:2|0:0,0:2:0:0:
465,236,33085,1,0,1:2:0:0:
452,258,33175,1,8,0:2:0:0:
352,32,33357,5,2,1:2:0:0:
352,32,33721,2,0,P|326:39|301:43,1,51.599998425293,2|0,0:2|1:2,0:2:0:0:
160,128,33903,2,0,P|185:134|210:138,1,51.599998425293,10|0,0:2|0:2,0:2:0:0:
352,224,34085,2,0,P|326:230|301:234,1,51.599998425293,2|0,1:2|0:2,0:2:0:0:
42,375,34266,2,0,P|139:367|178:277,1,206.399993701172,2|8,1:2|0:2,0:2:0:0:
32,53,34812,5,0,3:2:0:0:
0,117,34903,1,0,3:2:0:0:
32,181,34994,2,0,L|183:205,1,141.900004330444,12|0,1:1|1:0,0:2:0:0:
193,194,35357,1,8,0:2:0:0:
320,352,35539,2,0,P|353:263|392:177,1,189.200005773926,2|0,1:2|1:2,0:0:0:0:
512,192,36085,2,0,P|490:201|468:209,1,47.3000014434815,10|0,0:2|0:0,0:2:0:0:
272,161,36266,2,0,P|293:152|316:144,1,47.3000014434815,2|0,1:2|0:2,0:0:0:0:
496,336,36448,6,0,P|427:304|356:278,1,141.900004330444,10|0,1:1|1:0,0:2:0:0:
342,289,36812,1,8,0:2:0:0:
128,352,36994,1,0,1:2:0:0:
192,192,37175,1,2,1:2:0:0:
22,217,37357,1,0,1:2:0:0:
113,254,37539,2,0,P|111:230|105:207,1,47.3000014434815,10|0,0:2|0:2,0:2:0:0:
0,64,37721,5,2,1:2:0:0:
0,64,37812,1,0,1:2:0:0:
0,64,37903,2,0,P|68:80|144:91,1,141.900004330444,8|0,1:1|1:2,0:2:0:0:
160,81,38266,1,8,0:2:0:0:
320,160,38448,1,0,1:2:0:0:
345,63,38630,1,0,1:2:0:0:
224,185,38812,1,0,1:2:0:0:
398,238,38994,1,8,0:2:0:0:
398,238,39085,1,0,1:0:0:0:
398,238,39175,2,0,L|345:250,1,47.3000014434815,2|0,1:2|0:2,0:0:0:0:
160,384,39357,6,0,L|298:352,1,141.900004330444,2|0,1:2|1:2,0:2:0:0:
320,360,39721,1,8,0:2:0:0:
480,384,39903,1,0,1:2:0:0:
480,384,39994,1,0,1:0:0:0:
480,384,40085,1,0,1:2:0:0:
421,234,40266,1,0,1:2:0:0:
320,360,40448,1,8,0:2:0:0:
0,64,40812,6,0,P|23:137|42:212,1,154.799995275879,14|0,1:1|1:2,0:2:0:0:
37,238,41175,2,0,P|87:250|136:266,1,103.199996850586,10|0,0:2|1:2,0:2:0:0:
151,287,41448,1,2,0:2:0:0:
288,320,41630,1,2,0:2:0:0:
303,341,41721,1,2,1:2:0:0:
440,374,41903,1,10,0:2:0:0:
440,374,42085,2,0,L|490:365,1,51.599998425293,2|0,1:2|0:0,0:0:0:0:
489,116,42266,6,0,P|448:158|342:140,1,154.799995275879,10|0,1:1|1:2,0:2:0:0:
330,171,42630,2,0,P|312:122|300:72,1,103.199996850586,10|0,0:2|1:2,0:2:0:0:
312,48,42903,1,2,0:2:0:0:
500,92,43085,1,2,0:2:0:0:
489,116,43176,1,2,1:2:0:0:
423,14,43357,1,10,0:2:0:0:
329,232,43539,5,0,1:2:0:0:
329,232,43630,1,0,1:0:0:0:
329,232,43721,2,0,P|253:248|176:256,1,154.799995275879,10|0,1:1|1:2,0:2:0:0:
55,292,44085,2,0,P|105:281|157:274,1,103.199996850586,10|0,0:2|1:2,0:2:0:0:
174,292,44357,1,2,0:2:0:0:
67,198,44539,1,2,0:2:0:0:
58,173,44630,1,2,1:2:0:0:
150,32,44812,1,10,0:2:0:0:
150,32,44994,2,0,P|141:55|135:81,1,51.599998425293,2|0,1:2|0:0,0:0:0:0:
256,192,45175,6,0,P|331:175|408:167,1,154.799995275879,10|0,1:1|1:2,0:2:0:0:
431,179,45539,2,0,P|436:127|448:77,1,103.199996850586,8|0,0:2|1:2,0:2:0:0:
467,60,45812,1,2,0:2:0:0:
288,96,45994,1,2,0:2:0:0:
263,88,46085,1,2,1:2:0:0:
114,21,46266,6,0,P|128:49|140:79,1,64.5000024604798,10|0,0:2|0:2,0:2:0:0:
141,339,46448,2,0,P|150:308|157:276,1,64.5000024604798,2|0,1:2|0:2,0:2:0:0:
0,194,46630,6,2,B|75:173|75:173|110:191|110:191|195:167,1,193.50000738144,12|0,1:1|1:2,0:1:0:0:
205,153,46994,2,0,L|259:163,1,55.8999974411012,10|0,0:2|0:2,0:2:0:0:
320,224,47175,1,2,1:2:0:0:
320,224,47266,1,2,0:2:0:0:
493,102,47448,1,2,0:2:0:0:
512,320,47630,1,2,0:2:0:0:
512,320,47721,1,10,0:2:0:0:
437,229,47903,5,2,1:2:0:0:
437,229,47994,1,2,1:0:0:0:
437,229,48085,2,0,P|428:202|424:174,1,55.8999974411012,2|0,1:2|0:0,0:2:0:0:
512,64,48266,2,0,P|492:84|471:101,1,55.8999974411012,2|0,0:2|0:0,0:0:0:0:
331,81,48448,2,0,P|358:87|384:97,1,55.8999974411012,10|0,0:2|0:0,0:2:0:0:
453,322,48630,6,0,P|416:308|378:300,1,77.3999976379395,2|0,1:2|0:0,0:0:0:0:
256,383,48812,2,0,P|335:309|298:206,1,232.199992913819,2|0,1:2|1:2,0:1:0:0:
85,328,49175,2,0,P|167:312|247:288,1,167.699992323304,10|0,0:2|0:2,0:1:0:0:
297,205,49539,5,10,1:1:0:0:
111,132,49721,1,2,0:2:0:0:
304,95,49903,1,10,0:2:0:0:
104,242,50085,1,2,1:2:0:0:
104,242,50175,1,2,0:2:0:0:
111,132,50357,1,2,0:2:0:0:
290,315,50539,1,2,0:0:0:0:
290,315,50630,1,10,0:2:0:0:
26,283,50812,5,0,0:0:0:0:
26,283,50903,1,0,0:2:0:0:
26,283,50994,2,0,P|19:255|16:228,2,55.8999974411012,2|2|2,1:2|0:2|0:2,0:2:0:0:
290,315,51357,1,10,0:2:0:0:
160,384,51539,1,2,1:2:0:0:
145,359,51630,2,0,L|155:304,1,55.8999974411012,2|0,0:2|1:2,0:2:0:0:
197,246,51812,2,0,L|207:191,1,55.8999974411012,2|0,0:2|1:2,0:2:0:0:
254,135,51994,1,2,0:2:0:0:
254,135,52085,1,8,0:2:0:0:
64,64,52266,2,0,L|74:118,1,55.8999974411012,2|0,1:2|0:2,0:2:0:0:
31,262,52448,6,0,B|80:253|107:210|107:210|155:209|197:246,1,193.50000738144,14|0,1:1|1:2,0:1:0:0:
210,270,52812,1,8,0:2:0:0:
466,242,52994,1,2,1:2:0:0:
324,128,53175,1,2,1:2:0:0:
352,384,53357,1,2,1:2:0:0:
352,384,53448,2,0,L|369:313,1,55.8999974411012,2|8,0:2|0:2,0:2:0:0:
448,0,53721,6,0,P|437:31|441:57,1,55.8999974411012,2|0,1:2|0:0,0:0:0:0:
512,112,53903,2,0,P|434:79|353:58,1,167.699992323304,2|0,1:2|1:0,0:2:0:0:
327,68,54266,1,8,0:2:0:0:
466,242,54448,1,2,1:2:0:0:
245,275,54630,1,2,1:2:0:0:
347,195,54811,1,2,1:2:0:0:
347,195,54903,2,0,P|356:237|358:269,1,55.8999974411012,2|8,0:2|0:2,0:2:0:0:
160,384,55175,5,0,1:1:0:0:
150,357,55266,1,0,1:2:0:0:
140,330,55357,1,2,1:2:0:0:
224,192,55539,1,0,0:2:0:0:
86,108,55721,1,10,0:2:0:0:
2,246,55903,1,0,1:2:0:0:
188,95,56085,5,2,1:2:0:0:
267,296,56266,1,0,1:2:0:0:
267,296,56357,1,0,1:2:0:0:
267,296,56448,1,10,0:2:0:0:
368,257,56630,1,0,1:2:0:0:
329,156,56812,5,2,1:2:0:0:
128,234,56993,1,0,0:2:0:0:
51,33,57175,1,10,0:2:0:0:
89,133,57357,1,0,1:2:0:0:
290,55,57539,5,2,1:2:0:0:
336,163,57721,1,0,1:2:0:0:
336,163,57812,1,0,1:2:0:0:
336,163,57903,1,10,0:2:0:0:
431,117,58085,1,0,1:2:0:0:
190,93,58266,5,14,1:1:0:0:
160,190,58448,1,2,0:2:0:0:
130,287,58630,1,10,0:2:0:0:
100,384,58812,1,0,1:1:0:0:
199,361,58994,5,2,1:2:0:0:
229,264,59176,1,0,1:2:0:0:
259,167,59357,1,10,0:2:0:0:
289,70,59539,1,0,1:2:0:0:
338,58,59630,1,0,1:2:0:0:
388,47,59721,5,14,1:1:0:0:
358,144,59903,1,0,0:2:0:0:
328,241,60084,1,10,0:2:0:0:
298,338,60266,1,0,1:2:0:0:
428,219,60448,1,2,1:2:0:0:
458,316,60630,1,0,1:2:0:0:
198,166,60812,1,10,0:2:0:0:
172,215,60903,1,0,1:2:0:0:
124,241,60994,1,0,1:2:0:0:
69,237,61084,1,0,1:2:0:0:
26,203,61175,6,0,P|7:115|-2:25,1,180.599994488526,10|0,1:1|1:2,0:1:0:0:
20,5,61539,1,10,0:2:0:0:
160,64,61721,1,2,1:2:0:0:
300,123,61903,2,0,P|388:106|476:85,1,180.599994488526,2|0,1:2|1:2,0:1:0:0:
496,62,62266,1,10,0:2:0:0:
400,144,62448,1,2,1:2:0:0:
160,64,62630,6,0,P|173:122|184:181,1,120.399996325684,2|0,1:2|0:2,0:1:0:0:
172,209,62903,1,0,1:2:0:0:
159,236,62994,1,10,0:2:0:0:
0,288,63175,1,2,1:2:0:0:
53,182,63357,1,2,1:2:0:0:
105,341,63538,1,2,1:2:0:0:
264,290,63721,1,10,0:2:0:0:
212,131,63903,1,0,1:2:0:0:
212,131,63994,1,0,1:2:0:0:
212,131,64085,6,0,P|300:148|389:161,1,180.599994488526,2|0,1:2|1:2,0:1:0:0:
418,151,64448,1,10,0:2:0:0:
264,290,64630,1,2,1:2:0:0:
462,354,64812,1,2,1:2:0:0:
418,151,64994,1,2,1:2:0:0:
382,265,65175,1,10,0:2:0:0:
146,315,65357,5,2,1:2:0:0:
146,315,65448,1,0,1:0:0:0:
146,314,65539,2,0,P|66:281|57:195,1,180.599994488526,0|0,1:0|1:0,0:0:0:0:
80,175,65903,1,10,0:2:0:0:
285,248,66085,1,0,1:2:0:0:
285,248,66175,1,0,1:0:0:0:
285,248,66266,1,2,1:2:0:0:
219,109,66448,1,2,1:2:0:0:
146,314,66630,1,10,0:2:0:0:
80,175,66812,1,2,1:2:0:0:
270,355,66994,6,0,P|358:333|447:320,1,180.599994488526,6|0,1:2|1:2,0:1:0:0:
471,336,67357,1,10,0:2:0:0:
344,304,67539,1,0,0:0:0:0:
512,96,67721,2,0,P|502:155|488:213,1,120.399996325684,2|0,1:2|1:2,0:0:0:0:
472,223,67994,1,0,0:0:0:0:
456,231,68085,2,0,P|426:225|397:218,1,60.1999981628419,10|0,0:2|0:2,0:2:0:0:
320,128,68266,2,0,P|290:133|261:140,1,60.1999981628419,2|0,1:2|0:2,0:0:0:0:
127,383,68448,6,0,P|184:316|172:229,1,180.599994488526,2|0,1:2|1:0,0:2:0:0:
144,219,68812,1,10,0:2:0:0:
320,384,68994,1,2,1:2:0:0:
32,256,69175,2,0,P|17:197|8:138,1,120.399996325684,2|0,1:2|1:2,0:0:0:0:
17,122,69448,1,0,0:0:0:0:
26,107,69539,2,0,P|55:98|85:93,1,60.1999981628419,10|0,0:2|0:0,0:2:0:0:
192,160,69721,2,0,P|220:168|250:173,1,60.1999981628419,2|0,1:2|0:2,0:0:0:0:
416,96,69903,6,0,B|360:77|360:77|386:220,1,193.50000738144,2|0,1:2|1:2,0:1:0:0:
400,229,70266,1,10,0:2:0:0:
480,32,70448,1,0,0:0:0:0:
512,256,70630,1,0,1:1:0:0:
288,288,70812,1,0,1:2:0:0:
288,288,70903,1,0,1:0:0:0:
288,288,70994,1,8,0:2:0:0:
380,384,71175,6,0,P|405:266|435:149,1,240.799992651367,2|0,1:2|0:2,0:1:0:0:
362,94,71630,1,0,1:2:0:0:
368,123,71720,1,8,0:2:0:0:
256,320,71903,1,0,1:2:0:0:
59,208,72085,1,2,1:2:0:0:
262,343,72266,1,0,1:2:0:0:
186,26,72448,1,10,1:2:0:0:
186,26,72540,1,0,1:0:0:0:
186,26,72631,1,0,1:2:0:0:
186,26,72721,1,0,1:0:0:0:
186,26,72812,1,14,1:1:0:0:
211,229,72994,5,2,0:0:0:0:
160,222,73085,1,2,1:2:0:0:
110,215,73175,1,10,0:2:0:0:
59,208,73266,2,0,L|40:141,1,64.5000024604798,2|0,0:0|1:1,0:0:0:0:
228,291,73448,2,0,L|211:229,1,64.5000024604798,2|2,0:2|1:2,0:0:0:0:
0,332,73630,1,2,0:2:0:0:
0,332,73721,1,2,1:2:0:0:
164,133,73903,1,10,0:2:0:0:
254,375,74085,1,2,1:2:0:0:
493,285,74266,6,0,L|276:249,1,219.300004182816,2|0,1:2|1:2,0:1:0:0:
252,262,74630,1,10,0:2:0:0:
453,177,74812,1,0,1:2:0:0:
227,274,74994,1,2,1:2:0:0:
478,165,75175,1,0,1:2:0:0:
373,372,75357,1,10,0:2:0:0:
353,220,75539,1,0,1:2:0:0:
331,66,75721,1,2,1:2:0:0:
478,165,75903,6,0,L|414:152,1,64.5000024604798,2|0,0:2|1:2,0:2:0:0:
227,274,76085,1,8,0:2:0:0:
227,274,76266,2,0,L|290:286,1,64.5000024604798,2|0,1:2|0:0,0:0:0:0:
436,359,76448,2,0,L|373:372,1,64.5000024604798,2|0,1:2|0:2,0:2:0:0:
163,286,76630,2,0,L|227:274,1,64.5000024604798,2|0,1:2|0:2,0:2:0:0:
330,66,76812,2,0,P|255:139|154:111,1,219.300004182816,10|0,0:2|0:2,0:1:0:0:
96,16,77175,6,0,P|120:109|138:204,1,193.50000738144,2|0,1:2|1:2,0:1:0:0:
127,228,77539,1,8,0:2:0:0:
154,111,77721,1,0,1:0:0:0:
0,320,77903,2,0,P|12:256|29:194,1,129.00000492096,2|0,1:2|1:2,0:0:0:0:
443,282,78266,2,0,P|369:316|293:286,1,167.699992323304,10|0,0:2|0:0,0:2:0:0:
134,301,78630,6,0,P|216:284|297:263,1,167.699992323304,6|0,1:2|1:0,0:0:0:0:
301,240,78994,1,10,0:2:0:0:
439,364,79175,1,2,1:2:0:0:
512,172,79357,2,0,P|432:165|386:231,1,167.699992323304,2|0,1:2|0:2,0:1:0:0:
439,364,79721,2,0,P|427:309|413:255,1,111.799994882202,10|0,0:2|1:2,0:1:0:0:
96,32,80085,6,0,P|150:45|204:57,1,111.799994882202,2|0,1:2|0:2,0:1:0:0:
226,50,80357,1,0,1:2:0:0:
247,43,80448,1,8,0:2:0:0:
96,128,80630,1,2,1:2:0:0:
181,279,80812,1,0,1:2:0:0:
332,194,80994,1,0,1:2:0:0:
247,43,81175,1,8,0:2:0:0:
286,266,81357,6,0,B|345:285|345:285|400:247,1,129.00000492096,6|0,1:2|1:2,0:1:0:0:
480,96,81721,1,2,1:2:0:0:
480,96,81812,1,0,1:2:0:0:
480,96,81903,1,8,0:2:0:0:
400,247,82085,2,0,L|389:319,1,64.5000024604798,2|0,1:2|0:2,0:2:0:0:
224,384,82266,2,0,L|215:320,1,64.5000024604798,2|0,1:2|0:2,0:2:0:0:
332,194,82448,2,0,L|269:203,1,64.5000024604798,2|0,1:2|0:2,0:2:0:0:
0,285,82630,6,0,L|166:261,1,167.699992323304,10|0,0:2|0:2,0:2:0:0:
270,328,82994,2,0,L|214:319,2,55.8999974411012,2|0|0,1:2|0:2|0:2,0:1:0:0:
492,117,83357,5,10,0:2:0:0:
447,295,83539,1,0,1:2:0:0:
338,61,83721,5,2,1:2:0:0:
270,328,83903,1,0,1:2:0:0:
184,5,84085,5,10,0:2:0:0:
93,361,84266,1,0,0:0:0:0:
470,207,84448,5,12,1:1:0:0:
96,320,95721,5,0,3:0:0:0:
90,288,95811,1,0,3:0:0:0:
85,256,95902,1,0,3:0:0:0:
79,224,95993,1,0,3:0:0:0:
74,192,96084,1,8,1:1:0:0:
184,338,96266,6,0,P|208:345|234:349,1,51.599998425293,2|0,0:2|1:2,0:2:0:0:
306,331,96448,2,0,P|328:319|349:303,1,51.599998425293,10|0,0:2|0:2,0:2:0:0:
387,239,96630,2,0,P|394:214|398:188,1,51.599998425293,2|0,1:2|0:2,0:2:0:0:
278,25,96812,2,0,P|284:76|300:125,1,103.199996850586,2|0,1:2|0:0,0:2:0:0:
319,133,97085,1,0,1:2:0:0:
337,140,97175,1,8,0:2:0:0:
194,73,97357,2,0,L|143:84,1,51.599998425293,2|0,1:2|1:2,0:0:0:0:
0,192,97539,6,0,L|50:180,1,51.599998425293,2|0,1:2|0:2,0:2:0:0:
114,219,97721,2,0,L|125:269,1,51.599998425293,2|0,0:2|0:0,0:0:0:0:
245,367,97903,2,0,L|295:378,1,51.599998425293,10|0,0:2|0:2,0:2:0:0:
359,340,98085,2,0,L|370:289,1,51.599998425293,2|0,1:2|0:0,0:0:0:0:
512,127,98266,2,0,P|449:201|360:164,1,206.399993701172,2|8,1:2|0:2,0:2:0:0:
256,224,98812,1,0,1:0:0:0:
256,224,98903,1,0,1:0:0:0:
256,224,98994,1,8,1:1:0:0:
58,44,99175,6,0,L|64:96,1,51.599998425293,2|0,0:2|1:2,0:2:0:0:
160,176,99357,2,0,L|154:124,1,51.599998425293,10|0,0:2|0:2,0:2:0:0:
3,168,99539,2,0,L|9:220,1,51.599998425293,2|0,1:2|0:2,0:2:0:0:
106,353,99721,2,0,L|94:250,1,103.199996850586,2|0,1:2|0:0,0:2:0:0:
94,250,99994,1,0,1:2:0:0:
94,250,100085,1,8,0:2:0:0:
320,352,100266,5,2,1:2:0:0:
320,352,100630,2,0,L|371:359,1,51.599998425293,2|0,0:2|1:2,0:2:0:0:
512,256,100812,2,0,L|460:263,1,51.599998425293,10|0,0:2|0:0,0:0:0:0:
352,192,100994,2,0,L|359:140,1,51.599998425293,2|0,1:2|0:2,0:2:0:0:
186,31,101175,2,0,B|132:60|132:60|275:78,1,206.399993701172,2|8,1:2|0:2,0:2:0:0:
416,32,101721,1,0,1:2:0:0:
416,32,101812,1,0,1:2:0:0:
416,32,101903,1,12,1:1:0:0:
512,256,102085,6,0,L|460:263,1,51.599998425293,2|0,0:2|1:2,0:2:0:0:
249,158,102266,2,0,L|301:165,1,51.599998425293,10|0,0:2|0:2,0:2:0:0:
339,346,102448,2,0,L|332:294,1,51.599998425293,2|0,1:2|0:2,0:2:0:0:
416,32,102630,2,0,L|429:134,1,103.199996850586,2|0,1:2|0:0,0:2:0:0:
429,134,102903,1,0,1:2:0:0:
429,134,102994,1,8,0:2:0:0:
332,294,103175,2,0,L|280:287,1,51.599998425293,2|0,1:2|1:2,0:0:0:0:
128,383,103357,6,0,P|135:359|141:334,1,51.599998425293,2|0,1:2|0:2,0:2:0:0:
110,267,103539,2,0,P|84:261|60:253,1,51.599998425293,2|0,0:2|0:0,0:0:0:0:
0,128,103721,2,0,P|5:102|13:78,1,51.599998425293,10|0,0:2|0:2,0:2:0:0:
73,34,103903,2,0,P|97:41|122:47,1,51.599998425293,2|0,1:2|0:0,0:0:0:0:
320,0,104085,2,0,P|237:50|259:145,1,206.399993701172,2|8,1:2|0:2,0:2:0:0:
384,192,104630,1,0,1:0:0:0:
384,192,104721,1,0,1:0:0:0:
384,192,104812,1,8,1:1:0:0:
256,368,104994,6,0,L|305:352,1,51.599998425293,2|0,0:2|1:2,0:2:0:0:
481,255,105175,2,0,L|431:270,1,51.599998425293,10|0,0:2|0:2,0:2:0:0:
258,247,105357,2,0,L|307:262,1,51.599998425293,2|0,1:2|0:2,0:2:0:0:
492,384,105539,2,0,L|393:352,1,103.199996850586,2|0,1:2|0:0,0:2:0:0:
393,352,105812,1,0,1:2:0:0:
393,352,105903,1,8,0:2:0:0:
512,128,106085,5,2,1:2:0:0:
512,128,106448,1,2,0:2:0:0:
395,193,106630,1,10,0:2:0:0:
267,157,106812,1,2,1:2:0:0:
202,39,106994,2,0,P|223:140|234:243,1,206.399993701172,2|8,1:2|0:2,0:2:0:0:
234,243,107721,6,0,B|166:276|166:276|82:236,1,167.699992323304,14|0,1:1|1:2,0:2:0:0:
416,288,108085,2,0,B|365:312|365:312|315:289,1,111.799994882202,10|0,0:2|1:2,0:2:0:0:
315,196,108448,1,2,1:2:0:0:
512,101,108630,1,2,1:2:0:0:
512,101,108721,2,0,L|495:182,2,55.8999974411012,2|8|0,0:2|0:2|0:2,0:2:0:0:
480,32,108994,1,0,1:2:0:0:
315,196,109175,5,2,1:2:0:0:
281,187,109266,1,2,0:2:0:0:
416,288,109448,1,2,0:0:0:0:
450,279,109539,1,8,0:2:0:0:
287,384,109721,2,0,P|293:356|301:329,1,55.8999974411012,2|0,1:2|0:0,0:0:0:0:
175,101,109903,2,0,P|196:211|213:322,1,223.599989764405,2|8,1:2|0:2,0:2:0:0:
383,362,110448,1,0,1:2:0:0:
383,362,110539,1,0,1:2:0:0:
383,362,110630,1,8,1:1:0:0:
213,322,110812,5,2,0:2:0:0:
384,224,110994,1,10,0:2:0:0:
286,53,111175,1,2,1:2:0:0:
286,53,111266,1,2,1:2:0:0:
286,53,111357,1,2,1:2:0:0:
112,148,111539,1,2,1:2:0:0:
112,148,111630,2,0,P|84:143|58:134,2,55.8999974411012,2|8|0,0:2|0:2|0:2,0:2:0:0:
197,106,111903,5,0,1:2:0:0:
197,106,111994,1,0,1:0:0:0:
197,106,112085,1,8,1:1:0:0:
229,184,112266,1,2,0:2:0:0:
94,331,112448,1,10,0:2:0:0:
126,253,112629,1,2,1:2:0:0:
354,218,112812,1,2,1:2:0:0:
390,300,112993,1,2,1:2:0:0:
390,300,113085,2,0,L|468:317,2,55.8999974411012,2|8|0,0:2|0:2|0:2,0:2:0:0:
309,346,113357,5,0,1:2:0:0:
309,346,113448,1,0,1:0:0:0:
309,346,113539,2,0,B|243:300|243:300|268:216,1,167.699992323304,12|2,1:1|1:2,0:2:0:0:
286,202,113903,1,10,0:2:0:0:
190,365,114085,1,2,1:2:0:0:
97,201,114266,1,2,1:2:0:0:
193,38,114448,1,2,1:2:0:0:
193,38,114539,1,2,1:2:0:0:
193,38,114630,2,0,P|203:95|207:148,1,111.799994882202,8|0,0:2|1:2,0:0:0:0:
399,327,114994,6,0,P|403:271|413:216,1,111.799994882202,2|0,1:2|0:2,0:2:0:0:
493,178,115266,1,2,1:2:0:0:
485,198,115357,1,10,0:2:0:0:
340,216,115539,1,2,1:2:0:0:
317,64,115721,1,2,1:2:0:0:
285,277,115903,1,2,1:2:0:0:
71,243,116085,2,0,B|57:202|26:183|26:183|14:137|40:96,1,167.699992323304,10|0,0:2|0:2,0:2:0:0:
128,32,116448,6,0,L|246:14,1,111.799994882202,8|2,1:1|0:2,0:2:0:0:
278,40,116721,1,2,1:2:0:0:
317,64,116812,1,8,0:2:0:0:
448,32,116994,1,2,1:2:0:0:
349,195,117175,1,2,1:2:0:0:
512,294,117357,1,2,1:2:0:0:
512,294,117448,2,0,L|520:238,2,55.8999974411012,2|8|0,0:2|0:2|0:2,0:2:0:0:
448,352,117721,5,2,1:2:0:0:
254,193,117903,1,2,1:2:0:0:
224,288,118085,1,2,0:2:0:0:
432,176,118266,1,10,0:2:0:0:
402,81,118448,1,2,1:2:0:0:
194,3,118630,1,2,1:2:0:0:
224,98,118812,1,2,1:2:0:0:
224,98,118903,2,0,L|291:108,2,64.5000024604798,2|8|0,0:2|0:2|0:2,0:2:0:0:
90,15,119175,6,0,B|115:49|115:49|101:103,1,86,2|0,1:2|0:2,0:2:0:0:
26,200,119357,2,0,B|64:172|74:125|74:125|134:181|113:281,1,258,12|0,1:1|1:0,0:2:0:0:
96,299,119721,1,8,0:2:0:0:
256,224,119903,1,2,1:2:0:0:
293,384,120085,1,2,1:2:0:0:
476,358,120266,1,2,1:2:0:0:
475,358,120357,2,0,P|486:332|493:305,1,55.8999974411012,2|8,0:2|0:2,0:2:0:0:
422,15,120630,6,0,B|397:49|397:49|411:103,1,86,2|0,1:2|0:2,0:2:0:0:
486,200,120812,2,0,B|448:172|438:125|438:125|378:181|399:281,1,258,2|0,1:2|1:0,0:2:0:0:
416,299,121175,1,8,0:2:0:0:
256,224,121357,1,2,1:2:0:0:
219,384,121539,1,2,1:2:0:0:
36,358,121720,1,2,1:2:0:0:
36,358,121812,2,0,P|25:332|18:305,1,55.8999974411012,2|8,0:2|0:2,0:2:0:0:
32,32,122085,6,0,B|84:55|132:50|132:50|144:77|144:77|190:78|235:95,1,223.599989764405,2|2,1:2|0:2,0:2:0:0:
312,34,122539,1,2,1:2:0:0:
283,40,122629,1,10,0:2:0:0:
336,237,122812,1,2,1:2:0:0:
211,165,122994,1,2,1:2:0:0:
408,112,123175,1,2,1:2:0:0:
408,112,123266,2,0,L|478:132,2,51.599998425293,2|8|0,0:2|0:2|0:2,0:2:0:0:
310,139,123539,5,0,1:2:0:0:
310,139,123630,1,0,1:0:0:0:
310,139,123721,1,2,1:2:0:0:
336,237,123903,1,2,0:2:0:0:
159,361,124085,1,10,0:2:0:0:
185,263,124267,1,2,1:2:0:0:
16,71,124448,1,2,1:2:0:0:
42,169,124630,1,2,1:2:0:0:
42,169,124721,2,0,L|24:241,2,55.8999974411012,2|8|0,0:2|0:2|0:0,0:0:0:0:
111,118,124994,6,0,B|151:101|151:101|187:123,1,86,2|0,1:2|0:0,0:0:0:0:
415,180,125175,2,0,B|375:163|375:163|338:185,1,86,6|0,1:1|0:2,0:2:0:0:
256,352,125357,1,2,0:2:0:0:
256,352,125448,1,0,1:0:0:0:
256,352,125539,1,8,0:2:0:0:
338,184,125721,1,2,1:2:0:0:
443,340,125903,1,2,1:2:0:0:
343,297,126085,1,2,1:2:0:0:
343,297,126175,1,2,0:2:0:0:
343,297,126266,1,8,0:2:0:0:
127,352,126448,6,0,P|142:321|149:287,1,68.8,2|0,1:2|0:0,0:0:0:0:
5,79,126630,2,0,P|22:180|48:280,1,206.4,2|0,1:2|1:0,0:2:0:0:
71,296,126994,1,8,0:2:0:0:
210,213,127175,1,0,1:2:0:0:
343,297,127357,2,0,P|397:307|453:313,1,111.799994882202,2|0,1:2|1:2,0:0:0:0:
473,301,127630,1,2,1:2:0:0:
492,290,127721,2,0,P|502:236|508:180,1,111.799994882202,10|0,0:2|1:2,0:0:0:0:
416,32,128085,5,2,1:2:0:0:
423,58,128175,1,2,0:2:0:0:
288,128,128357,1,2,1:2:0:0:
295,102,128447,1,10,0:2:0:0:
160,32,128631,1,2,1:2:0:0:
167,58,128721,1,2,0:2:0:0:
32,128,128903,1,2,0:2:0:0:
102,263,129085,1,2,0:2:0:0:
95,289,129175,1,10,0:2:0:0:
80,49,129357,1,2,1:2:0:0:
25,369,129539,1,2,1:2:0:0:
448,352,129812,5,2,1:2:0:0:
448,352,129903,2,0,L|459:288,1,64.5000024604798,10|0,0:2|0:0,0:0:0:0:
392,251,130085,2,0,L|380:187,1,64.5000024604798,2|0,1:2|0:0,0:0:0:0:
496,39,130266,2,0,B|445:90|445:90|375:64,1,146.200002788544,2|0,1:2|1:2,0:2:0:0:
305,39,130539,1,0,1:0:0:0:
236,13,130630,2,0,L|164:29,1,73.1000013942719,10|0,0:2|0:0,0:0:0:0:
143,190,130812,2,0,L|214:173,1,73.1000013942719,2|0,1:2|0:0,0:0:0:0:
459,288,130994,6,0,B|437:276|417:250|417:250|330:243|281:328,1,219.300004182816,14|0,1:1|1:2,0:1:0:0:
279,353,131357,1,10,0:2:0:0:
214,173,131539,1,2,1:2:0:0:
394,108,131721,1,2,1:2:0:0:
459,288,131903,1,2,1:2:0:0:
489,175,132085,1,10,0:2:0:0:
187,289,132266,1,2,1:2:0:0:
187,289,132357,1,0,1:0:0:0:
187,289,132448,1,0,1:0:0:0:
279,353,132630,5,2,0:2:0:0:
197,177,132812,1,10,0:2:0:0:
85,336,132994,1,2,1:2:0:0:
288,241,133175,2,0,L|401:230,1,103.199996850586,2|0,1:2|1:2,0:1:0:0:
187,346,133539,2,0,L|85:336,1,103.199996850586,10|0,0:2|0:0,0:1:0:0:
85,336,133812,1,0,1:2:0:0:
85,336,133903,1,10,1:1:0:0:
0,192,134085,5,2,1:2:0:0:
160,224,134266,1,10,0:2:0:0:
192,64,134448,1,2,1:2:0:0:
96,128,134630,1,2,1:2:0:0:
256,160,134812,1,2,1:2:0:0:
224,320,134993,1,10,0:2:0:0:
416,192,135175,5,2,1:2:0:0:
416,192,135266,1,2,1:2:0:0:
416,192,135357,2,0,B|447:52|447:52|415:77,1,180.599994488526,2|0,1:2|1:2,0:1:0:0:
417,75,135721,1,10,0:2:0:0:
512,288,135903,1,0,1:2:0:0:
512,288,135994,1,0,1:0:0:0:
512,288,136085,1,2,1:2:0:0:
352,256,136266,1,2,1:2:0:0:
224,64,136448,1,10,0:2:0:0:
64,96,136629,1,2,1:2:0:0:
68,351,136812,6,0,B|129:302|129:302|97:218,1,167.699992323304,14|2,1:1|1:2,0:1:0:0:
76,211,137175,1,10,0:2:0:0:
160,384,137357,1,0,0:0:0:0:
255,320,137539,2,0,P|339:308|422:300,1,167.699992323304,2|0,1:2|0:0,0:0:0:0:
445,313,137903,1,10,0:2:0:0:
512,160,138085,5,2,1:2:0:0:
512,160,138175,1,0,1:2:0:0:
512,160,138266,2,0,P|422:151|332:139,1,180.599994488526,8|0,1:1|1:2,0:1:0:0:
315,121,138630,1,10,0:2:0:0:
478,234,138812,1,2,1:2:0:0:
298,103,138994,2,0,P|220:110|144:120,1,154.799995275879,2|0,1:2|1:2,0:1:0:0:
126,139,139357,1,10,0:2:0:0:
352,32,139539,1,2,1:2:0:0:
108,159,139721,6,0,B|90:208|90:208|120:248,1,103.199996850586,6|0,1:2|0:0,0:1:0:0:
140,254,139994,1,0,1:2:0:0:
160,258,140085,1,8,0:2:0:0:
19,384,140266,2,0,P|32:334|42:283,1,103.199996850586,2|0,1:2|0:0,0:1:0:0:
42,283,140630,1,0,1:2:0:0:
139,384,140812,1,8,0:2:0:0:
251,326,140994,2,0,P|275:319|301:314,1,51.599998425293,2|0,1:2|0:0,0:0:0:0:
391,382,141175,2,0,B|338:346|338:346|361:258,1,154.799995275879,2|0,1:2|1:2,0:2:0:0:
380,249,141539,1,8,0:2:0:0:
512,320,141721,1,0,1:2:0:0:
440,83,141903,6,0,P|383:150|296:145,1,180.599994488526,2|0,1:2|1:2,0:2:0:0:
216,41,142266,2,0,P|243:127|268:213,1,180.599994488526,10|0,0:2|0:2,0:2:0:0:
512,320,142630,6,0,B|448:281|448:281|367:349,1,180.599994488526,14|0,1:1|0:0,0:1:0:0:
363,369,142994,1,8,0:2:0:0:
269,214,143175,1,2,1:2:0:0:
96,320,143357,2,0,P|12:268|20:170,1,206.399993701172,2|8,1:2|0:2,0:1:0:0:
192,32,143903,5,0,1:1:0:0:
192,32,143994,1,0,1:2:0:0:
192,32,144085,2,0,L|210:185,1,154.799995275879,2|0,1:2|1:2,0:1:0:0:
201,204,144448,1,10,0:2:0:0:
299,52,144630,1,0,1:2:0:0:
448,256,144812,1,2,1:2:0:0:
384,32,144994,1,0,1:2:0:0:
273,320,145175,1,10,0:2:0:0:
224,361,145266,1,0,1:2:0:0:
161,364,145357,1,0,1:2:0:0:
109,329,145447,1,0,1:2:0:0:
89,268,145539,6,0,L|108:140,1,129.00000492096,14|0,1:1|0:0,0:1:0:0:
130,115,145812,1,2,1:2:0:0:
151,90,145903,1,8,0:2:0:0:
10,210,146085,1,0,1:2:0:0:
220,284,146266,2,0,B|347:252|347:252|377:270|382:301,1,193.50000738144,2|0,1:2|0:2,0:1:0:0:
377,326,146630,1,8,0:2:0:0:
512,160,146812,1,2,1:2:0:0:
320,0,146994,6,0,P|336:62|358:123,1,129.00000492096,2|0,1:2|0:0,0:0:0:0:
381,133,147266,1,2,1:2:0:0:
404,143,147357,1,10,0:2:0:0:
480,64,147539,1,2,1:2:0:0:
230,71,147721,2,0,B|204:149|204:149|232:195|232:195|200:289,1,223.599989764405,2|8,1:2|0:2,0:1:0:0:
224,384,148266,5,2,1:2:0:0:
143,207,148448,1,2,1:2:0:0:
333,114,148630,1,2,0:2:0:0:
423,318,148812,1,10,0:2:0:0:
392,247,148994,1,0,0:0:0:0:
321,278,149175,1,0,1:1:0:0:
352,349,149357,1,0,1:2:0:0:
494,287,149539,5,8,0:2:0:0:
182,305,149721,1,2,1:2:0:0:
182,305,149812,1,0,1:0:0:0:
182,305,149903,1,0,0:0:0:0:
221,218,150085,5,2,0:2:0:0:
236,381,150266,1,8,0:2:0:0:
87,314,150448,1,2,1:2:0:0:
371,285,150630,2,0,P|396:226|413:164,1,129.00000492096,2|0,1:2|0:0,0:1:0:0:
97,203,150994,2,0,P|71:144|54:81,1,129.00000492096,10|0,0:2|0:0,0:2:0:0:
483,39,151357,6,0,B|423:81|423:81|307:41,1,180.599994488526,6|2,1:2|1:2,0:1:0:0:
307,26,151721,1,10,0:2:0:0:
339,156,151903,1,0,1:2:0:0:
371,285,152085,2,0,P|283:262|194:250,1,180.599994488526,2|0,1:2|0:2,0:1:0:0:
173,262,152448,1,10,0:2:0:0:
339,156,152630,1,2,1:2:0:0:
105,349,152812,6,0,P|95:289|80:231,1,120.399996325684,2|0,1:2|0:0,0:0:0:0:
61,215,153085,1,2,1:2:0:0:
43,198,153175,1,10,0:2:0:0:
256,128,153357,1,2,1:2:0:0:
59,0,153539,2,0,P|56:110|164:133,1,240.799992651367,2|8,1:2|0:2,0:1:0:0:
389,5,154085,2,0,P|375:31|366:60,1,60.1999981628419,2|0,1:2|0:0,0:0:0:0:
430,181,154266,2,0,P|413:155|393:133,1,60.1999981628419,2|0,1:2|0:2,0:2:0:0:
256,128,154448,2,0,P|286:126|315:120,1,60.1999981628419,2|0,0:2|0:0,0:0:0:0:
512,160,154630,6,0,B|429:214|429:214|416:282|449:352,1,240.799992651367,10|0,0:2|1:1,0:2:0:0:
288,384,155175,1,0,1:2:0:0:
288,384,155266,1,0,1:0:0:0:
288,384,155357,1,8,0:2:0:0:
393,133,155539,5,2,1:2:0:0:
393,133,155903,1,2,0:2:0:0:
119,251,156085,1,10,0:2:0:0:
196,55,156266,1,2,1:2:0:0:
315,329,156448,2,0,L|456:306,1,137.6,2|0,1:2|1:2,0:0:0:0:
196,54,156812,2,0,L|53:76,1,137.6,10|0,0:2|1:2,0:0:0:0:
0,348,157175,6,0,B|36:388|36:388|99:333|65:218,1,219.300004182816,14|0,1:1|1:1,0:1:0:0:
49,218,157539,1,8,0:2:0:0:
224,352,157721,1,2,1:2:0:0:
224,352,157812,2,0,P|318:333|414:319,1,193.50000738144,2|2,0:2|1:2,0:1:0:0:
453,259,158175,1,2,0:2:0:0:
492,200,158266,1,10,0:0:0:0:
512,384,158448,1,2,1:2:0:0:
413,146,158630,6,0,B|364:112|364:112|308:152|316:229,1,193.50000738144,2|0,1:2|1:0,0:1:0:0:
298,303,158994,2,0,P|266:311|235:317,1,64.5000024604798,10|0,0:2|0:2,0:2:0:0:
178,365,159175,2,0,P|146:359|115:350,1,64.5000024604798,2|0,1:2|0:2,0:2:0:0:
0,96,159357,2,0,B|58:55|58:55|126:103|116:195,1,219.300004182816,2|0,1:2|1:2,0:1:0:0:
20,384,159721,2,0,P|53:241|215:236,1,292.400005577087,10|8,0:2|1:1,0:1:0:0:
384,320,160267,5,2,0:2:0:0:
394,350,160357,1,2,1:2:0:0:
404,380,160448,1,10,0:2:0:0:
242,229,160631,1,2,1:2:0:0:
211,222,160721,1,2,0:2:0:0:
180,216,160812,1,2,1:2:0:0:
391,151,160994,1,2,1:2:0:0:
413,128,161084,1,2,0:2:0:0:
434,104,161175,1,10,0:2:0:0:
339,234,161357,1,2,1:2:0:0:
204,26,161539,6,2,B|178:166|178:166|243:219|243:219|207:384,3,395.600007545471,8|10|2|10,1:1|0:2|1:2|0:2,0:1:0:0:
0,236,162812,5,0,1:2:0:0:
0,236,162903,1,0,1:2:0:0:
0,236,162994,2,0,B|18:202|54:187|54:187|87:232|155:252,1,193.50000738144,14|0,1:1|1:2,0:1:0:0:
176,244,163357,1,10,0:2:0:0:
416,224,163539,2,0,P|297:212|263:326,1,258.000009841919,2|0,1:2|1:2,0:0:0:0:
487,305,164085,2,0,P|503:242|512:178,1,129.00000492096,10|0,0:2|1:2,0:1:0:0:
277,41,164448,6,0,B|335:13|335:13|355:114,1,167.699992323304,2|0,1:2|1:2,0:1:0:0:
324,179,164812,2,0,L|269:192,1,55.8999974411012,10|0,0:2|0:2,0:2:0:0:
74,147,164994,2,0,L|128:133,1,55.8999974411012,2|0,1:2|0:2,0:2:0:0:
171,384,165175,2,0,L|197:162,1,223.599989764405,2|10,1:2|0:2,0:0:0:0:
480,32,165721,6,0,B|507:78|507:78|330:39,1,206.4,6|0,1:2|1:2,0:1:0:0:
300,0,166085,1,2,0:2:0:0:
300,0,166175,1,0,1:2:0:0:
300,0,166266,1,8,0:2:0:0:
352,192,166448,1,0,1:2:0:0:
271,112,166630,1,0,1:2:0:0:
159,141,166812,1,0,1:2:0:0:
159,141,166903,1,0,1:2:0:0:
159,141,166994,1,8,0:2:0:0:
271,112,167175,1,2,1:2:0:0:
494,248,167357,6,0,P|511:330|393:343,1,219.300004182816,2|0,1:2|0:0,0:1:0:0:
362,289,167721,2,0,L|346:143,1,146.200002788544,10|0,0:2|0:0,0:0:0:0:
32,32,168085,2,0,L|47:177,1,146.200002788544,2|0,1:2|0:0,0:0:0:0:
208,384,168448,2,0,L|184:165,1,219.300004182816,10|0,0:2|1:2,0:0:0:0:
224,0,168812,5,12,1:1:0:0:
