osu file format v14

[General]
AudioFilename: audio.mp3
AudioLeadIn: 0
PreviewTime: 59994
Countdown: 0
SampleSet: Soft
StackLeniency: 0.7
Mode: 0
LetterboxInBreaks: 0
WidescreenStoryboard: 0

[Editor]
DistanceSpacing: 1.3
BeatDivisor: 4
GridSize: 32
TimelineZoom: 2.799999

[Metadata]
Title:Jam Over The Barrier!
TitleUnicode:Jam Over The Barrier!
Artist:Falcom Sound Team jdk vs. Quad City DJ's
ArtistUnicode:Falcom Sound Team jdk vs. Quad City DJ's
Creator:Deca
Version:LLOYD IS FUCKIN BALLIN!!!
Source:英雄伝説 零の軌跡
Tags:碧の軌跡 michael lloyd bannings jordan saki mordred momiyama impurepug fixxis shurelia yogurtt 籾山 紗希 get trails to azure from zero no kiseki eiyuu densetsu the legend of black man heroes crossball crossbell slam space bugs mishy bunny ost original soundtrack theaggyyu j.d.k. hip hop english jrpg videogame japanese role playing game versus
BeatmapID:2770840
BeatmapSetID:1337586

[Difficulty]
HPDrainRate:6
CircleSize:4
OverallDifficulty:8.5
ApproachRate:9.2
SliderMultiplier:1.72
SliderTickRate:1

[Events]
//Background and Video events
0,0,"dKDRSex[1]_waifu2x_art_noise1_scale_tta_1.jpg",0,0
//Break Periods
2,6103,8242
2,84648,95430
//Storyboard Layer 0 (Background)
//Storyboard Layer 1 (Fail)
//Storyboard Layer 2 (Pass)
//Storyboard Layer 3 (Foreground)
//Storyboard Layer 4 (Overlay)
//Storyboard Sound Samples

[TimingPoints]
85,363.636363636364,4,2,1,76,1,0
85,-133.333333333333,4,2,1,76,0,0
11721,-76.9230769230769,4,2,1,76,0,0
17357,-83.3333333333333,4,2,1,76,0,0
17721,-76.9230769230769,4,2,1,76,0,0
23357,-90.9090909090909,4,2,1,66,0,0
29357,-83.3333333333333,4,2,1,66,0,0
34994,-90.9090909090909,4,2,1,66,0,0
40812,-83.3333333333333,4,2,1,66,0,0
46630,-76.9230769230769,4,2,1,76,0,0
48812,-66.6666666666667,4,2,1,76,0,0
49175,-76.9230769230769,4,2,1,76,0,0
60448,-76.9230769230769,4,2,1,81,0,0
61175,-71.4285714285714,4,2,1,81,0,0
62630,-71.4285714285714,4,2,1,81,0,0
69903,-83.3333333333333,4,2,1,81,0,0
70266,-66.6666666666667,4,2,1,81,0,0
71175,-71.4285714285714,4,2,1,81,0,0
72812,-66.6666666666667,4,2,1,81,0,0
74266,-55.5555555555556,4,2,1,81,0,0
75357,-66.6666666666667,4,2,1,81,0,0
76812,-58.8235294117647,4,2,1,81,0,0
77175,-66.6666666666667,4,2,1,81,0,0
78266,-76.9230769230769,4,2,1,81,0,0
79357,-66.6666666666667,4,2,1,81,0,0
81357,-66.6666666666667,4,2,1,81,0,0
82630,-76.9230769230769,4,2,1,81,0,0
84448,-100,4,2,1,81,0,0
96266,-83.3333333333333,4,2,1,66,0,0
107721,-76.9230769230769,4,2,1,66,0,0
108721,-55.5555555555556,4,2,1,66,0,0
109175,-76.9230769230769,4,2,1,66,0,0
109903,-83.3333333333333,4,2,1,66,0,0
110448,-76.9230769230769,4,2,1,66,0,0
111630,-58.8235294117647,4,2,1,66,0,0
112085,-76.9230769230769,4,2,1,66,0,0
113085,-62.5,4,2,1,66,0,0
113539,-76.9230769230769,4,2,1,66,0,0
114539,-58.8235294117647,4,2,1,66,0,0
114994,-76.9230769230769,4,2,1,66,0,0
117448,-52.6315789473684,4,2,1,66,0,0
117721,-66.6666666666667,4,2,1,66,0,0
119175,-50,4,2,1,66,0,0
119903,-76.9230769230769,4,2,1,66,0,0
120630,-50,4,2,1,66,0,0
121357,-76.9230769230769,4,2,1,66,0,0
122085,-76.9230769230769,4,2,1,66,0,0
122630,-83.3333333333333,4,2,1,66,0,0
123266,-52.6315789473684,4,2,1,66,0,0
123721,-76.9230769230769,4,2,1,66,0,0
125175,-55.5555555555556,4,2,1,66,0,0
126266,-83.3333333333333,4,2,1,66,0,0
126630,-62.5,4,2,1,66,0,0
127903,-76.9230769230769,4,2,1,66,0,0
129539,-66.6666666666667,4,2,1,66,0,0
130266,-76.9230769230769,4,2,1,66,0,0
130994,-76.9230769230769,4,2,1,76,0,0
133175,-83.3333333333333,4,2,1,76,0,0
135357,-71.4285714285714,4,2,1,76,0,0
135721,-90.9090909090909,4,2,1,76,0,0
136812,-76.9230769230769,4,2,1,76,0,0
137903,-66.6666666666667,4,2,1,76,0,0
138266,-71.4285714285714,4,2,1,76,0,0
138994,-83.3333333333333,4,2,1,76,0,0
141903,-71.4285714285714,4,2,1,76,0,0
142630,-83.3333333333333,4,2,1,76,0,0
144085,-76.9230769230769,4,2,1,76,0,0
144448,-76.9230769230769,4,2,1,81,0,0
145175,-66.6666666666667,4,2,1,81,0,0
145539,-66.6666666666667,4,2,1,81,0,0
146266,-66.6666666666667,4,2,1,81,0,0
147721,-76.9230769230769,4,2,1,81,0,0
150085,-66.6666666666667,4,2,1,81,0,0
150630,-66.6666666666667,4,2,1,81,0,0
151357,-71.4285714285714,4,2,1,81,0,0
157175,-66.6666666666667,4,2,1,81,0,0
159357,-58.8235294117647,4,2,1,81,0,0
159721,-76.9230769230769,4,2,1,81,0,0
160357,-52.6315789473684,4,2,1,81,0,0
161539,-43.4782608695652,4,2,1,81,0,0
162994,-66.6666666666667,4,2,1,81,0,0
164448,-76.9230769230769,4,2,1,81,0,0
165721,-71.4285714285714,4,2,1,81,0,0
167357,-58.8235294117647,4,2,1,81,0,0
168630,-76.9230769230769,4,2,1,81,0,0

[Colours]
Combo1 : 109,188,205
Combo2 : 200,62,62
Combo3 : 67,138,224
Combo4 : 208,136,64

[HitObjects]
155,63,85,6,0,B|137:51|159:-13|192:-2|235:37|213:72|213:72|246:90|246:90|329:79|328:232|425:237|425:237|350:346|240:386|129:345|129:345|200:279|101:163|172:117|172:117|181:92,2,1032.00003936768,0|0|0,1:2|1:2|1:2,0:2:0:0:
256,192,8812,5,0,1:2:0:0:
256,192,8903,12,0,11357,0:2:0:0:
408,205,11539,5,0,1:2:0:0:
408,205,11630,1,0,1:2:0:0:
408,205,11721,2,2,B|325:177|338:261|243:226,1,167.699992323304,14|0,1:1|1:2,0:1:0:0:
109,270,12085,2,0,B|158:256|158:256|175:292|222:300,1,111.799994882202,8|0,0:2|1:2,0:2:0:0:
377,284,12448,1,0,1:2:0:0:
278,148,12630,1,0,1:2:0:0:
461,91,12812,2,0,B|509:157|509:157|485:206|480:252,1,167.699992323304,8|0,0:2|0:2,0:2:0:0:
278,148,13175,6,2,P|296:111|303:33,1,111.799994882202,10|0,1:1|0:2,0:1:0:0:
306,13,13448,1,0,1:2:0:0:
306,13,13539,1,8,0:2:0:0:
152,129,13721,1,0,1:2:0:0:
320,226,13903,2,2,B|403:200|391:281|503:229,1,167.699992323304,2|0,1:2|0:2,0:1:0:0:
259,133,14266,1,8,0:2:0:0:
42,223,14448,5,0,1:2:0:0:
42,223,14539,1,0,1:2:0:0:
42,223,14630,2,2,B|-1:142|-1:142|54:117|77:54,1,167.699992323304,10|0,1:1|1:2,0:1:0:0:
92,0,14994,1,8,0:2:0:0:
190,175,15175,1,0,1:2:0:0:
304,60,15357,2,0,B|255:28|255:28|192:27,1,111.799994882202,0|0,1:2|1:2,0:2:0:0:
108,241,15721,2,0,B|141:209|193:215|193:215|209:262|270:263,1,167.699992323304,8|0,0:2|0:2,0:2:0:0:
341,296,16085,2,0,L|320:171,1,111.799994882202,10|0,1:1|0:2,0:2:0:0:
304,60,16448,5,10,0:2:0:0:
458,184,16630,1,0,1:2:0:0:
248,260,16812,1,0,1:2:0:0:
425,90,16994,1,0,1:2:0:0:
187,20,17175,2,0,P|206:56|206:106,1,55.8999974411012,10|0,0:2|0:2,0:2:0:0:
150,280,17357,2,2,P|160:232|184:157,1,103.199996850586,0|12,1:1|1:1,0:1:0:0:
425,90,17721,5,2,0:2:0:0:
464,230,17903,2,0,P|445:198|430:159,1,55.8999974411012,10|0,0:2|0:2,0:2:0:0:
357,3,18085,2,0,P|345:52|325:83,1,55.8999974411012,2|0,1:2|0:2,0:2:0:0:
257,187,18266,2,0,B|342:157|326:246|447:189,1,167.699992323304,2|0,1:2|0:2,0:2:0:0:
437,180,18630,1,8,0:2:0:0:
273,300,18812,5,2,1:2:0:0:
220,281,18902,1,2,0:2:0:0:
166,266,18994,2,2,B|161:224|161:224|170:212|170:212|164:143,1,111.799994882202,2|2,1:2|0:2,0:1:0:0:
154,118,19266,1,0,1:2:0:0:
154,118,19357,1,10,0:2:0:0:
42,55,19539,2,0,P|71:49|112:42,1,55.8999974411012,0|0,1:2|0:2,0:2:0:0:
317,52,19721,2,2,B|300:30|323:-8|323:-8|209:26|261:150,1,223.599989764405,2|8,1:2|0:2,0:1:0:0:
345,157,20266,6,2,L|456:136,1,111.799994882202,2|8,1:2|1:1,0:1:0:0:
314,306,20630,2,0,P|307:263|280:229,1,55.8999974411012,2|0,0:2|1:2,0:2:0:0:
162,112,20812,2,0,P|181:171|194:187,1,55.8999974411012,10|0,0:2|0:2,0:2:0:0:
215,356,20994,2,0,P|224:325|220:263,1,55.8999974411012,2|0,1:2|0:2,0:2:0:0:
177,165,21175,2,0,B|84:146|107:227|-16:175,1,167.699992323304,2|0,1:2|0:2,0:2:0:0:
6,159,21539,1,8,0:2:0:0:
253,52,21721,5,2,1:1:0:0:
253,52,22085,2,0,P|298:73|331:81,1,55.8999974411012,2|0,0:2|1:2,0:2:0:0:
336,180,22266,2,0,P|372:172|402:141,1,55.8999974411012,10|0,0:2|0:2,0:2:0:0:
502,176,22448,2,0,P|518:146|508:108,1,55.8999974411012,2|0,1:2|0:2,0:2:0:0:
251,154,22630,2,2,B|249:198|219:237|219:237|281:249|297:305,1,167.699992323304,2|0,1:2|0:2,0:1:0:0:
371,313,22994,2,0,B|279:292|297:367|207:331,1,167.699992323304,8|0,0:2|0:2,0:1:0:0:
381,183,23357,6,0,P|388:138|399:84,1,94.600002886963,12|0,1:1|0:2,0:0:0:0:
426,57,23630,1,0,1:2:0:0:
426,57,23721,1,8,0:2:0:0:
303,222,23903,2,0,B|382:200|351:284|478:221,1,141.900004330444,2|0,1:2|0:2,0:2:0:0:
466,234,24266,1,0,1:2:0:0:
283,134,24448,2,0,B|235:154|235:154|227:186|200:203,1,94.600002886963,10|0,0:2|1:2,0:2:0:0:
168,284,24721,5,0,0:2:0:0:
168,284,24812,2,0,B|132:254|90:247|90:247|116:192|119:141,1,189.200005773926,8|8,1:1|0:2,0:2:0:0:
59,20,25357,2,0,B|-12:53|-12:53|20:93|20:123,1,141.900004330444,2|0,1:2|0:2,0:2:0:0:
27,137,25721,1,0,1:2:0:0:
215,191,25903,2,0,P|206:138|195:84,1,94.600002886963,10|0,0:2|1:2,0:2:0:0:
331,35,26266,6,0,P|396:35|397:117,1,141.900004330444,8|0,1:1|1:2,0:2:0:0:
393,130,26630,1,8,0:2:0:0:
479,271,26812,1,0,1:2:0:0:
342,323,26994,1,0,1:2:0:0:
505,186,27175,2,0,P|496:143|489:109,1,47.3000014434815,0|0,1:2|0:2,0:2:0:0:
303,75,27357,2,0,B|240:107|240:107|279:193,1,141.900004330444,8|0,0:2|0:2,0:2:0:0:
282,264,27721,6,0,P|234:250|184:244,1,94.600002886963,8|0,1:1|0:2,0:2:0:0:
164,238,27994,1,0,1:2:0:0:
165,240,28085,1,8,0:2:0:0:
353,155,28266,1,0,1:2:0:0:
194,87,28448,1,0,1:2:0:0:
375,247,28630,1,0,1:2:0:0:
140,331,28812,2,0,P|157:273|169:217,1,94.600002886963,8|0,0:2|1:2,0:2:0:0:
160,204,29085,1,0,0:2:0:0:
160,204,29175,1,12,1:1:0:0:
39,149,29357,6,0,P|80:135|112:131,1,51.599998425293,2|0,0:2|1:2,0:2:0:0:
313,102,29539,1,10,0:2:0:0:
80,32,29721,2,0,P|120:46|160:75,1,51.599998425293,2|0,1:2|0:2,0:2:0:0:
246,213,29903,2,0,B|259:177|239:149|239:149|212:112|239:62,1,154.799995275879,2|0,1:2|0:2,0:2:0:0:
229,44,30266,2,0,P|274:31|336:9,1,103.199996850586,10|0,0:2|1:2,0:2:0:0:
491,190,30630,6,0,P|457:179|417:172,1,51.599998425293,2|0,1:2|0:2,0:2:0:0:
313,102,30812,1,2,0:2:0:0:
508,74,30994,2,0,P|467:91|439:92,1,51.599998425293,10|0,0:2|0:2,0:2:0:0:
300,111,31175,1,2,1:2:0:0:
405,269,31357,2,0,B|381:304|387:328|387:328|306:288|334:208,1,206.399993701172,2|8,1:2|0:2,0:2:0:0:
244,200,31903,6,0,B|162:181|191:262|76:219,1,154.799995275879,2|0,1:2|0:2,0:2:0:0:
29,69,32266,2,0,P|44:112|50:149,1,51.599998425293,2|0,0:2|1:2,0:2:0:0:
43,314,32448,2,0,P|30:285|19:251,1,51.599998425293,10|0,0:2|0:2,0:2:0:0:
144,93,32630,2,0,P|129:136|117:158,1,51.599998425293,2|0,1:2|0:2,0:2:0:0:
194,304,32812,2,0,B|276:285|249:363|362:323,1,154.799995275879,2|0,1:2|0:2,0:2:0:0:
360,315,33175,1,8,0:2:0:0:
480,134,33357,5,2,1:2:0:0:
480,134,33721,2,0,P|436:147|413:126,1,51.599998425293,2|0,0:2|1:2,0:2:0:0:
409,235,33903,2,0,P|368:210|369:173,1,51.599998425293,10|0,0:2|0:2,0:2:0:0:
282,219,34085,2,0,P|266:182|289:150,1,51.599998425293,2|0,1:2|0:2,0:2:0:0:
304,34,34267,2,0,B|328:23|339:-12|339:-12|399:62|340:125,1,206.399993701172,2|8,1:2|0:2,0:2:0:0:
150,225,34812,5,0,1:2:0:0:
150,225,34903,1,0,0:2:0:0:
150,225,34994,2,0,B|80:194|80:194|108:137|120:79,1,189.200005773926,12|8,1:1|0:2,0:2:0:0:
202,139,35539,1,2,1:2:0:0:
41,271,35721,1,0,1:2:0:0:
227,365,35903,1,0,1:2:0:0:
289,166,36085,2,0,B|294:115|294:115|270:85|257:63,1,94.600002886963,10|0,0:2|1:2,0:2:0:0:
227,226,36357,5,0,0:2:0:0:
227,226,36448,2,0,B|277:211|277:211|355:253|355:253|422:230,1,189.200005773926,8|8,1:1|0:2,0:2:0:0:
492,204,36994,1,0,1:2:0:0:
299,328,37175,1,2,1:2:0:0:
412,125,37357,1,0,1:2:0:0:
177,107,37539,2,0,P|199:142|209:172,1,47.3000014434815,10|0,0:2|0:2,0:2:0:0:
218,374,37721,5,2,1:2:0:0:
218,374,37812,1,0,0:2:0:0:
218,374,37903,2,0,B|203:328|203:328|218:297|226:266,1,94.600002886963,8|0,1:1|0:2,0:2:0:0:
290,191,38175,1,0,1:2:0:0:
290,191,38266,1,8,0:2:0:0:
119,304,38448,1,0,1:2:0:0:
389,355,38630,2,0,P|340:338|294:327,1,94.600002886963,0|0,1:2|1:2,0:2:0:0:
70,222,38994,2,0,P|122:209|192:192,1,94.600002886963,8|0,0:2|1:2,0:2:0:0:
247,246,39266,5,0,0:2:0:0:
247,246,39357,2,0,B|311:212|311:212|289:171|280:132,1,141.900004330444,8|0,1:1|1:2,0:2:0:0:
292,42,39721,1,8,0:2:0:0:
161,199,39903,1,0,1:2:0:0:
379,260,40085,1,0,1:2:0:0:
196,110,40266,1,0,1:2:0:0:
421,37,40448,2,0,P|402:94|396:144,1,94.600002886963,8|0,0:2|1:2,0:2:0:0:
453,324,40812,6,0,B|374:291|388:381|274:312,1,154.799995275879,12|0,1:1|1:2,0:2:0:0:
218,378,41175,2,0,P|177:346|211:285,1,103.199996850586,10|0,0:2|1:2,0:2:0:0:
249,125,41448,2,0,P|299:159|275:216,1,103.199996850586,2|0,0:2|0:2,0:2:0:0:
121,233,41721,2,0,P|151:212|188:205,1,51.599998425293,2|0,1:2|0:2,0:2:0:0:
407,120,41903,2,0,P|389:189|374:252,1,103.199996850586,10|0,0:2|1:2,0:2:0:0:
189,54,42266,6,0,P|126:35|89:129,1,154.799995275879,8|0,1:1|1:2,0:2:0:0:
16,291,42630,2,0,P|64:263|123:246,1,103.199996850586,10|0,0:2|1:2,0:2:0:0:
318,98,42903,2,0,P|270:126|211:143,1,103.199996850586,2|0,0:2|0:2,0:2:0:0:
177,306,43175,2,0,P|195:286|190:247,1,51.599998425293,2|0,1:2|0:2,0:2:0:0:
79,99,43357,2,0,B|40:138|40:138|80:187,1,103.199996850586,10|0,0:2|1:2,0:2:0:0:
308,358,43721,6,0,P|330:253|357:172,1,154.799995275879,8|0,1:1|1:2,0:2:0:0:
318,98,44085,2,0,P|380:77|405:122,1,103.199996850586,10|0,0:2|1:2,0:2:0:0:
512,255,44357,2,0,P|450:276|425:231,1,103.199996850586,2|0,0:2|0:2,0:2:0:0:
483,35,44630,2,0,P|497:74|504:114,1,51.599998425293,2|0,1:2|0:2,0:2:0:0:
254,233,44812,1,10,0:2:0:0:
467,172,44994,1,0,1:2:0:0:
253,65,45175,6,0,B|213:52|213:52|151:89|151:89|87:68,1,154.799995275879,8|0,1:1|1:2,0:2:0:0:
0,36,45539,2,0,P|23:108|23:161,1,103.199996850586,10|0,0:2|1:2,0:2:0:0:
168,222,45812,2,0,P|151:279|94:292,1,103.199996850586,2|0,0:2|0:2,0:2:0:0:
13,232,46085,1,2,1:2:0:0:
225,152,46266,2,0,P|257:165|291:177,1,51.599998425293,10|0,0:2|0:2,0:2:0:0:
422,251,46448,2,0,P|461:237|495:236,1,51.599998425293,2|0,1:2|0:2,0:2:0:0:
431,64,46630,6,2,B|396:55|373:40|373:40|371:111|347:170,1,167.699992323304,12|0,1:1|1:2,0:1:0:0:
274,276,46994,2,0,P|321:255|345:251,1,55.8999974411012,10|0,0:2|0:2,0:2:0:0:
456,164,47175,1,2,1:2:0:0:
456,164,47266,1,2,0:2:0:0:
256,41,47448,2,0,P|276:89|280:123,1,55.8999974411012,2|0,0:2|1:1,0:2:0:0:
422,251,47630,1,2,0:2:0:0:
422,251,47721,1,10,0:2:0:0:
207,167,47903,1,2,1:1:0:0:
415,0,48085,6,0,P|390:78|378:128,1,111.799994882202,8|2,1:1|0:2,0:2:0:0:
138,121,48448,2,0,P|170:184|186:255,1,111.799994882202,10|2,0:2|1:2,0:2:0:0:
435,295,48812,2,2,P|483:298|450:199,1,193.50000738144,2|0,1:2|0:2,0:1:0:0:
366,198,49175,2,2,P|392:291|406:375,1,167.699992323304,10|0,0:2|0:2,0:1:0:0:
126,237,49539,6,0,P|163:223|207:216,1,55.8999974411012,10|0,1:1|0:2,0:2:0:0:
309,105,49721,1,2,0:2:0:0:
125,46,49903,2,0,P|163:63|208:81,1,55.8999974411012,10|0,0:2|0:2,0:2:0:0:
294,235,50085,1,2,1:2:0:0:
294,235,50175,2,0,P|280:205|254:173,1,55.8999974411012,2|2,0:2|1:1,0:2:0:0:
134,144,50357,1,2,0:2:0:0:
134,144,50448,1,2,1:2:0:0:
342,21,50630,2,2,B|417:59|417:59|387:151,1,167.699992323304,8|0,0:2|0:2,0:1:0:0:
475,249,50994,6,0,P|437:232|388:220,1,55.8999974411012,8|0,1:1|0:2,0:2:0:0:
276,344,51175,2,0,P|231:361|203:377,1,55.8999974411012,2|0,0:2|1:2,0:2:0:0:
149,255,51357,1,10,0:2:0:0:
306,107,51539,1,2,1:2:0:0:
306,107,51630,2,0,P|318:158|328:186,1,55.8999974411012,2|0,0:2|1:2,0:2:0:0:
389,354,51812,2,0,P|377:320|365:288,1,55.8999974411012,2|0,0:2|1:2,0:2:0:0:
234,210,51994,1,2,0:2:0:0:
234,210,52085,1,8,0:2:0:0:
433,89,52266,2,0,P|422:126|419:158,1,55.8999974411012,2|0,1:2|0:2,0:2:0:0:
194,301,52448,6,2,P|149:269|161:152,1,167.699992323304,14|0,1:1|1:2,0:1:0:0:
173,142,52812,1,8,0:2:0:0:
329,64,52994,1,2,1:2:0:0:
105,53,53175,1,2,1:1:0:0:
250,0,53357,1,2,1:2:0:0:
250,0,53448,2,0,P|237:34|229:72,1,55.8999974411012,2|8,0:2|0:2,0:2:0:0:
153,338,53721,5,2,1:1:0:0:
453,266,53903,2,0,P|403:247|368:243,1,55.8999974411012,2|0,1:2|0:2,0:2:0:0:
116,250,54085,2,0,B|154:241|154:241|189:255|189:255|251:246,1,111.799994882202,2|8,0:2|0:2,0:2:0:0:
343,103,54448,2,0,P|329:143|323:191,1,55.8999974411012,2|0,1:2|0:2,0:2:0:0:
333,384,54630,2,2,P|323:325|308:257,1,111.799994882202,2|2,1:2|1:2,0:1:0:0:
223,249,54903,2,0,P|235:215|249:175,1,55.8999974411012,2|8,0:2|0:2,0:2:0:0:
266,27,55175,5,2,1:1:0:0:
266,27,55266,1,0,1:2:0:0:
266,27,55357,1,8,1:1:0:0:
446,119,55539,1,0,0:2:0:0:
194,116,55721,5,10,0:2:0:0:
390,35,55903,1,0,1:2:0:0:
111,33,56085,5,2,1:2:0:0:
311,139,56266,1,0,1:2:0:0:
311,139,56357,1,0,1:2:0:0:
311,139,56448,1,10,0:2:0:0:
111,261,56630,1,0,1:2:0:0:
391,244,56812,5,8,1:1:0:0:
192,180,56994,1,0,0:2:0:0:
443,132,57175,5,8,0:2:0:0:
251,266,57357,1,0,1:2:0:0:
492,264,57539,5,0,1:2:0:0:
311,139,57721,1,0,1:2:0:0:
311,139,57812,1,0,1:2:0:0:
311,139,57903,1,8,0:2:0:0:
505,56,58085,1,0,1:2:0:0:
224,274,58266,5,14,1:1:0:0:
124,133,58448,1,2,0:2:0:0:
273,34,58630,1,10,0:2:0:0:
376,170,58812,1,2,1:1:0:0:
112,156,58994,5,2,1:1:0:0:
291,121,59175,1,2,1:2:0:0:
341,290,59357,1,10,0:2:0:0:
159,345,59539,5,0,1:2:0:0:
159,345,59630,1,0,1:2:0:0:
159,345,59721,1,14,1:1:0:0:
416,223,59903,1,0,0:2:0:0:
171,94,60085,5,10,0:2:0:0:
324,383,60266,1,0,1:2:0:0:
295,18,60448,6,2,P|311:98|317:133,1,111.799994882202,2|0,1:2|1:2,0:1:0:0:
334,173,60721,1,0,0:2:0:0:
334,173,60812,1,8,0:2:0:0:
108,109,60995,5,0,1:2:0:0:
90,166,61085,1,0,1:2:0:0:
72,220,61175,2,2,B|107:223|136:211|136:211|171:241|171:241|201:229|251:228,1,180.599994488526,10|0,1:1|1:2,0:1:0:0:
267,236,61539,1,10,0:2:0:0:
89,368,61721,2,0,L|113:289,1,60.1999981628419,2|0,1:2|0:2,0:2:0:0:
229,0,61903,2,2,L|193:131,1,120.399996325684,2|0,1:2|1:2,0:1:0:0:
196,143,62175,1,0,0:2:0:0:
196,143,62266,1,10,0:2:0:0:
4,287,62448,1,2,1:2:0:0:
255,378,62630,6,2,P|237:337|220:251,1,120.399996325684,8|0,1:1|0:2,0:1:0:0:
339,163,62903,1,0,1:2:0:0:
339,163,62994,2,0,L|256:192,1,60.1999981628419,10|0,0:2|0:2,0:2:0:0:
125,245,63175,1,2,1:1:0:0:
362,299,63357,5,2,1:2:0:0:
197,132,63539,1,2,1:2:0:0:
404,37,63721,2,0,B|394:86|394:86|428:120|426:170,1,120.399996325684,10|0,0:2|1:2,0:2:0:0:
339,163,63994,5,0,0:2:0:0:
339,163,64085,2,2,B|440:156|393:229|512:207,1,180.599994488526,8|0,1:1|1:2,0:1:0:0:
385,335,64448,2,0,P|375:291|365:262,1,60.1999981628419,10|0,0:2|0:2,0:2:0:0:
197,132,64630,2,0,P|207:176|217:205,1,60.1999981628419,2|0,1:2|0:2,0:2:0:0:
100,362,64812,1,2,1:1:0:0:
281,277,64994,1,2,1:2:0:0:
35,243,65175,5,10,0:2:0:0:
326,363,65357,2,2,B|382:305|382:305|350:199,1,180.599994488526,2|0,1:2|0:2,0:1:0:0:
369,116,65721,1,0,0:2:0:0:
281,277,65903,1,10,0:2:0:0:
470,347,66085,1,0,1:2:0:0:
223,194,66266,6,0,P|261:184|306:176,1,60.1999981628419,2|0,1:2|0:2,0:2:0:0:
435,203,66448,2,0,P|397:213|352:221,1,60.1999981628419,2|0,1:2|0:2,0:2:0:0:
216,71,66630,2,0,P|255:84|294:98,1,60.1999981628419,10|0,0:2|0:2,0:2:0:0:
384,301,66812,1,2,1:2:0:0:
111,327,66994,6,2,B|103:297|75:280|75:280|49:199|155:172,1,180.599994488526,10|0,1:1|1:2,0:1:0:0:
206,350,67357,2,0,B|126:325|136:399|31:365,1,180.599994488526,10|0,0:2|0:2,0:2:0:0:
18,352,67721,1,2,1:1:0:0:
213,224,67903,1,0,1:2:0:0:
26,102,68085,2,0,P|42:146|48:182,1,60.1999981628419,10|0,0:2|0:2,0:2:0:0:
272,148,68266,5,2,1:1:0:0:
272,148,68357,1,0,0:2:0:0:
272,148,68448,2,0,B|213:125|213:125|157:146|128:155,1,120.399996325684,8|0,1:1|0:2,0:2:0:0:
15,240,68812,1,10,0:2:0:0:
276,353,68994,1,2,1:2:0:0:
106,363,69175,5,2,1:1:0:0:
345,238,69357,1,0,1:2:0:0:
136,53,69539,2,0,P|158:115|171:176,1,120.399996325684,10|2,0:2|1:2,0:2:0:0:
97,216,69812,5,0,0:2:0:0:
97,216,69903,2,2,B|185:188|149:265|272:218,1,154.799995275879,10|0,1:1|1:2,0:1:0:0:
511,130,70266,2,0,B|476:68|397:84|397:84|433:122|419:179,1,193.50000738144,10|0,0:2|0:2,0:2:0:0:
279,333,70630,1,2,1:1:0:0:
341,153,70812,1,0,1:2:0:0:
442,296,70994,1,8,0:2:0:0:
179,191,71175,6,2,P|195:140|218:53,1,120.399996325684,2|8,1:2|1:1,0:1:0:0:
62,293,71539,1,0,0:2:0:0:
62,293,71630,1,0,1:2:0:0:
62,293,71721,2,0,P|100:281|141:276,1,60.1999981628419,8|0,0:2|0:2,0:2:0:0:
341,153,71903,2,0,P|303:165|262:170,1,60.1999981628419,0|0,1:2|0:2,0:2:0:0:
81,123,72085,5,2,1:1:0:0:
318,326,72266,1,0,1:2:0:0:
50,383,72448,5,10,0:2:0:0:
282,168,72630,1,0,1:2:0:0:
81,37,72812,6,2,B|52:40|26:22|26:22|-52:93|26:179,1,193.50000738144,14|2,1:1|1:2,0:1:0:0:
153,210,73175,2,0,B|191:153|191:153|179:92,1,129.00000492096,8|2,0:2|1:1,0:2:0:0:
0,247,73448,1,2,0:2:0:0:
0,247,73539,2,0,P|39:236|72:223,1,64.5000024604798,2|0,1:2|0:2,0:2:0:0:
344,181,73721,2,0,P|304:171|269:165,1,64.5000024604798,2|0,1:2|0:2,0:2:0:0:
0,143,73903,1,10,0:2:0:0:
275,34,74085,1,2,1:2:0:0:
192,365,74266,6,2,B|242:362|242:362|183:247|183:247|138:308,1,232.199992913819,10|0,1:1|1:2,0:1:0:0:
93,361,74630,1,10,0:2:0:0:
391,232,74812,1,0,1:2:0:0:
106,167,74994,5,2,1:1:0:0:
399,336,75175,1,0,1:2:0:0:
337,43,75357,6,0,L|304:194,1,129.00000492096,10|2,0:2|1:2,0:2:0:0:
303,207,75630,1,2,0:2:0:0:
303,207,75721,1,10,1:1:0:0:
108,249,75903,2,0,L|195:228,1,64.5000024604798,2|0,0:2|1:2,0:2:0:0:
186,245,76085,1,8,0:2:0:0:
437,197,76266,1,2,1:1:0:0:
151,120,76448,6,0,L|228:153,1,64.5000024604798,8|0,1:1|0:2,0:2:0:0:
437,295,76630,2,0,L|360:262,1,64.5000024604798,2|0,1:2|0:2,0:2:0:0:
129,341,76812,2,2,B|163:339|215:368|215:368|182:297|186:235,1,219.300004182816,10|0,0:2|0:2,0:1:0:0:
317,26,77175,6,2,P|351:18|335:108,1,129.00000492096,10|0,1:1|0:2,0:1:0:0:
299,135,77448,1,0,1:2:0:0:
299,135,77539,2,0,B|401:112|367:206|487:167,1,193.50000738144,8|0,0:2|0:2,0:2:0:0:
294,242,77903,1,0,1:2:0:0:
380,90,78085,1,0,1:2:0:0:
224,18,78266,2,0,B|196:66|196:66|214:129,1,111.799994882202,8|0,0:2|1:2,0:2:0:0:
281,355,78630,5,10,1:1:0:0:
45,225,78812,1,2,0:2:0:0:
313,154,78994,1,10,0:2:0:0:
77,359,79175,1,2,1:2:0:0:
64,81,79357,6,2,B|83:83|132:60|132:60|109:190,1,193.50000738144,2|0,1:2|0:2,0:1:0:0:
167,236,79721,2,2,B|123:224|123:224|84:238|84:238|37:222,1,129.00000492096,10|0,0:2|1:2,0:1:0:0:
356,377,80085,2,2,B|314:338|314:338|336:303|321:224,1,129.00000492096,8|0,1:1|0:2,0:1:0:0:
309,140,80357,1,0,1:2:0:0:
309,140,80448,1,8,0:2:0:0:
243,380,80630,1,2,1:1:0:0:
419,296,80812,1,0,1:2:0:0:
137,235,80994,1,0,1:2:0:0:
420,133,81175,2,0,P|408:182|399:223,1,64.5000024604798,8|0,0:2|0:2,0:2:0:0:
120,341,81357,6,2,B|162:333|162:333|187:304|187:304|265:286,1,129.00000492096,6|0,1:2|1:2,0:1:0:0:
76,84,81721,1,2,1:2:0:0:
76,84,81812,1,0,1:2:0:0:
76,84,81903,1,8,0:2:0:0:
28,330,82085,2,0,P|42:288|60:248,1,64.5000024604798,2|0,1:2|0:2,0:2:0:0:
191,29,82266,2,0,P|167:79|154:108,1,64.5000024604798,2|0,1:2|0:2,0:2:0:0:
0,190,82448,2,0,P|46:176|79:173,1,64.5000024604798,2|0,1:2|0:2,0:2:0:0:
351,174,82630,2,0,B|268:158|277:238|171:190,1,167.699992323304,10|0,0:2|0:2,0:2:0:0:
485,373,82994,6,2,P|476:339|462:310,2,55.8999974411012,10|0|0,1:1|0:2|0:2,0:1:0:0:
298,339,83357,1,10,0:2:0:0:
447,72,83539,1,0,1:2:0:0:
214,27,83721,5,0,1:2:0:0:
481,234,83903,1,0,1:2:0:0:
110,272,84085,2,0,P|202:241|308:215,1,167.699992323304,10|0,0:2|0:2,0:2:0:0:
353,208,84448,1,12,1:1:0:0:
195,240,96085,5,8,1:1:0:0:
364,318,96266,2,0,P|328:302|292:286,1,51.599998425293,2|0,0:2|1:2,0:2:0:0:
172,351,96448,2,0,P|208:335|244:319,1,51.599998425293,10|0,0:2|0:2,0:2:0:0:
396,183,96630,2,0,P|357:206|329:218,1,51.599998425293,2|0,1:2|0:2,0:2:0:0:
190,92,96812,2,0,B|148:175|230:169|190:250,1,154.799995275879,2|0,1:2|0:2,0:2:0:0:
165,252,97175,1,8,0:2:0:0:
331,122,97357,5,2,1:2:0:0:
331,122,97448,1,0,1:2:0:0:
331,122,97539,2,0,P|293:109|270:102,1,51.599998425293,8|0,1:1|0:2,0:2:0:0:
97,89,97721,1,2,0:2:0:0:
302,5,97903,2,0,P|260:23|234:28,1,51.599998425293,10|0,0:2|0:2,0:2:0:0:
73,82,98085,1,0,1:2:0:0:
165,252,98266,2,0,B|193:274|200:304|200:304|273:254|232:156,1,206.399993701172,2|8,1:2|0:2,0:2:0:0:
240,178,98994,5,8,1:1:0:0:
328,288,99175,2,0,P|317:238|311:208,1,51.599998425293,2|0,0:2|1:2,0:2:0:0:
378,107,99357,2,0,P|368:137|359:177,1,51.599998425293,10|0,0:2|0:2,0:2:0:0:
226,362,99539,2,0,P|237:329|249:294,1,51.599998425293,2|0,1:2|0:2,0:2:0:0:
283,87,99721,2,0,B|197:64|218:142|111:94,1,154.799995275879,2|0,1:2|0:2,0:2:0:0:
111,78,100085,1,8,0:2:0:0:
415,235,100266,5,2,1:2:0:0:
415,235,100630,2,0,P|465:223|485:224,1,51.599998425293,2|0,0:2|1:2,0:2:0:0:
241,312,100812,1,10,0:2:0:0:
451,324,100994,2,0,P|483:337|514:340,1,51.599998425293,2|0,1:2|0:2,0:2:0:0:
357,171,101175,2,0,B|343:147|341:115|341:115|253:163|298:253,1,206.399993701172,2|8,1:2|0:2,0:2:0:0:
63,239,101721,5,0,1:2:0:0:
63,239,101812,1,0,1:2:0:0:
63,239,101903,1,8,1:1:0:0:
100,112,102085,2,0,P|127:141|125:175,1,51.599998425293,2|0,0:2|1:2,0:2:0:0:
173,319,102266,2,0,P|146:290|148:256,1,51.599998425293,10|0,0:2|0:2,0:2:0:0:
212,103,102448,2,0,P|218:148|195:175,1,51.599998425293,2|0,1:2|0:2,0:2:0:0:
56,384,102630,2,0,B|92:317|18:317|63:235,1,154.799995275879,2|0,1:2|0:2,0:2:0:0:
55,209,102994,1,8,0:2:0:0:
238,253,103175,5,0,1:2:0:0:
238,253,103266,1,0,1:2:0:0:
238,253,103357,2,0,P|262:246|306:243,1,51.599998425293,8|0,1:1|0:2,0:2:0:0:
449,193,103539,1,2,0:2:0:0:
240,124,103721,2,0,P|275:136|309:148,1,51.599998425293,10|0,0:2|0:2,0:2:0:0:
461,202,103903,1,2,1:2:0:0:
313,327,104085,2,0,B|336:354|339:381|339:381|419:332|367:233,1,206.399993701172,2|8,1:2|0:2,0:2:0:0:
377,255,104812,1,8,1:1:0:0:
500,101,104994,6,0,P|467:114|437:126,1,51.599998425293,2|0,0:2|1:2,0:2:0:0:
248,188,105175,2,0,P|285:201|325:215,1,51.599998425293,10|0,0:2|0:2,0:2:0:0:
510,229,105357,2,0,P|483:217|451:206,1,51.599998425293,2|0,1:2|0:2,0:2:0:0:
357,0,105539,2,0,B|403:77|325:76|364:149,1,154.799995275879,2|0,1:2|0:2,0:2:0:0:
372,164,105903,1,8,0:2:0:0:
224,364,106085,5,2,1:2:0:0:
224,364,106448,2,0,P|268:351|291:372,1,51.599998425293,2|0,0:2|1:2,0:2:0:0:
295,263,106630,2,0,P|336:288|335:325,1,51.599998425293,10|0,0:2|0:2,0:2:0:0:
422,279,106812,2,0,P|438:316|415:348,1,51.599998425293,2|0,1:2|0:2,0:2:0:0:
206,261,106994,2,0,B|165:198|214:131|214:131|227:182|269:201,1,206.399993701172,2|8,1:2|0:2,0:2:0:0:
247,187,107721,6,0,B|160:167|177:243|75:202,1,167.699992323304,12|0,1:1|1:2,0:2:0:0:
5,237,108085,2,0,B|-7:186|-7:186|25:147|37:114,1,111.799994882202,10|0,0:2|1:2,0:2:0:0:
162,44,108448,2,0,P|172:86|187:123,1,55.8999974411012,2|0,1:2|0:2,0:2:0:0:
348,217,108630,1,2,1:2:0:0:
305,295,108721,2,0,P|257:283|207:272,2,77.3999976379395,2|8|0,0:2|0:2|0:2,0:2:0:0:
98,367,108994,5,0,1:2:0:0:
98,367,109175,2,0,P|107:334|123:297,1,55.8999974411012,8|0,1:1|0:2,0:2:0:0:
219,185,109357,1,2,0:2:0:0:
113,107,109539,2,0,P|128:149|138:189,1,55.8999974411012,10|0,0:2|0:2,0:2:0:0:
197,362,109721,1,2,1:2:0:0:
34,236,109903,2,0,B|132:270|109:153|219:185,1,206.399993701172,2|8,1:2|0:2,0:2:0:0:
404,260,110448,5,0,1:2:0:0:
404,260,110539,1,0,1:2:0:0:
404,260,110630,2,0,P|389:214|388:177,1,55.8999974411012,8|0,1:1|0:2,0:2:0:0:
376,69,110812,1,2,0:2:0:0:
293,304,110994,2,0,P|296:261|310:223,1,55.8999974411012,10|0,0:2|0:2,0:2:0:0:
377,90,111175,1,2,1:2:0:0:
493,229,111357,1,2,1:2:0:0:
236,98,111539,1,2,1:2:0:0:
218,184,111630,2,0,P|267:166|306:154,2,73.1000013942719,2|8|0,0:2|0:2|0:2,0:2:0:0:
129,279,111903,5,0,1:2:0:0:
129,279,112085,2,0,P|116:245|98:208,1,55.8999974411012,8|0,1:1|0:2,0:2:0:0:
101,113,112266,1,2,0:2:0:0:
27,352,112448,2,0,P|37:316|52:273,1,55.8999974411012,10|0,0:2|0:2,0:2:0:0:
98,140,112630,1,2,1:2:0:0:
7,216,112812,1,2,1:2:0:0:
212,331,112994,1,2,1:2:0:0:
278,260,113085,2,0,P|230:250|188:236,2,68.8,2|8|0,0:2|0:2|0:2,0:2:0:0:
421,342,113357,5,0,1:2:0:0:
421,342,113539,2,0,B|468:289|468:289|423:196|411:153,1,167.699992323304,12|2,1:1|1:2,0:2:0:0:
313,158,113903,1,10,0:2:0:0:
512,76,114085,2,0,P|497:117|491:151,1,55.8999974411012,2|0,1:2|0:2,0:2:0:0:
366,0,114266,2,0,P|381:42|389:81,1,55.8999974411012,2|0,1:2|0:2,0:2:0:0:
421,342,114448,1,2,1:2:0:0:
351,274,114539,2,0,P|396:258|432:251,2,73.1000013942719,2|8|0,0:2|0:2|0:2,0:2:0:0:
169,384,114812,5,0,1:2:0:0:
169,384,114994,2,0,P|162:333|123:254,1,111.799994882202,8|0,1:1|0:2,0:2:0:0:
200,210,115266,1,2,1:2:0:0:
200,210,115357,2,0,P|164:188|123:199,1,55.8999974411012,10|0,0:2|0:2,0:2:0:0:
144,95,115539,2,0,P|104:109|87:148,1,55.8999974411012,2|0,1:2|0:2,0:2:0:0:
14,336,115721,1,2,1:2:0:0:
277,198,115903,1,2,1:2:0:0:
0,75,116085,2,0,P|22:167|47:254,1,167.699992323304,10|0,0:2|0:2,0:2:0:0:
130,377,116448,6,0,B|158:333|158:333|140:309|137:260,1,111.799994882202,8|2,1:1|0:2,0:2:0:0:
160,180,116721,1,0,1:2:0:0:
160,180,116812,1,8,0:2:0:0:
20,336,116994,1,0,1:2:0:0:
223,384,117175,2,0,P|263:366|294:355,1,55.8999974411012,2|0,1:2|0:2,0:2:0:0:
370,226,117357,1,2,1:2:0:0:
277,198,117448,2,0,P|286:237|296:277,2,81.6999978183747,2|8|0,0:2|0:2|0:2,0:2:0:0:
253,54,117721,5,2,1:2:0:0:
160,180,117903,1,8,1:1:0:0:
357,118,118085,1,2,0:2:0:0:
162,12,118266,1,10,0:2:0:0:
370,226,118448,1,2,1:2:0:0:
85,283,118630,1,2,1:2:0:0:
266,143,118812,1,2,1:2:0:0:
266,143,118903,2,0,P|276:195|287:228,2,64.5000024604798,2|8|0,0:2|0:2|0:2,0:2:0:0:
167,336,119175,6,0,P|173:314|188:228,1,86,2|0,1:2|0:2,0:2:0:0:
67,189,119357,2,0,B|154:125|247:187|171:273|325:290|385:209,1,344,12|8,1:1|0:2,0:2:0:0:
369,225,119903,2,0,B|375:197|375:197|361:159,1,55.8999974411012,2|0,1:2|0:2,0:2:0:0:
108,278,120085,1,2,1:2:0:0:
322,22,120266,1,2,1:2:0:0:
389,78,120357,2,0,P|453:104|467:108,1,55.8999974411012,2|8,0:2|0:2,0:2:0:0:
259,303,120630,6,0,P|253:281|238:195,1,86,2|0,1:2|0:2,0:2:0:0:
365,171,120812,2,0,B|278:107|185:169|261:255|107:272|47:191,1,344,8|8,1:1|0:2,0:2:0:0:
62,207,121357,2,0,B|52:181|52:181|58:153,1,55.8999974411012,2|0,1:2|0:2,0:2:0:0:
337,249,121539,1,2,1:2:0:0:
171,320,121721,1,2,1:2:0:0:
171,320,121812,2,0,P|178:279|188:250,2,55.8999974411012,2|8|0,0:2|0:2|0:2,0:2:0:0:
273,83,122085,6,0,B|209:137|209:137|258:229,1,167.699992323304,2|0,1:2|0:2,0:2:0:0:
321,158,122448,1,2,0:2:0:0:
250,1,122630,2,0,B|312:-12|312:-12|343:25,1,103.199996850586,10|2,0:2|1:2,0:2:0:0:
362,56,122903,1,0,1:2:0:0:
362,56,122994,1,2,1:2:0:0:
197,126,123175,1,2,1:2:0:0:
136,52,123266,2,0,P|93:38|39:32,2,81.6999978183747,2|8|0,0:2|0:2|0:2,0:2:0:0:
113,207,123539,5,0,1:2:0:0:
113,207,123721,2,0,B|68:218|68:218|53:234|53:234|-20:253,2,111.799994882202,8|2|10,1:1|0:2|0:2,0:2:0:0:
185,269,124175,1,0,0:2:0:0:
189,273,124266,2,0,P|200:226|209:201,1,55.8999974411012,2|0,1:2|0:2,0:2:0:0:
187,38,124448,1,2,1:2:0:0:
187,38,124539,2,0,P|170:84|158:106,1,55.8999974411012,2|0,0:2|1:2,0:2:0:0:
286,206,124721,1,2,0:2:0:0:
286,206,124812,1,8,0:2:0:0:
94,303,124994,1,0,1:2:0:0:
449,159,125175,6,0,B|417:151|417:151|413:144|413:144|371:132,1,77.3999976379395,8|0,1:1|0:2,0:2:0:0:
255,98,125357,2,0,B|340:81|323:143|420:115,1,154.799995275879,2|8,0:2|0:2,0:2:0:0:
479,65,125721,1,2,1:2:0:0:
286,206,125903,1,2,1:2:0:0:
505,333,126085,1,2,1:2:0:0:
505,333,126175,1,2,0:2:0:0:
505,333,126266,2,0,L|478:222,1,103.199996850586,8|0,0:2|1:2,0:2:0:0:
221,372,126630,6,0,B|228:347|228:347|235:343|235:343|247:301,1,68.8,8|0,1:1|0:2,0:2:0:0:
286,206,126812,2,0,B|301:280|243:253|267:353,1,137.6,2|8,0:2|0:2,0:2:0:0:
360,332,127175,1,0,1:2:0:0:
207,227,127357,1,2,1:2:0:0:
393,120,127539,1,2,1:2:0:0:
393,120,127630,2,0,P|379:172|376:216,2,68.8,2|8|0,0:2|0:2|0:2,0:2:0:0:
256,20,127903,2,0,P|279:87|282:145,1,111.799994882202,0|8,1:2|1:1,0:2:0:0:
275,150,128175,1,2,0:2:0:0:
152,341,128357,5,2,1:2:0:0:
152,341,128448,2,0,P|196:327|227:321,1,55.8999974411012,10|0,0:2|0:2,0:2:0:0:
207,227,128630,1,2,1:2:0:0:
207,227,128721,2,0,P|251:241|282:247,1,55.8999974411012,2|0,0:2|1:2,0:2:0:0:
412,293,128903,1,2,0:2:0:0:
512,210,129085,1,2,0:2:0:0:
512,210,129175,2,0,P|468:200|442:190,1,55.8999974411012,10|0,0:2|0:2,0:2:0:0:
362,371,129357,2,0,P|318:381|292:391,1,55.8999974411012,2|0,1:2|0:2,0:2:0:0:
398,132,129539,6,0,B|363:137|324:104|324:104|362:177|351:247,1,193.50000738144,8|2,1:1|1:2,0:2:0:0:
348,237,129903,1,8,0:2:0:0:
398,44,130085,1,2,1:2:0:0:
232,112,130266,2,0,B|210:66|210:66|278:29,1,111.799994882202,2|0,1:2|1:2,0:2:0:0:
457,196,130630,1,10,0:2:0:0:
232,270,130812,1,2,1:2:0:0:
507,280,130994,6,2,B|494:228|494:228|514:187|514:187|490:95,1,167.699992323304,12|0,1:1|1:2,0:1:0:0:
503,91,131357,1,10,0:2:0:0:
287,55,131539,2,0,P|317:100|385:76,1,111.799994882202,2|2,1:2|1:2,0:2:0:0:
397,69,131812,1,0,1:2:0:0:
397,69,131903,1,2,1:2:0:0:
402,228,132085,2,0,P|366:212|330:206,1,55.8999974411012,10|0,0:2|0:2,0:2:0:0:
184,273,132266,2,2,B|186:187|267:173|267:173|245:222|280:266,1,223.599989764405,2|2,1:2|0:2,0:1:0:0:
288,279,132721,1,0,1:2:0:0:
288,279,132812,1,10,0:2:0:0:
438,348,132994,5,2,1:2:0:0:
512,207,133175,2,2,P|494:160|483:106,1,103.199996850586,2|0,1:2|1:2,0:1:0:0:
503,77,133448,1,0,0:2:0:0:
503,77,133539,2,2,B|419:48|435:129|347:85,1,154.799995275879,10|0,0:2|0:2,0:1:0:0:
176,17,133903,5,10,1:1:0:0:
289,159,134085,1,2,1:2:0:0:
289,159,134175,1,0,1:2:0:0:
289,159,134266,2,0,B|252:125|252:125|268:55,1,103.199996850586,10|0,0:2|1:2,0:2:0:0:
332,0,134630,1,2,1:2:0:0:
429,174,134812,1,0,1:2:0:0:
268,260,134994,1,10,0:2:0:0:
171,86,135175,5,0,1:2:0:0:
171,86,135266,1,0,1:2:0:0:
171,86,135357,2,2,P|111:98|135:194,1,180.599994488526,8|0,1:1|1:2,0:1:0:0:
26,291,135721,2,0,P|25:232|16:193,1,94.600002886963,10|0,0:2|1:2,0:2:0:0:
244,169,136085,5,2,1:2:0:0:
425,261,136266,1,2,1:2:0:0:
200,300,136448,5,10,0:2:0:0:
402,170,136630,1,2,1:2:0:0:
161,55,136812,6,2,B|129:104|129:104|149:174,1,111.799994882202,12|0,1:1|0:2,0:1:0:0:
70,195,137085,1,0,1:2:0:0:
70,195,137175,2,0,B|163:167|127:259|268:200,1,167.699992323304,10|0,0:2|0:2,0:2:0:0:
362,267,137539,1,2,1:1:0:0:
491,84,137721,1,0,1:2:0:0:
289,59,137903,2,0,P|309:99|323:150,1,64.5000024604798,10|0,0:2|0:2,0:2:0:0:
443,330,138085,5,2,1:2:0:0:
443,330,138175,1,0,1:2:0:0:
445,334,138266,2,2,P|381:296|283:347,1,180.599994488526,8|0,1:1|1:2,0:1:0:0:
250,339,138630,1,10,0:2:0:0:
100,267,138812,1,2,1:2:0:0:
170,134,138994,2,2,L|199:249,1,103.199996850586,2|0,1:2|1:2,0:1:0:0:
212,254,139266,1,0,0:2:0:0:
212,254,139357,1,10,0:2:0:0:
341,127,139539,2,0,P|318:120|274:106,1,51.599998425293,2|0,1:2|0:2,0:2:0:0:
85,136,139721,6,0,B|131:119|131:119|147:68|147:68|197:51|214:45,1,154.799995275879,8|0,1:1|1:2,0:1:0:0:
225,22,140085,1,8,0:2:0:0:
381,212,140266,2,0,B|456:173|456:173|426:88,1,154.799995275879,0|0,1:2|0:2,0:1:0:0:
422,77,140630,1,0,1:2:0:0:
287,209,140812,2,0,P|272:247|266:282,1,51.599998425293,8|0,0:2|0:2,0:2:0:0:
465,265,140994,1,0,1:2:0:0:
341,127,141175,6,0,B|291:113|291:113|256:130|226:128,1,103.199996850586,8|0,1:1|0:2,0:2:0:0:
166,102,141448,1,0,1:2:0:0:
166,102,141539,1,8,0:2:0:0:
287,209,141721,1,0,1:2:0:0:
142,353,141903,6,0,B|144:302|116:252|116:252|162:290|224:265,1,180.599994488526,0|0,1:2|0:2,0:2:0:0:
384,308,142266,2,0,B|345:279|293:303|293:303|286:352|228:359,1,180.599994488526,8|0,0:2|0:2,0:2:0:0:
19,264,142630,6,2,B|41:187|41:187|47:187|47:187|82:66,1,206.399993701172,14|8,1:1|0:2,0:1:0:0:
80,71,143175,2,0,P|57:77|20:88,1,51.599998425293,2|0,1:1|0:2,0:2:0:0:
225,167,143357,2,2,B|279:140|339:187|301:204|360:242|429:197,1,206.399993701172,0|8,1:2|0:2,0:1:0:0:
475,285,143903,1,2,1:1:0:0:
475,285,143994,1,0,0:2:0:0:
475,285,144085,2,2,B|497:251|532:222|532:222|503:193|476:129,1,167.699992323304,8|0,1:1|1:2,0:1:0:0:
248,29,144448,5,10,0:2:0:0:
411,206,144630,1,0,1:2:0:0:
169,318,144812,1,2,1:1:0:0:
346,126,144994,1,0,1:2:0:0:
154,0,145175,2,0,L|135:88,1,64.5000024604798,10|0,0:2|0:2,0:2:0:0:
80,344,145357,5,2,1:2:0:0:
68,286,145447,1,0,1:2:0:0:
55,230,145539,2,2,B|88:226|88:226|114:200|114:200|157:228|157:228|199:205|252:220,1,193.50000738144,12|0,1:1|1:2,0:1:0:0:
242,230,145903,1,8,0:2:0:0:
392,332,146085,2,0,P|378:294|373:263,1,64.5000024604798,0|0,1:2|0:2,0:2:0:0:
423,35,146266,6,2,B|442:13|450:-9|450:-9|540:42|486:127,1,193.50000738144,2|0,1:2|0:2,0:1:0:0:
444,219,146630,1,8,0:2:0:0:
252,101,146812,2,0,P|289:95|333:95,1,64.5000024604798,2|0,1:1|0:2,0:2:0:0:
413,137,146994,1,8,1:1:0:0:
413,137,147085,1,2,0:2:0:0:
140,292,147266,1,2,1:2:0:0:
140,292,147357,1,10,0:2:0:0:
368,377,147539,2,0,P|362:342|347:304,1,64.5000024604798,0|0,1:2|0:2,0:2:0:0:
175,173,147721,2,2,B|81:149|99:233|-7:187,1,167.699992323304,2|0,1:2|0:2,0:1:0:0:
265,280,148085,5,8,0:2:0:0:
265,280,148175,1,0,0:2:0:0:
265,280,148266,2,0,P|248:243|244:214,1,55.8999974411012,2|0,1:1|0:2,0:2:0:0:
268,93,148448,1,10,1:1:0:0:
138,311,148630,2,0,P|147:285|176:248,1,55.8999974411012,2|0,0:2|1:2,0:2:0:0:
318,12,148812,6,0,B|389:65|389:65|334:167,1,167.699992323304,10|0,0:2|0:2,0:2:0:0:
429,271,149175,1,2,1:1:0:0:
268,93,149357,1,0,1:2:0:0:
512,75,149539,1,8,0:2:0:0:
260,251,149721,5,2,1:1:0:0:
260,251,150085,2,0,P|252:223|227:163,1,64.5000024604798,2|0,0:2|1:2,0:2:0:0:
188,61,150266,1,8,0:2:0:0:
159,350,150448,2,0,P|164:314|179:271,1,64.5000024604798,2|0,1:2|0:2,0:2:0:0:
103,1,150630,2,2,B|65:33|88:83|88:83|106:95|106:95|140:153|102:174,1,193.50000738144,2|0,1:2|0:2,0:1:0:0:
0,225,150994,2,0,P|3:204|57:270,1,193.50000738144,10|0,0:2|0:2,0:2:0:0:
276,355,151357,6,2,B|302:363|327:347|327:347|342:308|375:294|375:294|406:327|460:328,1,180.599994488526,10|0,1:1|1:2,0:1:0:0:
500,288,151721,1,8,0:2:0:0:
255,158,151903,1,0,1:2:0:0:
489,4,152085,2,2,L|461:142,1,120.399996325684,2|0,1:2|1:2,0:1:0:0:
463,175,152357,1,0,0:2:0:0:
463,175,152448,1,8,0:2:0:0:
135,100,152630,6,0,P|164:93|213:75,1,60.1999981628419,0|0,1:1|0:2,0:2:0:0:
277,61,152812,1,8,1:1:0:0:
277,61,152903,1,2,0:2:0:0:
151,242,153085,1,2,1:2:0:0:
151,242,153175,1,10,0:2:0:0:
353,345,153357,1,0,1:2:0:0:
85,322,153539,2,2,B|72:293|50:279|50:279|38:215|99:159,1,180.599994488526,2|0,1:2|0:2,0:1:0:0:
252,13,153903,5,8,0:2:0:0:
252,13,153994,1,0,0:2:0:0:
252,13,154085,1,2,1:1:0:0:
382,187,154266,2,0,P|328:163|306:159,1,60.1999981628419,10|0,1:1|0:2,0:2:0:0:
151,242,154448,1,2,0:2:0:0:
434,263,154630,2,0,B|493:218|493:218|442:116,1,180.599994488526,10|0,0:2|0:2,0:2:0:0:
369,9,154994,1,2,1:1:0:0:
301,269,155175,1,0,1:2:0:0:
96,67,155357,1,8,0:2:0:0:
382,187,155539,5,2,1:1:0:0:
382,187,155903,2,0,P|339:170|309:165,1,60.1999981628419,2|0,0:2|1:2,0:2:0:0:
212,369,156085,1,10,0:2:0:0:
216,322,156175,1,0,1:2:0:0:
183,293,156266,1,2,1:2:0:0:
150,264,156357,1,0,1:2:0:0:
155,217,156447,1,2,1:1:0:0:
478,60,156630,1,0,1:2:0:0:
225,13,156812,5,10,0:2:0:0:
512,227,156994,1,0,1:2:0:0:
122,361,157175,6,2,P|106:279|72:164,1,193.50000738144,10|0,1:1|1:1,0:1:0:0:
36,91,157539,1,8,0:2:0:0:
251,277,157721,1,2,1:2:0:0:
300,205,157812,2,2,B|229:182|229:182|214:209|183:219,1,129.00000492096,2|0,0:2|0:2,0:1:0:0:
4,291,158085,1,2,1:2:0:0:
4,291,158175,1,2,0:2:0:0:
4,291,158266,1,10,0:0:0:0:
271,356,158448,1,2,1:2:0:0:
104,12,158630,6,2,P|73:92|195:107,1,193.50000738144,8|0,1:0|1:0,0:1:0:0:
188,216,158994,2,0,P|225:193|208:127,1,64.5000024604798,10|0,0:2|0:2,0:2:0:0:
321,186,159175,2,0,P|315:134|267:124,1,64.5000024604798,2|0,1:2|0:2,0:2:0:0:
440,265,159357,2,2,B|473:234|524:267|524:267|471:263|451:295,1,146.200002788544,2|0,1:2|1:2,0:1:0:0:
401,344,159630,1,0,0:2:0:0:
401,344,159721,2,2,B|308:319|332:403|225:361,1,167.699992323304,10|0,0:2|0:2,0:1:0:0:
222,349,160085,1,10,1:1:0:0:
384,127,160266,5,2,0:2:0:0:
298,107,160357,2,0,P|308:157|324:199,2,81.6999978183747,2|8|0,1:2|0:2|0:2,0:2:0:0:
41,223,160630,1,0,1:1:0:0:
102,298,160721,2,0,P|121:250|128:206,2,81.6999978183747,2|0|0,0:2|1:2|0:2,0:2:0:0:
110,60,160994,1,2,1:2:0:0:
110,60,161085,1,2,0:2:0:0:
110,60,161175,1,10,0:2:0:0:
450,139,161357,1,2,1:2:0:0:
259,384,161539,6,2,B|223:199|223:199|227:196|227:196|187:-8,3,395.600007545471,8|10|2|10,1:1|0:2|1:2|0:2,0:1:0:0:
495,172,162812,5,0,1:2:0:0:
495,172,162903,1,0,0:2:0:0:
495,172,162994,2,2,B|453:123|382:120|382:120|424:177|381:226,1,193.50000738144,12|2,1:1|1:2,0:1:0:0:
323,187,163357,1,8,0:2:0:0:
78,237,163539,1,2,1:2:0:0:
78,237,163630,1,2,0:2:0:0:
78,237,163721,2,2,P|93:183|101:98,1,129.00000492096,0|0,1:2|1:2,0:1:0:0:
126,304,164085,2,2,B|58:277|58:277|18:306|-18:303,1,129.00000492096,10|0,0:2|1:2,0:1:0:0:
212,213,164448,6,2,P|232:284|336:267,1,167.699992323304,8|0,1:1|1:2,0:1:0:0:
382,340,164812,2,0,P|404:310|398:278,1,55.8999974411012,10|0,0:2|0:2,0:2:0:0:
487,269,164994,2,0,P|474:228|436:217,1,55.8999974411012,2|0,1:1|0:2,0:2:0:0:
276,46,165175,1,2,1:2:0:0:
376,213,165357,2,0,P|367:189|357:153,1,55.8999974411012,0|0,1:2|0:2,0:2:0:0:
171,14,165539,2,0,P|187:63|197:101,1,55.8999974411012,10|0,0:2|0:2,0:2:0:0:
193,246,165721,6,2,B|154:218|112:244|112:244|90:290|28:288,1,180.599994488526,6|0,1:2|0:2,0:1:0:0:
37,196,166085,2,0,P|40:165|52:123,1,60.1999981628419,2|0,0:2|1:2,0:2:0:0:
252,351,166266,1,8,0:2:0:0:
131,136,166448,1,0,1:2:0:0:
379,61,166630,2,0,P|365:104|356:143,1,60.1999981628419,2|0,1:2|0:2,0:2:0:0:
226,262,166812,1,2,1:2:0:0:
226,262,166903,2,0,P|218:218|206:187,2,60.1999981628419,2|8|0,0:2|0:2|0:2,0:2:0:0:
409,250,167175,1,2,1:2:0:0:
6,122,167357,6,2,B|129:94|129:94|131:97|131:97|290:60,3,292.400005577087,10|10|2|10,1:1|0:2|1:2|0:2,0:1:0:0:
312,317,168630,5,0,1:2:0:0:
324,244,168721,1,0,3:2:0:0:
335,172,168812,1,12,1:1:0:0:
