osu file format v14

[General]
AudioFilename: audio.mp3
AudioLeadIn: 0
PreviewTime: 59994
Countdown: 0
SampleSet: Soft
StackLeniency: 0.7
Mode: 0
LetterboxInBreaks: 0
WidescreenStoryboard: 1

[Editor]
DistanceSpacing: 0.4
BeatDivisor: 4
GridSize: 32
TimelineZoom: 2.799999

[Metadata]
Title:Jam Over The Barrier!
TitleUnicode:Jam Over The Barrier!
Artist:Falcom Sound Team jdk vs. Quad City DJ's
ArtistUnicode:Falcom Sound Team jdk vs. Quad City DJ's
Creator:Deca
Version:HARD!!!
Source:英雄伝説 零の軌跡
Tags:碧の軌跡 michael lloyd bannings jordan saki mordred momiyama impurepug fixxis shurelia yogurtt 籾山 紗希 get trails to azure from zero no kiseki eiyuu densetsu the legend of black man heroes crossball crossbell slam space bugs mishy bunny ost original soundtrack theaggyyu j.d.k. hip hop english jrpg videogame japanese role playing game versus
BeatmapID:2824710
BeatmapSetID:1337586

[Difficulty]
HPDrainRate:4.5
CircleSize:3.6
OverallDifficulty:7
ApproachRate:8
SliderMultiplier:1.4
SliderTickRate:1

[Events]
//Background and Video events
0,0,"dKDRSex[1]_waifu2x_art_noise1_scale_tta_1.jpg",0,0
//Break Periods
2,84648,95335
//Storyboard Layer 0 (Background)
//Storyboard Layer 1 (Fail)
//Storyboard Layer 2 (Pass)
//Storyboard Layer 3 (Foreground)
//Storyboard Layer 4 (Overlay)
//Storyboard Sound Samples

[TimingPoints]
85,363.636363636364,4,2,1,76,1,0
11721,-90.9090909090909,4,2,1,76,0,0
23357,-90.9090909090909,4,2,1,66,0,0
46630,-90.9090909090909,4,2,1,76,0,0
60448,-90.9090909090909,4,2,1,81,0,0
61175,-83.3333333333333,4,2,1,81,0,0
96085,-90.9090909090909,4,2,1,81,0,0
96266,-90.9090909090909,4,2,1,66,0,0
130994,-90.9090909090909,4,2,1,76,0,0
144448,-90.9090909090909,4,2,1,81,0,0
145539,-83.3333333333333,4,2,1,81,0,0

[Colours]
Combo1 : 109,188,205
Combo2 : 200,62,62
Combo3 : 67,138,224
Combo4 : 208,136,64

[HitObjects]
25,224,11539,5,0,1:2:0:0:
25,224,11630,1,0,1:2:0:0:
25,224,11721,2,2,P|69:214|123:205,1,77.0000023498536,14|0,1:1|0:0,0:1:0:0:
161,130,12085,1,8,0:2:0:0:
246,165,12266,1,0,1:2:0:0:
202,243,12448,2,0,P|187:292|180:343,1,77.0000023498536,0|0,1:2|1:2,0:0:0:0:
317,341,12812,2,0,P|299:292|284:245,1,77.0000023498536,8|0,0:2|0:0,0:2:0:0:
349,69,13175,6,2,B|426:62|401:115|521:89,1,154.000004699707,10|8,1:1|0:2,0:1:0:0:
512,180,13721,1,0,1:2:0:0:
429,237,13903,2,2,P|414:285|405:327,2,77.0000023498536,2|0|8,1:2|0:0|0:2,0:1:0:0:
390,157,14448,5,0,1:2:0:0:
390,157,14539,1,0,1:2:0:0:
390,157,14630,2,2,P|381:120|369:77,1,77.0000023498536,10|0,1:1|0:0,0:1:0:0:
312,6,14994,1,8,0:2:0:0:
232,48,15175,1,0,1:2:0:0:
282,126,15357,2,0,P|233:143|195:168,1,77.0000023498536,0|0,1:2|1:2,0:2:0:0:
122,126,15721,2,0,P|130:81|138:27,1,77.0000023498536,8|0,0:2|0:0,0:2:0:0:
30,167,16085,6,0,P|52:229|70:316,2,154.000004699707,10|10|0,1:1|0:2|1:2,0:2:0:0:
122,126,16994,1,0,1:2:0:0:
147,215,17175,2,0,P|187:224|246:233,1,77.0000023498536,10|0,0:2|1:1,0:2:0:0:
297,177,17539,6,0,B|322:87|254:102|292:14,1,154.000004699707,12|10,1:1|0:2,0:0:0:0:
376,58,18085,1,2,1:2:0:0:
455,98,18266,2,0,P|471:168|495:261,1,154.000004699707,2|8,1:2|0:2,0:2:0:0:
428,309,18812,1,2,1:2:0:0:
428,309,18903,1,2,0:2:0:0:
428,309,18994,2,2,P|386:295|337:282,1,77.0000023498536,2|2,1:2|0:2,0:1:0:0:
301,210,19357,2,0,P|336:198|386:172,1,77.0000023498536,10|0,0:2|1:2,0:0:0:0:
234,288,19721,2,2,P|207:247|233:136,1,154.000004699707,2|8,1:2|0:2,0:1:0:0:
149,88,20266,6,2,B|101:77|101:77|59:114|59:114|-2:99,1,154.000004699707,2|2,1:2|0:2,0:1:0:0:
88,151,20812,2,0,P|97:198|106:246,1,77.0000023498536,10|2,0:2|1:2,0:2:0:0:
159,301,21175,2,0,P|202:295|208:196,1,154.000004699707,2|8,1:2|0:2,0:2:0:0:
282,124,21721,5,2,1:1:0:0:
282,124,22085,2,0,P|290:77|300:42,2,77.0000023498536,2|10|2,0:2|0:2|1:2,0:2:0:0:
344,198,22630,2,2,P|378:199|406:153,1,77.0000023498536,2|0,1:2|0:0,0:1:0:0:
491,197,22994,2,0,P|503:160|477:115,1,77.0000023498536,8|0,0:2|0:0,0:1:0:0:
436,41,23357,6,0,P|381:38|249:25,1,154.000004699707,12|8,1:1|0:2,0:0:0:0:
251,120,23903,2,0,P|194:130|89:149,1,154.000004699707,2|0,1:2|1:2,0:2:0:0:
48,67,24448,1,10,0:2:0:0:
40,244,24812,6,0,B|120:229|85:288|202:259,1,154.000004699707,8|8,1:1|0:2,0:2:0:0:
271,318,25357,2,0,P|277:271|286:228,2,77.0000023498536,2|0|0,1:2|0:0|1:2,0:2:0:0:
363,347,25903,2,0,P|399:328|439:306,1,77.0000023498536,10|0,0:2|1:2,0:2:0:0:
468,223,26266,6,0,B|447:165|447:165|404:150|404:150|380:79,1,154.000004699707,8|8,1:1|0:2,0:2:0:0:
402,7,26812,1,0,1:2:0:0:
311,29,26994,2,0,P|297:83|299:125,1,77.0000023498536,0|0,1:2|1:2,0:0:0:0:
304,200,27357,1,8,0:2:0:0:
110,111,27721,6,0,P|98:166|98:207,1,77.0000023498536,8|0,1:1|0:2,0:2:0:0:
97,186,27994,1,0,1:2:0:0:
97,186,28085,1,8,0:2:0:0:
56,268,28266,2,0,P|13:254|-20:246,2,77.0000023498536,0|0|0,1:2|1:2|1:2,0:0:0:0:
106,349,28812,2,0,P|145:333|190:318,1,77.0000023498536,8|0,0:2|1:2,0:2:0:0:
271,351,29175,5,12,1:1:0:0:
342,285,29357,2,0,P|323:240|308:207,2,77.0000023498536,2|10|2,0:2|0:2|1:2,0:2:0:0:
420,355,29903,2,0,P|438:301|399:198,1,154.000004699707,2|10,1:2|0:2,0:2:0:0:
431,120,30448,1,0,1:2:0:0:
350,73,30630,6,0,P|312:83|259:95,1,77.0000023498536,2|2,1:2|0:2,0:2:0:0:
238,177,30994,2,0,P|200:167|146:159,1,77.0000023498536,10|2,0:2|1:2,0:2:0:0:
83,91,31357,2,0,B|68:151|68:151|35:170|35:170|16:246,1,154.000004699707,2|8,1:2|0:2,0:2:0:0:
0,304,31903,5,2,1:2:0:0:
82,344,32085,2,0,P|139:327|239:313,1,154.000004699707,0|10,0:0|0:2,0:0:0:0:
320,366,32630,1,2,1:2:0:0:
340,266,32812,2,0,P|327:215|301:103,1,154.000004699707,2|8,1:2|0:2,0:2:0:0:
220,72,33357,5,2,1:2:0:0:
220,72,33721,2,0,P|182:91|140:101,2,77.0000023498536,2|10|2,0:2|0:2|1:2,0:2:0:0:
309,7,34266,2,0,B|390:-3|363:52|465:21,1,154.000004699707,2|8,1:2|0:2,0:2:0:0:
372,263,34994,6,0,P|329:258|346:160,1,154.000004699707,12|8,1:1|0:2,0:2:0:0:
241,119,35539,2,0,P|268:89|312:91,2,77.0000023498536,2|0|0,1:2|1:2|1:2,0:0:0:0:
203,204,36085,2,0,P|154:192|108:182,1,77.0000023498536,10|0,0:2|1:2,0:2:0:0:
24,220,36448,2,0,B|13:174|13:174|50:132|50:132|34:63,1,154.000004699707,8|8,1:1|0:2,0:2:0:0:
121,83,36994,2,0,P|130:46|139:9,2,77.0000023498536,0|2|0,1:2|1:2|1:2,0:0:0:0:
216,73,37539,5,10,0:2:0:0:
179,161,37721,2,0,B|259:140|231:212|339:172,1,154.000004699707,2|0,1:2|0:2,0:0:0:0:
325,176,38175,1,0,1:2:0:0:
325,176,38266,1,8,0:2:0:0:
374,101,38448,1,0,1:2:0:0:
467,127,38630,2,0,P|454:177|452:224,1,77.0000023498536,0|0,1:2|1:2,0:2:0:0:
512,269,38994,1,8,0:2:0:0:
264,300,39357,6,0,P|216:290|174:286,1,77.0000023498536,8|0,1:1|0:0,0:2:0:0:
188,286,39630,1,0,1:2:0:0:
188,286,39721,1,8,0:2:0:0:
132,350,39903,1,0,1:2:0:0:
64,298,40085,2,0,P|51:246|49:212,1,77.0000023498536,0|0,1:2|1:2,0:0:0:0:
131,201,40448,2,0,P|127:162|118:125,1,77.0000023498536,8|0,0:2|1:2,0:2:0:0:
207,55,40812,6,0,P|238:87|278:92,1,77.0000023498536,12|0,1:1|0:0,0:2:0:0:
268,93,41085,1,0,1:2:0:0:
268,93,41175,2,0,P|329:83|384:77,2,115.50000352478,10|2|2,0:2|0:2|1:2,0:2:0:0:
252,176,41903,1,10,0:2:0:0:
169,158,42085,1,0,1:2:0:0:
132,233,42266,2,0,P|79:243|39:253,1,77.0000023498536,8|0,1:1|0:0,0:2:0:0:
56,248,42539,1,0,1:2:0:0:
56,248,42630,2,0,B|58:184|26:200|32:114,2,115.50000352478,10|2|2,0:2|0:2|1:2,0:2:0:0:
77,330,43357,2,0,P|134:336|186:343,1,77.0000023498536,10|0,0:2|1:2,0:2:0:0:
236,319,43721,6,0,B|224:267|224:267|240:243|240:243|220:166,2,154.000004699707,8|10|0,1:1|0:2|0:0,0:2:0:0:
308,362,44630,1,2,1:2:0:0:
376,312,44812,2,0,P|426:300|459:292,1,77.0000023498536,10|0,0:2|1:2,0:0:0:0:
487,199,45175,2,0,P|410:202|372:163,1,115.50000352478,8|0,1:1|1:2,0:2:0:0:
382,180,45539,2,0,P|390:126|392:80,1,77.0000023498536,10|0,0:2|1:2,0:2:0:0:
325,49,45903,2,0,P|286:58|237:70,1,77.0000023498536,0|2,0:0|1:2,0:0:0:0:
196,132,46266,1,10,0:2:0:0:
133,189,46448,1,2,1:2:0:0:
108,107,46630,6,2,P|93:64|79:19,2,77.0000023498536,12|0|10,1:1|0:0|0:2,0:1:0:0:
10,108,47175,1,2,1:2:0:0:
10,108,47266,1,2,0:2:0:0:
10,108,47357,2,0,P|23:150|37:197,1,77.0000023498536,0|0,0:0|1:1,0:0:0:0:
42,283,47721,2,0,B|77:272|77:272|107:280|107:280|184:256,1,115.50000352478,10|0,0:2|0:0,0:0:0:0:
152,265,48085,5,8,1:1:0:0:
233,287,48266,1,2,0:2:0:0:
283,219,48448,1,10,0:2:0:0:
202,193,48630,1,2,1:2:0:0:
276,118,48812,2,2,P|268:75|253:28,1,77.0000023498536,2|0,1:2|0:0,0:1:0:0:
178,16,49175,1,10,0:2:0:0:
15,133,49539,6,0,P|7:95|0:57,2,77.0000023498536,10|2|10,1:1|0:2|0:2,0:2:0:0:
44,230,50085,1,2,1:2:0:0:
44,230,50175,1,2,0:2:0:0:
44,230,50266,2,0,P|87:219|131:212,1,77.0000023498536,2|2,1:1|1:2,0:0:0:0:
206,268,50630,2,2,P|217:205|222:180,1,77.0000023498536,8|0,0:2|0:0,0:1:0:0:
279,112,50994,5,8,1:1:0:0:
350,187,51175,2,0,P|399:191|441:194,1,77.0000023498536,2|10,0:2|0:2,0:2:0:0:
477,311,51539,1,2,1:2:0:0:
477,311,51630,1,2,0:2:0:0:
477,311,51721,2,0,P|462:357|454:398,1,77.0000023498536,0|0,1:2|1:2,0:0:0:0:
380,276,52085,1,8,0:2:0:0:
426,193,52266,1,2,1:2:0:0:
338,129,52448,2,2,B|244:109|285:162|177:140,1,154.000004699707,14|8,1:1|0:2,0:1:0:0:
105,86,52994,1,2,1:2:0:0:
66,170,53175,6,0,P|53:226|51:260,1,77.0000023498536,2|2,1:1|1:2,0:0:0:0:
51,245,53448,1,2,0:2:0:0:
51,245,53539,1,8,0:2:0:0:
103,337,53721,2,0,P|149:324|200:320,2,77.0000023498536,2|2|2,1:1|1:2|0:2,0:0:0:0:
10,383,54266,1,8,0:2:0:0:
192,141,54630,6,2,P|204:194|205:227,1,77.0000023498536,2|2,1:2|1:2,0:1:0:0:
205,216,54903,1,2,0:2:0:0:
205,216,54994,1,8,0:2:0:0:
283,288,55175,1,2,1:1:0:0:
212,358,55357,2,0,P|163:346|131:338,1,77.0000023498536,8|0,1:1|0:2,0:0:0:0:
119,235,55721,2,0,P|76:226|27:212,1,77.0000023498536,10|0,0:2|1:2,0:0:0:0:
28,132,56085,2,0,B|17:96|17:96|59:60,1,77.0000023498536,2|0,1:2|1:2,0:0:0:0:
46,70,56357,1,0,1:2:0:0:
46,70,56448,1,10,0:2:0:0:
143,93,56630,1,0,1:2:0:0:
227,35,56812,6,0,P|243:93|252:117,1,77.0000023498536,8|0,1:1|0:2,0:0:0:0:
351,90,57175,2,0,P|341:134|333:177,1,77.0000023498536,8|0,0:2|1:2,0:0:0:0:
391,246,57539,2,0,P|446:260|485:264,1,77.0000023498536,0|0,1:2|1:2,0:0:0:0:
466,262,57812,1,0,1:2:0:0:
466,262,57903,1,8,0:2:0:0:
414,352,58085,1,0,1:2:0:0:
316,317,58266,6,0,B|239:302|244:348|151:319,1,154.000004699707,14|10,1:1|0:2,0:0:0:0:
88,380,58812,1,2,1:1:0:0:
58,289,58994,2,0,P|77:226|104:130,1,154.000004699707,2|10,1:1|0:2,0:0:0:0:
70,53,59539,1,0,1:2:0:0:
70,53,59630,1,0,1:2:0:0:
70,53,59721,1,14,1:1:0:0:
155,30,59903,1,0,0:2:0:0:
100,141,60085,1,10,0:2:0:0:
191,120,60266,1,0,1:2:0:0:
6,113,60448,6,2,P|22:221|29:292,1,154.000004699707,2|8,1:2|0:2,0:1:0:0:
4,357,60994,5,0,1:2:0:0:
4,357,61085,1,0,1:2:0:0:
4,357,61175,2,2,B|87:340|62:403|181:378,1,167.999994873047,10|10,1:1|0:2,0:1:0:0:
224,301,61721,1,2,1:2:0:0:
175,214,61903,2,2,P|181:158|193:117,1,83.9999974365235,2|0,1:2|1:2,0:1:0:0:
299,123,62266,1,10,0:2:0:0:
228,50,62448,1,2,1:2:0:0:
299,123,62630,6,2,P|294:168|274:218,1,83.9999974365235,8|0,1:1|0:2,0:1:0:0:
278,241,62903,1,0,1:2:0:0:
278,241,62994,2,0,P|355:255|382:266,1,83.9999974365235,10|2,0:2|1:1,0:2:0:0:
250,335,63357,1,2,1:2:0:0:
183,258,63539,1,2,1:2:0:0:
96,323,63721,2,0,P|46:334|-1:352,1,83.9999974365235,10|0,0:2|1:2,0:2:0:0:
85,225,64085,6,2,B|56:146|121:153|75:52,1,167.999994873047,8|10,1:1|0:2,0:1:0:0:
157,8,64630,1,2,1:2:0:0:
240,71,64812,2,0,P|224:123|217:164,1,83.9999974365235,2|2,1:1|1:2,0:0:0:0:
222,186,65085,1,0,0:0:0:0:
222,186,65175,1,10,0:2:0:0:
308,250,65357,6,2,B|399:229|370:280|485:238,1,167.999994873047,2|0,1:2|0:2,0:1:0:0:
473,199,65812,1,0,1:0:0:0:
473,199,65903,2,0,P|482:148|496:110,1,83.9999974365235,10|0,0:2|1:2,0:0:0:0:
446,34,66266,5,2,1:2:0:0:
343,4,66448,1,2,1:2:0:0:
398,124,66630,1,10,0:2:0:0:
296,94,66812,1,2,1:2:0:0:
241,178,66994,6,2,B|178:194|178:194|156:232|156:232|86:249,2,167.999994873047,10|10|2,1:1|0:2|1:1,0:1:0:0:
320,241,67903,1,0,1:2:0:0:
253,306,68085,2,0,P|273:355|288:390,1,83.9999974365235,10|2,0:2|1:1,0:2:0:0:
383,318,68448,2,0,B|431:267|431:267|401:204|392:165,1,167.999994873047,8|10,1:1|0:2,0:2:0:0:
445,91,68994,1,2,1:2:0:0:
371,18,69175,2,0,P|344:67|351:107,1,83.9999974365235,2|0,1:1|1:2,0:0:0:0:
327,119,69448,1,0,0:0:0:0:
327,119,69539,1,10,0:2:0:0:
394,176,69721,1,2,1:2:0:0:
311,241,69903,6,2,P|260:254|216:267,1,83.9999974365235,10|0,1:1|0:0,0:1:0:0:
173,110,70266,2,0,P|217:137|343:104,1,167.999994873047,10|2,0:2|1:1,0:2:0:0:
407,171,70812,1,0,1:2:0:0:
409,60,70994,1,8,0:2:0:0:
491,119,71175,2,2,P|510:183|520:223,1,83.9999974365235,2|8,1:2|1:1,0:1:0:0:
466,298,71539,1,0,0:2:0:0:
466,298,71630,1,0,1:2:0:0:
466,298,71721,2,0,P|418:288|373:277,1,83.9999974365235,8|0,0:2|1:2,0:2:0:0:
347,375,72085,6,0,P|304:365|249:355,1,83.9999974365235,2|0,1:1|1:2,0:0:0:0:
185,280,72448,1,10,0:2:0:0:
278,222,72630,1,0,1:2:0:0:
189,154,72812,6,2,P|162:90|147:39,1,83.9999974365235,14|0,1:1|0:0,0:1:0:0:
152,45,73085,1,2,1:2:0:0:
152,45,73175,2,0,P|92:62|54:69,1,83.9999974365235,8|2,0:2|1:1,0:2:0:0:
11,191,73539,2,0,P|59:179|110:170,1,83.9999974365235,2|2,1:2|1:2,0:2:0:0:
118,189,73812,1,0,0:2:0:0:
118,189,73903,1,10,0:2:0:0:
208,243,74085,1,2,1:2:0:0:
274,146,74266,6,2,P|303:138|304:224,1,125.999996154785,10|0,1:1|1:2,0:1:0:0:
327,253,74630,2,0,B|420:237|376:295|507:258,1,167.999994873047,10|2,0:2|1:1,0:0:0:0:
445,359,75175,1,0,1:2:0:0:
348,339,75357,2,0,P|298:350|263:364,1,83.9999974365235,10|2,0:2|1:2,0:2:0:0:
203,280,75721,1,10,1:1:0:0:
277,207,75903,6,0,P|287:172|305:118,1,83.9999974365235,2|8,0:2|0:2,0:2:0:0:
223,49,76266,1,2,1:1:0:0:
128,84,76448,1,8,1:1:0:0:
201,151,76630,1,2,1:2:0:0:
104,189,76812,2,2,P|54:204|19:221,1,83.9999974365235,10|0,0:2|0:0,0:1:0:0:
167,278,77175,6,2,P|202:317|251:254,1,125.999996154785,10|0,1:1|1:2,0:1:0:0:
279,255,77539,2,0,B|372:228|346:296|457:263,1,167.999994873047,8|0,0:2|1:2,0:2:0:0:
474,181,78085,1,0,1:2:0:0:
397,132,78266,2,0,P|407:80|413:22,1,83.9999974365235,8|0,0:2|1:2,0:2:0:0:
306,162,78630,6,0,P|264:146|140:185,1,167.999994873047,10|10,1:1|0:2,0:0:0:0:
51,174,79175,2,0,P|62:218|64:259,1,83.9999974365235,2|2,1:2|1:2,0:0:0:0:
22,343,79539,1,0,0:0:0:0:
116,375,79721,2,2,P|152:364|208:357,1,83.9999974365235,10|0,0:2|1:2,0:1:0:0:
294,380,80085,6,2,B|310:340|334:311|334:311|265:291|247:249,1,167.999994873047,8|8,1:1|0:2,0:1:0:0:
164,251,80630,2,0,B|160:173|97:197|85:94,1,167.999994873047,2|0,1:1|1:2,0:0:0:0:
162,40,81175,1,8,0:2:0:0:
235,109,81357,2,2,P|284:124|329:134,1,83.9999974365235,6|0,1:2|1:2,0:1:0:0:
329,240,81721,2,0,P|380:220|420:206,1,83.9999974365235,2|8,1:2|0:2,0:0:0:0:
493,139,82085,1,2,1:2:0:0:
409,80,82266,1,2,1:2:0:0:
493,25,82448,1,2,1:2:0:0:
497,143,82630,2,0,P|505:202|510:243,1,83.9999974365235,10|0,0:2|0:0,0:2:0:0:
405,337,82994,6,2,P|358:319|413:261,1,125.999996154785,10|0,1:1|0:0,0:1:0:0:
294,201,83357,2,0,P|233:185|177:175,1,83.9999974365235,10|0,0:2|1:2,0:0:0:0:
128,235,83721,2,0,P|110:181|96:132,1,83.9999974365235,0|0,1:2|1:2,0:0:0:0:
46,39,84085,2,0,P|109:64|237:31,1,167.999994873047,10|12,0:2|1:1,0:2:0:0:
366,39,96085,6,0,P|386:87|399:120,1,77.0000023498536,8|2,1:1|0:2,0:0:0:0:
494,117,96448,2,0,P|485:158|476:200,1,77.0000023498536,10|2,0:2|1:2,0:2:0:0:
399,245,96812,2,0,B|304:221|338:283|234:249,1,154.000004699707,2|8,1:2|0:2,0:2:0:0:
195,175,97357,1,2,1:2:0:0:
125,242,97539,6,0,P|104:200|110:159,1,77.0000023498536,8|2,1:1|0:2,0:2:0:0:
22,148,97903,2,0,P|32:103|65:78,1,77.0000023498536,10|0,0:2|1:2,0:2:0:0:
116,0,98266,2,0,B|141:33|149:73|149:73|185:44|226:41,1,154.000004699707,2|8,1:2|0:2,0:2:0:0:
386,100,98994,5,8,1:1:0:0:
342,172,99175,2,0,P|330:211|317:259,2,77.0000023498536,2|10|2,0:2|0:2|1:2,0:2:0:0:
268,129,99721,2,0,B|184:112|206:170|102:132,1,154.000004699707,2|8,1:2|0:2,0:2:0:0:
56,86,100266,1,2,1:2:0:0:
56,86,100630,1,2,0:2:0:0:
18,162,100812,2,0,P|33:208|41:251,1,77.0000023498536,10|2,0:2|1:2,0:0:0:0:
113,275,101175,2,0,B|104:340|63:379|63:379|47:359|16:339,1,154.000004699707,2|8,1:2|0:2,0:2:0:0:
254,277,101903,6,0,P|294:266|339:257,1,77.0000023498536,8|2,1:1|0:2,0:0:0:0:
353,147,102266,2,0,P|296:165|257:172,1,77.0000023498536,10|2,0:2|1:2,0:2:0:0:
209,118,102630,2,0,B|119:102|144:159|48:127,1,154.000004699707,2|8,1:2|0:2,0:2:0:0:
72,214,103175,1,0,1:2:0:0:
137,267,103357,2,0,P|142:317|144:348,1,77.0000023498536,8|2,1:1|0:2,0:2:0:0:
239,261,103721,2,0,P|247:215|260:164,1,77.0000023498536,10|2,0:2|1:2,0:2:0:0:
318,130,104085,2,0,B|399:109|399:109|406:165|423:195,1,154.000004699707,2|8,1:2|0:2,0:2:0:0:
298,317,104812,6,0,P|236:306|190:301,1,77.0000023498536,8|2,1:1|0:2,0:0:0:0:
222,304,105085,1,0,1:2:0:0:
222,304,105175,1,10,0:2:0:0:
151,247,105357,1,2,1:2:0:0:
241,211,105539,2,0,B|264:145|216:141|262:54,1,154.000004699707,2|8,1:2|0:2,0:2:0:0:
346,105,106085,1,2,1:2:0:0:
346,105,106448,2,0,P|396:119|432:125,2,77.0000023498536,2|10|2,0:2|0:2|1:2,0:2:0:0:
340,203,106994,2,0,P|294:198|285:298,1,154.000004699707,2|8,1:2|0:2,0:2:0:0:
155,138,107721,6,0,B|79:125|108:163|32:141,1,115.50000352478,12|0,1:1|1:2,0:2:0:0:
42,143,108085,2,0,P|32:106|6:53,1,77.0000023498536,10|0,0:2|1:2,0:2:0:0:
91,18,108448,2,0,P|135:7|190:-4,1,77.0000023498536,2|2,1:2|1:2,0:2:0:0:
165,0,108721,1,2,0:2:0:0:
165,0,108812,2,0,B|247:11|215:48|319:45,1,154.000004699707,8|8,0:2|1:1,0:0:0:0:
392,92,109357,1,2,0:2:0:0:
297,138,109539,2,0,P|286:184|275:225,1,77.0000023498536,10|2,0:2|1:2,0:2:0:0:
366,238,109903,2,0,B|415:246|415:246|442:280|442:280|520:290,1,154.000004699707,2|8,1:2|0:2,0:2:0:0:
249,276,110630,6,0,P|245:327|220:346,1,77.0000023498536,8|2,1:1|0:2,0:2:0:0:
140,312,110994,2,0,P|144:261|169:242,1,77.0000023498536,10|2,0:2|1:2,0:2:0:0:
226,176,111357,2,0,P|216:130|205:92,1,77.0000023498536,2|2,1:2|1:2,0:0:0:0:
207,101,111630,1,2,0:2:0:0:
207,101,111721,2,0,P|154:91|106:83,1,77.0000023498536,8|0,0:2|1:2,0:0:0:0:
85,173,112085,6,0,P|44:163|-4:152,1,77.0000023498536,8|2,1:1|0:2,0:2:0:0:
42,261,112448,2,0,P|53:301|68:348,1,77.0000023498536,10|2,0:2|1:2,0:2:0:0:
140,255,112812,2,0,P|169:224|202:188,1,77.0000023498536,2|2,1:2|1:2,0:0:0:0:
192,199,113085,1,2,0:2:0:0:
192,199,113175,2,0,P|184:160|178:117,1,77.0000023498536,8|0,0:2|1:2,0:0:0:0:
306,196,113539,6,0,B|284:278|240:251|232:331,1,154.000004699707,12|10,1:1|0:2,0:2:0:0:
310,382,114085,1,2,1:2:0:0:
374,320,114266,2,0,P|408:314|459:311,1,77.0000023498536,2|2,1:2|1:2,0:2:0:0:
450,311,114539,1,2,0:2:0:0:
450,311,114630,2,0,P|466:264|472:235,1,77.0000023498536,8|0,0:2|1:2,0:0:0:0:
466,144,114994,6,0,P|425:132|388:125,1,77.0000023498536,8|0,1:1|0:2,0:2:0:0:
320,174,115357,1,10,0:2:0:0:
285,96,115539,1,2,1:2:0:0:
220,150,115721,2,0,P|178:159|144:171,1,77.0000023498536,2|2,1:2|1:2,0:0:0:0:
84,111,116085,1,10,0:2:0:0:
44,384,116448,6,0,P|65:314|90:220,2,154.000004699707,8|8|2,1:1|0:2|1:2,0:2:0:0:
136,384,117357,1,2,1:2:0:0:
136,384,117448,1,2,0:2:0:0:
136,384,117539,2,0,P|182:369|223:366,1,77.0000023498536,8|2,0:2|1:2,0:0:0:0:
295,369,117903,1,8,1:1:0:0:
261,290,118085,1,2,0:2:0:0:
338,257,118266,1,10,0:2:0:0:
375,332,118448,1,2,1:2:0:0:
452,297,118630,6,0,P|459:249|464:212,1,77.0000023498536,2|2,1:2|1:2,0:0:0:0:
462,220,118903,1,2,0:2:0:0:
462,220,118994,1,8,0:2:0:0:
407,156,119175,1,2,1:2:0:0:
467,70,119357,6,0,B|378:44|400:106|306:64,1,154.000004699707,12|8,1:1|0:2,0:2:0:0:
273,155,119903,1,2,1:2:0:0:
208,89,120085,2,0,P|165:78|125:69,1,77.0000023498536,2|2,1:2|1:2,0:0:0:0:
103,63,120357,1,2,0:2:0:0:
103,63,120448,1,8,0:2:0:0:
153,169,120630,1,2,1:2:0:0:
74,225,120812,6,0,B|163:199|141:261|235:219,1,154.000004699707,8|8,1:1|0:2,0:2:0:0:
268,310,121358,1,2,1:2:0:0:
333,244,121540,2,0,P|376:233|416:224,1,77.0000023498536,2|2,1:2|1:2,0:0:0:0:
431,241,121812,1,2,0:2:0:0:
431,241,121903,1,8,0:2:0:0:
260,27,122266,6,0,P|256:74|249:117,1,77.0000023498536,0|2,0:0|0:2,0:0:0:0:
340,149,122630,2,0,P|344:102|351:59,1,77.0000023498536,10|2,0:2|1:2,0:2:0:0:
436,38,122994,2,0,B|461:72|461:72|451:112,1,77.0000023498536,2|2,1:2|1:2,0:0:0:0:
456,129,123266,1,2,0:2:0:0:
456,129,123357,2,0,P|507:146|550:161,1,77.0000023498536,8|0,0:2|1:2,0:0:0:0:
377,246,123721,6,0,P|432:235|472:228,2,77.0000023498536,8|2|10,1:1|0:2|0:2,0:2:0:0:
320,317,124266,1,2,1:2:0:0:
248,253,124448,1,2,1:2:0:0:
248,253,124539,2,0,P|204:268|164:277,1,77.0000023498536,2|2,0:2|0:2,0:2:0:0:
174,275,124812,2,0,P|163:226|143:189,1,77.0000023498536,8|0,0:2|1:2,0:0:0:0:
137,100,125175,6,0,P|102:130|0:86,1,154.000004699707,8|8,1:1|0:2,0:2:0:0:
2,0,125721,2,0,P|47:-1|87:-5,1,77.0000023498536,2|2,1:2|1:2,0:0:0:0:
103,14,125994,1,0,0:0:0:0:
103,14,126085,1,2,1:2:0:0:
137,100,126266,2,0,B|200:79|189:109|267:81,1,115.50000352478,8|0,0:2|0:0,0:2:0:0:
250,86,126630,6,0,P|258:39|268:3,2,77.0000023498536,8|2|8,1:1|0:2|0:2,0:2:0:0:
295,158,127175,1,0,1:2:0:0:
368,115,127357,2,0,P|422:103|451:100,1,77.0000023498536,2|2,1:2|1:2,0:0:0:0:
491,171,127721,2,0,P|483:209|475:257,1,77.0000023498536,8|0,0:2|1:2,0:0:0:0:
473,331,128085,6,0,B|390:318|419:363|311:340,1,154.000004699707,8|10,1:1|0:2,0:0:0:0:
262,281,128630,1,2,1:2:0:0:
191,327,128812,2,0,P|138:340|105:355,1,77.0000023498536,0|0,1:2|0:0,0:0:0:0:
117,348,129085,1,2,0:2:0:0:
117,348,129175,1,10,0:2:0:0:
33,304,129357,1,2,1:2:0:0:
94,227,129539,6,0,P|106:175|115:126,1,77.0000023498536,8|0,1:1|0:0,0:2:0:0:
211,142,129903,1,8,0:2:0:0:
157,62,130085,1,2,1:2:0:0:
243,21,130266,6,0,P|286:15|327:15,1,77.0000023498536,2|0,1:2|1:2,0:2:0:0:
383,98,130630,2,0,P|343:107|291:104,1,77.0000023498536,10|2,0:2|1:2,0:0:0:0:
241,172,130994,6,2,B|226:256|171:229|165:303,1,154.000004699707,12|10,1:1|0:2,0:1:0:0:
235,372,131539,1,2,1:2:0:0:
306,298,131721,2,0,P|356:286|390:283,1,77.0000023498536,2|2,1:2|1:2,0:0:0:0:
381,283,131994,1,0,0:0:0:0:
381,283,132085,1,10,0:2:0:0:
451,215,132266,1,2,1:2:0:0:
372,160,132448,2,2,B|354:100|354:100|345:92|345:92|320:9,1,154.000004699707,0|10,0:0|0:2,0:1:0:0:
322,16,132903,1,0,0:0:0:0:
322,16,132994,1,2,1:2:0:0:
254,90,133175,6,2,P|207:99|170:110,1,77.0000023498536,2|0,1:2|1:2,0:1:0:0:
184,205,133539,2,2,B|116:189|131:229|48:206,1,115.50000352478,10|0,0:2|0:2,0:1:0:0:
70,211,133903,2,0,P|24:224|-8:239,1,77.0000023498536,10|2,1:1|1:2,0:0:0:0:
25,337,134266,2,0,P|57:328|106:307,1,77.0000023498536,10|0,0:2|1:2,0:2:0:0:
185,248,134630,6,0,P|197:192|210:119,1,115.50000352478,2|0,1:2|0:0,0:0:0:0:
207,134,134994,2,0,P|159:120|123:115,1,77.0000023498536,10|0,0:2|1:2,0:0:0:0:
195,20,135357,2,2,B|274:0|246:61|350:30,1,154.000004699707,8|10,1:1|0:2,0:1:0:0:
416,278,136085,5,2,1:2:0:0:
345,212,136266,1,2,1:2:0:0:
416,278,136448,1,10,0:2:0:0:
345,212,136630,1,2,1:2:0:0:
274,280,136812,6,2,B|213:248|213:248|246:187,1,115.50000352478,12|0,1:1|1:2,0:1:0:0:
235,206,137175,2,0,P|257:160|267:115,1,77.0000023498536,10|0,0:2|0:0,0:2:0:0:
333,61,137539,2,0,P|381:57|415:49,1,77.0000023498536,2|0,1:1|1:2,0:0:0:0:
368,158,137903,1,10,0:2:0:0:
263,135,138085,1,2,1:2:0:0:
263,135,138175,1,0,1:2:0:0:
263,135,138266,2,2,B|166:124|190:174|81:140,1,154.000004699707,8|10,1:1|0:2,0:1:0:0:
179,92,138812,1,2,1:2:0:0:
226,226,138994,2,2,B|323:215|299:265|408:231,1,154.000004699707,2|10,1:2|0:2,0:1:0:0:
444,167,139540,1,2,1:2:0:0:
356,131,139721,6,0,P|349:92|335:50,1,77.0000023498536,8|0,1:1|0:0,0:1:0:0:
259,0,140085,1,8,0:2:0:0:
259,0,140175,1,0,0:0:0:0:
259,0,140266,2,0,B|236:81|182:35|168:135,1,154.000004699707,0|0,1:2|1:2,0:1:0:0:
215,201,140812,1,8,0:2:0:0:
135,248,140994,1,0,1:2:0:0:
85,170,141175,6,0,P|75:126|65:86,1,77.0000023498536,8|0,1:1|0:2,0:2:0:0:
67,95,141448,1,0,1:2:0:0:
67,95,141539,1,8,0:2:0:0:
144,29,141721,1,0,1:2:0:0:
228,93,141903,2,0,B|287:92|271:130|349:118,1,115.50000352478,0|0,1:2|0:2,0:2:0:0:
337,119,142266,2,0,P|353:69|363:41,1,77.0000023498536,8|0,0:2|0:0,0:2:0:0:
444,183,142630,6,2,P|412:237|302:224,1,154.000004699707,14|8,1:1|0:2,0:1:0:0:
246,192,143175,1,2,1:1:0:0:
200,294,143357,2,2,P|168:270|65:324,1,154.000004699707,0|8,1:2|0:2,0:1:0:0:
12,218,143903,1,2,1:1:0:0:
12,218,143994,1,0,0:2:0:0:
12,218,144085,2,2,P|23:173|31:138,1,77.0000023498536,8|0,1:1|0:0,0:1:0:0:
142,140,144448,2,0,P|137:89|129:51,1,77.0000023498536,10|0,0:2|1:2,0:0:0:0:
219,183,144812,2,0,P|295:191|371:203,1,154.000004699707,2|10,1:1|0:2,0:0:0:0:
442,297,145357,5,2,1:2:0:0:
442,297,145448,1,0,1:2:0:0:
442,297,145539,2,2,B|357:272|376:344|276:309,1,167.999994873047,12|8,1:1|0:2,0:1:0:0:
197,371,146085,1,0,1:2:0:0:
202,257,146266,2,2,P|218:195|254:81,1,167.999994873047,2|8,1:2|0:2,0:1:0:0:
181,29,146812,1,2,1:1:0:0:
127,107,146994,6,0,P|79:119|46:135,1,83.9999974365235,8|0,1:1|0:0,0:0:0:0:
23,142,147266,1,2,1:2:0:0:
23,142,147357,1,10,0:2:0:0:
82,221,147539,1,0,1:2:0:0:
200,172,147721,2,2,P|254:161|376:147,1,167.999994873047,2|8,1:2|0:2,0:1:0:0:
446,208,148266,5,2,1:1:0:0:
487,114,148448,1,10,1:1:0:0:
407,54,148630,1,2,0:2:0:0:
365,146,148812,2,0,B|348:208|348:208|375:278|375:301,1,125.999996154785,10|0,0:2|0:2,0:2:0:0:
368,266,149175,2,0,B|283:257|309:318|184:287,1,167.999994873047,2|8,1:1|0:2,0:0:0:0:
117,231,149721,1,2,1:1:0:0:
117,231,150085,6,0,P|105:187|95:139,1,83.9999974365235,2|8,0:2|0:2,0:2:0:0:
10,119,150448,1,2,1:2:0:0:
86,56,150630,2,2,B|157:40|137:88|212:62,1,125.999996154785,2|0,1:2|0:2,0:1:0:0:
229,95,150994,2,0,P|281:84|323:76,1,83.9999974365235,10|0,0:2|0:0,0:2:0:0:
443,92,151357,6,2,P|426:170|397:286,1,167.999994873047,10|8,1:1|0:2,0:1:0:0:
448,340,151903,1,0,1:2:0:0:
342,376,152085,2,2,B|285:363|285:363|265:319|265:319|201:302,1,167.999994873047,2|8,1:2|0:2,0:1:0:0:
184,317,152539,1,0,0:0:0:0:
184,317,152630,1,0,1:1:0:0:
108,251,152812,6,0,P|104:204|100:164,1,83.9999974365235,8|0,1:1|0:0,0:0:0:0:
67,151,153085,1,2,1:2:0:0:
68,150,153175,2,0,P|88:97|94:63,1,83.9999974365235,10|0,0:2|1:2,0:0:0:0:
190,26,153539,2,2,B|268:12|268:12|282:115,1,167.999994873047,2|8,1:2|0:2,0:1:0:0:
287,192,154085,5,2,1:1:0:0:
383,231,154266,1,10,1:1:0:0:
287,192,154448,1,2,0:2:0:0:
378,141,154630,2,0,P|431:142|513:223,1,167.999994873047,10|2,0:2|1:1,0:2:0:0:
469,309,155175,1,0,1:2:0:0:
372,351,155357,2,0,P|383:297|396:242,1,83.9999974365235,8|2,0:2|1:1,0:0:0:0:
293,289,155721,6,0,B|193:263|239:329|124:293,1,167.999994873047,8|10,1:1|0:2,0:0:0:0:
43,330,156266,1,2,1:2:0:0:
20,232,156448,2,0,P|41:181|59:122,1,83.9999974365235,2|0,1:1|1:2,0:0:0:0:
135,51,156812,2,0,P|147:103|160:141,1,83.9999974365235,10|0,0:2|1:2,0:0:0:0:
293,113,157175,6,2,P|355:106|398:201,1,167.999994873047,10|8,1:1|0:2,0:1:0:0:
478,262,157721,2,0,P|430:277|380:292,1,83.9999974365235,2|0,1:2|0:0,0:0:0:0:
326,364,158085,1,2,1:2:0:0:
326,364,158175,1,2,0:2:0:0:
326,364,158266,1,10,0:0:0:0:
252,281,158448,1,2,1:2:0:0:
181,344,158630,2,2,P|105:359|32:384,1,125.999996154785,8|0,1:0|1:0,0:1:0:0:
23,384,158994,2,0,P|35:319|40:272,1,83.9999974365235,10|2,0:2|1:2,0:2:0:0:
28,198,159357,2,2,P|84:216|158:227,1,125.999996154785,2|0,1:2|0:2,0:1:0:0:
196,222,159721,1,10,0:2:0:0:
348,54,160085,6,0,P|324:75|330:226,1,167.999994873047,10|8,1:1|0:2,0:0:0:0:
298,295,160630,1,0,1:1:0:0:
298,295,160721,1,2,0:2:0:0:
298,295,160812,2,0,P|328:332|369:323,1,83.9999974365235,0|2,1:2|1:2,0:0:0:0:
445,373,161175,1,10,0:2:0:0:
505,297,161357,1,2,1:2:0:0:
439,229,161539,6,2,P|421:157|398:62,3,167.999994873047,8|10|2|10,1:1|0:2|1:2|0:2,0:1:0:0:
328,243,162994,6,2,P|276:232|230:222,1,83.9999974365235,12|0,1:1|0:0,0:1:0:0:
213,251,163266,1,2,1:2:0:0:
213,251,163357,1,8,0:2:0:0:
116,317,163539,2,0,B|95:268|69:246|69:246|108:207|124:171,1,167.999994873047,2|0,1:2|1:2,0:0:0:0:
44,128,164085,2,2,P|54:90|82:40,1,83.9999974365235,10|0,0:2|1:2,0:1:0:0:
178,15,164448,6,2,P|199:69|300:68,1,167.999994873047,8|10,1:1|0:2,0:1:0:0:
349,143,164994,1,2,1:1:0:0:
432,93,165175,2,0,P|449:169|460:199,1,83.9999974365235,2|0,1:2|1:2,0:0:0:0:
496,256,165539,1,10,0:2:0:0:
416,316,165721,6,2,B|326:290|362:349|239:317,1,167.999994873047,6|2,1:2|0:2,0:1:0:0:
168,370,166266,1,8,0:2:0:0:
105,272,166448,2,0,P|123:224|137:183,1,83.9999974365235,0|2,1:2|1:2,0:0:0:0:
71,128,166812,1,2,1:2:0:0:
71,128,166903,1,2,0:2:0:0:
71,128,166994,2,0,P|85:85|93:39,1,83.9999974365235,8|2,0:2|1:2,0:0:0:0:
186,111,167357,6,2,L|387:73,3,167.999994873047,10|10|2|10,1:1|0:2|1:2|0:2,0:1:0:0:
427,154,168630,5,0,1:2:0:0:
427,154,168721,1,0,1:2:0:0:
427,154,168812,1,12,1:1:0:0:
