osu file format v14

[General]
AudioFilename: audio.mp3
AudioLeadIn: 0
PreviewTime: 59994
Countdown: 0
SampleSet: Soft
StackLeniency: 0.7
Mode: 0
LetterboxInBreaks: 0
WidescreenStoryboard: 1

[Editor]
Bookmarks: 23357,46630,61175,63539,84448,84630,84721,84812,84994,85085,85175,85266,85448,85539,85630,85812,85903,85994,86175,86266,86357,86630,86721,86903,86994,87085,87175,87266,87357,87539,87630,87721,87903,87994,88085,88175,88357,88448,88539,88721,88812,88994,89085,89175,89357,89448,89539,89721,89812,89903,90085,90175,90266,90448,90539,90630,90721,90812,90903,90994,91085,91175,91266,91448,91539,91721,91812,91903,92085,92175,92357,92448,92539,92721,92812,92903,93085,93175,93357,93448,93630,93721,93812,93994,94085,94175,94357,94448,94630,94812,94903,95085,95175,95266,95357,95448,95539,95721,95812,95903,96085,107539,107721,130994,133539,145539,161539,168812
DistanceSpacing: 0.4
BeatDivisor: 4
GridSize: 32
TimelineZoom: 1.5

[Metadata]
Title:Jam Over The Barrier!
TitleUnicode:Jam Over The Barrier!
Artist:Falcom Sound Team jdk vs. Quad City DJ's
ArtistUnicode:Falcom Sound Team jdk vs. Quad City DJ's
Creator:Deca
Version:DAWG'S INSANE!!!
Source:英雄伝説 零の軌跡
Tags:碧の軌跡 michael lloyd bannings jordan saki mordred momiyama impurepug fixxis shurelia yogurtt 籾山 紗希 get trails to azure from zero no kiseki eiyuu densetsu the legend of black man heroes crossball crossbell slam space bugs mishy bunny ost original soundtrack theaggyyu j.d.k. hip hop english jrpg videogame japanese role playing game versus
BeatmapID:3009715
BeatmapSetID:1337586

[Difficulty]
HPDrainRate:5
CircleSize:3.8
OverallDifficulty:7.5
ApproachRate:9
SliderMultiplier:1.72
SliderTickRate:1

[Events]
//Background and Video events
0,0,"dKDRSex[1]_waifu2x_art_noise1_scale_tta_1.jpg",0,0
//Break Periods
2,6103,8212
2,84648,95485
//Storyboard Layer 0 (Background)
//Storyboard Layer 1 (Fail)
//Storyboard Layer 2 (Pass)
//Storyboard Layer 3 (Foreground)
//Storyboard Layer 4 (Overlay)
//Storyboard Sound Samples

[TimingPoints]
85,363.636363636364,4,2,1,76,1,0
85,-133.333333333333,4,2,1,76,0,0
11721,-83.3333333333333,4,2,1,76,0,0
23357,-90.9090909090909,4,2,1,66,0,0
46630,-76.9230769230769,4,2,1,76,0,0
48630,-66.6666666666667,4,2,1,76,0,0
48994,-76.9230769230769,4,2,1,76,0,0
60448,-76.9230769230769,4,2,1,81,0,0
61175,-76.9230769230769,4,2,1,81,0,0
96085,-83.3333333333333,4,2,1,81,0,0
96266,-83.3333333333333,4,2,1,66,0,0
107721,-76.9230769230769,4,2,1,66,0,0
119357,-66.6666666666667,4,2,1,66,0,0
119721,-76.9230769230769,4,2,1,66,0,0
120812,-66.6666666666667,4,2,1,66,0,0
121175,-76.9230769230769,4,2,1,66,0,0
130994,-76.9230769230769,4,2,1,76,0,0
144448,-76.9230769230769,4,2,1,81,0,0
145539,-71.4285714285714,4,2,1,81,0,0
151357,-66.6666666666667,4,2,1,81,0,0
152085,-71.4285714285714,4,2,1,81,0,0
161539,-50,4,2,1,81,0,0
162994,-71.4285714285714,4,2,1,81,0,0
167357,-64.5161290322581,4,2,1,81,0,0

[Colours]
Combo1 : 109,188,205
Combo2 : 200,62,62
Combo3 : 67,138,224
Combo4 : 208,136,64

[HitObjects]
155,63,85,6,0,B|137:51|159:-13|192:-2|235:37|213:72|213:72|246:90|246:90|329:79|328:232|425:237|425:237|350:346|240:386|129:345|129:345|200:279|101:163|172:117|172:117|181:92,2,1032.00003936768,0|0|0,1:2|1:2|1:2,0:2:0:0:
30,315,8812,5,0,1:2:0:0:
256,192,8903,12,0,11357,0:2:0:0:
160,257,11539,5,0,1:2:0:0:
160,257,11630,1,0,1:2:0:0:
160,257,11721,2,2,P|226:261|309:224,1,154.799995275879,14|0,1:1|1:2,0:1:0:0:
392,218,12085,2,0,P|377:267|393:329,1,103.199996850586,8|0,0:2|1:2,0:2:0:0:
217,169,12448,1,0,1:2:0:0:
326,31,12630,1,0,1:2:0:0:
326,31,12812,1,8,0:2:0:0:
140,197,12994,5,0,0:0:0:0:
140,197,13085,1,2,0:2:0:0:
140,197,13175,6,2,P|179:183|325:248,1,206.399993701172,10|8,1:1|0:2,0:1:0:0:
199,335,13721,1,0,1:2:0:0:
28,221,13903,2,2,P|35:171|75:121,1,103.199996850586,2|0,1:2|0:0,0:1:0:0:
257,27,14266,1,8,0:2:0:0:
257,27,14357,1,0,3:0:0:0:
257,27,14448,2,0,L|251:85,1,51.599998425293,2|0,0:2|1:2,0:0:0:0:
327,108,14630,6,2,P|270:111|127:181,1,206.399993701172,10|8,1:1|0:2,0:1:0:0:
0,107,15175,1,0,1:2:0:0:
108,33,15357,1,0,1:2:0:0:
252,233,15539,1,0,1:2:0:0:
252,233,15721,1,8,0:2:0:0:
337,14,15903,1,0,0:0:0:0:
475,211,16085,6,0,P|431:187|313:196,1,154.799995275879,10|0,1:1|0:0,0:2:0:0:
252,233,16448,2,0,P|281:197|289:113,1,103.199996850586,10|0,0:2|1:2,0:0:0:0:
262,64,16812,1,0,1:2:0:0:
367,33,16994,1,0,1:2:0:0:
451,109,17175,1,10,0:2:0:0:
413,220,17357,5,0,1:1:0:0:
413,220,17448,1,0,0:0:0:0:
413,220,17539,1,12,1:1:0:0:
194,200,17721,1,2,0:2:0:0:
286,355,17903,1,10,0:2:0:0:
323,85,18085,1,2,1:2:0:0:
286,355,18266,2,0,B|128:327|128:327|98:343|58:330,1,206.399993701172,2|8,1:2|0:2,0:2:0:0:
22,285,18812,5,2,1:2:0:0:
22,285,18903,1,2,0:2:0:0:
22,285,18994,1,2,1:2:0:0:
104,183,19175,1,2,0:2:0:0:
236,215,19357,1,10,0:2:0:0:
64,64,19539,1,0,1:2:0:0:
142,276,19721,2,2,P|258:248|349:237,1,206.399993701172,2|8,1:2|0:2,0:1:0:0:
438,202,20175,1,2,0:0:0:0:
438,202,20266,2,2,L|419:322,1,103.199996850586,2|8,1:2|1:1,0:1:0:0:
236,215,20630,2,0,L|253:105,1,103.199996850586,2|10,0:2|0:2,0:2:0:0:
374,316,20994,5,2,1:2:0:0:
327,235,21175,2,0,P|224:257|132:343,1,206.399993701172,2|8,1:2|0:2,0:2:0:0:
449,252,21721,1,2,1:1:0:0:
449,252,22085,5,2,0:2:0:0:
412,41,22266,1,10,0:2:0:0:
394,171,22448,1,2,1:2:0:0:
290,101,22630,2,2,B|521:66,1,206.399993701172,2|8,1:2|1:2,0:1:0:0:
499,76,23085,1,0,1:0:0:0:
505,81,23175,1,2,3:2:0:0:
218,191,23357,6,0,L|192:32,1,141.900004330444,12|0,1:1|1:2,0:0:0:0:
182,42,23721,1,8,0:2:0:0:
311,203,23903,1,2,1:2:0:0:
97,166,24085,1,0,0:0:0:0:
290,117,24266,1,0,1:2:0:0:
189,308,24448,1,10,0:2:0:0:
189,308,24539,1,2,0:0:0:0:
189,308,24630,1,2,1:2:0:0:
386,252,24812,6,0,P|295:234|228:236,1,141.900004330444,8|0,1:1|0:0,0:2:0:0:
166,219,25175,1,8,0:2:0:0:
0,60,25357,2,0,P|86:56|205:-7,1,189.200005773926,2|0,1:2|1:2,0:2:0:0:
338,175,25903,2,0,P|312:121|304:77,1,94.600002886963,10|0,0:2|3:2,0:2:0:0:
313,74,26175,1,0,3:0:0:0:
325,60,26266,6,0,P|249:70|184:107,1,141.900004330444,8|0,1:1|1:2,0:2:0:0:
130,154,26630,1,8,0:2:0:0:
0,118,26812,2,0,P|11:72|8:5,1,94.600002886963,0|0,1:2|1:2,0:0:0:0:
115,63,27175,1,0,1:2:0:0:
227,220,27357,2,0,L|338:247,1,94.600002886963,8|0,0:2|3:0,0:2:0:0:
334,239,27630,1,0,3:2:0:0:
350,236,27721,1,8,1:1:0:0:
512,32,27994,5,0,1:2:0:0:
512,32,28085,1,8,0:2:0:0:
423,84,28266,1,0,1:2:0:0:
326,50,28448,1,0,1:2:0:0:
440,179,28630,1,0,1:2:0:0:
265,240,28812,6,0,P|199:254|72:284,1,189.200005773926,8|12,0:2|1:1,0:2:0:0:
253,348,29357,1,2,0:2:0:0:
280,134,29539,1,10,0:2:0:0:
63,154,29721,1,2,1:2:0:0:
63,154,29812,1,2,0:2:0:0:
63,154,29903,2,0,P|136:171|100:94,1,189.200005773926,2|10,1:2|0:2,0:2:0:0:
174,330,30448,1,0,1:2:0:0:
341,231,30630,5,2,1:2:0:0:
341,231,30721,1,0,3:2:0:0:
341,231,30812,1,2,3:2:0:0:
235,58,30994,1,10,0:2:0:0:
417,182,31175,1,2,1:2:0:0:
417,182,31266,1,0,1:0:0:0:
417,182,31357,2,0,P|323:197|243:245,1,189.200005773926,2|8,1:2|0:2,0:2:0:0:
194,159,31903,5,2,1:2:0:0:
194,159,31994,1,0,1:0:0:0:
194,159,32085,1,0,1:0:0:0:
361,83,32266,1,2,0:2:0:0:
496,262,32448,1,10,0:2:0:0:
341,347,32630,1,2,1:2:0:0:
341,347,32721,1,0,3:2:0:0:
341,347,32812,2,0,L|310:131,1,189.200005773926,2|8,1:2|0:2,0:2:0:0:
267,29,33357,5,2,1:2:0:0:
255,47,33721,1,2,0:2:0:0:
425,148,33903,1,10,0:2:0:0:
238,225,34085,1,2,1:2:0:0:
83,109,34266,2,0,P|142:107|261:39,1,189.200005773926,2|8,1:2|0:2,0:2:0:0:
286,128,34812,5,0,1:2:0:0:
297,179,34903,1,0,3:2:0:0:
278,228,34994,2,0,L|128:222,1,141.900004330444,12|0,1:1|0:0,0:2:0:0:
102,247,35357,1,8,0:2:0:0:
382,372,35539,2,0,P|358:280|402:181,1,189.200005773926,2|0,1:2|1:2,0:0:0:0:
405,5,36085,6,0,P|444:67|442:142,1,141.900004330444,10|0,0:2|0:2,0:2:0:0:
511,211,36448,2,0,P|451:253|354:236,1,141.900004330444,8|0,1:1|0:0,0:2:0:0:
306,208,36812,1,8,0:2:0:0:
198,329,36994,1,0,1:2:0:0:
221,183,37175,1,2,1:2:0:0:
64,218,37357,1,0,1:2:0:0:
208,89,37539,1,10,0:2:0:0:
208,89,37630,1,0,3:2:0:0:
208,89,37721,1,2,1:2:0:0:
208,89,37812,1,0,3:2:0:0:
208,89,37903,6,0,P|268:113|354:106,1,141.900004330444,8|0,1:1|1:2,0:2:0:0:
418,76,38266,1,8,0:2:0:0:
379,185,38448,1,0,1:2:0:0:
343,27,38630,1,0,1:2:0:0:
462,223,38812,1,0,1:2:0:0:
302,305,38994,1,8,0:2:0:0:
302,305,39085,1,0,3:0:0:0:
302,305,39175,2,0,L|240:288,1,47.3000014434815,0|0,1:2|3:2,0:0:0:0:
334,384,39357,6,0,P|336:342|410:256,1,141.900004330444,8|0,1:1|1:2,0:2:0:0:
358,179,39721,1,8,0:2:0:0:
275,197,39903,1,0,1:2:0:0:
262,200,39994,1,0,0:0:0:0:
250,203,40085,1,0,1:2:0:0:
264,111,40266,1,0,1:2:0:0:
354,90,40448,1,8,0:2:0:0:
159,379,40812,6,0,P|145:308|185:233,1,141.900004330444,12|0,1:1|1:2,0:2:0:0:
238,195,41175,1,8,0:2:0:0:
238,195,41266,1,2,0:0:0:0:
183,44,41448,1,2,0:2:0:0:
183,44,41539,1,0,1:0:0:0:
129,140,41721,1,2,1:2:0:0:
289,89,41903,1,10,0:2:0:0:
57,175,42085,5,0,1:2:0:0:
57,175,42175,1,0,1:0:0:0:
57,175,42266,2,0,P|127:155|211:208,1,141.900004330444,8|0,1:1|1:2,0:2:0:0:
254,278,42630,1,10,0:2:0:0:
254,278,42721,1,2,0:0:0:0:
401,204,42903,1,2,0:2:0:0:
401,204,42994,1,0,1:0:0:0:
238,85,43175,1,2,1:2:0:0:
297,178,43357,1,10,0:2:0:0:
52,102,43539,5,0,1:2:0:0:
52,102,43630,1,0,1:0:0:0:
52,102,43721,2,0,B|93:62|145:81|145:81|113:58|95:27,1,141.900004330444,8|0,1:1|1:2,0:2:0:0:
119,157,44085,2,0,L|105:210,1,47.3000014434815,10|0,0:2|0:0,0:2:0:0:
190,337,44357,1,2,0:2:0:0:
194,342,44448,1,0,1:0:0:0:
43,268,44630,1,2,1:2:0:0:
112,41,44812,6,0,L|182:18,1,47.3000014434815,10|0,0:2|0:0,0:0:0:0:
271,127,44994,2,0,L|204:115,1,47.3000014434815,0|0,1:2|0:0,0:0:0:0:
350,148,45175,6,0,P|262:179|230:244,1,141.900004330444,8|0,1:1|1:2,0:2:0:0:
264,294,45539,1,8,0:2:0:0:
268,298,45630,1,2,0:0:0:0:
413,368,45812,1,2,0:2:0:0:
413,368,45903,1,0,1:0:0:0:
494,225,46085,1,2,1:2:0:0:
183,316,46266,5,10,0:2:0:0:
183,316,46357,1,0,3:2:0:0:
183,316,46448,1,2,1:2:0:0:
183,316,46539,1,0,3:2:0:0:
183,316,46630,6,2,P|258:328|385:357,1,167.699992323304,12|0,1:1|1:2,0:1:0:0:
429,292,46994,2,0,L|419:219,1,55.8999974411012,10|0,0:2|0:2,0:2:0:0:
433,219,47175,1,2,1:2:0:0:
285,35,47357,1,2,0:0:0:0:
281,47,47448,1,2,0:2:0:0:
277,56,47539,2,0,P|285:95|284:130,1,55.8999974411012,0|0,1:1|0:2,0:0:0:0:
362,135,47721,2,0,P|298:149|250:201,1,111.799994882202,10|2,0:2|1:1,0:0:0:0:
196,252,47994,1,2,0:0:0:0:
185,263,48085,6,0,P|179:205|163:111,1,111.799994882202,8|2,1:1|3:2,0:2:0:0:
165,136,48357,1,0,3:0:0:0:
158,123,48448,1,10,0:2:0:0:
89,291,48630,2,0,B|141:277|189:309|189:309|252:268|284:283|284:283|251:297|239:319,1,258.000009841919,2|0,1:2|3:0,0:0:0:0:
251,323,49085,1,0,3:2:0:0:
252,335,49175,2,2,P|257:288|261:259,1,55.8999974411012,8|0,0:2|0:0,0:1:0:0:
292,199,49357,2,0,P|258:195|215:190,1,55.8999974411012,2|0,0:0|0:2,0:0:0:0:
108,139,49539,6,0,P|145:143|251:55,1,167.699992323304,10|0,1:1|0:0,0:2:0:0:
28,232,49903,1,10,0:2:0:0:
160,60,50085,1,2,1:2:0:0:
160,60,50175,1,2,3:2:0:0:
160,60,50266,1,2,1:1:0:0:
309,221,50448,1,2,1:2:0:0:
238,327,50630,1,8,0:2:0:0:
207,230,50812,1,2,0:0:0:0:
346,313,50994,5,8,1:1:0:0:
401,125,51175,1,2,3:2:0:0:
401,125,51266,1,0,3:2:0:0:
401,125,51357,1,10,0:2:0:0:
512,243,51539,2,0,P|454:232|286:208,1,223.599989764405,2|0,1:2|1:2,0:0:0:0:
128,275,52085,2,0,P|120:237|112:196,1,55.8999974411012,8|0,0:2|0:0,0:0:0:0:
193,164,52266,2,0,P|201:202|209:243,1,55.8999974411012,2|0,1:2|0:2,0:2:0:0:
207,326,52448,6,2,P|249:291|434:294,1,223.599989764405,14|8,1:1|0:2,0:1:0:0:
494,366,52994,1,2,1:2:0:0:
370,159,53175,2,0,P|316:129|277:75,1,111.799994882202,2|2,1:1|1:2,0:0:0:0:
109,184,53539,2,0,P|118:224|144:258,1,55.8999974411012,8|0,0:2|0:0,0:0:0:0:
211,215,53721,2,0,P|204:180|175:150,1,55.8999974411012,2|0,1:1|0:0,0:0:0:0:
66,300,53903,6,0,P|152:256|281:314,1,223.599989764405,2|8,1:2|0:0,0:2:0:0:
354,344,54448,1,2,1:2:0:0:
322,139,54630,2,2,P|351:199|361:259,1,111.799994882202,2|2,1:2|1:2,0:1:0:0:
140,311,54994,2,0,P|129:273|133:237,1,55.8999974411012,8|0,0:2|0:0,0:0:0:0:
116,230,55175,2,0,P|122:198|147:165,1,55.8999974411012,2|0,1:1|1:2,0:0:0:0:
197,106,55357,5,12,1:1:0:0:
429,173,55539,1,2,0:2:0:0:
220,248,55721,1,10,0:2:0:0:
220,248,55812,1,2,0:0:0:0:
220,248,55903,1,2,1:2:0:0:
351,50,56085,5,2,1:2:0:0:
365,296,56266,1,0,1:2:0:0:
365,296,56357,1,0,1:2:0:0:
365,296,56448,2,0,P|326:264|319:174,1,111.799994882202,10|0,0:2|1:2,0:0:0:0:
335,130,56812,5,8,1:1:0:0:
478,259,56994,1,0,0:2:0:0:
275,324,57175,1,8,0:2:0:0:
275,324,57266,1,0,3:0:0:0:
275,324,57357,2,0,P|216:315|171:262,1,111.799994882202,0|0,1:2|1:2,0:0:0:0:
100,52,57721,1,0,1:2:0:0:
100,52,57812,1,0,1:2:0:0:
100,52,57903,2,0,P|52:65|34:131,1,111.799994882202,8|0,0:2|1:2,0:0:0:0:
184,269,58266,5,14,1:1:0:0:
162,167,58448,1,2,0:2:0:0:
77,232,58630,1,10,0:2:0:0:
77,232,58721,1,0,3:0:0:0:
77,232,58812,1,2,1:1:0:0:
203,277,58994,5,2,1:1:0:0:
113,77,59175,1,2,1:2:0:0:
0,256,59357,1,10,0:2:0:0:
0,256,59448,1,0,3:0:0:0:
0,256,59539,1,0,1:2:0:0:
280,241,59721,6,0,P|239:189|185:208,1,111.799994882202,14|0,1:1|0:2,0:0:0:0:
129,231,60085,5,10,0:2:0:0:
309,361,60266,1,0,1:2:0:0:
444,179,60448,1,2,1:2:0:0:
262,55,60630,5,0,1:2:0:0:
244,71,60721,1,0,1:2:0:0:
230,112,60812,1,8,0:2:0:0:
233,152,60903,1,0,3:0:0:0:
256,195,60994,2,0,L|311:180,1,55.8999974411012,0|0,1:2|3:2,0:0:0:0:
388,243,61175,6,2,P|384:311|280:366,1,167.699992323304,14|0,1:1|0:0,0:1:0:0:
261,355,61539,1,10,0:2:0:0:
174,267,61721,1,2,1:2:0:0:
34,372,61903,2,2,P|108:360|177:351,1,111.799994882202,2|0,1:2|1:2,0:1:0:0:
177,255,62266,1,10,0:2:0:0:
177,255,62448,1,2,1:2:0:0:
106,159,62630,6,2,P|78:219|81:292,1,111.799994882202,8|0,1:1|0:2,0:1:0:0:
271,289,62994,2,0,P|292:250|287:171,1,111.799994882202,10|2,0:2|1:1,0:2:0:0:
188,96,63357,1,2,1:2:0:0:
262,0,63539,1,2,1:2:0:0:
262,0,63721,2,0,P|279:66|297:121,1,111.799994882202,10|0,0:2|1:2,0:2:0:0:
352,285,64085,6,2,B|446:272|421:335|525:316,1,167.699992323304,8|0,1:1|1:2,0:1:0:0:
508,282,64448,1,10,0:2:0:0:
375,186,64630,1,2,1:2:0:0:
512,74,64812,2,0,P|491:134|481:194,1,111.799994882202,2|2,1:1|1:2,0:0:0:0:
471,198,65085,1,0,3:0:0:0:
471,198,65175,1,10,0:2:0:0:
268,142,65357,1,2,1:2:0:0:
313,59,65539,6,0,P|362:47|460:26,1,111.799994882202,8|0,1:1|0:2,0:0:0:0:
326,254,65903,2,0,B|241:238|257:294|141:248,1,167.699992323304,10|0,0:2|0:0,0:0:0:0:
153,236,66266,1,2,1:2:0:0:
104,121,66448,1,2,1:2:0:0:
18,297,66630,1,10,0:2:0:0:
51,210,66812,1,2,1:2:0:0:
87,103,66994,6,2,B|145:86|145:86|185:109|185:109|270:81,1,167.699992323304,10|0,1:1|1:2,0:1:0:0:
315,18,67357,2,0,P|333:74|357:131,1,111.799994882202,10|0,0:2|0:0,0:2:0:0:
403,302,67721,1,2,1:1:0:0:
287,229,67903,1,0,1:2:0:0:
414,174,68085,1,10,0:2:0:0:
384,306,68266,2,0,B|277:306|338:382|184:355,1,167.699992323304,2|0,1:1|0:0,0:0:0:0:
142,363,68630,2,0,B|155:320|155:320|170:314|170:314|186:254,1,111.799994882202,2|8,0:2|0:2,0:0:0:0:
243,195,68994,1,2,1:2:0:0:
21,16,69175,5,2,1:1:0:0:
131,88,69357,1,0,3:2:0:0:
112,86,69447,1,0,3:0:0:0:
93,84,69538,1,10,0:2:0:0:
316,40,69721,6,0,B|407:53|374:103|466:121,1,167.699992323304,2|0,1:2|0:0,0:0:0:0:
482,108,70085,1,0,1:0:0:0:
373,303,70266,2,0,B|345:255|345:255|365:182,1,111.799994882202,10|0,0:2|0:0,0:2:0:0:
491,103,70630,5,2,1:1:0:0:
464,228,70812,1,0,1:2:0:0:
330,103,70994,1,8,0:2:0:0:
505,92,71175,2,2,P|490:174|408:141,1,167.699992323304,2|0,1:2|0:0,0:1:0:0:
411,155,71539,1,0,1:2:0:0:
250,49,71721,6,0,P|185:45|147:92,1,111.799994882202,8|0,0:2|1:2,0:2:0:0:
118,139,71994,1,2,1:2:0:0:
100,209,72085,2,0,L|137:337,1,111.799994882202,2|0,1:1|1:2,0:0:0:0:
253,251,72448,5,8,0:2:0:0:
264,225,72539,1,2,0:0:0:0:
21,331,72721,5,2,0:0:0:0:
0,374,72812,2,2,B|63:353|20:334|92:313,1,111.799994882202,14|2,1:1|0:0,0:1:0:0:
113,316,73085,1,2,1:2:0:0:
130,330,73175,2,0,P|149:354|185:366,1,55.8999974411012,8|2,0:2|0:0,0:2:0:0:
286,341,73357,2,0,P|265:320|252:283,1,55.8999974411012,2|2,1:1|0:2,0:0:0:0:
360,161,73539,2,0,L|494:125,1,111.799994882202,2|2,1:2|1:2,0:2:0:0:
497,154,73812,1,0,1:2:0:0:
503,195,73903,1,10,0:2:0:0:
249,134,74085,5,2,1:2:0:0:
244,76,74175,1,0,1:0:0:0:
278,30,74266,1,10,1:1:0:0:
402,264,74448,5,0,1:0:0:0:
371,295,74539,1,0,1:2:0:0:
330,297,74630,1,10,0:2:0:0:
367,91,74812,5,0,1:2:0:0:
390,97,74903,1,0,3:0:0:0:
409,120,74994,1,2,1:1:0:0:
347,174,75175,5,2,1:2:0:0:
342,181,75266,1,2,0:0:0:0:
338,188,75357,2,0,L|189:167,1,111.799994882202,8|2,0:2|1:2,0:2:0:0:
133,196,75630,5,0,1:2:0:0:
133,196,75721,2,0,P|94:226|131:188,1,167.699992323304,10|0,1:1|1:2,0:0:0:0:
146,205,76085,2,0,L|129:348,1,111.799994882202,8|2,0:2|1:1,0:0:0:0:
135,328,76357,1,0,1:0:0:0:
141,342,76448,1,8,1:1:0:0:
41,284,76630,5,2,1:2:0:0:
226,157,76812,2,2,B|241:132|241:132|230:99,1,55.8999974411012,10|0,0:2|0:0,0:1:0:0:
201,37,76994,5,0,0:0:0:0:
31,26,77175,2,2,P|31:97|149:104,1,167.699992323304,10|0,1:1|1:2,0:1:0:0:
121,134,77539,2,0,P|96:80|135:23,1,111.799994882202,8|0,0:2|1:0,0:2:0:0:
375,39,77903,5,0,1:2:0:0:
387,48,77994,2,0,L|372:210,1,111.799994882202,2|2,0:1|0:0,0:0:0:0:
383,170,78266,2,0,B|426:155|426:155|434:134|434:134|486:115,1,111.799994882202,8|0,0:2|1:2,0:2:0:0:
456,338,78630,6,0,B|443:294|386:278|349:309|349:309|349:330|334:354,1,167.699992323304,10|0,1:1|0:0,0:0:0:0:
266,312,78994,1,10,0:2:0:0:
479,220,79175,1,2,1:2:0:0:
479,220,79357,2,2,B|500:168|500:168|458:86,1,111.799994882202,2|0,1:2|0:0,0:1:0:0:
328,24,79721,2,2,P|286:78|217:63,1,111.799994882202,10|0,0:2|1:2,0:1:0:0:
182,34,79994,5,0,1:0:0:0:
189,28,80085,2,2,P|252:38|267:159,1,167.699992323304,8|0,1:1|1:2,0:1:0:0:
319,196,80448,2,0,B|380:217|380:217|349:175,1,111.799994882202,8|2,0:2|1:1,0:0:0:0:
122,300,80812,2,0,B|60:312|91:336|24:353,1,111.799994882202,2|0,1:2|1:2,0:0:0:0:
3,349,81085,1,0,1:0:0:0:
6,326,81175,1,8,0:2:0:0:
196,159,81357,6,2,L|223:369,1,167.699992323304,6|0,1:2|0:0,0:1:0:0:
217,325,81721,1,2,1:2:0:0:
408,97,81903,6,0,P|353:104|315:144,1,111.799994882202,8|2,0:2|1:2,0:0:0:0:
389,211,82175,1,0,1:2:0:0:
389,211,82266,2,0,P|374:271|444:321,1,111.799994882202,2|2,1:2|1:2,0:2:0:0:
485,365,82630,1,10,0:2:0:0:
510,292,82812,1,0,0:0:0:0:
495,213,82994,6,2,L|465:99,1,111.799994882202,10|0,1:1|0:2,0:1:0:0:
294,14,83357,2,0,B|281:24|281:24|259:119,1,111.799994882202,10|0,0:2|1:2,0:0:0:0:
176,299,83721,1,0,1:2:0:0:
115,354,83903,1,0,1:2:0:0:
47,315,84085,1,10,0:2:0:0:
105,259,84266,1,0,0:0:0:0:
405,333,84448,1,12,1:1:0:0:
469,37,96085,5,12,1:1:0:0:
373,215,96357,1,0,1:2:0:0:
373,215,96448,2,0,P|319:212|298:142,1,103.199996850586,10|2,0:2|1:2,0:2:0:0:
446,172,96812,2,0,P|426:288|317:280,1,206.399993701172,2|8,1:2|0:2,0:2:0:0:
293,174,97357,5,2,1:2:0:0:
313,94,97539,1,8,1:1:0:0:
386,56,97721,1,2,0:2:0:0:
373,215,97903,5,10,0:2:0:0:
293,174,98085,1,0,1:2:0:0:
214,202,98266,2,0,B|161:252|184:327|184:327|145:312|146:270,1,206.399993701172,2|8,1:2|0:2,0:2:0:0:
25,117,98812,5,0,3:0:0:0:
25,117,98903,1,0,3:0:0:0:
25,117,98994,2,0,P|93:86|37:22,1,154.799995275879,8|0,1:1|1:2,0:0:0:0:
49,29,99357,2,0,P|86:38|137:-5,1,103.199996850586,10|2,0:2|1:2,0:2:0:0:
131,184,99721,2,0,B|78:227|106:298|106:298|64:271|13:294,1,206.399993701172,2|8,1:2|0:2,0:2:0:0:
17,293,100266,5,2,1:2:0:0:
5,301,100630,1,2,0:2:0:0:
54,373,100812,2,0,L|162:348,1,103.199996850586,10|2,0:2|1:2,0:0:0:0:
386,252,101175,6,0,B|394:282|394:282|369:312|369:312|246:287,1,154.799995275879,2|0,1:2|0:0,0:2:0:0:
277,297,101539,2,0,P|282:226|237:191,1,103.199996850586,8|0,0:2|1:2,0:0:0:0:
199,163,101812,1,0,1:2:0:0:
199,163,101903,1,4,1:2:0:0:
260,27,102085,5,2,0:2:0:0:
350,156,102266,2,0,P|333:102|358:36,1,103.199996850586,10|2,0:2|1:2,0:2:0:0:
512,14,102630,2,0,P|515:101|403:84,1,206.399993701172,2|8,1:2|0:2,0:2:0:0:
290,280,103175,5,0,1:2:0:0:
368,307,103357,1,8,1:1:0:0:
429,251,103539,1,2,0:2:0:0:
431,169,103721,5,10,0:2:0:0:
429,251,103903,1,2,1:2:0:0:
501,292,104085,2,0,P|530:334|437:320,1,206.399993701172,2|8,1:2|0:2,0:2:0:0:
348,211,104630,5,0,3:0:0:0:
348,211,104721,1,0,3:0:0:0:
348,211,104812,2,0,B|360:137|296:115|296:115|272:164,1,154.799995275879,8|0,1:1|1:2,0:0:0:0:
275,158,105175,2,0,P|239:195|154:181,1,103.199996850586,10|2,0:2|1:2,0:2:0:0:
27,99,105539,2,0,B|2:69|13:31|13:31|87:36|87:132,1,206.399993701172,2|8,1:2|0:2,0:2:0:0:
83,138,106085,5,2,1:2:0:0:
77,150,106448,1,2,0:2:0:0:
22,224,106630,6,0,B|16:249|16:249|42:282,1,51.599998425293,0|0,1:0|0:0,0:0:0:0:
109,331,106812,2,0,L|189:308,1,51.599998425293,2|2,3:3|3:2,0:0:0:0:
132,202,106994,6,0,B|109:222|109:222|103:274,1,51.599998425293,0|0,1:0|0:0,0:0:0:0:
143,340,107175,2,0,L|209:341,1,51.599998425293,2|2,3:0|3:2,0:0:0:0:
246,230,107357,6,0,B|220:234|220:234|195:270,1,51.599998425293,8|0,1:3|0:0,0:0:0:0:
192,360,107539,2,0,L|252:369,1,51.599998425293,2|2,3:0|3:2,0:0:0:0:
420,360,107721,6,0,P|422:297|325:314,1,167.699992323304,12|0,1:1|1:2,0:2:0:0:
427,367,108085,2,0,P|471:365|510:289,1,111.799994882202,10|0,0:2|1:2,0:2:0:0:
512,190,108448,1,2,1:2:0:0:
319,135,108630,1,2,1:2:0:0:
311,126,108721,1,2,0:2:0:0:
305,116,108812,2,0,L|329:5,1,111.799994882202,8|0,0:2|1:2,0:0:0:0:
508,96,109175,5,8,1:1:0:0:
508,96,109266,2,0,P|457:132|385:101,1,111.799994882202,2|0,0:2|1:0,0:0:0:0:
399,101,109539,2,0,B|414:26|414:26|458:73,1,111.799994882202,10|2,0:2|1:2,0:2:0:0:
427,264,109903,2,0,B|383:272|352:233|352:233|299:233|284:274,1,167.699992323304,2|0,1:2|0:0,0:2:0:0:
285,270,110266,2,0,P|285:194|216:156,1,111.799994882202,8|0,0:2|1:2,0:0:0:0:
18,80,110630,5,8,1:1:0:0:
18,80,110812,1,2,0:2:0:0:
107,252,110994,2,0,B|98:212|98:212|126:103,1,111.799994882202,10|2,0:2|1:2,0:2:0:0:
103,68,111266,1,2,0:0:0:0:
103,68,111357,2,0,P|132:61|169:78,1,55.8999974411012,2|0,1:2|0:0,0:0:0:0:
257,151,111539,1,2,1:2:0:0:
257,151,111630,2,0,L|108:174,1,111.799994882202,2|0,0:2|0:2,0:2:0:0:
115,143,111903,6,0,B|97:163|97:163|89:192,2,55.8999974411012,2|2|8,1:3|0:3|1:1,0:0:0:0:
14,139,112266,1,2,0:2:0:0:
87,309,112448,2,0,P|133:276|190:257,1,111.799994882202,10|2,0:2|1:2,0:2:0:0:
210,255,112721,1,0,1:0:0:0:
210,255,112812,2,0,L|190:177,1,55.8999974411012,2|0,1:2|0:0,0:0:0:0:
254,142,112994,1,0,1:0:0:0:
254,142,113085,1,2,0:0:0:0:
254,142,113175,1,8,0:0:0:0:
456,19,113357,5,2,0:3:0:0:
444,10,113448,1,2,0:3:0:0:
432,0,113539,2,0,B|345:19|345:19|308:56|343:93,1,167.699992323304,12|2,1:1|1:2,0:2:0:0:
339,88,113903,1,10,0:2:0:0:
422,116,114085,1,2,1:2:0:0:
364,176,114266,2,0,L|377:230,1,55.8999974411012,2|0,1:2|0:2,0:2:0:0:
488,323,114448,1,2,1:2:0:0:
500,337,114539,1,2,0:2:0:0:
512,352,114630,2,0,B|450:341|391:334,1,111.799994882202,8|2,0:2|0:3,0:0:0:0:
379,343,114903,1,2,0:3:0:0:
357,354,114994,5,8,1:1:0:0:
206,249,115175,1,0,0:2:0:0:
206,249,115266,2,0,L|149:285,1,55.8999974411012,2|10,1:2|0:2,0:0:0:0:
82,251,115448,1,0,0:2:0:0:
82,251,115539,2,0,L|65:316,1,55.8999974411012,2|0,1:2|0:2,0:2:0:0:
2,346,115721,1,2,1:2:0:0:
156,377,115903,1,2,1:2:0:0:
206,249,116085,2,0,L|178:125,1,111.799994882202,10|2,0:2|0:3,0:2:0:0:
118,89,116357,1,2,0:3:0:0:
118,89,116448,6,0,P|39:91|0:22,1,167.699992323304,4|0,1:2|1:2,0:2:0:0:
0,21,116812,1,8,0:2:0:0:
421,45,117175,6,0,B|430:73|430:73|409:109,1,55.8999974411012,2|0,1:2|0:2,0:2:0:0:
367,164,117357,1,2,1:2:0:0:
367,164,117448,2,0,P|432:111|527:111,1,167.699992323304,2|2,0:2|1:2,0:2:0:0:
416,243,117903,5,8,1:1:0:0:
291,213,118085,1,2,0:2:0:0:
312,91,118266,1,10,0:2:0:0:
439,120,118448,1,2,1:2:0:0:
367,164,118630,5,2,1:2:0:0:
389,50,118812,1,2,1:2:0:0:
389,50,118903,2,0,P|439:25|518:2,1,111.799994882202,2|0,0:2|0:2,0:2:0:0:
492,7,119175,1,2,1:2:0:0:
280,198,119357,6,0,B|240:243|278:347|359:335|380:264|314:256|294:281,1,193.50000738144,12|0,1:1|0:0,0:2:0:0:
270,302,119721,2,0,B|251:304|251:304|234:298|234:298|155:292,1,111.799994882202,8|2,0:2|1:2,0:0:0:0:
12,232,120085,1,2,1:2:0:0:
88,368,120266,1,2,1:2:0:0:
83,354,120356,1,2,0:2:0:0:
78,341,120447,1,8,0:2:0:0:
0,311,120630,1,2,1:2:0:0:
232,186,120812,6,0,B|272:141|234:37|153:49|132:120|198:128|218:103,1,193.50000738144,8|0,1:1|0:0,0:2:0:0:
242,82,121175,2,0,B|261:80|261:80|278:86|278:86|357:92,1,111.799994882202,8|2,0:2|1:2,0:0:0:0:
416,7,121539,1,2,1:2:0:0:
498,180,121721,1,2,1:2:0:0:
493,166,121811,1,2,0:2:0:0:
488,153,121902,1,8,0:2:0:0:
454,81,122085,1,2,1:2:0:0:
376,216,122266,6,0,P|354:241|325:257,1,55.8999974411012,8|0,1:0|0:2,0:0:0:0:
317,340,122448,2,0,P|349:346|378:363,1,55.8999974411012,2|0,0:2|1:0,0:0:0:0:
464,366,122630,2,0,P|442:294|452:227,1,111.799994882202,10|2,0:2|1:2,0:2:0:0:
451,254,122903,1,0,1:2:0:0:
460,250,122994,1,2,1:2:0:0:
354,132,123175,1,2,1:2:0:0:
354,132,123266,2,0,P|308:92|215:111,1,111.799994882202,2|0,0:2|0:2,0:2:0:0:
238,94,123539,2,0,L|249:163,2,55.8999974411012,2|2|8,1:3|0:3|1:1,0:0:0:0:
172,13,123903,5,2,0:2:0:0:
113,182,124085,2,0,B|99:215|99:215|1:262,1,111.799994882202,10|2,0:2|1:2,0:0:0:0:
1,239,124357,1,0,0:2:0:0:
1,239,124448,2,0,P|48:238|83:314,1,111.799994882202,2|0,1:2|1:2,0:0:0:0:
126,352,124721,2,0,P|137:368|181:347,1,55.8999974411012,2|8,0:2|0:2,0:0:0:0:
372,259,124994,6,0,P|398:264|417:245,1,55.8999974411012,2|2,1:3|0:3,0:0:0:0:
489,206,125175,2,0,P|501:153|466:113,1,111.799994882202,4|2,1:2|0:2,0:2:0:0:
465,112,125448,1,0,0:0:0:0:
465,112,125539,1,8,0:2:0:0:
304,208,125721,6,0,P|287:168|316:137,1,55.8999974411012,2|0,1:2|0:0,0:0:0:0:
280,64,125903,2,0,P|326:83|391:93,1,111.799994882202,2|2,1:2|1:2,0:0:0:0:
386,84,126175,1,2,0:2:0:0:
384,72,126266,1,8,0:2:0:0:
487,8,126448,6,0,P|475:33|472:65,1,55.8999974411012,2|2,1:3|0:3,0:0:0:0:
396,167,126630,2,0,P|419:215|420:284,1,111.799994882202,8|2,1:1|0:2,0:2:0:0:
417,278,126903,1,0,0:0:0:0:
412,284,126994,1,8,0:2:0:0:
506,239,127175,5,0,1:2:0:0:
394,376,127357,2,0,P|332:333|324:282,1,111.799994882202,2|2,1:2|1:2,0:0:0:0:
323,283,127630,2,0,P|339:207|269:140,1,167.699992323304,2|2,0:2|1:3,0:2:0:0:
254,133,127994,1,2,0:3:0:0:
232,101,128085,5,8,1:1:0:0:
247,62,128175,1,2,0:0:0:0:
131,84,128357,1,2,1:2:0:0:
126,63,128447,1,10,0:2:0:0:
59,144,128630,1,2,1:2:0:0:
48,138,128721,1,2,0:2:0:0:
91,246,128903,2,0,L|64:316,1,55.8999974411012,2|0,0:2|0:0,0:0:0:0:
26,371,129085,1,2,0:2:0:0:
26,371,129175,2,0,L|154:342,1,111.799994882202,10|2,0:2|1:2,0:2:0:0:
295,83,129539,6,0,B|261:31|197:51|197:51|231:121,1,167.699992323304,8|2,1:1|1:2,0:2:0:0:
268,165,129903,2,0,B|285:187|285:187|247:318,1,111.799994882202,8|2,0:2|1:2,0:0:0:0:
185,221,130266,1,2,1:2:0:0:
398,42,130539,1,2,0:0:0:0:
380,47,130629,1,10,0:2:0:0:
332,124,130812,1,2,1:2:0:0:
115,83,130994,6,2,B|260:84|260:84|296:125|351:110,1,223.599989764405,12|10,1:1|0:2,0:1:0:0:
430,256,131539,1,2,1:2:0:0:
258,322,131721,1,2,1:2:0:0:
258,322,131812,1,2,1:2:0:0:
258,322,131903,2,0,P|264:291|231:212,1,111.799994882202,2|10,1:2|0:2,0:0:0:0:
69,285,132266,2,2,P|74:330|97:352,1,55.8999974411012,2|0,1:2|0:0,0:1:0:0:
153,287,132448,6,0,P|158:219|165:108,1,167.699992323304,8|0,1:0|1:2,0:0:0:0:
200,47,132812,2,0,L|127:40,1,55.8999974411012,10|0,0:2|0:0,0:0:0:0:
62,40,132994,1,2,1:2:0:0:
260,189,133175,1,2,1:2:0:0:
43,181,133357,1,0,1:2:0:0:
43,181,133448,1,0,1:2:0:0:
43,181,133539,2,2,B|52:119,1,55.8999974411012,10|0,0:2|0:0,0:1:0:0:
158,246,133721,2,0,L|147:167,1,55.8999974411012,0|0,0:0|0:2,0:0:0:0:
115,328,133903,6,0,P|168:281|273:277,1,167.699992323304,10|0,1:1|1:2,0:0:0:0:
347,307,134266,1,10,0:2:0:0:
328,158,134448,1,0,1:2:0:0:
328,158,134539,1,0,1:0:0:0:
328,158,134630,1,2,1:2:0:0:
494,76,134812,1,0,1:2:0:0:
243,152,134994,2,0,L|178:144,1,55.8999974411012,8|0,0:2|0:0,0:0:0:0:
156,75,135175,6,0,P|158:122|137:301,1,223.599989764405,2|0,1:2|3:0,0:0:0:0:
137,296,135630,1,0,3:2:0:0:
137,296,135721,1,10,0:2:0:0:
432,365,135903,2,0,B|451:290|451:290|430:228|430:228|453:129,1,223.599989764405,2|0,1:2|1:2,0:0:0:0:
307,306,136448,2,0,P|277:312|244:323,1,55.8999974411012,10|0,0:2|0:0,0:0:0:0:
233,232,136630,2,0,P|205:226|179:216,1,55.8999974411012,2|0,1:2|0:0,0:0:0:0:
56,183,136812,6,2,P|26:263|153:263,1,223.599989764405,12|8,1:1|3:2,0:1:0:0:
133,292,137266,1,0,3:0:0:0:
133,292,137357,1,2,0:0:0:0:
297,127,137539,2,0,P|265:196|149:131,1,223.599989764405,0|8,1:1|3:2,0:0:0:0:
158,157,137994,1,0,3:2:0:0:
158,157,138085,2,0,L|172:84,1,55.8999974411012,2|0,1:2|0:2,0:0:0:0:
66,88,138266,6,2,P|176:62|303:50,1,223.599989764405,10|8,1:1|3:2,0:1:0:0:
285,50,138721,1,0,3:0:0:0:
285,50,138812,1,0,1:2:0:0:
383,17,138994,1,2,1:2:0:0:
469,66,139175,1,0,1:2:0:0:
479,163,139357,2,0,P|478:202|455:237,1,55.8999974411012,10|0,0:2|0:0,0:0:0:0:
393,204,139539,2,0,P|389:181|399:151,1,55.8999974411012,2|0,1:2|0:2,0:2:0:0:
464,236,139721,5,12,1:1:0:0:
261,349,139994,1,2,1:2:0:0:
233,324,140085,1,8,3:2:0:0:
228,285,140175,1,0,3:3:0:0:
246,246,140266,1,2,1:2:0:0:
370,325,140448,1,0,3:0:0:0:
126,253,140630,1,0,1:2:0:0:
126,253,140721,1,0,1:0:0:0:
126,253,140812,1,8,3:2:0:0:
271,70,140994,5,0,1:2:0:0:
301,116,141085,1,0,3:0:0:0:
286,163,141175,2,0,P|227:167|175:190,1,111.799994882202,8|0,1:1|3:2,0:2:0:0:
80,129,141448,1,0,3:2:0:0:
80,129,141539,2,0,P|137:114|191:83,1,111.799994882202,8|0,0:2|1:2,0:0:0:0:
299,277,141903,1,0,1:2:0:0:
152,361,142085,1,0,3:0:0:0:
152,361,142175,1,0,3:2:0:0:
152,361,142266,2,0,P|90:330|36:319,1,111.799994882202,8|0,0:2|0:0,0:2:0:0:
264,173,142630,6,2,P|340:159|424:296,1,223.599989764405,14|8,1:1|0:2,0:1:0:0:
181,343,143175,1,0,1:1:0:0:
181,343,143266,1,0,1:2:0:0:
181,343,143357,2,2,P|112:382|14:261,1,223.599989764405,2|8,1:1|0:2,0:1:0:0:
136,105,143903,1,0,1:1:0:0:
136,105,143994,1,0,1:2:0:0:
136,105,144085,2,2,L|115:286,1,167.699992323304,10|0,1:1|1:2,0:1:0:0:
204,227,144448,6,0,B|340:245,1,111.799994882202,10|0,0:2|1:2,0:0:0:0:
317,158,144721,1,0,3:0:0:0:
317,158,144812,2,0,L|326:38,1,111.799994882202,2|0,1:1|1:2,0:0:0:0:
195,12,145085,5,0,3:0:0:0:
140,19,145175,1,10,3:2:0:0:
93,45,145266,1,2,0:2:0:0:
61,90,145357,1,2,1:2:0:0:
55,146,145448,1,0,1:2:0:0:
22,117,145539,6,2,B|144:86|116:174|259:134,1,240.799992651367,12|8,1:1|3:2,0:1:0:0:
255,135,145994,1,0,3:0:0:0:
255,135,146085,1,0,1:2:0:0:
386,12,146266,2,2,P|350:69|352:148,1,120.399996325684,2|0,1:2|3:0,0:1:0:0:
345,120,146539,1,0,3:2:0:0:
345,120,146630,1,8,0:2:0:0:
501,323,146812,1,2,1:1:0:0:
455,336,146903,1,0,1:2:0:0:
405,349,146994,6,0,P|400:227|457:106,1,240.799992651367,8|10,1:1|3:2,0:0:0:0:
446,119,147448,1,0,3:0:0:0:
446,119,147539,1,0,1:2:0:0:
254,22,147721,1,2,1:2:0:0:
177,220,147903,1,2,0:0:0:0:
254,22,148085,2,0,P|308:42|380:55,1,120.399996325684,8|2,0:2|1:1,0:0:0:0:
369,53,148357,1,0,1:2:0:0:
369,53,148448,5,10,1:1:0:0:
316,264,148630,1,2,0:2:0:0:
104,146,148812,2,0,P|122:114|147:34,1,120.399996325684,10|0,0:2|3:0,0:2:0:0:
146,34,149085,1,0,3:2:0:0:
146,34,149175,2,0,P|219:38|266:96,1,120.399996325684,2|0,1:1|1:2,0:0:0:0:
15,173,149539,1,8,0:2:0:0:
160,308,149721,6,0,P|166:285|162:245,1,60.1999981628419,2|0,1:1|0:0,0:0:0:0:
56,337,149903,6,0,P|113:315|209:430,1,180.599994488526,8|0,1:0|1:2,0:0:0:0:
205,376,150266,1,8,0:2:0:0:
212,164,150448,6,0,P|183:154|141:155,1,60.1999981628419,0|0,1:2|0:2,0:2:0:0:
92,89,150630,2,2,P|65:170|142:259,1,180.599994488526,2|0,1:1|0:2,0:1:0:0:
144,320,150994,2,0,L|289:272,1,120.399996325684,10|0,0:2|0:0,0:2:0:0:
258,282,151266,1,0,0:2:0:0:
258,282,151357,6,2,L|3:248,1,258.000009841919,10|8,1:1|0:2,0:1:0:0:
2,247,151812,1,0,0:0:0:0:
2,247,151903,1,0,1:2:0:0:
230,46,152085,6,2,P|265:82|276:174,1,120.399996325684,2|0,1:2|3:2,0:1:0:0:
280,148,152357,1,0,3:2:0:0:
280,148,152448,2,0,L|361:133,1,60.1999981628419,8|0,0:2|0:0,0:0:0:0:
416,64,152630,1,2,1:2:0:0:
434,266,152812,6,0,B|416:307|449:356|492:365|492:365|515:300,1,180.599994488526,10|0,1:1|1:2,0:0:0:0:
508,317,153175,2,0,L|357:292,1,120.399996325684,10|0,0:2|1:2,0:0:0:0:
219,235,153539,1,2,1:2:0:0:
105,292,153721,1,0,3:0:0:0:
105,292,153812,1,0,3:2:0:0:
105,292,153903,1,8,0:2:0:0:
207,370,154085,1,2,1:1:0:0:
287,306,154266,6,0,L|245:153,1,120.399996325684,10|2,1:1|0:2,0:2:0:0:
255,189,154539,1,0,1:0:0:0:
255,189,154630,2,0,P|291:175|337:180,1,60.1999981628419,10|0,0:2|0:0,0:2:0:0:
391,190,154812,1,0,0:0:0:0:
205,21,154994,6,0,B|173:43|173:43|155:158,1,120.399996325684,2|0,1:1|3:2,0:0:0:0:
160,123,155266,1,0,3:0:0:0:
160,123,155357,1,8,0:2:0:0:
3,293,155539,5,2,1:1:0:0:
3,293,155630,1,2,1:2:0:0:
3,293,155721,2,0,B|149:243|102:359|270:334,1,240.799992651367,8|10,1:0|0:2,0:0:0:0:
303,300,156266,5,2,1:2:0:0:
329,290,156357,1,0,1:2:0:0:
359,280,156448,1,2,1:1:0:0:
203,239,156630,5,0,1:2:0:0:
331,140,156812,1,10,0:2:0:0:
165,61,156994,5,0,1:2:0:0:
118,44,157085,1,0,1:0:0:0:
71,29,157175,2,2,P|1:99|29:259,1,240.799992651367,14|8,1:1|0:2,0:1:0:0:
179,366,157721,1,2,1:2:0:0:
179,366,157812,1,2,0:2:0:0:
179,366,157903,2,0,P|198:304|175:241,1,120.399996325684,0|2,1:0|1:2,0:0:0:0:
145,189,158175,1,2,0:2:0:0:
141,180,158266,2,0,L|179:123,1,60.1999981628419,10|0,0:0|0:0,0:0:0:0:
246,97,158448,2,0,P|282:120|336:110,1,60.1999981628419,2|0,1:2|0:0,0:0:0:0:
364,77,158630,6,2,P|406:24|520:14,1,180.599994488526,10|0,1:1|1:0,0:1:0:0:
510,26,158994,2,0,P|472:24|423:40,1,60.1999981628419,10|0,0:2|0:2,0:2:0:0:
390,78,159175,2,0,P|368:106|363:160,1,60.1999981628419,2|0,1:2|0:2,0:2:0:0:
311,245,159357,6,2,P|258:203|248:89,1,180.599994488526,2|0,1:2|0:2,0:1:0:0:
266,94,159721,1,10,0:2:0:0:
497,314,159903,5,0,3:0:0:0:
497,314,159994,1,0,3:2:0:0:
497,314,160085,2,0,P|455:367|341:377,1,180.599994488526,10|2,1:1|1:2,0:0:0:0:
345,374,160448,2,0,L|366:288,1,60.1999981628419,8|0,0:2|0:2,0:0:0:0:
289,245,160630,1,2,1:2:0:0:
289,245,160721,2,0,L|258:81,1,120.399996325684,2|0,0:2|3:2,0:2:0:0:
263,117,160994,6,0,L|238:225,1,60.1999981628419,2|0,1:2|3:2,0:0:0:0:
239,289,161175,2,0,B|276:276|276:276|303:234|303:234|359:213,1,120.399996325684,10|2,0:2|1:2,0:0:0:0:
148,187,161539,6,2,B|246:203|246:203|333:296|333:296|447:318,3,344,8|10|2|10,1:1|0:2|1:2|0:2,0:1:0:0:
510,184,162812,5,0,1:2:0:0:
503,176,162903,1,0,1:2:0:0:
498,167,162994,2,2,P|433:220|545:249,1,240.799992651367,12|8,1:1|0:2,0:1:0:0:
426,193,163539,6,0,P|375:117|392:40,1,120.399996325684,2|0,1:2|1:2,0:0:0:0:
374,91,163812,1,0,3:0:0:0:
374,91,163903,2,0,L|447:62,1,60.1999981628419,0|0,1:2|3:0,0:0:0:0:
296,39,164085,2,2,L|139:11,1,120.399996325684,10|0,0:2|1:2,0:1:0:0:
7,84,164448,6,2,B|-17:126|14:176|54:183|54:183|80:134,1,180.599994488526,10|0,1:1|1:2,0:1:0:0:
96,119,164812,2,0,L|55:204,1,60.1999981628419,10|0,0:2|0:2,0:2:0:0:
74,302,164994,2,0,L|100:247,1,60.1999981628419,2|0,1:2|0:2,0:2:0:0:
257,175,165175,2,0,P|287:225|183:251,1,180.599994488526,2|0,1:1|0:2,0:0:0:0:
193,259,165539,1,10,0:2:0:0:
0,384,165721,6,2,B|119:375|79:256|195:252,1,240.799992651367,6|2,1:2|3:2,0:1:0:0:
193,259,166175,1,0,3:2:0:0:
200,270,166266,1,8,0:2:0:0:
270,189,166448,5,0,1:2:0:0:
130,336,166630,2,0,L|191:361,2,60.1999981628419,2|0|2,1:2|3:2|3:2,0:2:0:0:
2,271,166994,2,0,L|130:228,1,120.399996325684,8|2,0:2|1:2,0:0:0:0:
116,232,167266,5,0,0:0:0:0:
116,232,167357,2,2,P|116:151|64:108,1,133.300001016998,10|0,1:1|0:0,0:1:0:0:
284,16,167721,2,0,P|358:85|450:38,1,199.950001525497,10|0,0:2|0:0,0:0:0:0:
371,1,168085,6,0,P|334:58|355:135,1,133.300001016998,2|0,1:2|0:0,0:0:0:0:
430,315,168448,1,10,0:2:0:0:
507,204,168630,1,0,1:2:0:0:
503,198,168721,1,0,3:2:0:0:
499,192,168812,1,12,1:1:0:0:
