osu file format v14

[General]
AudioFilename: audio.mp3
AudioLeadIn: 0
PreviewTime: 90884
Countdown: 0
SampleSet: Soft
StackLeniency: 0.7
Mode: 0
LetterboxInBreaks: 0
WidescreenStoryboard: 0

[Editor]
DistanceSpacing: 0.3
BeatDivisor: 4
GridSize: 32
TimelineZoom: 2.3

[Metadata]
Title:Ashita e no Kiseki
TitleUnicode:明日への軌跡
Artist:Falcom Sound Team jdk feat. Suehiro Yuri
ArtistUnicode:Falcom Sound Team jdk feat. 末廣優里
Creator:Mordred
Version:Stars of Destiny
Source:英雄伝説 閃の軌跡IV –THE END OF SAGA-
Tags:the legend of heroes trails of cold steel Eiyuu Densetsu Sen no Kiseki Four 4 Megumi Sasaka yuuri video game ost soundtrack opening full version
BeatmapID:1960428
BeatmapSetID:938505

[Difficulty]
HPDrainRate:7
CircleSize:4
OverallDifficulty:9
ApproachRate:9.4
SliderMultiplier:1.8
SliderTickRate:1

[Events]
//Background and Video events
0,0,"wr.jpg",0,0
//Break Periods
//Storyboard Layer 0 (Background)
//Storyboard Layer 1 (Fail)
//Storyboard Layer 2 (Pass)
//Storyboard Layer 3 (Foreground)
//Storyboard Sound Samples

[TimingPoints]
925,326.086956521739,4,2,1,60,1,0
6142,-100,4,2,1,70,0,0
20979,-83.3333333333333,4,2,1,70,0,0
21794,-100,4,2,1,70,0,0
27011,-125,4,2,1,60,0,0
29865,-125,4,2,1,5,0,0
29946,-125,4,2,1,60,0,0
32473,-125,4,2,1,5,0,0
32555,-125,4,2,1,60,0,0
34838,-83.3333333333333,4,2,1,70,0,0
37283,-100,4,2,1,70,0,0
37772,-125,4,2,1,60,0,0
39403,-83.3333333333333,4,2,1,70,0,0
40299,-83.3333333333333,4,2,1,5,0,0
40381,-100,4,2,1,60,0,0
40707,-125,4,2,1,60,0,0
42908,-125,4,2,1,5,0,0
42990,-125,4,2,1,60,0,0
47881,-100,4,2,1,70,0,0
52283,-83.3333333333333,4,2,1,70,0,0
53098,-100,4,2,1,70,0,0
68751,-83.3333333333333,4,2,1,70,0,0
77963,-83.3333333333333,4,2,1,5,0,0
78044,-83.3333333333333,4,2,1,70,0,0
78533,-83.3333333333333,4,2,1,90,0,0
78859,-83.3333333333333,4,2,1,80,0,0
79185,-83.3333333333333,4,2,1,70,0,0
80001,-100,4,2,1,70,0,0
89620,-71.4285714285714,4,2,1,70,0,0
90109,-71.4285714285714,4,2,1,50,0,0
90272,-71.4285714285714,4,2,1,55,0,0
90435,-71.4285714285714,4,2,1,60,0,0
90598,-71.4285714285714,4,2,1,65,0,0
90761,-71.4285714285714,4,2,1,70,0,0
90924,-71.4285714285714,4,2,1,75,0,0
92229,-100,4,2,1,80,0,1
94185,-76.9230769230769,4,2,1,80,0,1
94838,-100,4,2,1,80,0,1
101359,-100,4,2,1,80,0,0
102501,-76.9230769230769,4,2,1,80,0,1
102745,-76.9230769230769,4,2,1,5,0,1
102827,-100,4,2,1,80,0,1
104620,-76.9230769230769,4,2,1,80,0,1
105272,-100,4,2,1,80,0,1
106577,-83.3333333333333,4,2,1,80,0,1
106821,-83.3333333333333,4,2,1,5,0,1
106903,-83.3333333333333,4,2,1,80,0,1
107147,-83.3333333333333,4,2,1,5,0,1
107229,-83.3333333333333,4,2,1,90,0,1
107473,-83.3333333333333,4,2,1,5,0,1
107555,-83.3333333333333,4,2,1,90,0,1
107799,-83.3333333333333,4,2,1,5,0,1
107881,-100,4,2,1,80,0,1
108126,-100,4,2,1,5,0,1
108207,-100,4,2,1,80,0,1
112446,-333.333333333333,4,2,1,80,0,1
112691,-333.333333333333,4,2,1,5,0,1
112772,-66.6666666666667,4,2,1,80,0,1
112854,-66.6666666666667,4,2,1,5,0,1
113098,-100,4,2,1,70,0,0
123533,-83.3333333333333,4,2,1,80,0,1
123615,-83.3333333333333,4,2,1,80,0,0
133968,-100,4,2,1,70,0,0
143424,-100,4,2,1,65,0,0
143751,-100,4,2,1,60,0,0
144077,-100,4,2,1,50,0,0
144403,-100,4,2,1,70,0,0
154838,-83.3333333333333,4,2,1,70,0,0
164049,-83.3333333333333,4,2,1,5,0,0
164131,-83.3333333333333,4,2,1,70,0,0
164620,-83.3333333333333,4,2,1,90,0,0
164946,-83.3333333333333,4,2,1,80,0,0
165272,-83.3333333333333,4,2,1,70,0,0
166088,-100,4,2,1,70,0,0
175707,-71.4285714285714,4,2,1,70,0,0
176196,-71.4285714285714,4,2,1,50,0,0
176359,-71.4285714285714,4,2,1,55,0,0
176522,-71.4285714285714,4,2,1,60,0,0
176685,-71.4285714285714,4,2,1,65,0,0
176848,-71.4285714285714,4,2,1,70,0,0
177011,-71.4285714285714,4,2,1,75,0,0
178316,-100,4,2,1,80,0,1
180272,-76.9230769230769,4,2,1,80,0,1
180924,-100,4,2,1,80,0,1
187446,-100,4,2,1,70,0,0
188588,-76.9230769230769,4,2,1,80,0,1
188832,-76.9230769230769,4,2,1,5,0,1
188914,-100,4,2,1,80,0,1
190707,-76.9230769230769,4,2,1,80,0,1
191359,-100,4,2,1,80,0,1
192664,-83.3333333333333,4,2,1,70,0,1
192908,-83.3333333333333,4,2,1,5,0,1
192990,-83.3333333333333,4,2,1,70,0,1
193234,-83.3333333333333,4,2,1,5,0,1
193316,-83.3333333333333,4,2,1,90,0,1
193560,-83.3333333333333,4,2,1,5,0,1
193642,-83.3333333333333,4,2,1,90,0,1
193886,-83.3333333333333,4,2,1,5,0,1
193968,-100,4,2,1,80,0,1
194213,-100,4,2,1,5,0,1
194294,-100,4,2,1,80,0,1
199185,-100,4,2,1,50,0,0
206359,-100,4,2,1,25,0,0
206522,-100,4,2,1,40,0,0
206685,-100,4,2,1,55,0,0
206848,-100,4,2,1,70,0,0
208968,-83.3333333333333,4,2,1,70,0,0
209620,-100,4,2,1,70,0,0
219729,-76.9230769230769,4,2,1,70,0,0
219973,-76.9230769230769,4,2,1,5,0,0
220055,-100,4,2,1,70,0,0
228859,-76.9230769230769,4,2,1,70,0,0
229185,-100,4,2,1,70,0,0
238316,-71.4285714285714,4,2,1,70,0,0
238642,-71.4285714285714,4,2,1,40,0,0
238805,-71.4285714285714,4,2,1,45,0,0
238968,-71.4285714285714,4,2,1,50,0,0
239131,-71.4285714285714,4,2,1,55,0,0
239294,-71.4285714285714,4,2,1,60,0,0
239457,-71.4285714285714,4,2,1,65,0,0
239620,-71.4285714285714,4,2,1,50,0,0
239783,-71.4285714285714,4,2,1,55,0,0
239946,-71.4285714285714,4,2,1,60,0,0
240109,-71.4285714285714,4,2,1,65,0,0
240272,-71.4285714285714,4,2,1,70,0,0
240435,-71.4285714285714,4,2,1,75,0,0
240598,-71.4285714285714,4,2,1,80,0,0
240761,-71.4285714285714,4,2,1,85,0,0
243207,-71.4285714285714,4,2,1,60,0,0
243533,-100,4,2,1,80,0,1
250055,-100,4,2,1,80,0,0
251196,-76.9230769230769,4,2,1,80,0,1
251441,-76.9230769230769,4,2,1,5,0,1
251522,-100,4,2,1,80,0,1
253316,-76.9230769230769,4,2,1,80,0,1
253968,-100,4,2,1,80,0,1
255272,-76.9230769230769,4,2,1,80,0,1
255517,-76.9230769230769,4,2,1,5,0,1
255598,-76.9230769230769,4,2,1,80,0,1
255843,-76.9230769230769,4,2,1,5,0,1
255924,-76.9230769230769,4,2,1,90,0,1
256169,-76.9230769230769,4,2,1,5,0,1
256251,-76.9230769230769,4,2,1,90,0,1
256495,-76.9230769230769,4,2,1,5,0,1
256577,-100,4,2,1,80,0,1
256821,-100,4,2,1,5,0,1
256903,-100,4,2,1,80,0,1
261142,-100,4,2,1,80,0,0
261183,-100,4,2,1,5,0,0
261305,-100,4,2,1,80,0,0
261346,-100,4,2,1,5,0,0
261468,-100,4,2,1,80,0,0
261509,-100,4,2,1,5,0,0
261631,-76.9230769230769,4,2,1,80,0,1
261876,-100,4,2,1,5,0,1
261957,-100,4,2,1,80,0,1
263751,-76.9230769230769,4,2,1,80,0,1
264403,-100,4,2,1,80,0,1
266930,-100,4,2,1,5,0,1
267011,-100,4,2,1,80,0,1
270924,-100,4,2,1,80,0,0
272066,-76.9230769230769,4,2,1,80,0,1
272310,-76.9230769230769,4,2,1,5,0,1
272392,-125,4,2,1,80,0,1
276142,-76.9230769230769,4,2,1,80,0,1
276386,-76.9230769230769,4,2,1,5,0,1
276468,-76.9230769230769,4,2,1,80,0,1
276713,-76.9230769230769,4,2,1,5,0,1
276794,-76.9230769230769,4,2,1,90,0,1
277039,-76.9230769230769,4,2,1,5,0,1
277120,-76.9230769230769,4,2,1,90,0,1
277365,-76.9230769230769,4,2,1,5,0,0
277446,-100,4,2,1,80,0,1
282011,-333.333333333333,4,2,1,80,0,1
282256,-333.333333333333,4,2,1,5,0,1
282338,-66.6666666666667,4,2,1,80,0,1
282419,-66.6666666666667,4,2,1,5,0,1
282664,-100,4,2,1,70,0,0
293098,-83.3333333333333,4,2,1,80,0,1
293180,-83.3333333333333,4,2,1,80,0,0
299620,-100,4,2,1,75,0,0
299946,-125,4,2,1,70,0,0
300272,-166.666666666667,4,2,1,65,0,0
300598,-250,4,2,1,60,0,0
300924,-250,4,2,1,70,0,0
302229,-100,4,2,1,70,0,0
302555,-100,4,2,1,65,0,0
302881,-100,4,2,1,60,0,0
303207,-100,4,2,1,50,0,0
303533,-100,4,2,1,70,0,0
307446,-100,4,2,1,70,0,1
307528,-100,4,2,1,50,0,0
312664,-100,4,2,99,5,0,0

[Colours]
Combo1 : 250,180,240
Combo2 : 110,190,225
Combo3 : 255,230,130
Combo4 : 150,230,140

[HitObjects]
60,320,925,6,0,L|52:209,1,90,10|0,0:2|0:2,0:2:0:0:
160,32,1251,2,0,L|153:121,1,90,10|0,0:2|0:2,0:2:0:0:
224,288,1577,1,8,0:2:0:0:
60,321,1740,1,0,3:2:0:0:
248,283,1903,1,8,0:2:0:0:
35,325,2066,1,0,3:2:0:0:
272,278,2229,6,0,L|383:285,1,90,8|0,0:2|3:2,0:2:0:0:
512,160,2555,2,0,L|422:166,1,90,8|0,0:2|3:2,0:2:0:0:
187,195,2881,1,8,0:2:0:0:
282,0,3044,1,0,3:2:0:0:
320,213,3207,1,8,0:2:0:0:
164,62,3370,1,0,3:2:0:0:
379,92,3533,6,0,L|469:86,1,90,8|0,0:2|0:2,0:2:0:0:
512,320,3859,2,0,L|422:314,1,90,8|0,0:2|0:2,0:2:0:0:
262,148,4185,1,8,0:2:0:0:
304,360,4348,1,0,3:2:0:0:
159,129,4511,1,8,0:2:0:0:
205,362,4674,1,0,3:2:0:0:
56,110,4838,5,8,0:2:0:0:
232,245,5001,1,0,3:2:0:0:
232,245,5082,1,0,3:2:0:0:
232,245,5164,1,8,0:2:0:0:
261,26,5327,1,0,3:2:0:0:
105,228,5490,2,0,L|111:281,1,45,8|8,0:2|0:2,0:2:0:0:
160,384,5653,1,0,3:2:0:0:
195,379,5734,1,0,3:2:0:0:
230,374,5816,1,0,3:2:0:0:
265,369,5897,1,0,3:2:0:0:
300,364,5979,1,0,3:2:0:0:
335,360,6060,1,0,3:2:0:0:
371,356,6142,6,0,L|381:258,1,90,6|0,3:2|0:2,0:2:0:0:
474,89,6468,1,10,0:2:0:0:
512,256,6631,1,2,0:2:0:0:
463,64,6794,2,0,L|365:54,1,90,10|0,0:2|3:2,0:2:0:0:
192,96,7120,1,10,0:2:0:0:
373,54,7283,1,2,3:2:0:0:
145,16,7446,6,0,P|115:58|98:117,1,90,10|0,0:2|3:2,0:2:0:0:
366,157,7772,2,0,P|324:127|265:110,1,90,10|0,0:2|3:2,0:2:0:0:
225,378,8098,2,0,P|255:336|272:277,1,90,10|0,0:2|3:2,0:2:0:0:
4,237,8424,2,0,P|46:267|105:284,1,90,10|0,0:2|3:2,0:2:0:0:
279,178,8751,6,0,P|321:161|366:157,1,90,10|0,0:2|0:2,0:2:0:0:
480,320,9077,1,10,0:2:0:0:
365,156,9240,1,2,0:2:0:0:
268,300,9403,2,0,P|223:295|181:278,1,90,10|0,0:2|3:2,0:2:0:0:
464,171,9729,2,0,P|459:126|442:84,1,90,10|0,0:2|3:2,0:2:0:0:
268,19,10055,5,10,3:2:0:0:
246,24,10136,1,2,3:2:0:0:
223,29,10218,2,0,L|209:81,1,45,2|0,3:2|3:2,0:2:0:0:
256,224,10381,1,10,0:2:0:0:
351,74,10544,1,2,3:2:0:0:
162,178,10707,1,10,3:2:0:0:
117,187,10789,1,10,3:2:0:0:
73,196,10870,2,0,L|23:192,1,45,10|0,3:2|3:2,0:2:0:0:
304,149,11033,1,10,3:2:0:0:
349,158,11115,1,10,3:2:0:0:
393,167,11196,2,0,L|443:163,1,45,10|0,3:2|3:2,0:2:0:0:
247,313,11359,6,0,L|256:224,1,90,6|0,3:2|0:2,0:2:0:0:
109,93,11685,1,10,0:0:0:0:
317,20,11848,1,2,0:0:0:0:
82,107,12011,2,0,L|73:196,1,90,10|0,0:2|3:2,0:2:0:0:
160,352,12338,1,10,0:0:0:0:
278,168,12501,1,2,3:2:0:0:
465,303,12664,6,0,P|410:315|377:325,1,90,10|0,0:0|3:0,0:0:0:0:
475,70,12990,2,0,P|487:125|497:158,1,90,10|0,0:0|3:0,0:0:0:0:
242,60,13316,2,0,P|297:48|330:38,1,90,10|0,0:0|3:0,0:0:0:0:
232,293,13642,2,0,P|220:238|210:205,1,90,10|0,0:0|3:0,0:0:0:0:
32,32,13968,6,0,B|-2:78|-2:78|17:230,2,180,14|8|8,3:2|0:0|0:0,0:0:0:0:
192,0,14783,1,0,3:0:0:0:
130,217,14946,1,8,0:0:0:0:
192,0,15109,1,0,3:0:0:0:
256,288,15272,5,10,0:0:0:0:
340,15,15435,1,2,3:2:0:0:
161,109,15598,1,10,0:2:0:0:
435,194,15761,1,2,3:2:0:0:
161,109,15924,2,0,L|44:118,1,90,14|0,0:2|3:0,0:0:0:0:
62,150,16169,1,0,3:0:0:0:
52,185,16251,1,0,3:0:0:0:
43,219,16332,1,0,3:0:0:0:
34,254,16414,1,0,3:0:0:0:
25,288,16495,1,0,3:0:0:0:
16,323,16577,6,0,L|105:329,1,90,14|0,3:2|0:0,0:0:0:0:
256,192,16903,1,10,0:0:0:0:
320,384,17066,1,2,0:0:0:0:
156,243,17229,2,0,L|150:154,1,90,10|0,0:2|3:0,0:0:0:0:
295,0,17555,2,0,L|301:89,1,90,10|0,0:2|3:0,0:0:0:0:
55,71,17881,6,0,P|99:70|144:65,1,90,10|0,0:2|3:0,0:0:0:0:
396,171,18207,2,0,P|352:172|307:177,1,90,10|0,0:2|3:0,0:0:0:0:
136,304,18533,1,10,0:0:0:0:
352,352,18696,1,2,3:2:0:0:
103,293,18859,2,0,L|97:204,1,90,10|0,0:2|3:0,0:0:0:0:
448,0,19185,6,0,L|442:89,1,90,10|0,0:2|3:0,0:0:0:0:
512,288,19511,1,10,0:0:0:0:
512,288,19674,2,0,L|423:294,1,90,2|8,0:2|0:0,0:0:0:0:
207,281,20001,2,0,L|213:370,2,90,2|8|0,0:2|0:0|3:0,0:0:0:0:
442,89,20490,5,10,0:0:0:0:
192,32,20653,1,2,3:2:0:0:
192,32,20734,1,0,3:2:0:0:
192,32,20816,1,8,0:0:0:0:
442,89,20979,2,0,L|434:196,1,107.999996704102,2|8,3:2|0:0,0:0:0:0:
424,249,21223,1,8,0:0:0:0:
410,301,21305,1,0,3:2:0:0:
384,307,21386,1,0,3:2:0:0:
358,313,21468,1,0,3:2:0:0:
332,319,21549,1,0,3:2:0:0:
306,325,21631,1,0,3:2:0:0:
280,331,21713,1,0,3:2:0:0:
254,337,21794,6,0,L|160:331,1,90,12|0,3:2|0:0,0:0:0:0:
32,160,22120,1,10,0:0:0:0:
64,384,22283,1,2,3:2:0:0:
250,208,22446,2,0,L|344:202,1,90,10|0,0:2|3:0,0:0:0:0:
512,339,22772,2,0,L|418:333,1,90,10|0,0:2|3:0,0:0:0:0:
176,91,23098,6,0,P|171:43|170:-3,1,90,10|0,0:2|3:0,0:0:0:0:
336,293,23424,2,0,P|341:341|342:387,1,90,10|0,0:2|3:0,0:0:0:0:
155,272,23751,1,10,0:0:0:0:
357,112,23914,1,2,3:2:0:0:
512,339,24077,2,0,L|418:333,1,90,10|0,0:2|3:0,0:0:0:0:
34,171,24403,6,0,L|214:182,1,180,2|2,3:2|3:2,0:0:0:0:
478,198,24892,1,2,0:0:0:0:
478,198,24973,1,2,0:0:0:0:
478,198,25055,1,8,0:0:0:0:
490,179,25136,1,8,0:0:0:0:
497,152,25218,1,10,0:0:0:0:
492,121,25299,1,8,0:0:0:0:
464,97,25381,1,8,0:0:0:0:
423,101,25463,1,8,0:0:0:0:
378,105,25544,1,8,0:0:0:0:
328,110,25626,1,8,0:0:0:0:
274,115,25707,1,6,0:3:0:0:
124,113,26359,5,10,0:0:0:0:
408,178,26522,1,10,0:0:0:0:
140,292,26685,1,10,0:3:0:0:
315,332,26848,1,6,0:3:0:0:
290,42,27011,6,0,L|415:32,1,108,6|0,3:2|0:0,0:0:0:0:
467,63,27338,2,0,P|486:108|497:154,1,72,8|0,0:0|0:0,0:0:0:0:
480,288,27664,1,2,3:2:0:0:
480,288,27827,1,2,3:2:0:0:
320,160,27990,2,0,L|245:154,1,72,10|0,0:2|0:0,0:0:0:0:
64,192,28316,1,0,3:2:0:0:
64,192,28479,1,0,3:2:0:0:
211,326,28642,2,0,L|205:251,1,72,8|0,0:2|0:0,0:0:0:0:
96,64,28968,1,2,3:2:0:0:
96,64,29131,1,0,3:2:0:0:
32,320,29294,1,10,0:2:0:0:
32,320,29457,1,0,3:2:0:0:
288,384,29620,6,0,L|408:371,1,108,2|0,3:2|0:2,0:2:0:0:
445,315,29946,2,0,L|453:239,1,72,10|0,0:2|0:2,0:2:0:0:
512,96,30272,1,0,3:2:0:0:
512,96,30435,1,0,3:2:0:0:
352,0,30598,2,0,L|276:8,1,72,8|0,0:2|0:2,0:2:0:0:
71,0,30924,1,2,3:2:0:0:
66,24,31006,1,0,3:2:0:0:
61,48,31088,1,0,3:2:0:0:
56,72,31169,1,0,3:2:0:0:
52,97,31251,1,8,0:2:0:0:
84,217,31414,1,0,3:2:0:0:
204,185,31577,1,2,3:2:0:0:
199,161,31659,1,0,3:2:0:0:
194,137,31741,1,0,3:2:0:0:
189,113,31822,1,0,3:2:0:0:
185,88,31903,2,0,L|199:13,1,72,8|0,0:0|0:0,0:0:0:0:
480,0,32229,6,0,L|495:137,1,108,6|0,3:2|0:0,0:0:0:0:
512,180,32555,2,0,L|503:262,1,72,8|0,0:2|0:0,0:0:0:0:
448,384,32881,1,2,3:2:0:0:
448,384,33044,1,2,3:2:0:0:
256,256,33207,1,8,0:0:0:0:
510,330,33370,1,2,3:2:0:0:
285,340,33533,1,0,3:2:0:0:
285,340,33696,1,0,3:2:0:0:
419,170,33859,2,0,L|411:98,1,72,8|0,0:2|3:0,0:0:0:0:
256,0,34185,1,2,3:2:0:0:
256,0,34348,1,0,3:2:0:0:
128,256,34511,1,10,0:0:0:0:
337,51,34674,1,8,0:0:0:0:
71,180,34838,6,0,B|34:232|34:232|63:392,1,215.999993408203,6|8,3:2|0:0,0:0:0:0:
320,352,35327,1,2,3:0:0:0:
134,101,35490,2,0,L|3:89,2,107.999996704102,10|0|8,0:0|3:0|3:2,0:0:0:0:
416,64,35979,1,8,0:0:0:0:
448,44,36060,1,8,0:0:0:0:
480,24,36142,5,2,0:0:0:0:
448,224,36305,1,2,3:2:0:0:
256,0,36468,1,10,0:0:0:0:
288,200,36631,1,2,3:2:0:0:
512,132,36794,1,10,0:0:0:0:
214,109,36957,1,2,3:2:0:0:
448,224,37120,1,10,0:0:0:0:
231,369,37283,6,0,B|173:381|173:381|44:361,1,180,6|0,3:2|3:0,0:0:0:0:
0,96,37772,2,0,P|43:102|87:112,1,72,8|0,0:0|0:0,0:0:0:0:
192,224,38098,1,2,3:2:0:0:
192,224,38261,1,2,3:2:0:0:
174,22,38424,1,8,0:0:0:0:
67,212,38588,1,0,3:0:0:0:
288,128,38751,1,0,3:2:0:0:
288,128,38914,1,0,3:2:0:0:
352,352,39077,1,10,0:2:0:0:
352,352,39240,1,2,3:2:0:0:
495,133,39403,2,0,B|512:80|512:80|501:26,1,107.999996704102,14|0,0:0|3:0,0:0:0:0:
199,0,39729,2,0,B|181:52|181:52|191:103,1,107.999996704102,14|0,0:0|3:0,0:0:0:0:
352,352,40055,6,0,L|328:180,1,161.999995056153,6|0,3:2|0:0,0:0:0:0:
281,115,40381,2,0,L|192:104,1,90,8|0,0:2|0:0,0:0:0:0:
3,227,40707,2,0,L|77:217,1,72,2|0,0:2|3:0,0:0:0:0:
224,288,41033,1,8,0:0:0:0:
224,288,41196,1,0,3:0:0:0:
385,217,41359,1,2,3:2:0:0:
390,193,41441,1,0,3:2:0:0:
395,169,41523,1,0,3:2:0:0:
400,145,41604,1,0,3:2:0:0:
404,120,41686,1,8,0:2:0:0:
372,0,41849,1,0,3:2:0:0:
252,32,42012,1,2,3:2:0:0:
257,56,42094,1,0,3:2:0:0:
262,80,42174,1,0,3:2:0:0:
267,104,42257,1,0,3:2:0:0:
271,129,42338,1,8,0:0:0:0:
224,288,42501,1,0,3:0:0:0:
32,192,42664,6,0,L|19:74,1,108,6|0,3:2|0:0,0:0:0:0:
2,9,42990,2,0,L|77:17,1,72,8|0,0:0|0:0,0:0:0:0:
192,128,43316,1,2,3:2:0:0:
192,128,43479,1,2,3:2:0:0:
384,64,43642,1,10,0:0:0:0:
172,20,43805,1,2,0:2:0:0:
370,178,43968,6,0,L|387:339,1,144,6|8,3:2|0:0,0:0:0:0:
465,235,44457,1,0,3:2:0:0:
278,134,44620,1,2,3:2:0:0:
497,55,44783,1,2,3:2:0:0:
267,310,44946,1,10,0:0:0:0:
223,314,45028,1,8,0:0:0:0:
180,318,45109,1,8,0:0:0:0:
136,322,45191,1,8,0:0:0:0:
93,326,45272,5,2,3:2:0:0:
0,192,45435,1,10,0:0:0:0:
134,99,45598,1,2,3:0:0:0:
227,233,45761,2,0,L|306:242,1,72,2|0,3:2|3:0,0:0:0:0:
448,224,46088,1,0,3:2:0:0:
448,224,46169,1,0,3:2:0:0:
448,224,46251,1,8,0:2:0:0:
512,64,46414,1,2,3:2:0:0:
352,0,46577,1,10,0:2:0:0:
288,160,46740,1,2,3:2:0:0:
512,157,46903,1,8,0:0:0:0:
383,384,47066,1,8,0:2:0:0:
248,269,47229,2,0,L|198:262,1,36,2|0,0:0|0:0,0:0:0:0:
197,376,47392,2,0,L|147:383,1,36,2|0,0:0|0:0,0:0:0:0:
126,262,47555,2,0,L|91:267,1,36,2|0,0:0|0:0,0:0:0:0:
75,378,47718,2,0,L|40:374,1,36,2|0,0:0|0:0,0:0:0:0:
0,224,47881,6,0,L|-5:131,1,90,4|0,3:2|0:0,0:0:0:0:
96,0,48207,1,10,0:0:0:0:
192,192,48370,1,2,0:0:0:0:
352,64,48533,2,0,L|454:70,1,90,10|0,0:0|3:0,0:0:0:0:
512,256,48859,2,0,L|410:262,1,90,10|0,0:0|3:0,0:0:0:0:
274,106,49185,6,0,P|264:51|271:10,1,90,10|0,0:0|3:0,0:0:0:0:
422,261,49511,2,0,P|427:305|417:349,1,90,10|0,0:0|3:0,0:0:0:0:
224,320,49838,1,10,0:0:0:0:
384,160,50001,1,2,3:2:0:0:
203,339,50164,2,0,L|113:344,1,90,10|0,0:0|3:2,0:0:0:0:
0,64,50490,6,0,L|89:58,1,90,10|0,0:0|0:2,0:0:0:0:
256,128,50816,1,10,0:0:0:0:
41,251,50979,2,0,L|46:161,1,90,2|8,0:0|0:2,0:0:0:0:
182,0,51305,2,0,L|176:89,2,90,2|8|2,3:2|0:2|3:2,0:0:0:0:
448,32,51794,5,10,0:0:0:0:
384,320,51957,1,2,3:2:0:0:
384,320,52039,1,0,3:2:0:0:
384,320,52120,1,8,0:0:0:0:
448,32,52283,2,0,L|340:39,1,107.999996704102,2|8,3:2|0:0,0:0:0:0:
286,49,52527,1,8,0:0:0:0:
235,63,52609,1,0,3:2:0:0:
229,89,52690,1,0,3:2:0:0:
222,115,52772,1,0,3:2:0:0:
217,141,52853,1,0,3:2:0:0:
211,167,52935,1,0,3:2:0:0:
205,193,53017,1,0,3:2:0:0:
199,219,53098,6,0,L|205:313,1,90,12|0,3:2|0:0,0:0:0:0:
331,178,53424,1,10,0:0:0:0:
112,107,53588,1,2,0:0:0:0:
360,191,53751,2,0,L|468:198,1,90,10|0,0:2|3:0,0:0:0:0:
202,101,54077,2,0,L|113:107,1,90,10|0,0:2|3:0,0:0:0:0:
272,368,54403,6,0,P|283:305|275:257,1,90,10|0,0:0|3:0,0:0:0:0:
35,51,54729,2,0,P|24:94|26:139,1,90,10|0,0:0|3:0,0:0:0:0:
96,352,55055,1,10,0:0:0:0:
224,192,55218,1,2,3:2:0:0:
384,352,55381,2,0,L|492:359,1,90,10|0,0:2|3:0,0:0:0:0:
512,64,55707,6,0,P|451:33|359:81,1,180,10|10,0:0|0:0,0:0:0:0:
457,259,56196,2,0,P|455:203|448:154,1,90,2|8,0:0|0:0,0:0:0:0:
252,16,56522,2,0,P|246:60|245:105,1,90,2|8,3:2|0:0,0:0:0:0:
320,288,56848,1,0,3:0:0:0:
320,288,57011,6,0,L|137:297,1,180,2|2,3:2|3:2,0:0:0:0:
19,151,57501,1,2,0:0:0:0:
19,151,57582,1,2,0:0:0:0:
19,151,57664,1,8,0:0:0:0:
7,132,57745,1,8,0:0:0:0:
0,105,57827,1,10,0:0:0:0:
5,74,57908,1,8,0:0:0:0:
33,50,57990,1,8,0:0:0:0:
74,54,58072,1,8,0:0:0:0:
119,58,58153,1,8,0:0:0:0:
169,63,58235,1,8,0:0:0:0:
223,68,58316,5,6,3:2:0:0:
321,165,58479,1,0,3:0:0:0:
448,32,58642,1,2,3:2:0:0:
219,182,58805,1,10,0:0:0:0:
417,188,58968,1,2,3:2:0:0:
424,149,59131,1,0,3:0:0:0:
295,0,59294,1,0,3:0:0:0:
302,39,59457,1,10,0:2:0:0:
215,296,59620,6,0,L|108:301,1,90,2|0,3:2|3:0,0:0:0:0:
411,360,59946,2,0,L|517:365,1,90,10|0,0:2|3:0,0:0:0:0:
417,188,60272,1,10,0:0:0:0:
256,384,60435,1,2,3:2:0:0:
424,149,60598,2,0,L|414:43,1,90,10|0,0:2|3:0,0:0:0:0:
8,0,60924,6,0,L|0:89,1,90,6|0,3:2|3:0,0:0:0:0:
32,320,61251,1,2,3:2:0:0:
160,128,61414,2,0,P|230:118|265:120,1,90,10|0,0:0|3:0,0:0:0:0:
121,329,61740,2,0,P|76:328|32:320,1,90,2|0,3:2|3:0,0:0:0:0:
272,240,62066,1,8,0:0:0:0:
480,384,62229,6,0,L|488:294,1,90,2|0,3:2|3:0,0:0:0:0:
506,95,62555,1,10,0:0:0:0:
272,240,62718,2,0,L|182:248,1,90,2|8,3:2|0:0,0:0:0:0:
32,128,63044,1,2,3:2:0:0:
28,101,63126,1,2,3:2:0:0:
24,74,63207,1,10,0:0:0:0:
7,342,63370,1,2,3:2:0:0:
189,113,63533,6,0,L|279:105,1,90,6|0,3:2|3:0,0:0:0:0:
448,224,63859,1,10,0:2:0:0:
487,231,64022,1,0,3:0:0:0:
512,64,64185,1,2,3:2:0:0:
473,71,64348,1,0,3:0:0:0:
352,256,64511,1,10,0:0:0:0:
288,32,64674,1,2,3:2:0:0:
89,198,64838,6,0,L|-1:190,1,90,6|0,3:2|3:0,0:0:0:0:
198,40,65164,2,0,L|288:32,1,90,10|0,0:2|3:0,0:0:0:0:
480,160,65490,1,10,0:0:0:0:
287,32,65653,1,2,3:2:0:0:
172,246,65816,2,0,L|164:336,1,90,10|0,0:2|3:0,0:0:0:0:
384,384,66142,5,14,0:0:0:0:
458,270,66305,1,0,3:2:0:0:
454,348,66468,1,0,3:2:0:0:
267,63,66631,5,14,0:0:0:0:
328,184,66794,1,0,3:2:0:0:
263,141,66957,1,0,3:2:0:0:
512,32,67120,5,14,0:0:0:0:
512,32,67283,1,0,3:0:0:0:
367,270,67446,6,0,P|278:275|187:286,2,180,2|0|2,3:2|3:0|3:2,0:0:0:0:
375,244,68180,1,0,3:2:0:0:
383,218,68261,1,0,3:2:0:0:
391,192,68343,1,0,3:2:0:0:
399,166,68424,1,0,3:2:0:0:
408,140,68506,1,0,3:2:0:0:
417,114,68588,1,0,3:2:0:0:
426,88,68669,1,0,3:2:0:0:
435,62,68751,5,6,3:2:0:0:
64,96,69077,1,6,3:2:0:0:
444,36,69403,1,10,0:2:0:0:
59,126,69566,1,10,0:2:0:0:
59,126,69892,6,0,B|25:187|25:187|54:348,1,215.999993408203,6|2,3:2|3:2,0:0:0:0:
192,384,70381,1,2,3:2:0:0:
256,224,70544,1,2,3:2:0:0:
491,343,70707,1,10,0:0:0:0:
224,304,70870,1,2,3:2:0:0:
422,164,71033,1,2,3:2:0:0:
358,324,71196,1,2,3:2:0:0:
489,7,71359,5,4,3:2:0:0:
489,7,71685,1,6,3:2:0:0:
489,7,72011,1,10,0:0:0:0:
491,343,72174,1,2,3:2:0:0:
491,343,72501,6,0,B|413:326|413:326|372:353|372:353|282:336,1,215.999993408203,6|2,3:2|3:2,0:0:0:0:
64,352,72990,1,10,0:0:0:0:
192,225,73153,1,0,3:2:0:0:
200,193,73234,1,0,3:2:0:0:
209,161,73316,1,10,0:0:0:0:
50,78,73479,1,0,3:0:0:0:
59,110,73561,1,0,3:2:0:0:
67,142,73642,1,2,3:2:0:0:
9,290,73805,1,0,3:2:0:0:
9,290,73886,1,0,3:2:0:0:
9,290,73968,5,6,3:2:0:0:
380,324,74294,1,6,3:2:0:0:
0,264,74620,1,10,0:2:0:0:
385,354,74783,1,2,3:2:0:0:
146,379,74946,1,8,0:2:0:0:
227,33,75109,6,0,B|305:16|305:16|346:43|346:43|436:26,1,215.999993408203,6|2,3:2|3:2,0:0:0:0:
512,160,75598,1,2,3:2:0:0:
286,98,75761,1,2,3:2:0:0:
429,285,75924,1,8,0:2:0:0:
421,235,76005,1,8,0:2:0:0:
413,185,76088,1,8,0:2:0:0:
286,98,76251,1,2,3:2:0:0:
224,324,76414,1,2,3:2:0:0:
0,160,76577,5,6,3:2:0:0:
0,160,76903,1,6,3:2:0:0:
0,160,77229,1,10,0:0:0:0:
256,0,77392,1,10,3:2:0:0:
256,0,77718,6,0,B|288:51|288:51|261:170,1,161.999995056153,6|0,3:2|0:0,0:0:0:0:
265,150,78044,1,10,0:0:0:0:
137,80,78207,1,10,3:2:0:0:
384,128,78370,1,2,3:2:0:0:
48,321,78533,1,10,0:0:0:0:
472,238,78696,1,2,3:2:0:0:
58,187,78859,1,10,3:2:0:0:
224,384,79022,1,2,3:2:0:0:
306,41,79185,6,0,B|354:23|354:23|412:31,1,107.999996704102,6|0,3:2|0:0,0:0:0:0:
472,238,79511,2,0,B|423:255|423:255|366:248,1,107.999996704102,10|0,0:0|0:0,0:0:0:0:
192,160,79838,1,2,3:2:0:0:
32,352,80001,2,0,L|25:241,1,90,2|8,0:0|0:0,0:0:0:0:
0,48,80327,2,0,P|83:59|212:67,1,180,2|0,0:0|0:0,0:0:0:0:
406,3,80816,1,10,0:0:0:0:
452,116,80979,1,2,0:0:0:0:
254,128,81142,1,2,3:2:0:0:
284,8,81305,1,2,0:0:0:0:
358,194,81468,1,10,0:0:0:0:
91,293,81631,1,8,0:0:0:0:
55,288,81713,1,8,0:0:0:0:
19,283,81794,6,0,L|7:191,1,90,6|0,3:2|0:0,0:0:0:0:
176,0,82120,2,0,B|187:43|187:43|163:95,1,90,10|0,0:0|0:0,0:0:0:0:
0,32,82446,1,2,3:2:0:0:
160,224,82609,2,0,L|256:232,1,90,2|8,0:0|0:0,0:0:0:0:
384,384,82935,2,0,P|393:308|416:176,1,180,2|0,0:0|0:0,0:0:0:0:
281,0,83424,1,10,0:0:0:0:
235,113,83587,1,2,0:0:0:0:
433,125,83750,1,2,3:2:0:0:
403,5,83913,1,2,0:0:0:0:
329,191,84076,1,10,0:0:0:0:
155,36,84240,1,8,0:0:0:0:
119,31,84321,1,8,0:0:0:0:
83,26,84403,6,0,L|-11:35,1,90,6|0,3:2|0:0,0:0:0:0:
235,113,84729,2,0,L|324:104,1,90,10|0,0:0|0:0,0:0:0:0:
480,0,85055,1,2,3:2:0:0:
512,192,85218,2,0,L|422:183,1,90,2|8,0:0|0:0,0:0:0:0:
288,384,85544,2,0,P|279:308|256:176,1,180,2|0,0:0|0:0,0:0:0:0:
177,46,86033,1,10,0:0:0:0:
384,96,86196,1,2,0:0:0:0:
105,85,86359,2,0,B|96:41|96:41|121:-22,1,90,2|0,3:2|0:0,0:0:0:0:
391,10,86685,2,0,B|400:54|400:54|384:96,1,90,10|0,0:0|0:0,0:0:0:0:
256,256,87011,6,0,L|191:260,1,45,6|0,3:2|0:0,0:0:0:0:
0,342,87174,1,8,0:0:0:0:
11,298,87256,1,8,0:0:0:0:
22,254,87338,1,8,0:0:0:0:
33,210,87419,1,8,0:0:0:0:
44,166,87501,6,0,L|88:163,1,45,6|0,3:2|3:0,0:0:0:0:
279,70,87664,1,0,3:2:0:0:
314,78,87746,1,0,3:2:0:0:
349,87,87828,1,0,3:2:0:0:
384,96,87909,1,0,3:2:0:0:
419,105,87990,6,0,L|421:149,1,45,6|0,3:2|3:0,0:0:0:0:
512,320,88153,1,0,3:2:0:0:
477,312,88235,1,0,3:2:0:0:
442,303,88317,1,0,3:2:0:0:
407,294,88398,1,0,3:2:0:0:
372,285,88479,6,0,L|369:240,1,45,6|0,3:2|3:0,0:0:0:0:
279,70,88642,1,0,3:2:0:0:
239,59,88723,1,0,3:2:0:0:
199,48,88805,1,0,3:2:0:0:
159,37,88886,1,0,3:2:0:0:
119,26,88968,6,0,L|54:30,1,45,14|8,3:2|0:0,0:0:0:0:
0,240,89131,1,0,3:2:0:0:
35,232,89213,1,0,3:2:0:0:
70,224,89294,1,0,3:2:0:0:
105,216,89376,1,0,3:2:0:0:
140,208,89457,1,0,3:2:0:0:
175,200,89539,1,0,3:2:0:0:
210,192,89620,6,0,B|300:204|300:204|337:244|337:244|462:266,1,251.999992309571,6|0,3:2|3:0,0:0:0:0:
512,64,90109,1,8,0:0:0:0:
509,51,90191,1,8,0:0:0:0:
491,32,90272,1,8,3:2:0:0:
453,29,90354,1,8,0:0:0:0:
404,39,90435,1,8,0:0:0:0:
367,90,90517,1,8,0:0:0:0:
310,129,90598,1,8,3:2:0:0:
234,132,90680,1,8,0:0:0:0:
171,79,90761,1,8,0:0:0:0:
85,53,90843,1,8,0:0:0:0:
0,94,90924,5,14,3:2:0:0:
33,281,91088,1,2,0:0:0:0:
33,281,91414,1,2,0:0:0:0:
33,281,91740,1,2,0:0:0:0:
33,281,92229,5,6,3:2:0:0:
320,224,92392,1,2,0:0:0:0:
82,368,92555,1,10,0:0:0:0:
139,81,92718,1,2,0:2:0:0:
82,368,92881,2,0,L|186:375,1,90,2|0,3:2|3:2,0:0:0:0:
385,168,93207,1,10,0:2:0:0:
98,225,93370,1,2,0:2:0:0:
336,81,93533,1,2,3:2:0:0:
279,368,93696,1,2,3:2:0:0:
336,81,93859,2,0,L|232:74,1,90,10|0,0:2|3:2,0:0:0:0:
430,326,94185,6,0,P|444:244|457:198,1,116.999994644165,6|0,3:2|0:0,0:0:0:0:
82,58,94511,2,0,P|68:140|55:186,1,116.999994644165,14|0,0:2|0:0,0:0:0:0:
512,47,94838,6,0,L|336:81,1,180,6|8,3:2|0:0,0:0:0:0:
335,81,95327,1,2,0:0:0:0:
256,288,95490,1,2,3:2:0:0:
213,152,95653,1,0,3:2:0:0:
378,216,95816,1,8,0:0:0:0:
134,360,95979,1,2,3:2:0:0:
104,349,96060,1,2,3:2:0:0:
74,338,96142,6,0,L|40:161,1,180,6|8,3:2|0:0,0:0:0:0:
40,161,96631,1,2,3:2:0:0:
160,0,96794,1,2,3:2:0:0:
19,20,96957,1,0,3:2:0:0:
180,140,97120,2,0,L|279:147,1,90,8|0,0:0|0:0,0:0:0:0:
448,96,97446,5,6,3:2:0:0:
512,352,97609,1,2,0:0:0:0:
512,40,97772,1,10,0:2:0:0:
448,296,97935,1,2,0:2:0:0:
392,32,98098,2,0,L|294:23,1,90,2|0,3:2|3:2,0:0:0:0:
64,96,98424,1,10,0:2:0:0:
0,352,98587,1,2,3:2:0:0:
0,40,98750,1,2,3:2:0:0:
64,296,98913,1,2,3:2:0:0:
120,32,99077,2,0,L|218:23,1,90,10|0,0:0|0:0,0:0:0:0:
337,179,99403,5,6,3:2:0:0:
174,204,99566,1,0,3:2:0:0:
319,0,99729,1,14,0:0:0:0:
190,384,99892,1,8,0:0:0:0:
0,40,100055,6,0,L|177:74,1,180,6|8,3:2|0:0,0:0:0:0:
176,73,100544,1,2,0:0:0:0:
64,296,100707,1,2,3:0:0:0:
41,145,100870,1,0,3:0:0:0:
198,223,101033,1,0,3:0:0:0:
448,0,101196,1,8,0:0:0:0:
455,44,101278,1,8,0:0:0:0:
462,88,101359,5,14,3:2:0:0:
120,32,101522,1,6,3:2:0:0:
76,25,101848,1,6,3:2:0:0:
32,18,102174,1,6,3:2:0:0:
64,296,102338,1,8,0:0:0:0:
256,0,102501,6,0,B|290:53|290:53|266:175,1,175.499991966248,6|2,3:2|3:2,0:0:0:0:
227,229,102827,1,2,3:2:0:0:
384,32,102990,1,10,0:0:0:0:
416,288,103153,1,2,0:0:0:0:
209,71,103316,2,0,L|111:62,1,90,2|0,3:2|3:2,0:0:0:0:
0,192,103642,1,10,0:0:0:0:
268,163,103805,1,2,3:2:0:0:
34,7,103968,1,2,3:2:0:0:
83,287,104131,1,2,3:2:0:0:
225,54,104294,2,0,L|323:45,1,90,10|0,0:2|3:2,0:0:0:0:
83,287,104620,6,0,P|69:205|56:159,1,116.999994644165,6|0,3:2|3:2,0:0:0:0:
429,97,104946,2,0,P|443:179|456:225,1,116.999994644165,14|0,3:2|3:2,0:0:0:0:
0,47,105272,6,0,L|176:81,1,180,6|8,3:2|0:0,0:0:0:0:
176,81,105761,1,2,0:0:0:0:
384,0,105924,1,2,0:0:0:0:
249,6,106088,1,0,3:2:0:0:
403,166,106251,1,8,0:0:0:0:
512,0,106414,1,0,3:0:0:0:
479,237,106577,6,0,B|435:258|435:258|318:242,1,161.999995056153,6|0,3:2|0:2,0:2:0:0:
160,156,106903,2,0,B|139:112|139:112|155:-5,1,161.999995056153,14|0,3:2|0:2,0:2:0:0:
357,0,107229,2,0,B|372:112|372:112|352:156,1,161.999995056153,6|0,3:2|0:2,0:2:0:0:
189,242,107555,2,0,B|77:258|77:258|33:237,1,161.999995056153,14|0,3:2|0:2,0:2:0:0:
27,130,107881,6,0,L|167:157,1,135,6|0,3:2|0:0,0:0:0:0:
262,164,108207,2,0,L|360:155,1,90,8|0,0:2|0:2,0:0:0:0:
512,192,108533,1,2,3:2:0:0:
352,32,108696,1,0,3:2:0:0:
159,155,108859,2,0,L|150:253,1,90,8|0,0:2|0:2,0:0:0:0:
365,371,109104,1,8,0:0:0:0:
398,384,109185,6,0,L|364:207,1,180,6|8,3:2|0:0,0:0:0:0:
352,32,109674,1,0,3:0:0:0:
512,160,109838,1,2,3:2:0:0:
512,160,110001,1,0,3:2:0:0:
210,128,110164,1,10,0:0:0:0:
166,120,110245,1,8,0:0:0:0:
121,111,110327,1,8,0:0:0:0:
76,103,110408,1,8,0:0:0:0:
31,95,110490,5,6,3:2:0:0:
256,0,110653,1,10,0:0:0:0:
126,320,110816,1,2,3:2:0:0:
351,225,110979,2,0,L|449:234,1,90,2|0,3:2|3:2,0:0:0:0:
256,384,111305,1,0,3:2:0:0:
249,353,111386,1,0,3:2:0:0:
242,321,111468,5,6,3:2:0:0:
401,105,111631,1,10,0:0:0:0:
497,316,111794,2,0,L|452:320,1,45,2|0,3:2|3:2,0:0:0:0:
256,224,111957,1,2,3:2:0:0:
401,105,112120,1,0,3:2:0:0:
408,74,112201,1,0,3:2:0:0:
415,42,112283,1,0,3:2:0:0:
189,20,112446,6,0,L|200:69,1,40.4999987640381,6|0,3:2|0:0,0:0:0:0:
215,143,112772,6,0,L|126:122,1,67.5000025749208,2|0,0:0|0:0,0:0:0:0:
500,53,113098,5,6,3:2:0:0:
431,274,113261,1,10,0:0:0:0:
512,178,113424,1,2,3:2:0:0:
305,284,113588,1,10,0:0:0:0:
500,53,113751,2,0,L|407:42,1,90,2|8,3:2|0:2,0:2:0:0:
256,24,114077,1,0,3:2:0:0:
144,272,114240,1,10,0:0:0:0:
0,96,114403,5,2,3:2:0:0:
32,320,114566,1,8,0:0:0:0:
144,272,114729,5,2,3:2:0:0:
176,48,114892,1,8,0:0:0:0:
336,48,115055,5,2,3:2:0:0:
368,272,115218,1,8,0:0:0:0:
480,320,115381,5,2,3:2:0:0:
512,96,115544,1,8,0:0:0:0:
390,376,115707,5,2,3:2:0:0:
390,376,115789,1,2,3:2:0:0:
390,376,115870,1,10,0:0:0:0:
352,161,116033,1,2,3:2:0:0:
144,272,116196,1,10,0:0:0:0:
442,220,116359,2,0,L|453:127,1,90,2|8,3:2|0:2,0:2:0:0:
223,9,116685,2,0,L|213:99,1,90,2|8,3:2|0:2,0:2:0:0:
308,323,117011,5,14,3:2:0:0:
303,344,117092,1,2,3:2:0:0:
298,368,117174,2,0,L|246:382,1,45,2|0,3:2|3:2,0:2:0:0:
144,272,117337,1,2,3:2:0:0:
352,161,117500,1,10,0:2:0:0:
38,251,117663,1,14,3:2:0:0:
29,296,117745,1,10,3:2:0:0:
20,340,117826,2,0,L|23:390,1,45,10|0,3:2|3:2,0:2:0:0:
123,155,117989,1,14,3:2:0:0:
114,110,118071,1,10,3:2:0:0:
105,66,118152,2,0,L|109:16,1,45,10|0,3:2|3:2,0:2:0:0:
425,0,118316,6,0,L|417:93,1,90,6|8,3:2|0:2,0:2:0:0:
512,263,118642,1,2,3:2:0:0:
508,227,118723,1,2,3:2:0:0:
505,191,118805,1,10,0:0:0:0:
286,113,118968,1,2,3:2:0:0:
283,149,119050,1,0,3:2:0:0:
280,185,119131,1,8,0:2:0:0:
352,320,119294,1,0,3:2:0:0:
418,90,119457,1,10,0:0:0:0:
343,348,119620,5,2,3:2:0:0:
428,62,119783,1,8,0:2:0:0:
259,61,119946,6,0,L|277:126,1,45,2|0,3:2|3:2,0:2:0:0:
343,348,120109,1,8,0:2:0:0:
175,349,120272,5,2,3:2:0:0:
259,61,120435,1,8,0:0:0:0:
91,63,120598,5,2,3:2:0:0:
175,349,120761,1,8,0:2:0:0:
7,350,120924,6,0,L|-2:249,1,90,6|8,3:2|0:0,0:0:0:0:
91,63,121251,1,0,3:2:0:0:
87,98,121332,1,0,3:2:0:0:
84,134,121414,1,8,0:0:0:0:
175,349,121577,1,0,3:2:0:0:
171,314,121658,1,0,3:2:0:0:
168,278,121740,1,8,0:0:0:0:
259,62,121903,1,0,3:2:0:0:
69,240,122066,1,8,0:2:0:0:
442,143,122229,5,6,3:2:0:0:
69,240,122392,1,10,0:0:0:0:
304,378,122555,2,0,L|293:332,1,45,2|0,3:2|3:2,0:0:0:0:
207,5,122718,1,10,0:2:0:0:
304,378,122881,5,10,0:0:0:0:
359,379,122963,1,8,0:0:0:0:
412,380,123044,2,0,L|475:368,1,45,8|8,0:0|0:0,0:0:0:0:
512,171,123207,1,2,3:2:0:0:
512,132,123289,1,0,3:2:0:0:
512,95,123370,2,0,L|500:32,1,45,0|0,3:2|3:2,0:0:0:0:
207,5,123533,6,0,L|227:114,1,107.999996704102,6|10,3:2|0:2,0:0:0:0:
320,256,123859,1,2,3:2:0:0:
384,32,124022,1,10,0:0:0:0:
192,256,124185,2,0,L|82:235,1,107.999996704102,2|10,3:2|0:2,0:0:0:0:
0,96,124511,1,0,3:2:0:0:
32,384,124674,1,10,0:0:0:0:
0,96,124838,5,2,3:2:0:0:
32,384,125001,1,8,0:0:0:0:
140,294,125164,5,2,3:2:0:0:
179,25,125327,1,8,0:0:0:0:
332,25,125490,5,2,3:2:0:0:
371,294,125653,1,8,0:0:0:0:
480,384,125816,5,2,3:2:0:0:
512,96,125979,1,8,0:0:0:0:
167,167,126142,5,2,3:2:0:0:
167,167,126223,1,2,3:2:0:0:
167,167,126305,1,10,0:2:0:0:
371,294,126468,1,2,3:2:0:0:
332,25,126631,1,10,0:0:0:0:
140,294,126794,2,0,L|30:301,1,107.999996704102,2|8,3:2|0:0,0:0:0:0:
0,64,127120,2,0,L|107:57,1,107.999996704102,2|8,3:2|0:0,0:0:0:0:
222,323,127446,5,14,3:2:0:0:
227,344,127527,1,2,3:2:0:0:
232,368,127609,2,0,L|284:382,1,53.9999983520508,2|0,3:2|3:2,0:2:0:0:
386,272,127772,1,2,3:2:0:0:
178,161,127935,1,10,0:2:0:0:
492,242,128098,1,14,3:2:0:0:
501,287,128180,1,10,3:2:0:0:
510,331,128261,2,0,L|506:386,1,53.9999983520508,10|0,3:2|3:2,0:2:0:0:
407,155,128424,1,14,3:2:0:0:
416,110,128506,1,10,3:2:0:0:
425,66,128587,2,0,L|420:11,1,53.9999983520508,10|0,3:2|3:2,0:2:0:0:
87,0,128751,6,0,L|96:111,1,107.999996704102,6|10,3:2|0:2,0:2:0:0:
64,288,129077,1,2,3:2:0:0:
0,64,129240,1,10,0:0:0:0:
190,303,129403,2,0,L|301:312,1,107.999996704102,2|8,3:2|0:2,0:2:0:0:
480,288,129729,1,0,3:2:0:0:
256,192,129892,1,10,0:0:0:0:
96,384,130055,5,2,3:2:0:0:
416,352,130218,1,8,0:0:0:0:
320,275,130381,5,2,3:2:0:0:
0,243,130544,1,8,0:0:0:0:
0,141,130707,5,2,3:2:0:0:
320,109,130870,1,8,0:0:0:0:
416,32,131033,5,2,3:2:0:0:
96,0,131196,1,8,0:0:0:0:
209,330,131359,6,0,L|218:218,1,107.999996704102,6|8,3:2|0:2,0:2:0:0:
313,24,131685,1,0,3:2:0:0:
316,66,131766,1,0,3:2:0:0:
320,109,131848,1,8,0:0:0:0:
480,288,132011,1,0,3:2:0:0:
483,246,132092,1,0,3:2:0:0:
487,203,132174,1,8,0:0:0:0:
448,32,132338,1,0,3:2:0:0:
326,313,132501,1,8,0:0:0:0:
306,1,132664,5,6,3:2:0:0:
206,383,132827,1,10,0:0:0:0:
446,242,132990,1,2,3:2:0:0:
64,142,133153,1,10,0:0:0:0:
446,242,133316,5,2,3:0:0:0:
206,383,133479,1,8,0:0:0:0:
216,347,133560,1,8,0:0:0:0:
225,310,133642,1,10,0:0:0:0:
234,273,133723,1,8,0:0:0:0:
243,237,133805,1,8,0:0:0:0:
253,200,133886,1,8,0:0:0:0:
262,163,133968,5,6,3:2:0:0:
448,96,134131,1,8,0:2:0:0:
256,0,134294,1,0,3:2:0:0:
220,11,134375,1,0,3:2:0:0:
184,22,134457,1,10,0:0:0:0:
28,153,134620,1,2,3:2:0:0:
64,142,134701,1,0,3:2:0:0:
100,131,134783,1,8,0:0:0:0:
262,163,134946,1,2,3:2:0:0:
48,4,135109,1,8,0:0:0:0:
18,268,135272,6,0,L|25:357,1,90,2|8,3:2|0:0,0:0:0:0:
256,384,135598,1,2,3:2:0:0:
259,339,135679,1,0,3:2:0:0:
263,294,135761,1,8,0:0:0:0:
191,97,135924,1,2,3:2:0:0:
134,348,136088,1,10,0:0:0:0:
71,71,136251,1,2,3:2:0:0:
139,373,136415,1,10,0:0:0:0:
207,22,136577,6,0,L|296:15,1,90,2|8,3:2|0:0,0:0:0:0:
480,64,136903,1,2,3:2:0:0:
256,202,137066,2,0,L|263:113,1,90,10|0,0:2|3:0,0:0:0:0:
512,48,137392,2,0,L|505:137,1,90,10|0,0:2|3:0,0:0:0:0:
448,288,137718,1,8,0:0:0:0:
296,14,137881,6,0,L|242:19,1,45,6|0,3:2|3:0,0:0:0:0:
0,48,138044,2,0,L|7:137,1,90,10|0,0:2|3:0,0:0:0:0:
122,332,138370,2,0,L|115:243,1,90,10|4,0:2|3:2,0:0:0:0:
143,44,138615,1,0,3:2:0:0:
160,0,138696,1,10,0:0:0:0:
224,160,138859,1,0,3:0:0:0:
16,240,139022,1,8,0:0:0:0:
256,368,139185,6,0,L|345:375,1,90,6|8,3:2|0:0,0:0:0:0:
507,264,139511,1,2,3:2:0:0:
509,228,139592,1,0,3:2:0:0:
512,192,139674,1,10,0:0:0:0:
319,118,139838,1,2,3:0:0:0:
322,154,139920,1,0,3:2:0:0:
324,190,140001,1,8,0:2:0:0:
480,64,140164,1,2,3:2:0:0:
384,320,140327,1,8,0:0:0:0:
266,38,140490,5,2,3:2:0:0:
266,38,140653,1,0,3:2:0:0:
64,352,140816,1,14,0:2:0:0:
64,352,140979,1,0,3:2:0:0:
225,152,141142,1,2,3:2:0:0:
110,110,141305,1,2,3:2:0:0:
69,224,141468,1,2,3:2:0:0:
183,266,141631,1,2,3:2:0:0:
459,44,141794,5,6,3:2:0:0:
459,44,143098,5,2,3:2:0:0:
386,84,143207,2,0,P|386:123|391:158,1,60,10|10,0:0|0:0,0:0:0:0:
439,291,143424,1,2,3:2:0:0:
512,251,143533,2,0,P|512:212|507:177,1,60,10|10,0:3|0:3,0:0:0:0:
364,63,143751,5,2,3:2:0:0:
342,42,143859,2,0,P|303:42|268:47,1,60,6|6,0:3|0:3,0:0:0:0:
182,126,144077,1,2,3:2:0:0:
204,147,144185,2,0,P|243:147|278:142,1,60,6|6,0:3|0:3,0:0:0:0:
459,44,144403,6,0,L|472:155,1,90,6|0,3:2|3:0,0:0:0:0:
439,291,144729,1,2,3:2:0:0:
204,147,144892,1,10,0:0:0:0:
288,352,145055,2,0,L|298:262,1,90,2|0,3:2|3:0,0:0:0:0:
214,57,145381,2,0,L|204:147,1,90,2|8,3:2|0:0,0:0:0:0:
89,357,145707,6,0,L|0:368,1,90,2|0,3:2|3:2,0:0:0:0:
96,96,146033,1,10,0:0:0:0:
176,377,146196,1,0,3:2:0:0:
288,128,146359,1,10,0:0:0:0:
0,160,146522,1,2,3:2:0:0:
324,127,146685,2,0,L|413:138,1,90,10|0,0:2|3:2,0:0:0:0:
11,249,147011,6,0,L|0:160,1,90,6|0,3:2|3:2,0:0:0:0:
32,0,147338,1,2,3:2:0:0:
208,80,147501,2,0,L|197:169,1,90,10|0,0:2|3:2,0:0:0:0:
224,320,147827,1,2,3:2:0:0:
281,217,147990,1,0,3:2:0:0:
102,345,148153,1,8,0:0:0:0:
384,384,148316,6,0,L|395:295,1,90,6|0,3:2|3:2,0:0:0:0:
480,96,148642,1,10,0:0:0:0:
512,320,148805,1,2,3:2:0:0:
499,66,148968,1,8,0:0:0:0:
493,350,149131,1,2,3:2:0:0:
256,128,149294,1,10,0:2:0:0:
512,224,149457,1,2,3:2:0:0:
255,376,149620,6,0,L|167:387,1,90,6|0,3:2|3:2,0:0:0:0:
0,320,149946,1,8,0:0:0:0:
9,281,150109,1,0,3:2:0:0:
194,221,150272,1,0,3:2:0:0:
185,260,150435,1,0,3:2:0:0:
32,64,150598,1,10,0:0:0:0:
93,290,150761,1,2,3:2:0:0:
256,0,150924,6,0,L|344:11,1,90,6|0,3:2|3:2,0:0:0:0:
512,128,151251,2,0,L|424:139,1,90,10|0,0:2|3:2,0:0:0:0:
192,128,151577,1,2,3:2:0:0:
426,51,151740,1,2,3:2:0:0:
311,287,151903,2,0,L|322:375,1,90,10|0,0:2|3:2,0:0:0:0:
512,231,152229,5,14,0:0:0:0:
398,157,152392,1,0,3:2:0:0:
476,161,152555,1,0,3:2:0:0:
191,348,152718,5,14,0:0:0:0:
311,287,152881,1,0,3:2:0:0:
269,352,153044,1,0,3:2:0:0:
160,103,153207,5,14,0:0:0:0:
160,103,153370,1,0,3:0:0:0:
15,383,153533,6,0,P|10:294|-1:203,2,180,2|0|2,3:2|3:0|3:2,0:0:0:0:
23,357,154267,1,0,3:2:0:0:
31,331,154348,1,0,3:2:0:0:
39,305,154430,1,0,3:2:0:0:
47,279,154511,1,0,3:2:0:0:
55,253,154593,1,0,3:2:0:0:
63,227,154674,1,0,3:2:0:0:
71,201,154755,1,0,3:2:0:0:
79,175,154837,5,6,3:2:0:0:
433,209,155164,1,6,3:2:0:0:
87,149,155490,1,10,0:2:0:0:
441,235,155653,1,10,0:2:0:0:
224,256,155816,1,0,3:2:0:0:
504,156,155979,6,0,B|538:217|538:217|509:378,1,215.999993408203,6|2,3:2|3:2,0:0:0:0:
320,384,156468,1,2,3:2:0:0:
256,224,156631,1,2,3:2:0:0:
21,343,156794,1,10,0:0:0:0:
288,304,156957,1,2,3:2:0:0:
90,164,157120,1,2,3:2:0:0:
154,324,157283,1,2,3:2:0:0:
23,7,157446,5,4,3:2:0:0:
23,7,157772,1,6,3:2:0:0:
23,7,158098,1,10,0:0:0:0:
21,343,158261,1,2,3:2:0:0:
21,343,158588,6,0,B|99:326|99:326|140:353|140:353|230:336,1,215.999993408203,6|2,3:2|3:2,0:0:0:0:
448,384,159077,1,10,0:0:0:0:
512,190,159240,1,0,3:2:0:0:
480,198,159321,1,0,3:2:0:0:
448,207,159403,1,10,0:0:0:0:
258,109,159566,1,0,3:2:0:0:
290,117,159647,1,0,3:2:0:0:
322,126,159729,1,2,3:2:0:0:
480,32,159892,1,0,3:2:0:0:
480,32,159973,1,0,3:2:0:0:
480,32,160055,5,6,3:2:0:0:
32,64,160381,1,6,3:2:0:0:
493,10,160707,1,10,0:2:0:0:
18,85,160870,1,10,0:2:0:0:
493,10,161033,1,10,0:2:0:0:
18,85,161196,6,0,B|-16:146|-16:146|13:307,1,215.999993408203,6|2,3:2|3:2,0:0:0:0:
287,312,161685,1,2,3:2:0:0:
61,374,161848,1,2,3:2:0:0:
204,187,162011,1,8,0:2:0:0:
196,237,162092,1,8,0:2:0:0:
188,287,162175,1,8,0:2:0:0:
61,374,162338,1,2,3:2:0:0:
112,136,162501,1,2,3:2:0:0:
480,352,162664,5,6,3:2:0:0:
348,193,162827,1,0,3:2:0:0:
353,225,162908,1,0,3:2:0:0:
359,258,162990,1,10,0:2:0:0:
512,96,163153,1,2,3:2:0:0:
507,128,163234,1,0,3:2:0:0:
501,161,163316,1,10,0:2:0:0:
309,34,163479,1,2,3:2:0:0:
457,249,163642,1,8,0:0:0:0:
309,34,163805,6,0,B|255:16|255:16|136:52,1,161.999995056153,6|0,3:2|0:2,0:0:0:0:
154,46,164131,1,10,0:2:0:0:
104,231,164294,2,0,L|96:284,1,53.9999983520508,2|0,3:2|3:2,0:0:0:0:
384,160,164457,2,0,L|392:100,1,53.9999983520508,10|8,0:0|0:0,0:0:0:0:
18,314,164620,2,0,L|10:367,1,53.9999983520508,10|8,0:0|0:0,0:0:0:0:
415,384,164783,2,0,L|423:324,1,53.9999983520508,10|8,0:0|0:0,0:0:0:0:
190,148,164946,2,0,L|182:201,1,53.9999983520508,2|0,3:2|3:2,0:0:0:0:
322,327,165109,2,0,L|329:273,1,53.9999983520508,2|0,3:2|3:2,0:0:0:0:
257,68,165272,6,0,B|209:50|209:50|151:58,1,107.999996704102,6|0,3:2|0:0,0:0:0:0:
0,221,165598,2,0,B|49:238|49:238|106:231,1,107.999996704102,10|0,0:0|0:0,0:0:0:0:
293,170,165924,1,2,3:2:0:0:
480,352,166088,2,0,L|487:241,1,90,2|8,0:0|0:0,0:0:0:0:
512,72,166414,2,0,P|429:83|300:91,1,180,2|0,0:0|0:0,0:0:0:0:
143,5,166903,1,10,0:2:0:0:
47,101,167066,1,2,0:2:0:0:
310,171,167229,1,2,3:2:0:0:
275,40,167392,1,2,0:2:0:0:
85,233,167555,1,10,0:2:0:0:
215,267,167718,1,2,0:2:0:0:
143,5,167881,6,0,L|32:-2,1,90,6|0,3:2|0:0,0:0:0:0:
0,226,168207,2,0,B|40:244|40:244|85:233,1,90,10|0,0:0|0:0,0:0:0:0:
227,120,168533,1,2,3:2:0:0:
416,224,168696,2,0,L|409:335,1,90,2|8,0:0|0:0,0:0:0:0:
194,384,169022,2,0,P|185:308|162:176,1,180,2|0,0:0|0:0,0:0:0:0:
235,5,169511,1,10,0:2:0:0:
331,101,169674,1,2,0:2:0:0:
68,171,169837,1,2,3:2:0:0:
103,40,170000,1,2,0:2:0:0:
293,233,170163,1,10,0:2:0:0:
163,267,170326,1,2,0:2:0:0:
235,5,170490,6,0,L|346:0,1,90,6|0,3:2|0:0,0:0:0:0:
512,128,170816,2,0,L|423:134,1,90,10|0,0:2|0:0,0:0:0:0:
235,5,171142,1,2,3:2:0:0:
203,227,171305,2,0,L|314:234,1,90,2|8,0:2|0:0,0:0:0:0:
512,384,171631,2,0,P|429:373|300:365,1,180,2|0,0:0|0:0,0:0:0:0:
96,379,172120,1,10,0:2:0:0:
160,128,172283,1,2,0:0:0:0:
96,379,172446,2,0,B|52:388|52:388|-11:363,1,90,2|0,3:2|0:0,0:0:0:0:
74,120,172772,2,0,B|118:111|118:111|160:128,1,90,10|0,0:2|0:0,0:0:0:0:
288,320,173098,6,0,L|343:316,1,45,6|0,3:2|0:0,0:0:0:0:
512,176,173261,1,8,0:0:0:0:
467,168,173343,1,8,0:0:0:0:
422,160,173424,1,8,0:0:0:0:
377,152,173506,1,8,0:0:0:0:
332,144,173588,6,0,L|287:146,1,45,6|0,3:2|3:2,0:0:0:0:
96,256,173751,1,0,3:2:0:0:
89,220,173832,1,0,3:2:0:0:
82,184,173914,1,0,3:2:0:0:
75,148,173995,1,0,3:2:0:0:
68,112,174077,6,0,L|73:68,1,45,6|0,3:2|3:2,0:0:0:0:
305,1,174240,1,0,3:2:0:0:
312,37,174321,1,0,3:2:0:0:
319,73,174403,1,0,3:2:0:0:
326,109,174484,1,0,3:2:0:0:
333,145,174566,6,0,L|328:189,1,45,6|0,3:2|3:2,0:0:0:0:
239,356,174729,1,0,3:2:0:0:
275,363,174810,1,0,3:2:0:0:
311,370,174892,1,0,3:2:0:0:
347,377,174973,1,0,3:2:0:0:
383,384,175055,6,0,L|427:379,1,45,6|8,3:2|0:2,0:0:0:0:
512,211,175218,1,0,3:2:0:0:
477,203,175300,1,0,3:2:0:0:
442,195,175381,1,0,3:2:0:0:
407,187,175463,1,0,3:2:0:0:
372,179,175544,1,0,3:2:0:0:
337,171,175626,1,0,3:2:0:0:
302,163,175707,6,0,B|246:180|212:175|212:175|175:215|175:215|125:202|57:222,1,251.999992309571,6|0,3:2|3:0,0:0:0:0:
0,64,176196,1,8,0:0:0:0:
3,51,176278,1,8,0:0:0:0:
21,32,176359,1,8,3:2:0:0:
59,29,176441,1,8,0:0:0:0:
108,39,176522,1,8,0:0:0:0:
145,90,176604,1,8,0:0:0:0:
202,129,176685,1,8,3:2:0:0:
278,132,176767,1,8,0:0:0:0:
341,79,176848,1,8,0:0:0:0:
427,53,176930,1,8,0:0:0:0:
512,94,177011,5,14,3:2:0:0:
479,281,177175,1,2,0:0:0:0:
479,281,177501,1,2,0:0:0:0:
479,281,177827,1,2,0:0:0:0:
479,281,178316,5,6,3:2:0:0:
192,224,178479,1,2,0:0:0:0:
430,368,178642,1,10,0:0:0:0:
373,81,178805,1,2,0:2:0:0:
430,368,178968,2,0,L|326:375,1,90,2|0,3:2|3:2,0:0:0:0:
153,178,179294,1,10,0:2:0:0:
440,235,179457,1,2,0:0:0:0:
202,91,179620,1,2,3:2:0:0:
259,378,179783,1,2,3:2:0:0:
202,91,179946,2,0,L|306:84,1,90,10|0,0:2|3:2,0:0:0:0:
81,375,180272,6,0,P|67:293|54:247,1,116.999994644165,6|0,3:2|0:0,0:0:0:0:
431,9,180598,2,0,P|445:91|458:137,1,116.999994644165,14|0,0:2|0:0,0:0:0:0:
0,47,180925,6,0,L|176:81,1,180,6|8,3:2|0:0,0:0:0:0:
176,81,181414,1,2,0:0:0:0:
128,320,181577,1,2,3:2:0:0:
299,152,181740,1,0,3:2:0:0:
106,196,181903,1,8,0:0:0:0:
378,360,182066,1,2,3:2:0:0:
408,349,182147,1,2,3:2:0:0:
438,338,182229,6,0,L|472:161,1,180,6|8,3:2|0:0,0:0:0:0:
471,161,182718,1,2,3:2:0:0:
352,0,182881,1,2,3:2:0:0:
497,77,183044,1,0,3:2:0:0:
298,71,183207,2,0,L|194:64,1,90,10|0,0:2|0:2,0:0:0:0:
32,160,183533,5,6,3:2:0:0:
301,244,183696,1,2,0:2:0:0:
132,19,183859,1,10,0:0:0:0:
136,300,184022,1,2,0:2:0:0:
298,71,184185,2,0,L|402:64,1,90,2|0,3:2|3:2,0:0:0:0:
512,243,184511,1,10,0:2:0:0:
243,159,184674,1,2,3:2:0:0:
412,384,184837,1,2,3:2:0:0:
408,103,185000,1,2,3:2:0:0:
246,332,185164,2,0,L|142:339,1,90,10|0,0:2|3:2,0:0:0:0:
187,107,185490,5,6,3:2:0:0:
323,277,185653,1,0,3:2:0:0:
18,241,185816,1,14,0:0:0:0:
494,145,185979,1,8,0:0:0:0:
96,384,186142,6,0,L|129:206,1,180,6|8,3:2|0:0,0:0:0:0:
128,207,186631,1,2,0:0:0:0:
29,7,186794,1,2,3:2:0:0:
8,142,186957,1,0,3:2:0:0:
149,72,187120,1,0,3:2:0:0:
411,263,187283,1,8,0:2:0:0:
367,270,187364,1,8,0:0:0:0:
323,277,187446,5,14,3:2:0:0:
512,32,187609,1,6,3:2:0:0:
505,76,187935,1,6,3:2:0:0:
498,120,188261,1,6,3:2:0:0:
224,0,188424,1,8,0:0:0:0:
374,334,188588,6,0,B|408:281|408:281|386:170,1,175.499991966248,6|2,3:2|3:2,0:0:0:0:
345,105,188914,1,2,3:2:0:0:
304,366,189077,1,10,0:0:0:0:
512,200,189240,1,2,0:2:0:0:
248,268,189403,2,0,L|144:261,1,90,2|0,3:2|3:2,0:0:0:0:
0,144,189729,1,10,0:0:0:0:
64,384,189892,1,2,3:2:0:0:
208,176,190055,1,2,3:2:0:0:
64,384,190218,1,2,3:2:0:0:
346,304,190381,2,0,L|339:200,1,90,8|0,3:2|3:2,0:0:0:0:
81,9,190707,6,0,P|67:91|54:137,1,116.999994644165,6|0,3:2|3:2,0:0:0:0:
431,375,191033,2,0,P|445:293|458:247,1,116.999994644165,14|0,0:2|3:2,0:0:0:0:
0,337,191359,6,0,L|176:303,1,180,6|8,3:2|0:0,0:0:0:0:
176,302,191848,1,2,0:0:0:0:
256,96,192011,1,2,0:0:0:0:
91,174,192174,1,0,3:2:0:0:
352,156,192338,1,8,0:0:0:0:
117,5,192501,1,0,3:2:0:0:
33,237,192664,6,0,B|77:258|77:258|194:242,1,161.999995056153,6|0,3:2|0:2,0:2:0:0:
352,156,192990,2,0,B|401:54|401:54|394:5,1,161.999995056153,6|0,3:2|0:2,0:2:0:0:
117,5,193316,2,0,B|110:54|110:54|160:156,1,161.999995056153,6|0,3:2|0:2,0:2:0:0:
322,242,193642,2,0,B|435:258|435:258|479:237,1,161.999995056153,6|0,3:2|0:2,0:2:0:0:
485,130,193968,6,0,L|345:157,1,135,6|0,3:2|0:0,0:0:0:0:
250,164,194294,2,0,L|152:155,1,90,8|0,0:2|0:2,0:0:0:0:
32,0,194620,1,2,3:2:0:0:
208,64,194783,1,0,3:2:0:0:
32,192,194946,2,0,L|41:290,1,90,8|0,0:2|0:2,0:0:0:0:
265,384,195191,1,8,0:0:0:0:
301,384,195272,6,0,L|335:207,1,180,6|8,3:2|0:0,0:0:0:0:
416,32,195761,1,0,3:2:0:0:
480,192,195924,1,2,3:2:0:0:
288,16,196088,1,0,3:2:0:0:
116,207,196251,1,10,0:0:0:0:
124,251,196332,1,8,0:0:0:0:
132,295,196414,1,8,0:0:0:0:
140,339,196495,1,8,0:0:0:0:
148,383,196577,5,6,3:2:0:0:
192,64,196740,1,10,0:0:0:0:
0,316,196903,1,2,3:2:0:0:
319,360,197066,2,0,L|417:351,1,90,2|0,3:2|3:2,0:0:0:0:
270,129,197392,1,0,3:2:0:0:
263,160,197473,1,0,3:2:0:0:
256,192,197555,5,6,3:2:0:0:
480,96,197718,1,10,0:0:0:0:
195,39,197881,2,0,L|253:33,1,45,2|0,3:2|3:2,0:0:0:0:
512,0,198044,1,2,3:2:0:0:
448,192,198207,1,0,3:2:0:0:
417,185,198288,1,0,3:2:0:0:
385,178,198370,1,2,3:2:0:0:
81,41,198533,5,8,0:2:0:0:
93,92,198615,1,8,0:2:0:0:
106,144,198696,1,8,0:2:0:0:
119,195,198778,1,8,0:2:0:0:
132,247,198859,1,0,3:2:0:0:
148,231,198941,1,0,3:2:0:0:
163,215,199022,1,0,3:2:0:0:
179,199,199104,1,0,3:2:0:0:
195,183,199185,6,0,L|293:192,1,90,2|0,3:2|3:2,0:0:0:0:
284,191,199430,1,0,3:2:0:0:
284,191,199511,1,0,3:2:0:0:
480,160,199674,1,2,3:2:0:0:
486,138,199756,1,2,3:2:0:0:
492,116,199838,2,0,L|483:57,3,45,2|0|0|0,3:2|3:2|3:2|3:2,0:2:0:0:
322,0,200164,1,2,3:2:0:0:
328,22,200246,1,2,3:2:0:0:
334,44,200328,2,0,L|325:103,3,45,2|0|0|0,3:2|3:2|3:2|3:2,0:2:0:0:
149,112,200653,1,2,3:2:0:0:
155,90,200735,1,2,3:2:0:0:
161,68,200817,2,0,L|152:9,3,45,2|0|0|0,3:2|3:2|3:2|3:2,0:2:0:0:
0,170,201142,5,0,3:2:0:0:
22,175,201224,1,0,3:2:0:0:
44,179,201305,1,0,3:2:0:0:
67,183,201387,1,0,3:2:0:0:
93,205,201468,1,0,3:2:0:0:
115,200,201550,1,0,3:2:0:0:
137,196,201631,1,0,3:2:0:0:
159,192,201713,1,0,3:2:0:0:
185,170,201794,5,2,3:2:0:0:
218,177,201876,1,2,3:2:0:0:
251,184,201957,2,0,L|310:175,3,45,2|0|0|0,3:2|3:2|3:2|3:2,0:2:0:0:
474,255,202283,1,2,3:2:0:0:
441,262,202365,1,2,3:2:0:0:
408,269,202446,2,0,L|349:260,3,45,2|0|0|0,3:2|3:2|3:2|3:2,0:2:0:0:
195,369,202772,1,2,3:2:0:0:
228,376,202854,1,2,3:2:0:0:
261,383,202935,2,0,L|320:374,1,45,2|0,3:2|3:2,0:2:0:0:
474,376,203098,6,0,L|483:317,1,45,2|0,3:2|3:2,0:2:0:0:
408,269,203261,2,0,L|399:210,1,45,2|0,3:2|3:2,0:2:0:0:
474,162,203424,2,0,L|483:103,1,45,2|0,3:2|3:2,0:2:0:0:
408,55,203588,2,0,L|399:-4,1,45,2|0,3:2|3:2,0:2:0:0:
233,11,203751,6,0,L|224:70,1,45,2|0,3:2|3:2,0:2:0:0:
299,118,203914,2,0,L|308:177,1,45,2|0,3:2|3:2,0:2:0:0:
233,225,204077,2,0,L|224:284,1,45,2|0,3:2|3:2,0:2:0:0:
299,332,204241,2,0,L|308:391,1,45,2|0,3:2|3:2,0:2:0:0:
74,365,204403,5,2,3:2:0:0:
61,321,204485,1,2,3:2:0:0:
49,277,204566,2,0,L|55:232,3,45,2|0|0|0,3:2|3:2|3:2|3:2,0:2:0:0:
156,29,204892,1,2,3:2:0:0:
143,73,204974,1,2,3:2:0:0:
131,117,205055,2,0,L|137:161,3,45,2|0|0|0,3:2|3:2|3:2|3:2,0:2:0:0:
252,357,205381,1,2,3:2:0:0:
239,313,205463,1,2,3:2:0:0:
227,269,205544,2,0,L|233:224,3,45,2|0|0|0,3:2|3:2|3:2|3:2,0:2:0:0:
348,29,205870,5,2,3:2:0:0:
335,73,205952,1,2,3:2:0:0:
323,117,206033,2,0,L|351:303,1,180,2|8,3:2|3:2,0:2:0:0:
338,314,206441,1,8,0:0:0:0:
315,335,206522,1,8,0:0:0:0:
279,355,206604,1,8,0:0:0:0:
230,365,206685,1,8,3:2:0:0:
172,350,206767,1,8,0:0:0:0:
120,306,206848,6,0,L|115:255,1,45,10|8,0:0|0:0,0:0:0:0:
192,0,207011,2,0,L|196:44,1,45,10|8,0:0|0:0,0:0:0:0:
309,189,207174,1,0,0:0:0:0:
3,117,207338,1,0,3:2:0:0:
353,181,207501,1,8,0:0:0:0:
397,174,207583,1,8,0:0:0:0:
441,167,207664,5,10,0:0:0:0:
192,0,207827,1,2,3:2:0:0:
295,277,207990,1,8,0:0:0:0:
302,233,208072,1,8,0:0:0:0:
309,189,208153,1,8,0:0:0:0:
316,145,208235,1,8,0:0:0:0:
323,101,208316,5,2,3:2:0:0:
90,14,208479,1,8,0:0:0:0:
97,58,208561,1,8,0:0:0:0:
104,102,208642,1,10,0:0:0:0:
192,256,208805,1,0,3:2:0:0:
304,8,208968,6,0,P|345:12|394:29,1,71.9999978027344,10|0,3:2|0:0,0:0:0:0:
339,212,209185,2,0,P|324:179|316:145,1,71.9999978027344,10|0,3:2|0:0,0:0:0:0:
499,80,209403,2,0,P|474:113|434:147,1,71.9999978027344,10|0,3:2|0:0,0:0:0:0:
224,80,209620,5,6,3:2:0:0:
96,32,209783,1,0,3:2:0:0:
10,138,209946,1,0,3:2:0:0:
84,252,210109,1,0,3:2:0:0:
224,80,210272,2,0,L|410:68,1,180,10|0,0:0|3:2,0:0:0:0:
507,303,210761,2,0,L|512:213,1,90,10|0,0:0|3:2,0:0:0:0:
288,384,211088,2,0,L|282:294,1,90,2|0,3:2|3:2,0:0:0:0:
434,156,211414,1,2,3:2:0:0:
173,257,211577,2,0,L|84:252,1,90,14|0,0:0|3:2,0:0:0:0:
0,32,211903,2,0,L|89:37,1,90,6|0,3:2|3:2,0:0:0:0:
320,0,212229,6,0,L|317:44,1,45,6|0,3:2|3:2,0:0:0:0:
347,248,212392,1,2,3:2:0:0:
472,286,212555,1,0,3:2:0:0:
512,161,212718,1,0,3:2:0:0:
385,121,212881,2,0,L|340:123,1,45,10|0,0:2|3:2,0:0:0:0:
220,279,213044,1,2,3:2:0:0:
95,317,213207,1,0,3:2:0:0:
55,192,213370,2,0,L|49:102,1,90,10|0,0:2|3:2,0:0:0:0:
224,0,213696,2,0,L|229:89,1,90,2|0,3:2|3:2,0:0:0:0:
347,248,214022,1,2,3:2:0:0:
128,32,214185,5,10,0:0:0:0:
96,320,214348,1,8,0:0:0:0:
416,64,214511,1,10,0:0:0:0:
388,356,214674,1,8,0:0:0:0:
388,356,215001,5,0,3:2:0:0:
256,193,215164,1,2,3:2:0:0:
506,249,215327,2,0,L|512:160,1,90,2|8,3:2|0:2,0:0:0:0:
416,0,215653,1,2,0:0:0:0:
322,274,215816,2,0,L|232:279,1,90,2|8,3:2|0:2,0:0:0:0:
32,224,216142,1,2,3:2:0:0:
192,64,216305,2,0,L|186:153,1,90,2|0,3:2|3:2,0:0:0:0:
112,336,216631,1,2,3:2:0:0:
32,64,216794,5,6,3:2:0:0:
32,64,216957,1,0,3:2:0:0:
448,128,217120,1,6,3:2:0:0:
448,128,217283,1,0,3:2:0:0:
224,384,217446,5,6,3:2:0:0:
224,384,217528,1,0,3:2:0:0:
224,384,217609,1,0,3:2:0:0:
448,320,217772,1,0,3:2:0:0:
192,224,217935,1,2,3:2:0:0:
442,39,218098,2,0,L|448:128,1,90,10|0,0:2|0:2,0:0:0:0:
337,352,218424,1,2,3:2:0:0:
213,133,218588,2,0,L|124:127,1,90,10|0,0:2|0:2,0:0:0:0:
0,256,218914,1,2,3:2:0:0:
244,384,219077,2,0,L|250:295,1,90,10|0,0:2|0:2,0:0:0:0:
224,32,219403,1,0,3:2:0:0:
224,32,219566,1,0,3:2:0:0:
512,96,219729,6,0,B|457:123|457:123|331:93,1,175.499991966248,14|0,0:0|0:0,0:0:0:0:
256,128,220055,5,6,3:2:0:0:
207,255,220218,1,0,3:2:0:0:
313,342,220381,1,0,3:2:0:0:
427,268,220544,1,0,3:2:0:0:
256,128,220707,2,0,L|57:136,1,180,10|0,0:0|3:2,0:0:0:0:
313,342,221196,2,0,L|316:252,1,90,10|0,0:0|3:2,0:0:0:0:
64,384,221522,2,0,L|60:294,1,90,2|0,3:2|3:2,0:0:0:0:
165,97,221848,1,0,3:2:0:0:
448,352,222011,1,14,0:2:0:0:
448,352,222174,1,0,3:2:0:0:
480,32,222338,1,2,3:2:0:0:
512,192,222501,1,2,3:2:0:0:
296,3,222664,6,0,L|252:0,1,45,6|0,3:2|3:2,0:0:0:0:
39,59,222827,1,2,3:2:0:0:
1,184,222990,1,0,3:2:0:0:
126,224,223153,1,0,3:2:0:0:
165,97,223316,2,0,L|210:95,1,45,10|0,0:2|3:2,0:0:0:0:
410,142,223479,1,2,3:2:0:0:
448,267,223642,1,0,3:2:0:0:
323,307,223805,2,0,L|205:301,1,90,10|0,0:2|3:2,0:0:0:0:
0,240,224131,2,0,L|117:234,1,90,2|0,3:2|3:2,0:0:0:0:
256,192,224457,1,2,3:2:0:0:
96,64,224620,5,10,0:0:0:0:
384,32,224783,1,8,0:0:0:0:
124,356,224946,1,10,0:0:0:0:
420,324,225109,1,8,0:0:0:0:
420,324,225435,5,0,3:2:0:0:
256,192,225598,1,2,3:2:0:0:
124,356,225761,2,0,L|6:350,1,90,2|8,3:2|0:2,0:0:0:0:
128,160,226088,1,2,3:2:0:0:
330,327,226251,2,0,L|420:324,1,90,2|8,3:2|0:2,0:0:0:0:
512,160,226577,1,2,3:2:0:0:
352,0,226740,2,0,L|349:90,1,90,2|0,3:2|3:2,0:0:0:0:
467,242,227066,1,2,3:2:0:0:
256,32,227229,1,14,0:0:0:0:
256,32,227392,1,0,3:2:0:0:
324,237,227555,1,2,3:2:0:0:
471,89,227718,1,2,3:2:0:0:
109,180,227881,6,0,L|60:175,1,45,6|0,3:2|3:2,0:0:0:0:
0,32,228044,2,0,L|98:42,1,90,2|0,3:2|3:2,0:0:0:0:
256,32,228370,1,2,3:2:0:0:
118,269,228533,2,0,L|109:180,1,90,10|0,0:2|0:2,0:0:0:0:
384,0,228859,2,0,L|371:115,1,116.999994644165,2|8,3:2|0:2,0:0:0:0:
416,320,229185,5,2,3:2:0:0:
507,75,229348,1,2,3:2:0:0:
507,75,229511,1,8,0:0:0:0:
267,303,229674,1,2,3:2:0:0:
512,212,229837,1,2,3:2:0:0:
512,212,230000,1,0,3:2:0:0:
238,68,230164,1,10,0:0:0:0:
194,61,230246,1,8,0:0:0:0:
150,54,230327,1,8,0:0:0:0:
106,47,230409,1,8,0:0:0:0:
62,40,230490,6,0,P|18:47|-7:56,2,60,6|2|2,3:2|0:0|0:0,0:0:0:0:
157,143,230816,2,0,P|200:150|226:159,2,60,2|2|2,3:2|0:0|0:0,0:0:0:0:
32,256,231142,1,2,3:2:0:0:
160,384,231305,2,0,L|217:381,1,45,10|2,0:0|0:0,0:0:0:0:
352,320,231468,5,2,3:2:0:0:
384,304,231577,2,0,P|391:275|396:245,1,60,2|2,0:2|0:0,0:0:0:0:
512,28,231794,1,2,3:2:0:0:
495,109,231903,2,0,P|466:116|436:121,1,60,2|2,0:2|0:0,0:0:0:0:
260,88,232120,5,2,3:2:0:0:
234,214,232229,1,2,0:0:0:0:
356,173,232338,1,2,0:0:0:0:
255,73,232446,5,2,3:2:0:0:
224,225,232555,1,2,0:0:0:0:
370,175,232664,1,2,0:0:0:0:
250,59,232772,5,2,3:2:0:0:
244,44,232854,2,0,L|173:35,1,45,2|8,3:2|0:0,0:0:0:0:
40,36,233017,1,2,0:0:0:0:
40,36,233098,5,2,3:2:0:0:
11,81,233179,1,2,0:0:0:0:
0,134,233261,1,10,0:0:0:0:
8,187,233342,1,2,0:0:0:0:
73,257,233424,5,2,3:2:0:0:
118,228,233505,1,2,0:0:0:0:
171,217,233587,1,10,0:0:0:0:
224,225,233668,1,2,0:0:0:0:
304,285,233751,5,2,3:2:0:0:
349,314,233832,1,2,0:0:0:0:
402,325,233914,1,10,0:0:0:0:
455,317,233995,1,2,0:0:0:0:
510,239,234077,6,0,L|506:188,1,45,2|0,3:2|0:0,0:0:0:0:
414,56,234240,2,0,L|417:100,1,45,10|0,0:2|0:0,0:0:0:0:
490,226,234403,6,0,L|486:175,1,45,2|0,3:2|3:2,0:0:0:0:
394,43,234566,2,0,L|397:87,1,45,10|0,0:2|0:0,0:0:0:0:
349,314,234729,5,2,3:2:0:0:
288,64,234892,1,8,0:0:0:0:
222,329,235055,5,2,3:2:0:0:
151,43,235218,1,8,0:0:0:0:
93,343,235381,5,2,3:2:0:0:
15,22,235544,1,8,0:0:0:0:
319,190,235707,6,0,L|378:196,1,45,6|0,3:2|0:0,0:0:0:0:
512,36,235870,1,8,0:0:0:0:
462,27,235952,1,8,0:0:0:0:
412,18,236033,1,8,0:0:0:0:
362,9,236115,1,8,0:0:0:0:
312,0,236196,6,0,L|267:4,1,45,6|0,3:2|3:2,0:0:0:0:
116,155,236359,1,0,3:2:0:0:
109,191,236440,1,0,3:2:0:0:
102,227,236522,1,0,3:2:0:0:
95,263,236603,1,0,3:2:0:0:
88,299,236685,6,0,L|93:343,1,45,6|0,3:2|3:2,0:0:0:0:
297,379,236848,1,0,3:2:0:0:
304,343,236929,1,0,3:2:0:0:
311,307,237011,1,0,3:2:0:0:
318,271,237092,1,0,3:2:0:0:
325,235,237174,6,0,L|320:191,1,45,6|0,3:2|3:2,0:0:0:0:
221,36,237338,1,0,3:2:0:0:
257,29,237419,1,0,3:2:0:0:
293,22,237501,1,0,3:2:0:0:
329,15,237582,1,0,3:2:0:0:
365,8,237664,6,0,L|409:13,3,45,6|8|0|0,3:2|0:2|3:2|3:2,0:0:0:0:
497,182,237990,1,2,3:2:0:0:
504,218,238071,1,0,3:2:0:0:
511,254,238153,2,0,L|506:298,1,45,0|0,3:2|3:2,0:0:0:0:
256,384,238316,6,0,B|260:293|260:293|296:252|296:252|303:127,1,251.999992309571,6|0,3:2|3:0,0:0:0:0:
289,117,238723,1,0,3:2:0:0:
265,95,238805,1,0,3:2:0:0:
235,85,238886,1,0,3:2:0:0:
203,83,238968,1,0,3:2:0:0:
166,107,239049,1,0,3:2:0:0:
146,146,239131,1,0,3:2:0:0:
148,190,239213,1,0,3:2:0:0:
173,225,239294,1,0,3:2:0:0:
197,276,239376,1,0,3:2:0:0:
196,332,239457,1,0,3:2:0:0:
163,378,239539,1,0,3:2:0:0:
106,380,239620,5,8,3:2:0:0:
50,349,239702,1,8,0:2:0:0:
34,288,239783,1,8,0:2:0:0:
59,230,239865,1,8,0:2:0:0:
117,206,239946,1,8,3:2:0:0:
190,224,240028,1,8,0:2:0:0:
251,266,240109,1,8,0:2:0:0:
326,274,240191,1,8,0:2:0:0:
397,251,240272,1,8,3:2:0:0:
451,189,240354,1,8,0:2:0:0:
451,107,240435,1,8,0:2:0:0:
409,35,240517,1,8,0:2:0:0:
332,7,240598,1,8,3:2:0:0:
308,92,240680,1,8,0:0:0:0:
284,176,240761,1,8,0:0:0:0:
261,261,240843,1,8,0:0:0:0:
239,346,240924,1,2,0:0:0:0:
0,225,243207,5,8,0:3:0:0:
0,225,243533,6,0,L|176:259,1,180,6|8,3:2|0:0,0:0:0:0:
176,259,244022,1,2,0:2:0:0:
358,143,244185,1,2,3:2:0:0:
226,137,244348,1,0,3:2:0:0:
307,265,244511,1,8,0:2:0:0:
409,21,244674,1,2,3:2:0:0:
439,32,244756,1,2,3:2:0:0:
469,43,244837,6,0,L|503:220,1,180,6|8,3:2|0:0,0:0:0:0:
502,219,245327,1,2,0:0:0:0:
384,384,245490,1,2,3:2:0:0:
512,320,245653,1,0,3:2:0:0:
306,320,245816,2,0,L|216:326,1,90,8|0,0:0|0:0,0:0:0:0:
32,384,246142,5,6,3:2:0:0:
92,127,246305,1,2,0:0:0:0:
124,355,246468,1,10,0:2:0:0:
0,98,246631,1,2,3:2:0:0:
216,326,246794,2,0,L|306:320,1,90,2|0,3:2|3:2,0:0:0:0:
458,92,247120,1,10,0:2:0:0:
398,349,247283,1,2,3:2:0:0:
366,121,247446,1,2,3:2:0:0:
490,378,247609,1,2,3:2:0:0:
273,149,247772,2,0,L|183:142,1,90,10|0,0:2|3:2,0:0:0:0:
0,256,248098,5,6,3:2:0:0:
224,288,248261,1,0,3:2:0:0:
64,0,248424,1,14,0:0:0:0:
96,384,248588,1,8,0:0:0:0:
414,1,248751,6,0,L|238:35,1,180,6|8,3:2|0:0,0:0:0:0:
237,35,249240,1,2,0:0:0:0:
173,202,249403,1,2,3:2:0:0:
333,124,249566,1,0,3:2:0:0:
95,42,249729,1,0,3:2:0:0:
13,280,249892,1,8,0:0:0:0:
6,235,249973,1,8,0:0:0:0:
0,190,250055,5,14,0:0:0:0:
193,384,250218,1,6,3:2:0:0:
237,377,250544,1,6,3:2:0:0:
281,370,250870,1,6,3:2:0:0:
320,32,251033,1,8,0:0:0:0:
512,315,251196,6,0,B|459:349|459:349|337:325,1,175.499991966248,6|2,3:2|3:2,0:0:0:0:
283,286,251522,1,2,3:2:0:0:
224,0,251685,1,10,0:0:0:0:
443,268,251848,1,2,0:0:0:0:
148,67,252011,2,0,L|41:74,1,90,2|0,3:2|3:2,0:0:0:0:
0,256,252338,1,10,0:0:0:0:
296,168,252501,1,2,3:2:0:0:
160,382,252664,1,2,3:2:0:0:
148,67,252827,1,2,3:2:0:0:
160,382,252990,2,0,L|266:389,1,90,10|0,0:2|3:2,0:0:0:0:
22,141,253316,6,0,P|14:199|0:256,1,116.999994644165,6|0,3:2|3:2,0:0:0:0:
489,242,253642,2,0,P|497:184|512:128,1,116.999994644165,14|0,0:2|3:2,0:0:0:0:
80,0,253968,6,0,L|114:177,1,180,6|8,3:2|0:0,0:0:0:0:
113,176,254457,1,2,0:0:0:0:
256,0,254620,1,2,3:2:0:0:
63,88,254783,1,0,3:2:0:0:
306,88,254946,1,8,0:0:0:0:
13,0,255109,1,0,3:2:0:0:
86,250,255272,6,0,B|138:293|138:293|246:281,1,175.499991966248,6|0,3:2|0:0,0:0:0:0:
424,130,255598,2,0,B|372:87|372:87|265:100,1,175.499991966248,14|0,3:2|0:0,0:0:0:0:
315,357,255924,2,0,B|358:305|358:305|346:198,1,175.499991966248,6|0,3:2|0:0,0:0:0:0:
195,22,256251,2,0,B|152:74|152:74|165:182,1,175.499991966248,14|0,3:2|0:0,0:0:0:0:
315,357,256577,6,0,L|459:342,1,135,6|0,3:2|0:0,0:0:0:0:
503,289,256903,2,0,L|513:188,1,90,8|0,0:2|0:0,0:0:0:0:
448,0,257229,1,2,3:2:0:0:
384,224,257392,1,0,3:2:0:0:
284,30,257555,2,0,L|195:22,1,90,8|0,0:2|0:0,0:0:0:0:
20,170,257799,1,8,0:0:0:0:
0,192,257881,6,0,L|222:172,1,180,6|8,3:2|0:0,0:0:0:0:
384,224,258370,1,0,3:2:0:0:
288,64,258533,1,2,3:2:0:0:
224,288,258696,1,0,3:2:0:0:
480,93,258859,1,10,0:2:0:0:
488,137,258941,1,8,0:0:0:0:
496,181,259022,1,8,0:0:0:0:
504,225,259104,1,8,0:0:0:0:
512,269,259185,5,6,3:2:0:0:
288,64,259348,1,10,0:0:0:0:
223,361,259511,1,2,3:2:0:0:
0,156,259674,2,0,L|8:67,1,90,2|0,3:2|3:2,0:0:0:0:
192,0,260001,1,0,3:2:0:0:
194,31,260082,1,0,3:2:0:0:
197,62,260164,5,6,3:2:0:0:
496,181,260327,1,8,0:0:0:0:
118,238,260490,2,0,L|160:255,1,45,2|0,3:2|3:2,0:0:0:0:
417,357,260653,1,2,3:2:0:0:
283,192,260816,1,0,3:2:0:0:
285,161,260897,1,0,3:2:0:0:
288,130,260979,1,0,3:2:0:0:
496,0,261142,6,0,L|500:25,1,22.5,10|0,3:2|0:0,0:0:0:0:
492,158,261305,2,0,L|496:183,1,22.5,10|0,3:2|0:0,0:0:0:0:
488,316,261468,2,0,L|492:341,1,22.5,10|0,3:2|0:0,0:0:0:0:
247,384,261631,6,0,B|213:331|213:331|237:209,1,175.499991966248,6|2,3:2|3:2,0:0:0:0:
285,161,261957,1,2,3:2:0:0:
32,288,262120,1,10,0:0:0:0:
160,32,262283,1,2,0:0:0:0:
32,288,262446,2,0,L|24:377,1,90,2|0,3:2|3:2,0:0:0:0:
247,384,262772,1,10,0:0:0:0:
103,167,262935,1,10,0:0:0:0:
103,167,263017,1,8,0:0:0:0:
103,167,263098,1,2,3:2:0:0:
247,384,263261,1,2,3:2:0:0:
433,271,263424,2,0,L|441:182,1,90,10|0,0:2|0:2,0:0:0:0:
191,34,263669,1,8,0:0:0:0:
160,21,263751,6,0,P|102:13|45:-1,1,116.999994644165,6|0,3:2|3:2,0:0:0:0:
352,363,264077,2,0,P|410:371|467:385,1,116.999994644165,6|0,3:2|3:2,0:0:0:0:
0,128,264403,6,0,L|34:305,1,180,6|8,3:2|0:0,0:0:0:0:
34,305,264892,2,0,L|98:313,1,45,10|8,0:0|0:0,0:0:0:0:
288,256,265055,1,2,3:2:0:0:
160,384,265218,1,0,3:2:0:0:
89,180,265381,1,8,0:0:0:0:
320,360,265544,1,2,3:2:0:0:
350,349,265625,1,2,3:2:0:0:
380,338,265707,6,0,L|414:161,1,180,6|8,3:2|0:0,0:0:0:0:
369,99,266115,1,8,0:0:0:0:
296,122,266197,1,10,0:0:0:0:
296,199,266278,1,8,0:0:0:0:
369,223,266360,1,2,3:2:0:0:
512,53,266522,1,0,3:2:0:0:
272,23,266685,2,0,L|130:50,1,135,12|0,0:2|0:0,0:0:0:0:
64,32,267011,5,6,3:2:0:0:
112,240,267174,1,2,3:2:0:0:
56,14,267338,1,10,0:0:0:0:
0,288,267501,1,10,0:0:0:0:
0,288,267582,1,8,0:0:0:0:
0,288,267664,1,2,3:2:0:0:
84,127,267827,1,0,3:2:0:0:
140,353,267990,1,10,0:2:0:0:
366,298,268153,1,10,0:0:0:0:
366,298,268234,1,8,0:0:0:0:
366,298,268316,1,2,3:2:0:0:
112,240,268479,1,2,3:2:0:0:
348,384,268642,2,0,L|437:376,1,90,10|0,0:2|3:2,0:0:0:0:
512,288,268968,5,6,3:2:0:0:
254,321,269131,1,0,3:2:0:0:
463,0,269294,1,14,0:0:0:0:
455,72,269376,1,8,0:0:0:0:
447,144,269457,1,8,0:0:0:0:
439,216,269539,1,8,0:0:0:0:
431,288,269620,6,0,L|254:322,1,180,6|8,3:2|0:0,0:0:0:0:
254,321,270109,1,2,0:0:0:0:
64,128,270272,1,2,3:2:0:0:
32,256,270435,1,0,3:2:0:0:
0,384,270598,1,0,3:2:0:0:
148,73,270761,1,8,0:0:0:0:
154,118,270843,1,8,0:0:0:0:
161,163,270924,5,14,3:2:0:0:
512,0,271088,1,6,3:2:0:0:
505,44,271414,1,6,3:2:0:0:
498,88,271740,1,6,3:2:0:0:
148,73,271903,1,8,0:0:0:0:
288,384,272066,6,0,B|322:331|322:331|300:220,1,175.499991966248,6|2,3:2|3:2,0:0:0:0:
256,160,272392,1,2,3:2:0:0:
64,256,272555,1,2,3:2:0:0:
64,256,272718,1,2,3:2:0:0:
0,64,272881,2,0,L|3:38,1,18,10|8,0:0|0:0,0:0:0:0:
352,0,273207,6,0,L|347:40,1,36,2|0,3:2|3:2,0:0:0:0:
395,100,273370,2,0,L|390:140,1,36,2|0,3:2|3:2,0:0:0:0:
438,200,273533,1,2,3:2:0:0:
512,0,273696,1,10,0:0:0:0:
291,113,273859,1,2,3:2:0:0:
262,108,273941,1,0,3:2:0:0:
233,104,274022,1,0,3:2:0:0:
204,100,274104,1,0,3:2:0:0:
175,96,274185,1,10,0:0:0:0:
32,32,274348,1,0,3:2:0:0:
256,0,274511,1,10,0:0:0:0:
95,242,274674,1,8,0:0:0:0:
89,197,274756,1,8,0:0:0:0:
104,174,274838,5,6,3:2:0:0:
104,174,274919,1,0,3:2:0:0:
104,174,275001,1,0,3:2:0:0:
104,174,275082,1,0,3:2:0:0:
104,174,275164,1,0,3:2:0:0:
104,174,275245,1,0,3:2:0:0:
104,174,275327,2,0,L|170:158,1,36,2|0,3:2|3:2,0:0:0:0:
288,96,275490,1,10,0:0:0:0:
322,383,275653,1,0,3:2:0:0:
447,126,275816,1,8,0:0:0:0:
322,383,275979,1,0,3:2:0:0:
288,96,276142,6,0,B|395:83|395:83|447:126,1,175.499991966248,14|0,3:2|0:0,0:0:0:0:
224,288,276468,2,0,B|117:301|117:301|65:258,1,175.499991966248,14|0,3:2|0:0,0:0:0:0:
352,224,276794,2,0,B|365:331|365:331|322:383,1,175.499991966248,14|0,3:2|0:0,0:0:0:0:
160,160,277120,2,0,B|147:53|147:53|190:1,1,175.499991966248,14|0,3:2|0:0,0:0:0:0:
320,0,277446,5,6,3:2:0:0:
352,224,277609,1,0,3:2:0:0:
512,32,277772,1,8,0:2:0:0:
472,302,277935,1,0,3:2:0:0:
226,79,278098,1,10,0:2:0:0:
266,349,278261,1,0,3:2:0:0:
512,160,278424,2,0,L|423:152,1,90,10|0,0:2|0:2,0:0:0:0:
154,361,278669,1,8,0:0:0:0:
121,365,278751,6,0,L|100:258,1,90,14|0,3:2|3:2,0:0:0:0:
210,0,279077,2,0,L|226:88,1,90,8|0,0:2|3:2,0:0:0:0:
416,224,279403,1,10,0:0:0:0:
96,160,279566,1,0,3:2:0:0:
316,370,279729,1,14,0:0:0:0:
324,298,279811,1,8,0:0:0:0:
332,226,279892,1,8,0:0:0:0:
340,154,279974,1,8,0:0:0:0:
348,82,280055,5,6,3:2:0:0:
37,269,280218,1,10,0:0:0:0:
448,352,280381,1,2,3:2:0:0:
158,17,280544,2,0,L|69:9,1,90,2|0,3:2|3:2,0:0:0:0:
26,174,280870,1,0,3:2:0:0:
60,166,280951,1,0,3:2:0:0:
96,160,281033,5,6,3:2:0:0:
224,384,281196,1,10,0:0:0:0:
303,86,281359,2,0,L|330:133,1,45,2|0,3:2|3:2,0:0:0:0:
431,310,281522,1,2,3:2:0:0:
207,252,281685,1,0,3:2:0:0:
215,218,281766,1,0,3:2:0:0:
221,182,281848,1,0,3:2:0:0:
434,6,282011,6,0,L|423:55,1,40.4999987640381,6|0,3:2|0:0,0:0:0:0:
408,129,282338,6,0,L|497:108,1,67.5000025749208,2|0,0:0|0:0,0:0:0:0:
12,53,282664,5,6,3:2:0:0:
81,274,282827,1,10,0:0:0:0:
0,178,282990,1,2,3:2:0:0:
207,284,283154,1,10,0:0:0:0:
12,53,283316,2,0,L|105:42,1,90,2|8,3:2|0:2,0:2:0:0:
288,128,283642,1,0,3:2:0:0:
101,42,283805,1,8,0:0:0:0:
288,320,283968,5,2,3:2:0:0:
512,288,284131,1,8,0:0:0:0:
224,224,284294,5,2,3:2:0:0:
0,192,284457,1,8,0:0:0:0:
288,128,284620,5,2,3:2:0:0:
512,96,284783,1,8,0:0:0:0:
224,32,284946,5,2,3:2:0:0:
0,0,285109,1,8,0:0:0:0:
120,287,285272,5,2,3:2:0:0:
120,287,285354,1,2,3:2:0:0:
120,287,285435,1,2,3:2:0:0:
288,128,285598,1,2,3:2:0:0:
352,384,285761,1,10,0:0:0:0:
164,166,285924,2,0,L|153:73,1,90,2|8,3:2|0:2,0:2:0:0:
422,0,286251,2,0,L|411:89,1,90,2|8,3:2|0:2,0:2:0:0:
308,323,286577,5,14,3:2:0:0:
303,344,286658,1,2,3:2:0:0:
298,368,286740,2,0,L|246:382,1,45,2|0,3:2|3:2,0:2:0:0:
144,272,286903,1,2,3:2:0:0:
352,161,287066,1,10,0:2:0:0:
38,251,287229,1,14,3:2:0:0:
29,296,287311,1,10,3:2:0:0:
20,340,287392,2,0,L|23:390,1,45,10|0,3:2|3:2,0:2:0:0:
123,155,287555,1,14,3:2:0:0:
114,110,287637,1,10,3:2:0:0:
105,66,287718,2,0,L|109:16,1,45,10|0,3:2|3:2,0:2:0:0:
425,0,287881,6,0,L|417:93,1,90,6|8,3:2|0:2,0:2:0:0:
209,47,288207,1,2,3:2:0:0:
244,41,288289,1,2,3:2:0:0:
280,37,288370,1,10,0:0:0:0:
448,190,288533,1,2,3:2:0:0:
412,185,288615,1,0,3:2:0:0:
376,181,288696,1,8,0:0:0:0:
209,333,288859,1,0,3:2:0:0:
474,271,289022,1,10,0:0:0:0:
256,192,289185,5,2,3:2:0:0:
415,0,289348,1,8,0:0:0:0:
256,192,289511,6,0,L|290:221,1,45,2|0,3:2|3:2,0:0:0:0:
447,351,289674,1,8,0:0:0:0:
256,192,289838,5,2,3:2:0:0:
96,383,290001,1,8,0:0:0:0:
256,192,290164,5,2,3:2:0:0:
64,32,290327,1,8,0:0:0:0:
96,383,290490,6,0,L|188:375,1,90,6|8,3:2|0:2,0:2:0:0:
134,161,290816,1,0,3:2:0:0:
130,196,290897,1,0,3:2:0:0:
127,232,290979,1,8,0:2:0:0:
297,370,291142,1,0,3:2:0:0:
293,335,291223,1,0,3:2:0:0:
290,299,291305,1,8,0:2:0:0:
134,161,291468,1,0,3:2:0:0:
382,240,291631,1,8,0:0:0:0:
140,364,291794,5,6,3:2:0:0:
371,19,291957,1,10,0:0:0:0:
140,364,292120,2,0,L|167:324,1,45,2|0,3:2|3:2,0:0:0:0:
371,19,292283,1,10,0:0:0:0:
512,320,292446,5,10,0:0:0:0:
451,326,292528,1,8,0:0:0:0:
393,332,292609,2,0,L|322:324,1,45,8|8,0:0|0:0,0:0:0:0:
134,161,292772,1,2,3:2:0:0:
173,161,292854,1,0,3:2:0:0:
210,161,292935,2,0,L|273:173,1,45,0|0,3:2|3:2,0:0:0:0:
477,0,293098,6,0,L|371:19,1,107.999996704102,6|10,3:2|0:2,0:0:0:0:
128,0,293424,1,2,3:2:0:0:
359,129,293588,1,10,0:0:0:0:
114,267,293751,2,0,L|134:161,1,107.999996704102,2|8,3:2|0:2,0:0:0:0:
256,0,294077,1,0,3:2:0:0:
295,231,294240,1,10,0:0:0:0:
512,64,294403,5,2,3:2:0:0:
480,384,294566,1,8,0:0:0:0:
384,320,294729,5,2,3:2:0:0:
329,0,294892,1,8,0:2:0:0:
183,0,295055,5,2,3:2:0:0:
128,320,295218,1,8,0:0:0:0:
32,384,295381,5,2,3:2:0:0:
0,64,295544,1,8,0:2:0:0:
364,168,295707,5,2,3:2:0:0:
364,168,295789,1,2,3:2:0:0:
364,168,295870,1,10,0:2:0:0:
128,320,296033,1,0,3:2:0:0:
256,64,296196,1,10,0:0:0:0:
384,352,296359,2,0,L|491:361,1,107.999996704102,2|8,3:2|0:2,0:0:0:0:
512,128,296685,1,2,3:2:0:0:
256,288,296848,1,8,0:0:0:0:
352,32,297011,5,6,3:2:0:0:
359,74,297093,1,2,3:2:0:0:
367,116,297174,1,10,0:2:0:0:
160,32,297338,5,6,3:2:0:0:
153,74,297420,1,2,3:2:0:0:
145,116,297501,1,10,0:2:0:0:
425,299,297664,5,14,0:2:0:0:
435,248,297745,1,10,3:2:0:0:
443,198,297827,1,10,3:2:0:0:
87,299,297990,5,14,0:2:0:0:
77,248,298071,1,10,3:2:0:0:
69,198,298153,1,10,3:2:0:0:
168,0,298316,5,2,3:2:0:0:
256,288,298479,1,8,0:0:0:0:
352,32,298642,1,2,3:2:0:0:
310,39,298724,1,2,3:2:0:0:
268,47,298805,1,10,0:2:0:0:
393,241,298968,1,2,3:2:0:0:
435,248,299050,1,0,3:2:0:0:
477,256,299131,1,8,0:2:0:0:
512,64,299294,1,0,3:2:0:0:
288,186,299457,1,10,0:0:0:0:
483,345,299620,6,0,L|477:256,1,90,2|0,3:2|3:2,0:0:0:0:
357,103,299946,2,0,L|352:32,1,72,14|0,0:0|0:0,0:0:0:0:
256,318,300272,2,0,L|251:255,1,53.9999983520508,10|0,0:3|3:3,0:0:0:0:
128,160,300598,2,0,L|124:116,1,36,6|0,0:3|0:3,0:0:0:0:
0,384,300924,5,6,3:2:0:0:
226,0,302229,5,2,3:2:0:0:
162,95,302338,2,0,P|164:143|170:176,1,60,10|10,0:0|0:0,0:0:0:0:
427,151,302555,5,2,3:2:0:0:
353,98,302664,2,0,P|304:100|271:106,1,60,10|10,0:3|0:3,0:0:0:0:
304,347,302881,5,2,3:2:0:0:
350,289,302990,2,0,P|347:240|341:207,1,60,6|6,0:3|0:3,0:0:0:0:
132,267,303207,5,2,3:2:0:0:
159,286,303316,2,0,P|207:283|240:277,1,60,2|2,3:2|3:2,0:0:0:0:
427,151,303533,6,0,L|434:48,1,90,14|0,0:2|3:2,0:0:0:0:
155,5,303859,2,0,L|162:95,1,90,14|0,0:0|3:2,0:0:0:0:
256,320,304185,1,10,0:0:0:0:
304,80,304348,1,6,0:3:0:0:
304,80,304511,1,4,0:3:0:0:
23,235,304674,6,0,B|88:224|88:224|123:238|123:238|205:224,1,180,6|0,3:2|3:2,0:0:0:0:
453,309,305164,5,8,0:0:0:0:
473,250,305245,1,8,0:0:0:0:
415,229,305326,1,8,0:0:0:0:
394,287,305408,1,8,0:0:0:0:
434,269,305490,5,2,3:2:0:0:
436,255,305571,1,0,3:2:0:0:
438,241,305653,1,0,3:2:0:0:
440,227,305734,1,0,3:2:0:0:
442,213,305816,1,0,3:2:0:0:
444,199,305897,1,0,3:2:0:0:
446,185,305979,1,0,3:2:0:0:
448,171,306060,1,0,3:2:0:0:
451,157,306142,5,2,3:2:0:0:
384,0,306305,1,2,3:2:0:0:
224,128,306468,2,0,L|131:119,1,90,10|0,0:0|3:2,0:0:0:0:
0,0,306794,1,10,0:0:0:0:
32,288,306957,1,2,3:2:0:0:
416,128,307446,5,6,3:2:0:0:
256,192,307528,12,0,312664,0:0:0:0:
