osu file format v14

[General]
AudioFilename: audio.mp3
AudioLeadIn: 0
PreviewTime: 60423
Countdown: 0
SampleSet: Soft
StackLeniency: 0.7
Mode: 3
LetterboxInBreaks: 0
SpecialStyle: 0
WidescreenStoryboard: 0

[Editor]
Bookmarks: 5554,20712,30817,40923,51028,115449,125554
DistanceSpacing: 1
BeatDivisor: 4
GridSize: 8
TimelineZoom: 2.1

[Metadata]
Title:Ikitsuku Saki -Opening Size-
TitleUnicode:行き着く先 -Opening Size-
Artist:Falcom Sound Team jdk feat. Sasaka Megumi
ArtistUnicode:Falcom Sound Team jdk feat. 佐坂めぐみ
Creator:FerdiXIA-
Version:Spirit Unification
Source:英雄伝説 閃の軌跡III
Tags:Savageeeee Draftnell Eiyuu Densetsu Sen no Kiseki 3 The Legend of Heroes Trails of Cold Steel iii オリジナルサウンドトラック Original Soundtrack Beyond the Journey 日本ファルコム株式会社 nihon Opening Size OP Video Game Japanese RPG JRPG Rock Jrock J-Rock Female Vocals J.D.K.
BeatmapID:4040498
BeatmapSetID:1951296

[Difficulty]
HPDrainRate:8.5
CircleSize:4
OverallDifficulty:8
ApproachRate:5
SliderMultiplier:1.4
SliderTickRate:1

[Events]
//Background and Video events
0,0,"Rean Altina.jpg",0,0
Video,170,"opening.mp4"
//Break Periods
//Storyboard Layer 0 (Background)
//Storyboard Layer 1 (Fail)
//Storyboard Layer 2 (Pass)
//Storyboard Layer 3 (Foreground)
//Storyboard Layer 4 (Overlay)
//Storyboard Sound Samples
Sample,29554,0,"Hat Close.wav",70

[TimingPoints]
502,315.789473684211,4,2,1,60,1,0
29633,-100,4,2,1,25,0,0
29712,-100,4,2,1,40,0,0
29870,-100,4,2,1,60,0,0
61133,-100,4,2,1,60,0,1
82923,-100,4,2,1,60,0,0
83870,-100,4,2,1,60,0,1
106291,-100,4,2,1,60,0,0

[HitObjects]
192,192,502,5,0,0:0:0:0:
448,192,502,128,0,975:0:0:0:0:
64,192,659,1,0,0:0:0:0:
320,192,817,1,0,0:0:0:0:
64,192,975,1,0,0:0:0:0:
192,192,975,128,0,1449:0:0:0:0:
448,192,1133,1,0,0:0:0:0:
320,192,1291,1,0,0:0:0:0:
64,192,1449,128,0,1923:0:0:0:0:
448,192,1449,1,0,0:0:0:0:
192,192,1607,1,0,0:0:0:0:
320,192,1765,1,0,0:0:0:0:
192,192,1923,1,0,0:0:0:0:
448,192,1923,128,0,2396:0:0:0:0:
64,192,2080,1,0,0:0:0:0:
320,192,2238,1,0,0:0:0:0:
64,192,2396,1,0,0:0:0:0:
192,192,2396,128,0,2870:0:0:0:0:
320,192,2554,1,0,0:0:0:0:
448,192,2712,1,0,0:0:0:0:
64,192,2870,128,0,3028:0:0:0:0:
320,192,2870,128,0,3344:0:0:0:0:
448,192,3028,128,0,3186:0:0:0:0:
192,192,3186,128,0,3344:0:0:0:0:
64,192,3344,128,0,3817:0:0:0:0:
448,192,3344,128,0,3502:0:0:0:0:
192,192,3502,128,0,3659:0:0:0:0:
320,192,3659,128,0,3817:0:0:0:0:
192,192,3817,128,0,3975:0:0:0:0:
448,192,3817,128,0,4291:0:0:0:0:
64,192,3975,128,0,4133:0:0:0:0:
320,192,4133,128,0,4291:0:0:0:0:
64,192,4291,128,0,4449:0:0:0:0:
192,192,4291,128,0,4765:0:0:0:0:
448,192,4449,128,0,4607:0:0:0:0:
64,192,4607,128,0,4765:0:0:0:0:
320,192,4765,128,0,5080:0:0:0:0:
448,192,4765,128,0,4923:0:0:0:0:
192,192,4923,128,0,5080:0:0:0:0:
64,192,5080,128,0,5238:0:0:0:0:
448,192,5080,128,0,5238:0:0:0:0:
192,192,5238,128,0,5396:0:0:0:0:
320,192,5238,128,0,5396:0:0:0:0:
64,192,5554,1,2,0:0:0:0:
320,192,5554,1,4,0:0:0:0:
448,192,5554,1,0,0:0:0:0:
64,192,5712,1,2,0:0:0:0:
192,192,5712,1,0,0:0:0:0:
192,192,5870,1,8,0:0:0:0:
320,192,5870,1,0,0:0:0:0:
448,192,5870,1,0,0:0:0:0:
64,192,6028,1,2,0:0:0:0:
448,192,6028,1,0,0:0:0:0:
192,192,6186,1,2,0:0:0:0:
320,192,6186,1,0,0:0:0:0:
192,192,6344,1,2,0:0:0:0:
320,192,6344,1,0,0:0:0:0:
64,192,6502,1,8,0:0:0:0:
320,192,6502,1,0,0:0:0:0:
448,192,6502,1,0,0:0:0:0:
192,192,6659,1,2,0:0:0:0:
448,192,6659,1,0,0:0:0:0:
64,192,6817,1,2,0:0:0:0:
320,192,6817,1,0,0:0:0:0:
64,192,6975,1,2,0:0:0:0:
320,192,6975,1,0,0:0:0:0:
192,192,7133,1,8,0:0:0:0:
320,192,7133,1,0,0:0:0:0:
448,192,7133,1,0,0:0:0:0:
64,192,7291,1,2,0:0:0:0:
192,192,7291,1,0,0:0:0:0:
320,192,7449,1,2,0:0:0:0:
448,192,7449,1,0,0:0:0:0:
320,192,7607,1,2,0:0:0:0:
448,192,7607,1,0,0:0:0:0:
64,192,7765,1,8,0:0:0:0:
192,192,7765,1,0,0:0:0:0:
448,192,7765,1,0,0:0:0:0:
192,192,7923,1,2,0:0:0:0:
320,192,7923,1,0,0:0:0:0:
64,192,8080,128,4,8396:0:0:0:0:
320,192,8080,1,2,0:0:0:0:
448,192,8080,1,0,0:0:0:0:
192,192,8238,1,2,0:0:0:0:
192,192,8396,1,8,0:0:0:0:
320,192,8396,1,4,0:0:0:0:
448,192,8396,128,0,8712:0:0:0:0:
192,192,8712,128,2,9028:0:0:0:0:
320,192,8712,1,0,0:0:0:0:
64,192,8870,1,2,0:0:0:0:
64,192,9028,1,8,0:0:0:0:
320,192,9028,128,4,9344:0:0:0:0:
448,192,9028,1,0,0:0:0:0:
64,192,9344,1,2,0:0:0:0:
448,192,9344,1,0,0:0:0:0:
64,192,9502,1,2,0:0:0:0:
448,192,9502,1,0,0:0:0:0:
192,192,9659,1,8,0:0:0:0:
320,192,9659,1,0,0:0:0:0:
448,192,9659,1,0,0:0:0:0:
64,192,9817,1,2,0:0:0:0:
320,192,9896,1,8,0:0:0:0:
448,192,9896,1,0,0:0:0:0:
64,192,9975,1,2,0:0:0:0:
192,192,9975,1,0,0:0:0:0:
192,192,10133,1,2,0:0:0:0:
448,192,10133,1,0,0:0:0:0:
64,192,10291,1,8,0:0:0:0:
320,192,10291,1,0,0:0:0:0:
448,192,10291,1,0,0:0:0:0:
192,192,10449,1,2,0:0:0:0:
320,192,10528,1,8,0:0:0:0:
64,192,10607,1,2,0:0:0:0:
192,192,10607,1,4,0:0:0:0:
448,192,10607,1,0,0:0:0:0:
64,192,10765,1,2,0:0:0:0:
320,192,10765,1,0,0:0:0:0:
192,192,10923,1,8,0:0:0:0:
320,192,10923,1,0,0:0:0:0:
448,192,10923,1,0,0:0:0:0:
64,192,11080,1,2,0:0:0:0:
448,192,11080,1,0,0:0:0:0:
192,192,11238,1,2,0:0:0:0:
320,192,11238,1,0,0:0:0:0:
192,192,11396,1,2,0:0:0:0:
320,192,11396,1,0,0:0:0:0:
64,192,11554,1,8,0:0:0:0:
320,192,11554,1,0,0:0:0:0:
448,192,11554,1,0,0:0:0:0:
192,192,11712,1,2,0:0:0:0:
448,192,11712,1,0,0:0:0:0:
64,192,11870,1,2,0:0:0:0:
320,192,11870,1,0,0:0:0:0:
64,192,12028,1,2,0:0:0:0:
320,192,12028,1,0,0:0:0:0:
192,192,12186,1,8,0:0:0:0:
320,192,12186,1,0,0:0:0:0:
448,192,12186,1,0,0:0:0:0:
64,192,12344,1,2,0:0:0:0:
192,192,12344,1,0,0:0:0:0:
320,192,12502,1,2,0:0:0:0:
448,192,12502,1,0,0:0:0:0:
320,192,12659,1,2,0:0:0:0:
448,192,12659,1,0,0:0:0:0:
64,192,12817,1,8,0:0:0:0:
192,192,12817,1,0,0:0:0:0:
448,192,12817,1,0,0:0:0:0:
192,192,12975,1,2,0:0:0:0:
320,192,12975,1,0,0:0:0:0:
64,192,13133,128,4,13449:0:0:0:0:
320,192,13133,1,2,0:0:0:0:
448,192,13133,1,0,0:0:0:0:
192,192,13449,1,8,0:0:0:0:
320,192,13449,128,4,13765:0:0:0:0:
448,192,13449,1,0,0:0:0:0:
64,192,13765,1,2,0:0:0:0:
192,192,13765,128,4,14080:0:0:0:0:
448,192,13765,1,0,0:0:0:0:
64,192,14080,1,8,0:0:0:0:
320,192,14080,1,4,0:0:0:0:
448,192,14080,128,0,14396:0:0:0:0:
64,192,14396,128,2,14712:0:0:0:0:
192,192,14396,1,4,0:0:0:0:
320,192,14396,1,0,0:0:0:0:
320,192,14554,1,2,0:0:0:0:
192,192,14712,1,8,0:0:0:0:
320,192,14712,1,4,0:0:0:0:
448,192,14712,128,0,15028:0:0:0:0:
64,192,15028,1,2,0:0:0:0:
192,192,15028,1,0,0:0:0:0:
64,192,15186,1,8,0:0:0:0:
320,192,15186,1,0,0:0:0:0:
448,192,15186,1,0,0:0:0:0:
64,192,15344,1,8,0:0:0:0:
192,192,15344,1,0,0:0:0:0:
320,192,15423,1,8,0:0:0:0:
448,192,15423,1,0,0:0:0:0:
192,192,15502,1,2,0:0:0:0:
320,192,15580,1,8,0:0:0:0:
64,192,15659,1,2,0:0:0:0:
192,192,15659,1,8,0:0:0:0:
448,192,15659,1,0,0:0:0:0:
64,192,15817,1,2,0:0:0:0:
192,192,15817,1,8,0:0:0:0:
448,192,15817,1,0,0:0:0:0:
320,192,15975,128,0,16054:0:0:0:0:
320,192,16133,128,0,16291:0:0:0:0:
64,192,16607,1,2,0:0:0:0:
320,192,16607,1,8,0:0:0:0:
448,192,16607,1,0,0:0:0:0:
64,192,16765,1,2,0:0:0:0:
320,192,16765,1,8,0:0:0:0:
448,192,16765,1,0,0:0:0:0:
192,192,16923,128,0,17002:0:0:0:0:
192,192,17080,128,0,17238:0:0:0:0:
64,192,17554,1,2,0:0:0:0:
192,192,17554,1,0,0:0:0:0:
448,192,17554,1,0,0:0:0:0:
320,192,17712,1,2,0:0:0:0:
448,192,17712,1,0,0:0:0:0:
64,192,17791,1,8,0:0:0:0:
192,192,17791,1,0,0:0:0:0:
320,192,17870,1,8,0:0:0:0:
448,192,17870,1,0,0:0:0:0:
64,192,18028,1,8,0:0:0:0:
192,192,18028,1,0,0:0:0:0:
320,192,18107,1,8,0:0:0:0:
448,192,18107,1,0,0:0:0:0:
64,192,18186,1,8,0:0:0:0:
192,192,18186,1,0,0:0:0:0:
192,192,18344,1,2,0:0:0:0:
448,192,18344,1,0,0:0:0:0:
64,192,18502,1,2,0:0:0:0:
320,192,18502,1,0,0:0:0:0:
192,192,18659,1,8,0:0:0:0:
320,192,18659,1,0,0:0:0:0:
448,192,18659,1,0,0:0:0:0:
64,192,18817,1,2,0:0:0:0:
192,192,18817,1,0,0:0:0:0:
64,192,18975,1,8,0:0:0:0:
320,192,18975,1,0,0:0:0:0:
448,192,18975,1,0,0:0:0:0:
192,192,19133,1,2,0:0:0:0:
320,192,19133,1,0,0:0:0:0:
64,192,19291,128,2,19607:0:0:0:0:
192,192,19291,1,4,0:0:0:0:
448,192,19291,1,0,0:0:0:0:
192,192,19607,1,8,0:0:0:0:
320,192,19607,1,0,0:0:0:0:
448,192,19607,1,0,0:0:0:0:
64,192,19765,1,0,0:0:0:60:Tom1.wav
192,192,19765,1,0,0:0:0:0:
320,192,19844,1,0,0:0:0:60:Tom1.wav
64,192,19923,1,0,0:0:0:60:Tom2.wav
448,192,19923,1,0,0:0:0:0:
192,192,20002,1,0,0:0:0:60:Tom2.wav
320,192,20080,128,0,20159:0:0:0:60:Tom2.wav
448,192,20080,1,0,0:0:0:0:
320,192,20238,128,0,20317:0:0:0:0:
320,192,20396,128,0,20475:0:0:0:0:
320,192,20554,128,0,20633:0:0:0:0:
64,192,20712,128,2,20791:0:0:0:0:
192,192,20712,128,4,20791:0:0:0:0:
448,192,20712,1,0,0:0:0:0:
64,192,20870,128,0,20949:0:0:0:0:
192,192,20870,128,0,20949:0:0:0:0:
64,192,21028,1,2,0:0:0:0:
448,192,21028,128,0,21186:0:0:0:70:Hat Close.wav
320,192,21186,128,0,21344:0:0:0:0:
192,192,21344,128,2,21502:0:0:0:0:
448,192,21344,1,0,0:0:0:70:Hat Close.wav
64,192,21502,128,0,21659:0:0:0:0:
320,192,21659,128,2,21738:0:0:0:0:
448,192,21659,128,0,21738:0:0:0:70:Hat Close.wav
320,192,21817,128,0,21896:0:0:0:70:Hat Close.wav
448,192,21817,128,0,21896:0:0:0:0:
192,192,21896,1,0,0:0:0:70:Hat Open.wav
64,192,21975,128,2,22133:0:0:0:0:
448,192,21975,1,0,0:0:0:70:Hat Close.wav
192,192,22133,128,0,22291:0:0:0:70:Hat Close.wav
64,192,22291,1,2,0:0:0:0:
320,192,22291,128,0,22449:0:0:0:70:Hat Close.wav
448,192,22449,128,0,22607:0:0:0:70:Hat Close.wav
64,192,22607,1,2,0:0:0:0:
192,192,22607,1,0,0:0:0:70:Hat Close.wav
192,192,22765,1,0,0:0:0:70:Hat Close.wav
320,192,22923,1,2,0:0:0:0:
448,192,22923,1,0,0:0:0:70:Hat Close.wav
320,192,23080,128,0,23238:0:0:0:70:Hat Open.wav
64,192,23238,128,2,23317:0:0:0:0:
448,192,23238,128,0,23317:0:0:0:70:Hat Close.wav
64,192,23396,128,0,23475:0:0:0:70:Hat Close.wav
448,192,23396,128,0,23475:0:0:0:0:
64,192,23554,1,2,0:0:0:0:
192,192,23554,128,0,23712:0:0:0:70:Hat Close.wav
320,192,23712,128,0,23870:0:0:0:0:
64,192,23870,128,2,24028:0:0:0:0:
448,192,23870,1,0,0:0:0:70:Hat Close.wav
448,192,24028,128,0,24186:0:0:0:70:Hat Close.wav
192,192,24186,128,2,24265:0:0:0:0:
320,192,24186,128,0,24265:0:0:0:70:Hat Close.wav
192,192,24344,128,0,24423:0:0:0:70:Hat Close.wav
320,192,24344,128,0,24423:0:0:0:0:
448,192,24423,1,0,0:0:0:70:Hat Open.wav
64,192,24502,128,2,24659:0:0:0:0:
192,192,24502,1,0,0:0:0:70:Hat Close.wav
320,192,24659,128,0,24817:0:0:0:70:Hat Close.wav
64,192,24817,1,2,0:0:0:0:
192,192,24817,128,0,24975:0:0:0:70:Hat Close.wav
448,192,24975,128,0,25133:0:0:0:70:Hat Close.wav
192,192,25133,1,2,0:0:0:0:
320,192,25133,1,0,0:0:0:70:Hat Close.wav
320,192,25291,1,0,0:0:0:70:Ride.wav
64,192,25449,1,2,0:0:0:0:
448,192,25449,1,0,0:0:0:70:Ride.wav
64,192,25607,1,0,0:0:0:70:Hat Open.wav
192,192,25686,1,0,0:0:0:70:Hat Close.wav
320,192,25765,128,2,25844:0:0:0:0:
448,192,25765,128,0,25844:0:0:0:0:
320,192,25923,128,0,26002:0:0:0:0:
448,192,25923,128,0,26002:0:0:0:0:
64,192,26080,128,2,26238:0:0:0:0:
192,192,26080,1,0,0:0:0:70:Hat Close.wav
320,192,26238,1,0,0:0:0:0:
64,192,26396,1,2,0:0:0:0:
448,192,26396,128,0,26554:0:0:0:70:Hat Close.wav
320,192,26554,128,0,26712:0:0:0:0:
64,192,26712,128,2,26791:0:0:0:0:
192,192,26712,128,0,26791:0:0:0:70:Hat Close.wav
64,192,26870,128,0,26949:0:0:0:70:Ride.wav
192,192,26870,128,0,26949:0:0:0:0:
320,192,26949,1,0,0:0:0:70:Hat Open.wav
64,192,27028,1,2,0:0:0:0:
448,192,27028,128,0,27186:0:0:0:70:Hat Close.wav
192,192,27186,1,0,0:0:0:70:Hat Close.wav
64,192,27344,128,2,27502:0:0:0:0:
320,192,27344,1,0,0:0:0:70:Hat Close.wav
192,192,27502,128,0,27659:0:0:0:70:Hat Close.wav
320,192,27659,1,2,0:0:0:0:
448,192,27659,1,0,0:0:0:70:Hat Close.wav
448,192,27817,1,0,0:0:0:70:Hat Close.wav
64,192,27975,1,2,0:0:0:0:
192,192,27975,1,0,0:0:0:70:Hat Close.wav
64,192,28133,128,0,28291:0:0:0:70:Hat Open.wav
192,192,28291,128,2,28370:0:0:0:0:
320,192,28291,128,0,28370:0:0:0:70:Hat Close.wav
192,192,28449,128,0,28528:0:0:0:70:Ride.wav
320,192,28449,128,0,28528:0:0:0:0:
64,192,28607,1,2,0:0:0:0:
448,192,28607,128,0,28765:0:0:0:70:Hat Close.wav
320,192,28765,1,0,0:0:0:0:
64,192,28923,1,2,0:0:0:0:
192,192,28923,128,0,29080:0:0:0:70:Hat Close.wav
320,192,29080,128,0,29238:0:0:0:70:Ride.wav
64,192,29238,128,2,29317:0:0:0:0:
448,192,29238,128,0,29317:0:0:0:70:Hat Close.wav
64,192,29396,128,0,29475:0:0:0:70:Hat Close.wav
448,192,29396,128,0,29475:0:0:0:0:
192,192,29475,1,0,0:0:0:70:Hat Open.wav
320,192,29554,1,2,0:0:0:0:
192,192,29633,1,8,0:0:0:0:
320,192,29712,1,8,0:0:0:0:
448,192,29712,1,0,0:0:0:0:
64,192,29791,1,8,0:0:0:0:
192,192,29791,1,0,0:0:0:0:
320,192,29870,1,2,0:0:0:0:
448,192,29870,1,0,0:0:0:0:
64,192,29949,1,8,0:0:0:0:
192,192,29949,1,0,0:0:0:0:
320,192,30028,1,8,0:0:0:0:
448,192,30028,1,0,0:0:0:0:
64,192,30107,1,8,0:0:0:0:
192,192,30107,1,0,0:0:0:0:
448,192,30186,128,0,30265:0:0:0:70:Ride.wav
448,192,30344,128,0,30423:0:0:0:0:
448,192,30502,128,0,30580:0:0:0:0:
448,192,30659,128,0,30738:0:0:0:0:
64,192,30817,1,2,0:0:0:0:
192,192,30817,128,4,30896:0:0:0:0:
320,192,30817,128,0,30896:0:0:0:0:
64,192,30975,128,2,31054:0:0:0:0:
320,192,30975,128,0,31054:0:0:0:0:
192,192,31133,1,8,0:0:0:0:
320,192,31133,1,0,0:0:0:0:
448,192,31133,1,0,0:0:0:0:
64,192,31291,1,2,0:0:0:0:
320,192,31370,1,8,0:0:0:0:
448,192,31370,1,0,0:0:0:0:
64,192,31449,1,2,0:0:0:0:
192,192,31449,1,0,0:0:0:0:
320,192,31607,1,2,0:0:0:0:
448,192,31607,1,0,0:0:0:0:
64,192,31765,128,8,31844:0:0:0:0:
192,192,31765,128,0,31844:0:0:0:0:
448,192,31765,1,0,0:0:0:0:
192,192,31923,128,0,32002:0:0:0:0:
320,192,31923,128,0,32002:0:0:0:0:
64,192,32080,1,2,0:0:0:0:
448,192,32080,1,0,0:0:0:0:
192,192,32238,1,2,0:0:0:0:
320,192,32238,1,0,0:0:0:0:
64,192,32396,1,8,0:0:0:0:
320,192,32396,1,0,0:0:0:0:
448,192,32396,1,0,0:0:0:0:
192,192,32554,1,0,0:0:0:0:
320,192,32712,1,2,0:0:0:0:
448,192,32712,1,0,0:0:0:0:
192,192,32870,1,2,0:0:0:0:
320,192,32870,1,0,0:0:0:0:
64,192,33028,1,8,0:0:0:0:
192,192,33028,1,0,0:0:0:0:
448,192,33028,1,0,0:0:0:0:
64,192,33186,1,0,0:0:0:0:
192,192,33344,128,2,33423:0:0:0:0:
320,192,33344,128,0,33423:0:0:0:0:
320,192,33502,128,0,33580:0:0:0:0:
448,192,33502,128,0,33580:0:0:0:0:
64,192,33659,1,8,0:0:0:0:
192,192,33659,1,0,0:0:0:0:
448,192,33659,1,0,0:0:0:0:
320,192,33817,1,2,0:0:0:0:
64,192,33896,1,8,0:0:0:0:
192,192,33896,1,0,0:0:0:0:
320,192,33975,1,2,0:0:0:0:
448,192,33975,1,0,0:0:0:0:
64,192,34133,1,2,0:0:0:0:
192,192,34133,1,0,0:0:0:0:
64,192,34291,128,8,34370:0:0:0:0:
320,192,34291,1,0,0:0:0:0:
448,192,34291,128,0,34370:0:0:0:0:
320,192,34449,128,2,34528:0:0:0:0:
448,192,34449,128,0,34528:0:0:0:0:
64,192,34528,1,8,0:0:0:0:
192,192,34528,1,0,0:0:0:0:
320,192,34607,1,2,0:0:0:0:
448,192,34607,1,0,0:0:0:0:
64,192,34765,1,2,0:0:0:0:
192,192,34765,1,0,0:0:0:0:
64,192,34923,1,8,0:0:0:0:
320,192,34923,1,0,0:0:0:0:
448,192,34923,1,0,0:0:0:0:
448,192,35080,1,0,0:0:0:0:
192,192,35238,1,2,0:0:0:0:
320,192,35238,1,0,0:0:0:0:
64,192,35396,1,2,0:0:0:0:
192,192,35396,1,0,0:0:0:0:
320,192,35554,1,8,0:0:0:0:
448,192,35554,1,0,0:0:0:0:
64,192,35633,1,8,0:0:0:0:
192,192,35633,1,0,0:0:0:0:
320,192,35712,1,8,0:0:0:0:
448,192,35712,1,0,0:0:0:0:
192,192,35791,1,8,0:0:0:0:
64,192,35870,128,2,35949:0:0:0:0:
320,192,35870,1,4,0:0:0:0:
448,192,35870,128,0,35949:0:0:0:0:
64,192,36028,128,2,36107:0:0:0:0:
192,192,36028,128,0,36107:0:0:0:0:
192,192,36186,1,8,0:0:0:0:
320,192,36186,1,0,0:0:0:0:
448,192,36186,1,0,0:0:0:0:
448,192,36344,1,0,0:0:0:0:
64,192,36502,1,8,0:0:0:0:
192,192,36502,1,0,0:0:0:0:
320,192,36502,1,0,0:0:0:0:
64,192,36659,1,2,0:0:0:0:
448,192,36659,1,0,0:0:0:0:
192,192,36817,128,2,36896:0:0:0:0:
320,192,36817,128,0,36896:0:0:0:0:
64,192,36975,1,8,0:0:0:0:
192,192,36975,128,0,37054:0:0:0:0:
448,192,36975,128,0,37054:0:0:0:0:
320,192,37133,1,0,0:0:0:0:
64,192,37291,1,2,0:0:0:0:
192,192,37291,1,0,0:0:0:0:
64,192,37449,1,8,0:0:0:0:
320,192,37449,1,0,0:0:0:0:
448,192,37449,1,0,0:0:0:0:
192,192,37607,1,0,0:0:0:0:
320,192,37686,1,0,0:0:0:0:
448,192,37686,1,0,0:0:0:0:
64,192,37765,1,2,0:0:0:0:
192,192,37765,1,0,0:0:0:0:
64,192,37923,1,2,0:0:0:0:
320,192,37923,1,0,0:0:0:0:
192,192,38080,1,8,0:0:0:0:
320,192,38080,1,0,0:0:0:0:
448,192,38080,1,0,0:0:0:0:
448,192,38238,1,2,0:0:0:0:
64,192,38317,1,8,0:0:0:0:
192,192,38317,1,0,0:0:0:0:
320,192,38396,128,2,38475:0:0:0:0:
448,192,38396,128,0,38475:0:0:0:0:
192,192,38554,128,0,38633:0:0:0:0:
320,192,38554,128,0,38633:0:0:0:0:
64,192,38712,1,8,0:0:0:0:
192,192,38712,1,4,0:0:0:0:
448,192,38712,1,0,0:0:0:0:
448,192,38870,1,0,0:0:0:0:
64,192,39028,1,2,0:0:0:0:
192,192,39028,1,0,0:0:0:0:
64,192,39186,1,0,0:0:0:0:
192,192,39344,1,8,0:0:0:0:
320,192,39344,1,4,0:0:0:0:
448,192,39344,1,0,0:0:0:0:
320,192,39502,1,0,0:0:0:0:
64,192,39659,1,2,0:0:0:0:
448,192,39659,1,0,0:0:0:0:
64,192,39817,1,0,0:0:0:60:Tom2.wav
192,192,39817,1,0,0:0:0:0:
320,192,39896,1,0,0:0:0:60:Tom2.wav
192,192,39975,1,2,0:0:0:0:
448,192,39975,1,0,0:0:0:0:
320,192,40133,1,0,0:0:0:60:Tom1.wav
448,192,40133,1,0,0:0:0:0:
192,192,40212,1,0,0:0:0:60:Tom1.wav
64,192,40291,1,2,0:0:0:0:
320,192,40291,1,0,0:0:0:0:
64,192,40449,1,2,0:0:0:0:
192,192,40449,1,0,0:0:0:0:
320,192,40528,1,2,0:0:0:0:
448,192,40528,1,0,0:0:0:0:
64,192,40607,1,2,0:0:0:0:
192,192,40607,1,0,0:0:0:0:
320,192,40765,1,2,0:0:0:0:
448,192,40765,1,0,0:0:0:0:
192,192,40844,1,2,0:0:0:0:
64,192,40923,1,2,0:0:0:0:
320,192,40923,1,4,0:0:0:0:
448,192,40923,1,0,0:0:0:0:
192,192,41080,1,0,0:0:0:0:
192,192,41238,1,0,0:0:0:0:
64,192,41396,1,2,0:0:0:0:
448,192,41396,1,0,0:0:0:0:
320,192,41554,1,0,0:0:0:0:
192,192,41712,1,2,0:0:0:0:
320,192,41712,1,0,0:0:0:0:
64,192,41870,1,8,0:0:0:0:
192,192,41870,1,0,0:0:0:0:
448,192,41870,1,0,0:0:0:0:
448,192,42028,1,0,0:0:0:0:
64,192,42186,1,2,0:0:0:0:
320,192,42186,1,0,0:0:0:0:
64,192,42344,1,0,0:0:0:0:
192,192,42502,1,0,0:0:0:0:
192,192,42659,1,2,0:0:0:0:
320,192,42659,1,0,0:0:0:0:
448,192,42817,128,0,43449:0:0:0:0:
64,192,42975,1,2,0:0:0:0:
192,192,43133,1,8,0:0:0:0:
320,192,43133,1,0,0:0:0:0:
320,192,43291,1,0,0:0:0:0:
64,192,43449,128,2,44712:0:0:0:0:
192,192,43607,1,0,0:0:0:0:
192,192,43765,1,0,0:0:0:0:
448,192,43923,1,2,0:0:0:0:
448,192,44080,1,0,0:0:0:0:
192,192,44238,1,2,0:0:0:0:
320,192,44396,1,8,0:0:0:0:
448,192,44396,1,0,0:0:0:0:
320,192,44554,1,0,0:0:0:0:
192,192,44712,1,2,0:0:0:0:
448,192,44712,1,0,0:0:0:0:
64,192,44870,1,2,0:0:0:0:
448,192,44870,1,0,0:0:0:0:
320,192,45028,1,0,0:0:0:0:
64,192,45186,1,2,0:0:0:0:
192,192,45186,1,0,0:0:0:0:
64,192,45344,1,0,0:0:0:0:
320,192,45502,1,2,0:0:0:0:
448,192,45502,1,0,0:0:0:0:
64,192,45659,1,8,0:0:0:0:
192,192,45659,1,0,0:0:0:0:
448,192,45659,1,0,0:0:0:0:
320,192,45817,1,0,0:0:0:0:
64,192,45896,1,0,0:0:0:0:
192,192,45896,1,0,0:0:0:0:
320,192,45975,1,2,0:0:0:0:
448,192,45975,1,0,0:0:0:0:
448,192,46133,1,0,0:0:0:0:
64,192,46291,1,0,0:0:0:0:
64,192,46449,1,2,0:0:0:0:
192,192,46449,1,0,0:0:0:0:
320,192,46607,1,0,0:0:0:0:
320,192,46765,1,2,0:0:0:0:
448,192,46765,1,0,0:0:0:0:
64,192,46923,1,8,0:0:0:0:
192,192,46923,1,0,0:0:0:0:
448,192,46923,1,0,0:0:0:0:
320,192,47080,1,0,0:0:0:0:
64,192,47238,1,2,0:0:0:0:
192,192,47238,1,0,0:0:0:0:
192,192,47396,1,0,0:0:0:0:
448,192,47554,1,0,0:0:0:0:
64,192,47712,1,2,0:0:0:0:
448,192,47712,1,0,0:0:0:0:
320,192,47870,128,0,48502:0:0:0:0:
192,192,48028,1,2,0:0:0:0:
64,192,48186,1,8,0:0:0:0:
448,192,48186,1,0,0:0:0:0:
448,192,48344,1,0,0:0:0:0:
64,192,48423,1,0,0:0:0:0:
192,192,48502,128,2,49765:0:0:0:0:
448,192,48659,1,0,0:0:0:0:
448,192,48817,1,0,0:0:0:0:
320,192,48975,1,0,0:0:0:0:
320,192,49133,1,0,0:0:0:0:
64,192,49291,1,2,0:0:0:0:
64,192,49449,1,8,0:0:0:0:
448,192,49449,1,0,0:0:0:0:
448,192,49607,1,0,0:0:0:0:
64,192,49765,1,2,0:0:0:0:
320,192,49765,1,0,0:0:0:0:
64,192,49923,1,2,0:0:0:0:
320,192,49923,1,0,0:0:0:0:
64,192,50080,1,8,0:0:0:0:
192,192,50080,1,0,0:0:0:0:
448,192,50080,1,0,0:0:0:0:
320,192,50238,1,2,0:0:0:0:
448,192,50238,1,0,0:0:0:0:
320,192,50396,1,2,0:0:0:0:
448,192,50396,1,0,0:0:0:0:
64,192,50554,1,2,0:0:0:0:
192,192,50554,1,0,0:0:0:0:
320,192,50633,1,2,0:0:0:0:
448,192,50633,1,0,0:0:0:0:
64,192,50712,1,2,0:0:0:0:
192,192,50765,1,2,0:0:0:0:
320,192,50817,1,2,0:0:0:0:
64,192,50870,1,2,0:0:0:0:
448,192,50870,1,0,0:0:0:0:
192,192,50923,1,2,0:0:0:0:
320,192,50975,1,2,0:0:0:0:
64,192,51028,1,8,0:0:0:0:
192,192,51028,1,4,0:0:0:0:
448,192,51028,1,0,0:0:0:0:
192,192,51186,1,2,0:0:0:0:
320,192,51186,1,0,0:0:0:0:
320,192,51344,1,2,0:0:0:0:
448,192,51344,1,0,0:0:0:0:
64,192,51502,1,8,0:0:0:0:
192,192,51502,1,4,0:0:0:0:
448,192,51502,1,0,0:0:0:0:
64,192,51659,1,2,0:0:0:0:
320,192,51659,1,0,0:0:0:0:
192,192,51817,1,2,0:0:0:0:
448,192,51817,1,0,0:0:0:0:
64,192,51975,1,8,0:0:0:0:
320,192,51975,1,4,0:0:0:0:
448,192,51975,1,0,0:0:0:0:
64,192,52133,1,2,0:0:0:0:
192,192,52133,1,0,0:0:0:0:
320,192,52291,1,2,0:0:0:0:
448,192,52291,1,0,0:0:0:0:
64,192,52449,1,8,0:0:0:0:
192,192,52449,1,4,0:0:0:0:
320,192,52449,1,0,0:0:0:0:
192,192,52607,1,2,0:0:0:0:
448,192,52607,1,0,0:0:0:0:
64,192,52765,1,2,0:0:0:0:
320,192,52765,1,0,0:0:0:0:
192,192,52923,1,8,0:0:0:0:
320,192,52923,1,0,0:0:0:0:
448,192,52923,1,0,0:0:0:0:
64,192,53080,1,2,0:0:0:0:
448,192,53080,1,0,0:0:0:0:
64,192,53238,1,8,0:0:0:0:
192,192,53238,1,0,0:0:0:0:
320,192,53238,1,0,0:0:0:0:
320,192,53396,1,2,0:0:0:0:
448,192,53396,1,0,0:0:0:0:
192,192,53475,1,8,0:0:0:0:
64,192,53554,1,8,0:0:0:0:
320,192,53554,1,4,0:0:0:0:
448,192,53554,1,0,0:0:0:0:
64,192,53712,1,2,0:0:0:0:
192,192,53712,1,0,0:0:0:0:
320,192,53870,1,2,0:0:0:0:
448,192,53870,1,0,0:0:0:0:
64,192,54028,1,8,0:0:0:0:
192,192,54028,1,4,0:0:0:0:
448,192,54028,1,0,0:0:0:0:
192,192,54186,1,2,0:0:0:0:
320,192,54186,1,0,0:0:0:0:
64,192,54344,1,2,0:0:0:0:
448,192,54344,1,0,0:0:0:0:
192,192,54502,1,8,0:0:0:0:
320,192,54502,1,4,0:0:0:0:
448,192,54502,1,0,0:0:0:0:
64,192,54659,1,2,0:0:0:0:
320,192,54659,1,0,0:0:0:0:
192,192,54817,1,2,0:0:0:0:
448,192,54817,1,0,0:0:0:0:
64,192,54975,1,8,0:0:0:0:
320,192,54975,1,4,0:0:0:0:
448,192,54975,1,0,0:0:0:0:
192,192,55133,1,2,0:0:0:0:
320,192,55133,1,0,0:0:0:0:
64,192,55291,1,2,0:0:0:0:
448,192,55291,1,0,0:0:0:0:
64,192,55449,1,8,0:0:0:0:
192,192,55449,1,0,0:0:0:0:
320,192,55449,1,0,0:0:0:0:
192,192,55607,1,2,0:0:0:0:
448,192,55607,1,0,0:0:0:0:
320,192,55765,1,8,0:0:0:0:
448,192,55765,1,0,0:0:0:0:
64,192,55844,1,8,0:0:0:0:
192,192,55844,1,0,0:0:0:0:
320,192,55923,1,8,0:0:0:0:
448,192,55923,1,0,0:0:0:0:
192,192,56002,1,8,0:0:0:0:
64,192,56080,128,8,56159:0:0:0:0:
448,192,56080,128,4,56159:0:0:0:0:
192,192,56238,1,2,0:0:0:0:
320,192,56238,1,0,0:0:0:0:
192,192,56396,1,2,0:0:0:0:
320,192,56396,1,0,0:0:0:0:
64,192,56554,128,8,56633:0:0:0:0:
192,192,56554,128,4,56633:0:0:0:0:
448,192,56554,1,0,0:0:0:0:
320,192,56712,1,2,0:0:0:0:
448,192,56712,1,0,0:0:0:0:
320,192,56870,1,2,0:0:0:0:
448,192,56870,1,0,0:0:0:0:
64,192,57028,1,8,0:0:0:0:
320,192,57028,128,4,57107:0:0:0:0:
448,192,57028,128,0,57107:0:0:0:0:
64,192,57186,1,2,0:0:0:0:
192,192,57186,1,0,0:0:0:0:
320,192,57265,1,2,0:0:0:0:
448,192,57265,1,0,0:0:0:0:
64,192,57344,1,8,0:0:0:0:
192,192,57344,1,0,0:0:0:0:
320,192,57502,1,0,0:0:0:60:Tom1.wav
448,192,57502,1,0,0:0:0:0:
192,192,57580,1,0,0:0:0:60:Tom1.wav
64,192,57659,1,2,0:0:0:0:
448,192,57659,1,0,0:0:0:0:
320,192,57738,1,2,0:0:0:0:
64,192,57817,1,0,0:0:0:60:Tom1.wav
192,192,57817,1,0,0:0:0:0:
320,192,57896,1,0,0:0:0:60:Tom1.wav
64,192,57975,1,0,0:0:0:60:Tom1.wav
448,192,57975,1,0,0:0:0:0:
192,192,58054,1,0,0:0:0:60:Tom1.wav
320,192,58133,1,0,0:0:0:60:Tom2.wav
448,192,58133,1,0,0:0:0:0:
64,192,58212,1,0,0:0:0:60:Tom2.wav
192,192,58291,1,0,0:0:0:60:Tom3.wav
320,192,58291,1,0,0:0:0:0:
448,192,58370,1,0,0:0:0:60:Tom3.wav
64,192,58449,1,0,0:0:0:60:Tom3.wav
192,192,58449,1,0,0:0:0:0:
320,192,58528,1,0,0:0:0:60:Tom3.wav
64,192,58607,128,8,58686:0:0:0:0:
192,192,58607,128,0,58686:0:0:0:0:
448,192,58607,1,0,0:0:0:0:
320,192,58765,128,2,58923:0:0:0:0:
448,192,58765,128,0,58923:0:0:0:0:
64,192,59080,128,2,59238:0:0:0:0:
192,192,59080,128,0,59238:0:0:0:0:
192,192,59396,128,2,59475:0:0:0:0:
320,192,59396,128,0,59475:0:0:0:0:
64,192,59554,1,8,0:0:0:0:
192,192,59554,1,0,0:0:0:0:
448,192,59554,1,0,0:0:0:0:
64,192,59712,128,2,59949:0:0:0:0:
320,192,59712,128,4,59949:0:0:0:0:
448,192,59712,128,0,59949:0:0:0:0:
64,192,60028,1,8,0:0:0:0:
320,192,60028,1,2,0:0:0:0:
448,192,60028,1,0,0:0:0:0:
64,192,60186,1,2,0:0:0:0:
320,192,60186,1,8,0:0:0:0:
448,192,60186,1,0,0:0:0:0:
192,192,60502,128,0,60659:0:0:0:0:
192,192,60817,1,2,0:0:0:0:
320,192,60817,128,0,60975:0:0:0:0:
64,192,61133,128,2,61291:0:0:0:0:
320,192,61133,1,4,0:0:0:0:
448,192,61133,1,0,0:0:0:0:
192,192,61291,128,2,61449:0:0:0:0:
448,192,61291,1,0,0:0:0:0:
64,192,61449,1,8,0:0:0:0:
320,192,61449,1,0,0:0:0:0:
448,192,61449,1,0,0:0:0:0:
320,192,61607,128,0,61765:0:0:0:0:
64,192,61765,1,2,0:0:0:0:
192,192,61765,1,0,0:0:0:0:
320,192,61923,1,2,0:0:0:0:
448,192,61923,1,0,0:0:0:0:
64,192,62080,1,8,0:0:0:0:
192,192,62080,1,0,0:0:0:0:
448,192,62080,1,0,0:0:0:0:
320,192,62238,128,0,62396:0:0:0:0:
192,192,62396,1,2,0:0:0:0:
448,192,62396,1,0,0:0:0:0:
64,192,62554,1,2,0:0:0:0:
192,192,62554,128,0,62712:0:0:0:0:
64,192,62712,1,8,0:0:0:0:
320,192,62712,1,0,0:0:0:0:
448,192,62712,1,0,0:0:0:0:
448,192,62870,1,0,0:0:0:0:
320,192,62949,1,0,0:0:0:0:
64,192,63028,1,2,0:0:0:0:
192,192,63028,128,0,63186:0:0:0:0:
320,192,63186,1,2,0:0:0:0:
448,192,63186,1,0,0:0:0:0:
64,192,63344,1,8,0:0:0:0:
320,192,63344,128,0,63502:0:0:0:0:
448,192,63344,1,0,0:0:0:0:
192,192,63502,1,0,0:0:0:0:
64,192,63659,128,2,63975:0:0:0:0:
448,192,63659,1,0,0:0:0:0:
192,192,63817,1,2,0:0:0:0:
320,192,63817,1,0,0:0:0:0:
192,192,63975,1,8,0:0:0:0:
320,192,63975,1,0,0:0:0:0:
448,192,63975,1,0,0:0:0:0:
448,192,64133,128,0,65238:0:0:0:0:
64,192,64291,1,2,0:0:0:0:
320,192,64291,1,0,0:0:0:0:
192,192,64449,1,2,0:0:0:0:
320,192,64449,1,0,0:0:0:0:
64,192,64607,1,8,0:0:0:0:
192,192,64607,1,0,0:0:0:0:
320,192,64607,1,0,0:0:0:0:
64,192,64765,1,0,0:0:0:0:
192,192,64923,1,2,0:0:0:0:
320,192,64923,1,0,0:0:0:0:
64,192,65080,1,2,0:0:0:0:
192,192,65080,1,0,0:0:0:0:
64,192,65238,1,8,0:0:0:0:
192,192,65238,1,0,0:0:0:0:
320,192,65238,1,0,0:0:0:0:
320,192,65396,1,0,0:0:0:0:
192,192,65475,1,0,0:0:0:0:
64,192,65554,128,2,65712:0:0:0:0:
448,192,65554,1,0,0:0:0:0:
192,192,65712,1,2,0:0:0:0:
320,192,65712,1,0,0:0:0:0:
64,192,65870,1,8,0:0:0:0:
320,192,65870,1,0,0:0:0:0:
448,192,65870,128,0,66028:0:0:0:0:
192,192,66028,1,2,0:0:0:0:
320,192,66107,1,8,0:0:0:0:
64,192,66186,128,2,66344:0:0:0:0:
192,192,66186,1,4,0:0:0:0:
448,192,66186,1,0,0:0:0:0:
320,192,66344,1,2,0:0:0:0:
448,192,66344,1,0,0:0:0:0:
64,192,66502,1,8,0:0:0:0:
192,192,66502,1,0,0:0:0:0:
320,192,66502,1,0,0:0:0:0:
192,192,66659,128,0,66817:0:0:0:0:
320,192,66817,1,2,0:0:0:0:
448,192,66817,1,0,0:0:0:0:
64,192,66975,1,2,0:0:0:0:
448,192,66975,1,0,0:0:0:0:
64,192,67133,1,8,0:0:0:0:
192,192,67133,1,0,0:0:0:0:
320,192,67133,1,0,0:0:0:0:
448,192,67291,128,0,67607:0:0:0:0:
64,192,67449,1,2,0:0:0:0:
320,192,67449,1,0,0:0:0:0:
192,192,67607,1,2,0:0:0:0:
320,192,67607,1,0,0:0:0:0:
64,192,67765,128,8,67923:0:0:0:0:
192,192,67765,1,0,0:0:0:0:
448,192,67765,1,0,0:0:0:0:
320,192,67923,1,0,0:0:0:0:
192,192,68002,1,0,0:0:0:0:
320,192,68080,128,2,68238:0:0:0:0:
448,192,68080,1,0,0:0:0:0:
64,192,68238,1,2,0:0:0:0:
192,192,68238,1,0,0:0:0:0:
192,192,68396,128,8,68712:0:0:0:0:
320,192,68396,1,0,0:0:0:0:
448,192,68396,1,0,0:0:0:0:
320,192,68554,1,0,0:0:0:0:
64,192,68712,1,2,0:0:0:0:
448,192,68712,1,0,0:0:0:0:
192,192,68870,1,2,0:0:0:0:
320,192,68870,1,0,0:0:0:0:
64,192,69028,1,8,0:0:0:0:
320,192,69028,1,0,0:0:0:0:
448,192,69028,1,0,0:0:0:0:
192,192,69186,128,0,69344:0:0:0:0:
64,192,69344,128,2,69975:0:0:0:0:
320,192,69344,1,0,0:0:0:0:
448,192,69344,1,0,0:0:0:0:
192,192,69502,1,2,0:0:0:0:
320,192,69502,1,0,0:0:0:0:
192,192,69659,1,8,0:0:0:0:
320,192,69659,1,0,0:0:0:0:
448,192,69659,1,0,0:0:0:0:
448,192,69817,1,0,0:0:0:0:
192,192,69975,1,2,0:0:0:0:
320,192,69975,1,0,0:0:0:0:
64,192,70133,1,2,0:0:0:0:
448,192,70133,1,0,0:0:0:0:
64,192,70291,1,8,0:0:0:0:
192,192,70291,1,0,0:0:0:0:
320,192,70291,1,0,0:0:0:0:
320,192,70449,1,0,0:0:0:0:
64,192,70607,128,2,70765:0:0:0:0:
192,192,70607,1,0,0:0:0:0:
320,192,70765,1,2,0:0:0:0:
448,192,70765,128,0,70923:0:0:0:0:
64,192,70923,1,8,0:0:0:0:
192,192,70923,1,0,0:0:0:0:
320,192,71002,1,8,0:0:0:0:
448,192,71002,1,0,0:0:0:0:
64,192,71080,1,8,0:0:0:0:
192,192,71080,1,0,0:0:0:0:
320,192,71159,1,8,0:0:0:0:
64,192,71238,1,2,0:0:0:0:
192,192,71238,1,4,0:0:0:0:
448,192,71238,1,0,0:0:0:0:
320,192,71396,128,2,71554:0:0:0:0:
448,192,71396,1,0,0:0:0:0:
64,192,71554,1,8,0:0:0:0:
192,192,71554,1,0,0:0:0:0:
448,192,71554,1,0,0:0:0:0:
64,192,71712,128,0,71870:0:0:0:0:
320,192,71870,1,2,0:0:0:0:
448,192,71870,1,0,0:0:0:0:
64,192,72028,1,2,0:0:0:0:
192,192,72028,1,0,0:0:0:0:
64,192,72186,1,8,0:0:0:0:
320,192,72186,128,0,72344:0:0:0:0:
448,192,72186,1,0,0:0:0:0:
192,192,72344,1,0,0:0:0:0:
64,192,72502,1,2,0:0:0:0:
320,192,72502,1,0,0:0:0:0:
192,192,72659,128,2,72817:0:0:0:0:
448,192,72659,1,0,0:0:0:0:
64,192,72817,1,8,0:0:0:0:
320,192,72817,1,0,0:0:0:0:
448,192,72817,1,0,0:0:0:0:
192,192,72975,1,0,0:0:0:0:
320,192,73054,1,0,0:0:0:0:
64,192,73133,128,2,73449:0:0:0:0:
448,192,73133,1,0,0:0:0:0:
192,192,73291,1,2,0:0:0:0:
320,192,73291,1,0,0:0:0:0:
192,192,73449,1,8,0:0:0:0:
320,192,73449,128,0,73765:0:0:0:0:
448,192,73449,1,0,0:0:0:0:
64,192,73607,1,0,0:0:0:0:
192,192,73765,1,2,0:0:0:0:
448,192,73765,128,0,74238:0:0:0:0:
64,192,73923,1,2,0:0:0:0:
320,192,73923,1,0,0:0:0:0:
64,192,74080,1,8,0:0:0:0:
192,192,74080,1,0,0:0:0:0:
320,192,74080,1,0,0:0:0:0:
192,192,74238,128,0,75028:0:0:0:0:
320,192,74396,1,2,0:0:0:0:
448,192,74396,1,0,0:0:0:0:
64,192,74554,1,2,0:0:0:0:
448,192,74554,1,0,0:0:0:0:
64,192,74712,1,8,0:0:0:0:
320,192,74712,1,0,0:0:0:0:
448,192,74712,1,0,0:0:0:0:
320,192,74870,1,0,0:0:0:0:
64,192,75028,1,2,0:0:0:0:
448,192,75028,1,0,0:0:0:0:
192,192,75186,1,2,0:0:0:0:
320,192,75186,1,0,0:0:0:0:
64,192,75344,128,8,75502:0:0:0:0:
320,192,75344,1,0,0:0:0:0:
448,192,75344,1,0,0:0:0:0:
192,192,75502,1,0,0:0:0:0:
320,192,75659,1,2,0:0:0:0:
448,192,75659,1,0,0:0:0:0:
192,192,75738,1,2,0:0:0:0:
64,192,75817,1,2,0:0:0:0:
448,192,75817,1,0,0:0:0:0:
320,192,75896,1,2,0:0:0:0:
64,192,75975,1,8,0:0:0:0:
192,192,75975,1,0,0:0:0:0:
448,192,75975,1,0,0:0:0:0:
64,192,76133,1,2,0:0:0:0:
320,192,76133,1,4,0:0:0:0:
448,192,76133,128,0,76449:0:0:0:0:
64,192,76449,1,2,0:0:0:0:
192,192,76449,1,0,0:0:0:0:
64,192,76607,1,8,0:0:0:0:
320,192,76607,128,4,76765:0:0:0:0:
448,192,76607,128,0,76765:0:0:0:0:
64,192,76844,1,8,0:0:0:0:
192,192,76844,1,0,0:0:0:0:
320,192,76923,1,2,0:0:0:0:
448,192,76923,1,0,0:0:0:0:
64,192,77080,1,2,0:0:0:0:
192,192,77080,1,0,0:0:0:0:
192,192,77238,1,8,0:0:0:0:
320,192,77238,1,0,0:0:0:0:
448,192,77238,1,0,0:0:0:0:
64,192,77396,128,2,77712:0:0:0:0:
320,192,77396,1,4,0:0:0:0:
448,192,77396,1,0,0:0:0:0:
192,192,77712,1,2,0:0:0:0:
320,192,77712,1,0,0:0:0:0:
64,192,77870,128,8,78028:0:0:0:0:
192,192,77870,128,4,78028:0:0:0:0:
448,192,77870,1,0,0:0:0:0:
320,192,78028,1,2,0:0:0:0:
448,192,78028,1,0,0:0:0:0:
64,192,78186,1,8,0:0:0:0:
192,192,78186,1,0,0:0:0:0:
320,192,78186,1,0,0:0:0:0:
192,192,78344,1,2,0:0:0:0:
448,192,78344,1,0,0:0:0:0:
64,192,78502,1,8,0:0:0:0:
320,192,78502,1,0,0:0:0:0:
448,192,78502,1,0,0:0:0:0:
64,192,78659,1,2,0:0:0:0:
192,192,78659,128,4,80080:0:0:0:0:
320,192,78659,1,0,0:0:0:0:
448,192,78817,1,0,0:0:0:0:
64,192,78975,1,2,0:0:0:0:
320,192,78975,1,0,0:0:0:0:
64,192,79133,1,8,0:0:0:0:
320,192,79133,1,0,0:0:0:0:
448,192,79133,1,0,0:0:0:0:
448,192,79291,1,0,0:0:0:0:
64,192,79449,1,2,0:0:0:0:
320,192,79449,1,0,0:0:0:0:
64,192,79607,1,2,0:0:0:0:
448,192,79607,1,0,0:0:0:0:
64,192,79765,1,8,0:0:0:0:
320,192,79765,1,0,0:0:0:0:
448,192,79765,1,0,0:0:0:0:
320,192,79923,1,0,0:0:0:0:
64,192,80080,1,8,0:0:0:0:
320,192,80080,1,4,0:0:0:0:
448,192,80080,1,0,0:0:0:0:
64,192,80238,1,2,0:0:0:0:
192,192,80238,1,0,0:0:0:0:
320,192,80396,1,8,0:0:0:0:
448,192,80396,1,0,0:0:0:0:
192,192,80475,1,8,0:0:0:0:
64,192,80554,1,0,0:0:0:60:Tom1.wav
320,192,80554,1,0,0:0:0:0:
448,192,80633,1,0,0:0:0:60:Tom1.wav
64,192,80712,1,2,0:0:0:0:
192,192,80712,1,4,0:0:0:0:
320,192,80712,1,0,0:0:0:0:
192,192,80870,1,0,0:0:0:0:
64,192,81028,1,2,0:0:0:0:
320,192,81028,1,4,0:0:0:0:
448,192,81028,1,0,0:0:0:0:
320,192,81186,1,0,0:0:0:0:
64,192,81344,1,8,0:0:0:0:
192,192,81344,1,0,0:0:0:0:
448,192,81344,1,0,0:0:0:0:
192,192,81502,128,2,81580:0:0:0:0:
320,192,81502,128,0,81580:0:0:0:0:
192,192,81659,1,2,0:0:0:0:
320,192,81659,1,0,0:0:0:0:
64,192,81817,128,8,81896:0:0:0:0:
320,192,81817,1,0,0:0:0:0:
448,192,81817,128,0,81896:0:0:0:0:
64,192,81975,1,2,0:0:0:0:
448,192,81975,1,0,0:0:0:0:
64,192,82133,128,8,82212:0:0:0:0:
192,192,82133,128,0,82212:0:0:0:0:
320,192,82133,1,0,0:0:0:0:
64,192,82291,1,2,0:0:0:0:
192,192,82291,1,0,0:0:0:0:
64,192,82449,128,2,82686:0:0:0:0:
320,192,82449,128,4,82686:0:0:0:0:
448,192,82449,128,0,82686:0:0:0:0:
64,192,82765,128,8,82844:0:0:0:0:
320,192,82765,128,2,82844:0:0:0:0:
448,192,82765,128,0,82844:0:0:0:0:
64,192,82923,128,2,83002:0:0:0:0:
320,192,82923,128,8,83002:0:0:0:0:
448,192,82923,128,0,83002:0:0:0:0:
64,192,83238,128,2,83475:0:0:0:0:
192,192,83238,128,4,83475:0:0:0:0:
448,192,83238,128,0,83475:0:0:0:0:
64,192,83554,128,2,83791:0:0:0:0:
320,192,83554,128,4,83791:0:0:0:0:
448,192,83554,128,0,83791:0:0:0:0:
64,192,83870,1,2,0:0:0:0:
192,192,83870,1,0,0:0:0:0:
192,192,84028,1,2,0:0:0:0:
320,192,84028,1,0,0:0:0:0:
64,192,84186,1,8,0:0:0:0:
320,192,84186,1,0,0:0:0:0:
448,192,84186,1,0,0:0:0:0:
192,192,84344,1,2,0:0:0:0:
448,192,84344,1,0,0:0:0:0:
192,192,84502,1,2,0:0:0:0:
320,192,84502,1,0,0:0:0:0:
64,192,84659,1,2,0:0:0:0:
320,192,84659,1,0,0:0:0:0:
64,192,84817,1,8,0:0:0:0:
192,192,84817,1,0,0:0:0:0:
448,192,84817,1,0,0:0:0:0:
320,192,84975,1,2,0:0:0:0:
448,192,84975,1,0,0:0:0:0:
64,192,85133,1,2,0:0:0:0:
320,192,85133,1,0,0:0:0:0:
64,192,85291,1,2,0:0:0:0:
192,192,85291,1,0,0:0:0:0:
192,192,85449,1,8,0:0:0:0:
320,192,85449,1,0,0:0:0:0:
448,192,85449,1,0,0:0:0:0:
64,192,85607,1,2,0:0:0:0:
192,192,85607,1,0,0:0:0:0:
64,192,85765,128,2,85923:0:0:0:0:
448,192,85765,1,0,0:0:0:0:
192,192,85923,1,2,0:0:0:0:
320,192,85923,1,0,0:0:0:0:
64,192,86080,1,8,0:0:0:0:
320,192,86080,1,0,0:0:0:0:
448,192,86080,128,0,86238:0:0:0:0:
64,192,86238,1,2,0:0:0:0:
192,192,86238,1,0,0:0:0:0:
192,192,86396,1,2,0:0:0:0:
320,192,86396,128,0,86554:0:0:0:0:
448,192,86396,1,0,0:0:0:0:
64,192,86554,1,2,0:0:0:0:
448,192,86554,1,0,0:0:0:0:
192,192,86712,1,8,0:0:0:0:
320,192,86712,1,0,0:0:0:0:
448,192,86712,1,0,0:0:0:0:
64,192,86870,128,2,87975:0:0:0:0:
192,192,86870,1,0,0:0:0:0:
320,192,87028,1,2,0:0:0:0:
448,192,87028,1,0,0:0:0:0:
192,192,87186,1,2,0:0:0:0:
448,192,87186,1,0,0:0:0:0:
192,192,87344,1,8,0:0:0:0:
320,192,87344,1,0,0:0:0:0:
448,192,87344,1,0,0:0:0:0:
320,192,87502,1,2,0:0:0:0:
448,192,87502,1,0,0:0:0:0:
192,192,87659,1,2,0:0:0:0:
320,192,87659,1,0,0:0:0:0:
192,192,87817,1,2,0:0:0:0:
448,192,87817,1,0,0:0:0:0:
192,192,87975,1,8,0:0:0:0:
320,192,87975,1,0,0:0:0:0:
448,192,87975,1,0,0:0:0:0:
64,192,88133,1,2,0:0:0:0:
320,192,88133,1,0,0:0:0:0:
192,192,88212,1,0,0:0:0:0:
320,192,88291,1,2,0:0:0:0:
448,192,88291,128,0,88449:0:0:0:0:
64,192,88449,1,2,0:0:0:0:
192,192,88449,1,0,0:0:0:0:
64,192,88607,1,8,0:0:0:0:
320,192,88607,128,0,88765:0:0:0:0:
448,192,88607,1,0,0:0:0:0:
192,192,88765,1,2,0:0:0:0:
320,192,88844,1,8,0:0:0:0:
64,192,88923,1,2,0:0:0:0:
192,192,88923,1,4,0:0:0:0:
448,192,88923,1,0,0:0:0:0:
64,192,89080,1,2,0:0:0:0:
320,192,89080,1,0,0:0:0:0:
192,192,89238,1,8,0:0:0:0:
320,192,89238,1,0,0:0:0:0:
448,192,89238,1,0,0:0:0:0:
64,192,89396,128,2,89554:0:0:0:0:
448,192,89396,1,0,0:0:0:0:
192,192,89554,1,2,0:0:0:0:
320,192,89554,1,0,0:0:0:0:
64,192,89712,1,2,0:0:0:0:
320,192,89712,128,0,89870:0:0:0:0:
64,192,89870,1,8,0:0:0:0:
192,192,89870,1,0,0:0:0:0:
448,192,89870,1,0,0:0:0:0:
320,192,90028,1,2,0:0:0:0:
448,192,90028,128,0,90186:0:0:0:0:
64,192,90186,1,2,0:0:0:0:
192,192,90186,1,0,0:0:0:0:
64,192,90344,1,2,0:0:0:0:
320,192,90344,1,0,0:0:0:0:
64,192,90502,1,8,0:0:0:0:
192,192,90502,128,0,90659:0:0:0:0:
448,192,90502,1,0,0:0:0:0:
320,192,90659,1,2,0:0:0:0:
448,192,90659,1,0,0:0:0:0:
64,192,90738,1,0,0:0:0:0:
320,192,90817,128,2,90975:0:0:0:0:
448,192,90817,1,0,0:0:0:0:
64,192,90975,1,2,0:0:0:0:
192,192,90975,1,0,0:0:0:0:
64,192,91133,1,8,0:0:0:0:
192,192,91133,1,0,0:0:0:0:
448,192,91133,128,0,91291:0:0:0:0:
192,192,91291,1,2,0:0:0:0:
320,192,91291,1,0,0:0:0:0:
64,192,91449,128,2,91607:0:0:0:0:
448,192,91449,1,0,0:0:0:0:
192,192,91607,1,2,0:0:0:0:
320,192,91607,1,0,0:0:0:0:
64,192,91765,1,8,0:0:0:0:
320,192,91765,1,0,0:0:0:0:
448,192,91765,1,0,0:0:0:0:
64,192,91923,1,2,0:0:0:0:
192,192,91923,128,0,92080:0:0:0:0:
320,192,92080,1,2,0:0:0:0:
448,192,92080,128,0,93028:0:0:0:0:
64,192,92238,1,2,0:0:0:0:
192,192,92238,1,0,0:0:0:0:
64,192,92396,1,8,0:0:0:0:
192,192,92396,1,0,0:0:0:0:
320,192,92396,1,0,0:0:0:0:
64,192,92554,1,2,0:0:0:0:
320,192,92554,1,0,0:0:0:0:
192,192,92712,1,2,0:0:0:0:
320,192,92712,1,0,0:0:0:0:
64,192,92870,1,2,0:0:0:0:
192,192,92870,1,0,0:0:0:0:
64,192,93028,1,8,0:0:0:0:
192,192,93028,1,0,0:0:0:0:
320,192,93028,1,0,0:0:0:0:
320,192,93186,1,2,0:0:0:0:
448,192,93186,1,0,0:0:0:0:
64,192,93265,1,0,0:0:0:0:
320,192,93344,1,2,0:0:0:0:
448,192,93344,1,0,0:0:0:0:
64,192,93423,1,8,0:0:0:0:
192,192,93423,1,0,0:0:0:0:
320,192,93502,1,8,0:0:0:0:
448,192,93502,1,0,0:0:0:0:
64,192,93580,1,8,0:0:0:0:
192,192,93580,1,0,0:0:0:0:
320,192,93659,1,0,0:0:0:60:Tom1.wav
192,192,93738,1,0,0:0:0:60:Tom1.wav
64,192,93817,1,0,0:0:0:60:Tom2.wav
448,192,93817,1,0,0:0:0:0:
320,192,93896,1,0,0:0:0:60:Tom2.wav
64,192,93975,1,8,0:0:0:0:
192,192,93975,1,4,0:0:0:0:
448,192,93975,1,0,0:0:0:0:
192,192,94133,1,2,0:0:0:0:
320,192,94133,1,0,0:0:0:0:
64,192,94291,1,8,0:0:0:0:
192,192,94291,1,0,0:0:0:0:
448,192,94291,1,0,0:0:0:0:
64,192,94449,1,2,0:0:0:0:
320,192,94449,1,0,0:0:0:0:
192,192,94607,1,8,0:0:0:0:
320,192,94607,1,0,0:0:0:0:
448,192,94607,1,0,0:0:0:0:
64,192,94765,1,2,0:0:0:0:
448,192,94765,1,0,0:0:0:0:
64,192,94923,1,8,0:0:0:0:
192,192,94923,1,0,0:0:0:0:
320,192,94923,1,0,0:0:0:0:
320,192,95080,1,2,0:0:0:0:
448,192,95080,1,0,0:0:0:0:
192,192,95159,1,2,0:0:0:0:
64,192,95238,1,8,0:0:0:0:
320,192,95238,1,0,0:0:0:0:
448,192,95238,1,0,0:0:0:0:
192,192,95396,1,2,0:0:0:0:
448,192,95396,1,0,0:0:0:0:
64,192,95554,1,8,0:0:0:0:
320,192,95554,1,0,0:0:0:0:
448,192,95554,1,0,0:0:0:0:
64,192,95712,1,2,0:0:0:0:
192,192,95712,1,0,0:0:0:0:
320,192,95791,1,8,0:0:0:0:
64,192,95870,1,8,0:0:0:0:
192,192,95870,1,0,0:0:0:0:
448,192,95870,1,0,0:0:0:0:
320,192,96028,1,2,0:0:0:0:
448,192,96028,1,0,0:0:0:0:
64,192,96186,1,8,0:0:0:0:
192,192,96186,1,0,0:0:0:0:
448,192,96186,1,0,0:0:0:0:
64,192,96344,1,2,0:0:0:0:
320,192,96344,1,0,0:0:0:0:
192,192,96423,1,2,0:0:0:0:
64,192,96502,1,8,0:0:0:0:
320,192,96502,1,0,0:0:0:0:
448,192,96502,1,0,0:0:0:0:
192,192,96659,1,2,0:0:0:0:
320,192,96659,1,0,0:0:0:0:
64,192,96817,1,8,0:0:0:0:
192,192,96817,1,0,0:0:0:0:
448,192,96817,1,0,0:0:0:0:
64,192,96975,1,2,0:0:0:0:
320,192,96975,1,0,0:0:0:0:
192,192,97133,1,8,0:0:0:0:
320,192,97133,1,0,0:0:0:0:
448,192,97133,1,0,0:0:0:0:
64,192,97291,1,2,0:0:0:0:
448,192,97291,1,0,0:0:0:0:
64,192,97449,1,8,0:0:0:0:
192,192,97449,1,0,0:0:0:0:
320,192,97449,1,0,0:0:0:0:
192,192,97607,1,2,0:0:0:0:
448,192,97607,1,0,0:0:0:0:
320,192,97686,1,2,0:0:0:0:
64,192,97765,1,8,0:0:0:0:
192,192,97765,1,0,0:0:0:0:
448,192,97765,1,0,0:0:0:0:
64,192,97923,1,2,0:0:0:0:
320,192,97923,1,0,0:0:0:0:
64,192,98080,1,8,0:0:0:0:
192,192,98080,1,0,0:0:0:0:
448,192,98080,128,0,98238:0:0:0:0:
192,192,98238,1,2,0:0:0:0:
320,192,98238,1,0,0:0:0:0:
64,192,98396,1,2,0:0:0:0:
320,192,98475,1,8,0:0:0:0:
448,192,98475,1,0,0:0:0:0:
64,192,98554,1,8,0:0:0:0:
192,192,98554,1,0,0:0:0:0:
320,192,98633,1,8,0:0:0:0:
448,192,98633,1,0,0:0:0:0:
64,192,98712,1,8,0:0:0:0:
192,192,98712,1,0,0:0:0:0:
64,192,98870,128,2,99186:0:0:0:0:
320,192,98870,1,4,0:0:0:0:
448,192,98870,1,0,0:0:0:0:
320,192,99186,1,2,0:0:0:0:
448,192,99186,1,0,0:0:0:0:
64,192,99344,128,8,99502:0:0:0:0:
192,192,99344,128,4,99502:0:0:0:0:
448,192,99344,1,0,0:0:0:0:
320,192,99580,1,8,0:0:0:0:
448,192,99580,1,0,0:0:0:0:
64,192,99659,1,2,0:0:0:0:
192,192,99659,1,0,0:0:0:0:
320,192,99817,1,2,0:0:0:0:
448,192,99817,1,0,0:0:0:0:
64,192,99975,1,8,0:0:0:0:
192,192,99975,1,0,0:0:0:0:
320,192,99975,1,0,0:0:0:0:
64,192,100133,1,2,0:0:0:0:
192,192,100133,1,4,0:0:0:0:
448,192,100133,128,0,100449:0:0:0:0:
192,192,100449,1,2,0:0:0:0:
320,192,100449,1,0,0:0:0:0:
64,192,100607,1,8,0:0:0:0:
320,192,100607,128,4,100765:0:0:0:0:
448,192,100607,128,0,100765:0:0:0:0:
64,192,100765,1,2,0:0:0:0:
192,192,100765,1,0,0:0:0:0:
192,192,100923,1,8,0:0:0:0:
320,192,100923,1,0,0:0:0:0:
448,192,100923,1,0,0:0:0:0:
64,192,101080,1,2,0:0:0:0:
320,192,101080,1,0,0:0:0:0:
64,192,101238,1,8,0:0:0:0:
192,192,101238,1,0,0:0:0:0:
448,192,101238,1,0,0:0:0:0:
192,192,101396,1,2,0:0:0:0:
320,192,101396,128,4,102817:0:0:0:0:
448,192,101396,1,0,0:0:0:0:
64,192,101554,1,0,0:0:0:0:
192,192,101712,1,2,0:0:0:0:
448,192,101712,1,0,0:0:0:0:
64,192,101870,1,8,0:0:0:0:
192,192,101870,1,0,0:0:0:0:
448,192,101870,1,0,0:0:0:0:
64,192,102028,1,0,0:0:0:0:
192,192,102186,1,2,0:0:0:0:
448,192,102186,1,0,0:0:0:0:
64,192,102344,1,2,0:0:0:0:
448,192,102344,1,0,0:0:0:0:
64,192,102502,1,8,0:0:0:0:
192,192,102502,1,0,0:0:0:0:
448,192,102502,1,0,0:0:0:0:
192,192,102659,1,2,0:0:0:0:
64,192,102817,1,2,0:0:0:0:
192,192,102817,1,4,0:0:0:0:
448,192,102817,1,0,0:0:0:0:
320,192,102975,1,0,0:0:0:60:Tom1.wav
448,192,102975,1,0,0:0:0:0:
192,192,103054,1,0,0:0:0:60:Tom1.wav
64,192,103133,1,2,0:0:0:0:
320,192,103133,1,0,0:0:0:0:
448,192,103212,1,2,0:0:0:0:
64,192,103291,1,0,0:0:0:60:Tom2.wav
192,192,103291,1,0,0:0:0:0:
320,192,103370,1,0,0:0:0:60:Tom2.wav
192,192,103449,1,0,0:0:0:60:Tom2.wav
448,192,103449,1,0,0:0:0:0:
64,192,103528,1,0,0:0:0:60:Tom2.wav
320,192,103607,1,0,0:0:0:60:Tom2.wav
448,192,103607,1,0,0:0:0:0:
192,192,103686,1,0,0:0:0:60:Tom2.wav
64,192,103765,1,0,0:0:0:60:Tom3.wav
448,192,103765,1,0,0:0:0:0:
320,192,103844,1,0,0:0:0:60:Tom3.wav
64,192,103923,1,0,0:0:0:60:Tom3.wav
192,192,103923,1,0,0:0:0:0:
448,192,104002,1,0,0:0:0:60:Tom3.wav
192,192,104080,128,8,104159:0:0:0:0:
320,192,104080,128,0,104159:0:0:0:0:
64,192,104238,128,2,104396:0:0:0:0:
448,192,104238,128,0,104396:0:0:0:0:
192,192,104396,1,0,0:0:0:0:
320,192,104554,128,2,104712:0:0:0:0:
448,192,104554,128,0,104712:0:0:0:0:
192,192,104712,1,0,0:0:0:0:
64,192,104870,128,0,105028:0:0:0:60:Tom3.wav
192,192,104870,128,0,105028:0:0:0:0:
320,192,105028,1,0,0:0:0:0:
64,192,105186,1,2,0:0:0:0:
320,192,105186,128,4,106291:0:0:0:0:
448,192,105186,128,0,106291:0:0:0:0:
64,192,106291,1,2,0:0:0:0:
192,192,106291,1,0,0:0:0:0:
64,192,106607,1,2,0:0:0:0:
192,192,106607,1,4,0:0:0:0:
448,192,106607,1,0,0:0:0:0:
64,192,106765,1,2,0:0:0:0:
192,192,106765,1,0,0:0:0:0:
64,192,106923,1,8,0:0:0:0:
320,192,106923,1,0,0:0:0:0:
448,192,106923,1,0,0:0:0:0:
192,192,107080,1,2,0:0:0:0:
320,192,107080,1,0,0:0:0:0:
64,192,107238,1,2,0:0:0:0:
448,192,107238,1,0,0:0:0:0:
64,192,107396,1,2,0:0:0:0:
448,192,107396,1,0,0:0:0:0:
192,192,107554,1,8,0:0:0:0:
320,192,107554,1,0,0:0:0:0:
448,192,107554,1,0,0:0:0:0:
64,192,107712,1,2,0:0:0:0:
192,192,107712,1,0,0:0:0:0:
320,192,107870,1,2,0:0:0:0:
448,192,107870,1,0,0:0:0:0:
320,192,108028,1,2,0:0:0:0:
448,192,108028,1,0,0:0:0:0:
64,192,108186,1,8,0:0:0:0:
192,192,108186,1,0,0:0:0:0:
320,192,108186,1,0,0:0:0:0:
64,192,108344,1,2,0:0:0:0:
448,192,108344,1,0,0:0:0:0:
192,192,108502,1,2,0:0:0:0:
320,192,108502,1,0,0:0:0:0:
192,192,108659,1,2,0:0:0:0:
320,192,108659,1,0,0:0:0:0:
64,192,108817,1,8,0:0:0:0:
192,192,108817,1,0,0:0:0:0:
448,192,108817,1,0,0:0:0:0:
64,192,108975,1,2,0:0:0:0:
320,192,108975,1,0,0:0:0:0:
192,192,109133,1,2,0:0:0:0:
448,192,109133,128,0,109449:0:0:0:0:
64,192,109291,1,2,0:0:0:0:
64,192,109449,128,8,109765:0:0:0:0:
192,192,109449,1,0,0:0:0:0:
320,192,109449,1,0,0:0:0:0:
320,192,109607,1,2,0:0:0:0:
192,192,109765,128,2,109923:0:0:0:0:
448,192,109765,1,0,0:0:0:0:
64,192,109923,1,2,0:0:0:0:
320,192,109923,1,0,0:0:0:0:
64,192,110080,1,8,0:0:0:0:
192,192,110080,1,0,0:0:0:0:
448,192,110080,128,0,110396:0:0:0:0:
320,192,110238,1,2,0:0:0:0:
64,192,110396,128,2,110712:0:0:0:0:
192,192,110396,1,0,0:0:0:0:
448,192,110554,1,2,0:0:0:0:
192,192,110712,1,8,0:0:0:0:
320,192,110712,1,0,0:0:0:0:
448,192,110712,1,0,0:0:0:0:
192,192,110870,1,2,0:0:0:0:
320,192,110949,1,0,0:0:0:60:Tom3.wav
64,192,111028,1,2,0:0:0:0:
192,192,111028,1,0,0:0:0:0:
320,192,111186,1,2,0:0:0:0:
448,192,111186,1,0,0:0:0:0:
64,192,111344,1,8,0:0:0:0:
192,192,111344,1,0,0:0:0:0:
320,192,111423,1,8,0:0:0:0:
448,192,111423,1,0,0:0:0:0:
64,192,111502,1,8,0:0:0:0:
192,192,111502,1,0,0:0:0:0:
320,192,111580,1,8,0:0:0:0:
448,192,111580,1,0,0:0:0:0:
64,192,111659,1,2,0:0:0:0:
192,192,111659,1,0,0:0:0:0:
320,192,111817,1,2,0:0:0:0:
448,192,111817,1,0,0:0:0:0:
64,192,111975,128,8,112291:0:0:0:0:
192,192,111975,1,4,0:0:0:0:
448,192,111975,1,0,0:0:0:0:
320,192,112291,1,2,0:0:0:0:
448,192,112291,1,0,0:0:0:0:
64,192,112449,1,2,0:0:0:0:
192,192,112449,1,0,0:0:0:0:
64,192,112607,1,8,0:0:0:0:
320,192,112607,1,4,0:0:0:0:
448,192,112607,128,0,112923:0:0:0:0:
64,192,112923,1,2,0:0:0:0:
192,192,112923,1,4,0:0:0:0:
320,192,112923,1,0,0:0:0:0:
192,192,113080,1,2,0:0:0:0:
448,192,113080,1,0,0:0:0:0:
64,192,113238,1,8,0:0:0:0:
320,192,113238,1,4,0:0:0:0:
448,192,113238,1,0,0:0:0:0:
192,192,113396,1,2,0:0:0:0:
320,192,113396,1,0,0:0:0:0:
64,192,113554,1,2,0:0:0:0:
192,192,113554,128,4,113633:0:0:0:0:
448,192,113554,1,0,0:0:0:0:
64,192,113712,128,2,113791:0:0:0:0:
320,192,113712,1,0,0:0:0:0:
192,192,113870,1,8,0:0:0:0:
320,192,113870,128,4,113949:0:0:0:0:
448,192,113870,1,0,0:0:0:0:
64,192,114028,1,2,0:0:0:0:
448,192,114028,128,0,114107:0:0:0:0:
64,192,114186,1,2,0:0:0:0:
192,192,114186,128,4,114265:0:0:0:0:
320,192,114186,1,0,0:0:0:0:
320,192,114344,128,0,114423:0:0:0:0:
64,192,114502,1,2,0:0:0:0:
192,192,114502,1,4,0:0:0:0:
448,192,114502,128,0,114580:0:0:0:0:
192,192,114659,128,0,114738:0:0:0:0:
64,192,114817,1,2,0:0:0:0:
320,192,114817,128,4,114896:0:0:0:0:
448,192,114817,1,0,0:0:0:0:
64,192,114975,1,0,0:0:0:0:
320,192,115133,1,8,0:0:0:0:
448,192,115133,1,0,0:0:0:0:
64,192,115212,1,8,0:0:0:0:
192,192,115212,1,0,0:0:0:0:
320,192,115291,1,8,0:0:0:0:
448,192,115291,1,0,0:0:0:0:
192,192,115370,1,8,0:0:0:0:
64,192,115449,1,2,0:0:0:0:
320,192,115449,1,4,0:0:0:0:
448,192,115449,1,0,0:0:0:0:
64,192,115607,1,2,0:0:0:0:
192,192,115607,1,0,0:0:0:0:
320,192,115686,1,2,0:0:0:0:
64,192,115765,1,8,0:0:0:0:
192,192,115765,1,0,0:0:0:0:
448,192,115765,1,0,0:0:0:0:
192,192,115923,1,2,0:0:0:0:
320,192,115923,1,0,0:0:0:0:
64,192,116080,1,8,0:0:0:0:
320,192,116080,1,0,0:0:0:0:
448,192,116080,1,0,0:0:0:0:
192,192,116238,1,2,0:0:0:0:
448,192,116238,1,0,0:0:0:0:
320,192,116317,1,2,0:0:0:0:
64,192,116396,1,8,0:0:0:0:
192,192,116396,1,0,0:0:0:0:
448,192,116396,1,0,0:0:0:0:
64,192,116554,1,2,0:0:0:0:
320,192,116554,1,0,0:0:0:0:
192,192,116712,1,8,0:0:0:0:
320,192,116712,1,0,0:0:0:0:
448,192,116712,1,0,0:0:0:0:
64,192,116870,1,2,0:0:0:0:
448,192,116870,1,0,0:0:0:0:
192,192,116949,1,2,0:0:0:0:
64,192,117028,1,8,0:0:0:0:
320,192,117028,1,0,0:0:0:0:
448,192,117028,1,0,0:0:0:0:
192,192,117186,1,2,0:0:0:0:
320,192,117186,1,0,0:0:0:0:
64,192,117344,1,8,0:0:0:0:
192,192,117344,1,0,0:0:0:0:
448,192,117344,1,0,0:0:0:0:
64,192,117502,1,2,0:0:0:0:
448,192,117502,1,0,0:0:0:0:
320,192,117580,1,2,0:0:0:0:
64,192,117659,1,8,0:0:0:0:
192,192,117659,1,0,0:0:0:0:
448,192,117659,1,0,0:0:0:0:
192,192,117817,1,2,0:0:0:0:
320,192,117817,1,0,0:0:0:0:
64,192,117975,128,8,118133:0:0:0:0:
320,192,117975,1,4,0:0:0:0:
448,192,117975,1,0,0:0:0:0:
192,192,118133,1,2,0:0:0:0:
320,192,118133,1,0,0:0:0:0:
64,192,118291,1,8,0:0:0:0:
192,192,118291,1,4,0:0:0:0:
448,192,118291,128,0,118449:0:0:0:0:
64,192,118449,1,2,0:0:0:0:
320,192,118449,1,0,0:0:0:0:
192,192,118607,128,8,118765:0:0:0:0:
320,192,118607,1,4,0:0:0:0:
448,192,118607,1,0,0:0:0:0:
64,192,118765,1,2,0:0:0:0:
320,192,118765,1,0,0:0:0:0:
192,192,118844,1,2,0:0:0:0:
64,192,118923,1,8,0:0:0:0:
320,192,118923,128,4,119238:0:0:0:0:
448,192,118923,1,0,0:0:0:0:
192,192,119080,1,0,0:0:0:0:
64,192,119238,1,4,0:0:0:0:
192,192,119238,1,8,0:0:0:0:
448,192,119238,1,0,0:0:0:0:
192,192,119396,1,2,0:0:0:0:
320,192,119396,1,0,0:0:0:0:
64,192,119554,1,8,0:0:0:0:
448,192,119554,1,0,0:0:0:0:
192,192,119633,1,8,0:0:0:0:
320,192,119633,1,0,0:0:0:0:
64,192,119712,1,8,0:0:0:0:
448,192,119712,1,0,0:0:0:0:
192,192,119791,1,8,0:0:0:0:
320,192,119791,1,0,0:0:0:0:
64,192,119870,1,8,0:0:0:0:
448,192,119870,1,0,0:0:0:60:Tom2.wav
192,192,119949,1,0,0:0:0:60:Tom2.wav
320,192,120028,1,0,0:0:0:60:Tom2.wav
448,192,120028,1,0,0:0:0:0:
64,192,120107,1,0,0:0:0:60:Tom2.wav
192,192,120186,1,0,0:0:0:60:Tom3.wav
320,192,120186,1,0,0:0:0:0:
448,192,120265,1,0,0:0:0:60:Tom3.wav
64,192,120344,1,0,0:0:0:60:Tom3.wav
192,192,120344,1,0,0:0:0:0:
320,192,120423,1,0,0:0:0:60:Tom3.wav
64,192,120502,1,8,0:0:0:0:
192,192,120502,1,4,0:0:0:0:
448,192,120502,1,0,0:0:0:0:
320,192,120659,1,2,0:0:0:0:
448,192,120659,1,0,0:0:0:0:
192,192,120738,1,2,0:0:0:0:
64,192,120817,1,8,0:0:0:0:
320,192,120817,1,0,0:0:0:0:
448,192,120817,1,0,0:0:0:0:
64,192,120975,1,2,0:0:0:0:
192,192,120975,1,0,0:0:0:0:
192,192,121133,1,8,0:0:0:0:
320,192,121133,1,0,0:0:0:0:
448,192,121133,1,0,0:0:0:0:
64,192,121291,1,2,0:0:0:0:
320,192,121291,1,0,0:0:0:0:
192,192,121370,1,2,0:0:0:0:
64,192,121449,1,8,0:0:0:0:
320,192,121449,1,0,0:0:0:0:
448,192,121449,1,0,0:0:0:0:
192,192,121607,1,2,0:0:0:0:
448,192,121607,1,0,0:0:0:0:
64,192,121765,1,8,0:0:0:0:
192,192,121765,1,0,0:0:0:0:
320,192,121765,1,0,0:0:0:0:
320,192,121923,1,2,0:0:0:0:
448,192,121923,1,0,0:0:0:0:
192,192,122002,1,2,0:0:0:0:
64,192,122080,1,8,0:0:0:0:
320,192,122080,1,0,0:0:0:0:
448,192,122080,1,0,0:0:0:0:
64,192,122238,1,2,0:0:0:0:
192,192,122238,1,0,0:0:0:0:
64,192,122396,1,8,0:0:0:0:
320,192,122396,1,0,0:0:0:0:
448,192,122396,1,0,0:0:0:0:
192,192,122554,1,2,0:0:0:0:
448,192,122554,1,0,0:0:0:0:
320,192,122633,1,2,0:0:0:0:
64,192,122712,1,8,0:0:0:0:
192,192,122712,1,0,0:0:0:0:
448,192,122712,1,0,0:0:0:0:
192,192,122870,1,2,0:0:0:0:
320,192,122870,1,0,0:0:0:0:
64,192,123028,1,2,0:0:0:0:
320,192,123028,1,4,0:0:0:0:
448,192,123028,128,0,123344:0:0:0:0:
64,192,123344,128,8,123659:0:0:0:0:
192,192,123344,128,4,123659:0:0:0:0:
320,192,123344,1,0,0:0:0:0:
320,192,123659,128,2,123975:0:0:0:0:
448,192,123659,1,4,0:0:0:0:
64,192,123975,128,8,124291:0:0:0:0:
192,192,123975,1,4,0:0:0:0:
448,192,123975,128,0,124291:0:0:0:0:
192,192,124291,1,4,0:0:0:0:
320,192,124291,1,2,0:0:0:0:
192,192,124449,1,2,0:0:0:0:
320,192,124449,1,0,0:0:0:0:
64,192,124607,128,8,124844:0:0:0:0:
192,192,124607,128,4,124844:0:0:0:0:
448,192,124607,128,0,124844:0:0:0:0:
192,192,124923,1,2,0:0:0:0:
320,192,124923,1,0,0:0:0:0:
64,192,125080,1,8,0:0:0:0:
320,192,125080,1,0,0:0:0:0:
448,192,125080,1,0,0:0:0:0:
64,192,125238,1,8,0:0:0:0:
192,192,125238,1,0,0:0:0:0:
320,192,125317,1,8,0:0:0:0:
448,192,125317,1,0,0:0:0:0:
64,192,125396,1,8,0:0:0:0:
192,192,125396,1,0,0:0:0:0:
320,192,125475,1,8,0:0:0:0:
64,192,125554,1,2,0:0:0:0:
192,192,125554,1,8,0:0:0:0:
448,192,125554,1,0,0:0:0:0:
64,192,125712,1,2,0:0:0:0:
192,192,125712,1,8,0:0:0:0:
448,192,125712,1,0,0:0:0:0:
64,192,126028,1,2,0:0:0:0:
320,192,126028,1,8,0:0:0:0:
448,192,126028,1,0,0:0:0:0:
64,192,126186,1,8,0:0:0:0:
320,192,126186,1,2,0:0:0:0:
448,192,126186,1,0,0:0:0:0:
64,192,126502,1,2,0:0:0:0:
192,192,126502,1,8,0:0:0:0:
320,192,126502,1,0,0:0:0:0:
64,192,126659,1,2,0:0:0:0:
192,192,126659,1,8,0:0:0:0:
320,192,126659,1,0,0:0:0:0:
192,192,126975,1,2,0:0:0:0:
320,192,126975,1,8,0:0:0:0:
448,192,126975,1,0,0:0:0:0:
192,192,127133,1,2,0:0:0:0:
320,192,127133,1,8,0:0:0:0:
448,192,127133,1,0,0:0:0:0:
64,192,127449,1,8,0:0:0:0:
192,192,127449,1,0,0:0:0:0:
320,192,127528,1,8,0:0:0:0:
448,192,127528,1,0,0:0:0:0:
64,192,127607,1,0,0:0:0:60:Tom1.wav
192,192,127607,1,0,0:0:0:0:
320,192,127686,1,0,0:0:0:60:Tom1.wav
192,192,127765,1,0,0:0:0:60:Tom2.wav
448,192,127765,1,0,0:0:0:0:
64,192,127844,1,0,0:0:0:60:Tom2.wav
320,192,127923,1,0,0:0:0:60:Tom3.wav
448,192,127923,1,0,0:0:0:0:
192,192,128002,1,0,0:0:0:60:Tom3.wav
64,192,128080,128,8,128238:0:0:0:0:
320,192,128080,1,4,0:0:0:0:
448,192,128080,1,0,0:0:0:0:
192,192,128238,1,2,0:0:0:0:
320,192,128238,1,0,0:0:0:0:
64,192,128396,1,2,0:0:0:0:
448,192,128396,1,0,0:0:0:0:
192,192,128554,1,8,0:0:0:0:
320,192,128554,1,4,0:0:0:0:
448,192,128554,128,0,128712:0:0:0:0:
64,192,128712,1,2,0:0:0:0:
192,192,128712,1,0,0:0:0:0:
64,192,128870,1,8,0:0:0:0:
320,192,128870,128,4,129028:0:0:0:0:
448,192,128870,1,0,0:0:0:0:
192,192,129028,1,2,0:0:0:0:
448,192,129028,1,0,0:0:0:0:
64,192,129186,128,8,129502:0:0:0:0:
192,192,129186,128,4,129502:0:0:0:0:
320,192,129186,1,0,0:0:0:0:
320,192,129502,1,2,0:0:0:0:
448,192,129502,1,0,0:0:0:0:
192,192,129659,1,2,0:0:0:0:
320,192,129659,1,0,0:0:0:0:
64,192,129817,128,8,129975:0:0:0:0:
192,192,129817,128,4,129975:0:0:0:0:
448,192,129817,128,0,129975:0:0:0:0:
