osu file format v14

[General]
AudioFilename: audio.mp3
AudioLeadIn: 0
PreviewTime: 26281
Countdown: 0
SampleSet: Normal
StackLeniency: 0.7
Mode: 1
LetterboxInBreaks: 0
WidescreenStoryboard: 0

[Editor]
DistanceSpacing: 0.3
BeatDivisor: 4
GridSize: 32
TimelineZoom: 2.5

[Metadata]
Title:Ashita e no Kiseki
TitleUnicode:明日への軌跡
Artist:Falcom Sound Team jdk feat. Sasaka Megumi
ArtistUnicode:Falcom Sound Team jdk feat. 佐坂めぐみ
Creator:Nao Tomori
Version:Orion
Source:英雄伝説 閃の軌跡Ⅳ -THE END OF SAGA-
Tags:the legends of heroes Eiyuu Densetsuu sen no kiseki 閃之軌跡 sazaka video game opening rock japanese taiko
BeatmapID:2180601
BeatmapSetID:1043304

[Difficulty]
HPDrainRate:5
CircleSize:5
OverallDifficulty:6
ApproachRate:6
SliderMultiplier:1.4
SliderTickRate:1

[Events]
//Background and Video events
0,0,"pog catgirl upscaled.jpg",0,45
//Break Periods
//Storyboard Layer 0 (Background)
//Storyboard Layer 1 (Fail)
//Storyboard Layer 2 (Pass)
//Storyboard Layer 3 (Foreground)
//Storyboard Layer 4 (Overlay)
//Storyboard Sound Samples

[TimingPoints]
938,326.086956521739,4,1,0,61,1,0
6155,-100,4,1,0,71,0,0
26372,-98.0392156862745,4,1,0,71,0,0
26535,-96.1538461538461,4,1,0,71,0,0
26617,-95.2380952380952,4,1,0,71,0,0
26698,-94.3396226415094,4,1,0,71,0,0
26861,-92.5925925925926,4,1,0,71,0,0
27024,-90.9090909090909,4,1,0,86,0,1
36155,-90.9090909090909,4,1,0,86,0,0
36318,-76.9230769230769,4,1,0,86,0,0
37296,-76.9230769230769,4,1,0,86,0,1
37459,-90.9090909090909,4,1,0,86,0,1
47024,-90.9090909090909,4,1,0,86,0,1
47187,-92.5925925925926,4,1,0,86,0,1
47351,-94.3396226415094,4,1,0,86,0,1
47568,-96.1538461538461,4,1,0,86,0,1
47731,-98.0392156862745,4,1,0,86,0,1
47894,-100,4,1,0,81,0,0
48057,-100,4,1,0,71,0,0
87024,-100,4,1,0,76,0,0
88247,-99.502487562189,4,1,0,76,0,0
88329,-99.009900990099,4,1,0,76,0,0
88410,-98.5221674876847,4,1,0,76,0,0
88492,-98.0392156862745,4,1,0,76,0,0
88573,-97.5609756097561,4,1,0,76,0,0
88655,-97.0873786407767,4,1,0,76,0,0
88736,-96.6183574879227,4,1,0,76,0,0
88818,-96.1538461538461,4,1,0,76,0,0
88899,-95.6937799043062,4,1,0,76,0,0
88981,-95.2380952380952,4,1,0,76,0,0
89062,-94.7867298578199,4,1,0,76,0,0
89144,-94.3396226415094,4,1,0,76,0,0
89226,-93.8967136150235,4,1,0,76,0,0
89307,-93.4579439252336,4,1,0,76,0,0
89389,-93.0232558139535,4,1,0,76,0,0
89470,-92.5925925925926,4,1,0,76,0,0
89552,-91.743119266055,4,1,0,76,0,0
89633,-90.9090909090909,4,1,0,76,0,0
90122,-90.9090909090909,4,1,0,76,0,0
90204,-90.0900900900901,4,1,0,76,0,0
90285,-89.2857142857143,4,1,0,76,0,0
90367,-88.4955752212389,4,1,0,76,0,0
90448,-87.719298245614,4,1,0,76,0,0
90530,-86.9565217391304,4,1,0,76,0,0
90611,-86.2068965517241,4,1,0,76,0,0
90693,-85.4700854700855,4,1,0,76,0,0
90774,-84.7457627118644,4,1,0,76,0,0
90856,-84.0336134453781,4,1,0,76,0,0
90937,-83.3333333333333,4,1,0,76,0,0
91753,-100,4,1,0,56,0,0
91916,-100,4,1,0,76,0,0
92242,-90.9090909090909,4,1,0,86,0,1
101372,-90.9090909090909,4,1,0,86,0,0
101535,-76.9230769230769,4,1,0,86,0,0
102514,-76.9230769230769,4,1,0,86,0,1
102677,-90.9090909090909,4,1,0,86,0,1
112785,-95.2380952380952,4,1,0,86,0,0
113111,-100,4,1,0,71,0,0
113274,-100,4,1,0,71,0,0
143200,-103.092783505155,4,1,0,71,0,0
143309,-106.382978723404,4,1,0,71,0,0
143418,-109.89010989011,4,1,0,71,0,0
143526,-113.636363636364,4,1,0,71,0,0
143635,-117.647058823529,4,1,0,71,0,0
143744,-121.951219512195,4,1,0,71,0,0
143852,-126.582278481013,4,1,0,71,0,0
143961,-131.578947368421,4,1,0,71,0,0
144070,-136.986301369863,4,1,0,71,0,0
144178,-142.857142857143,4,1,0,71,0,0
144287,-149.253731343284,4,1,0,71,0,0
144396,-156.25,4,1,0,71,0,0
144742,-100,4,1,0,71,0,0
173111,-100,4,1,0,76,0,0
174253,-100,4,1,0,76,0,0
174335,-99.502487562189,4,1,0,76,0,0
174416,-99.009900990099,4,1,0,76,0,0
174498,-98.5221674876847,4,1,0,76,0,0
174579,-98.0392156862745,4,1,0,76,0,0
174661,-97.5609756097561,4,1,0,76,0,0
174742,-97.0873786407767,4,1,0,76,0,0
174824,-96.6183574879227,4,1,0,76,0,0
174905,-96.1538461538461,4,1,0,76,0,0
174987,-95.6937799043062,4,1,0,76,0,0
175068,-95.2380952380952,4,1,0,76,0,0
175150,-94.7867298578199,4,1,0,76,0,0
175231,-94.3396226415094,4,1,0,76,0,0
175313,-93.8967136150235,4,1,0,76,0,0
175394,-93.4579439252336,4,1,0,76,0,0
175476,-93.0232558139535,4,1,0,76,0,0
175557,-92.5925925925926,4,1,0,76,0,0
175639,-91.743119266055,4,1,0,76,0,0
175720,-90.9090909090909,4,1,0,76,0,0
175883,-90.9090909090909,4,1,0,76,0,0
175965,-90.0900900900901,4,1,0,76,0,0
176046,-89.2857142857143,4,1,0,76,0,0
176128,-88.4955752212389,4,1,0,76,0,0
176209,-87.719298245614,4,1,0,76,0,0
176291,-86.9565217391304,4,1,0,76,0,0
176372,-86.2068965517241,4,1,0,76,0,0
176454,-85.4700854700855,4,1,0,76,0,0
176535,-84.7457627118644,4,1,0,76,0,0
176617,-84.0336134453781,4,1,0,76,0,0
176698,-83.3333333333333,4,1,0,76,0,0
176780,-82.3045267489712,4,1,0,76,0,0
176861,-81.3008130081301,4,1,0,76,0,0
176943,-80.3212851405623,4,1,0,76,0,0
177024,-79.3650793650794,4,1,0,76,0,0
177840,-100,4,1,0,56,0,0
178003,-100,4,1,0,76,0,0
178329,-90.9090909090909,4,1,0,86,0,1
187459,-90.9090909090909,4,1,0,86,0,0
187622,-76.9230769230769,4,1,0,86,0,0
188437,-76.9230769230769,4,1,0,86,0,0
188601,-76.9230769230769,4,1,0,86,0,1
188764,-90.9090909090909,4,1,0,86,0,1
198546,-92.5925925925926,4,1,0,86,0,1
198628,-94.3396226415094,4,1,0,86,0,1
198709,-96.1538461538461,4,1,0,86,0,1
198791,-98.0392156862745,4,1,0,86,0,1
198872,-100,4,1,0,86,0,1
198954,-103.092783505155,4,1,0,86,0,1
199035,-106.382978723404,4,1,0,86,0,1
199117,-109.89010989011,4,1,0,86,0,1
199198,-113.636363636364,4,1,0,81,0,0
199361,-113.636363636364,4,1,0,61,0,0
206698,-111.111111111111,4,1,0,67,0,0
206780,-108.695652173913,4,1,0,71,0,0
206861,-106.382978723404,4,1,0,73,0,0
206943,-104.166666666667,4,1,0,75,0,0
207024,-101.010101010101,4,1,0,77,0,0
207106,-97.0873786407767,4,1,0,79,0,0
207187,-93.4579439252336,4,1,0,81,0,0
207351,-93.4579439252336,4,1,0,76,0,0
208981,-68.9655172413793,4,1,0,91,0,0
209796,-93.4579439252336,4,1,0,76,0,0
219742,-74.0740740740741,4,1,0,91,0,0
220068,-93.4579439252336,4,1,0,76,0,0
230503,-93.4579439252336,4,1,0,81,0,1
235720,-93.4579439252336,4,1,0,81,0,1
237921,-92.5925925925926,4,1,0,81,0,1
238003,-91.743119266055,4,1,0,81,0,1
238084,-90.9090909090909,4,1,0,81,0,1
238166,-90.0900900900901,4,1,0,81,0,1
238247,-89.2857142857143,4,1,0,81,0,1
238329,-88.4955752212389,4,1,0,81,0,1
238492,-88.4955752212389,4,1,0,81,0,1
238573,-87.719298245614,4,1,0,81,0,1
238655,-86.9565217391304,4,1,0,81,0,1
238736,-86.2068965517241,4,1,0,81,0,1
238818,-85.4700854700855,4,1,0,81,0,1
238899,-84.7457627118644,4,1,0,81,0,1
238981,-84.0336134453781,4,1,0,81,0,1
239062,-83.3333333333333,4,1,0,81,0,1
239144,-82.6446280991736,4,1,0,81,0,1
239225,-81.9672131147541,4,1,0,81,0,1
239307,-81.3008130081301,4,1,0,86,0,1
240937,-81.3008130081301,4,1,0,91,0,0
241101,-133.333333333333,4,1,0,51,0,0
243546,-90.9090909090909,4,1,0,86,0,1
250068,-90.9090909090909,4,1,0,86,0,0
250231,-76.9230769230769,4,1,0,86,0,0
251209,-76.9230769230769,4,1,0,86,0,1
251372,-90.9090909090909,4,1,0,86,0,1
260992,-90.9090909090909,4,1,0,86,0,0
261155,-68.9655172413793,4,1,0,86,0,0
261644,-90.9090909090909,4,1,0,86,0,1
270937,-90.9090909090909,4,1,0,86,0,0
271101,-76.9230769230769,4,1,0,86,0,0
272079,-76.9230769230769,4,1,0,86,0,1
272242,-90.9090909090909,4,1,0,86,0,1
282351,-95.2380952380952,4,1,0,81,0,0
282677,-100,4,1,0,81,0,0
282840,-100,4,1,0,71,0,0
302242,-79.3650793650794,4,1,0,71,0,0
302351,-80.6451612903226,4,1,0,71,0,0
302459,-83.3333333333333,4,1,0,71,0,0
302568,-84.7457627118644,4,1,0,71,0,0
302677,-86.2068965517241,4,1,0,71,0,0
302785,-87.719298245614,4,1,0,71,0,0
302894,-89.2857142857143,4,1,0,71,0,0
303003,-90.9090909090909,4,1,0,71,0,0
303111,-92.5925925925926,4,1,0,71,0,0
303220,-94.3396226415094,4,1,0,71,0,0
303329,-96.1538461538461,4,1,0,71,0,0
303437,-98.0392156862745,4,1,0,71,0,0
303546,-100,4,1,0,71,0,0
307296,-100,4,1,0,76,0,0
307351,-95.2380952380952,4,1,0,81,0,0
307378,-90.9090909090909,4,1,0,86,0,0
307459,-86.9565217391304,4,1,0,91,0,0
307622,-86.9565217391304,4,1,0,31,0,0

[HitObjects]
233,196,938,5,8,0:0:0:0:
233,197,1264,1,8,0:0:0:0:
233,196,1590,1,8,0:0:0:0:
233,196,1753,1,0,0:0:0:0:
233,197,1916,1,8,0:0:0:0:
233,196,2079,1,0,0:0:0:0:
233,196,2242,1,8,0:0:0:0:
233,196,2405,1,0,0:0:0:0:
302,155,2486,1,0,0:0:0:0:
233,196,2568,1,8,0:0:0:0:
233,196,2731,1,0,0:0:0:0:
233,196,2894,1,8,0:0:0:0:
233,196,3057,1,0,0:0:0:0:
303,155,3139,1,0,0:0:0:0:
233,196,3220,1,8,0:0:0:0:
233,196,3302,1,8,0:0:0:0:
292,145,3383,1,0,0:0:0:0:
233,196,3546,1,8,0:0:0:0:
233,196,3872,1,8,0:0:0:0:
233,196,4198,1,8,0:0:0:0:
233,196,4361,1,0,0:0:0:0:
196,101,4443,1,0,0:0:0:0:
233,196,4524,1,8,0:0:0:0:
233,196,4687,1,0,0:0:0:0:
233,196,4850,1,8,0:0:0:0:
233,196,5013,1,0,0:0:0:0:
204,91,5095,1,0,0:0:0:0:
204,91,5177,1,8,0:0:0:0:
204,91,5340,1,0,0:0:0:0:
204,91,5503,1,8,0:0:0:0:
204,91,5584,1,8,0:0:0:0:
204,91,5666,1,0,0:0:0:0:
204,91,5747,1,0,0:0:0:0:
204,91,5829,1,8,0:0:0:0:
204,91,5910,1,0,0:0:0:0:
204,91,5992,1,0,0:0:0:0:
276,133,6073,1,0,0:0:0:0:
212,135,6155,1,12,0:0:0:0:
230,183,6481,1,8,0:0:0:0:
230,183,6644,1,0,0:0:0:0:
230,183,6726,1,0,0:0:0:0:
230,183,6807,1,8,0:0:0:0:
230,183,6970,1,0,0:0:0:0:
230,183,7133,1,8,0:0:0:0:
230,183,7296,1,8,0:0:0:0:
230,183,7378,1,8,0:0:0:0:
230,183,7459,1,0,0:0:0:0:
230,183,7622,1,0,0:0:0:0:
230,183,7785,1,8,0:0:0:0:
230,183,7948,1,0,0:0:0:0:
230,183,8111,1,8,0:0:0:0:
230,183,8274,1,0,0:0:0:0:
230,183,8356,1,0,0:0:0:0:
230,183,8437,1,8,0:0:0:0:
269,156,8519,1,0,0:0:0:0:
232,174,8601,1,0,0:0:0:0:
258,129,8764,1,8,0:0:0:0:
243,142,9090,1,8,0:0:0:0:
243,142,9253,1,0,0:0:0:0:
243,142,9334,1,0,0:0:0:0:
243,142,9416,1,8,0:0:0:0:
243,142,9579,1,0,0:0:0:0:
243,142,9742,1,8,0:0:0:0:
243,142,9823,1,8,0:0:0:0:
243,142,9905,1,0,0:0:0:0:
243,142,10068,1,8,0:0:0:0:
243,142,10231,1,0,0:0:0:0:
243,142,10312,1,0,0:0:0:0:
276,80,10394,1,8,0:0:0:0:
276,80,10557,1,0,0:0:0:0:
269,73,10720,1,8,0:0:0:0:
269,73,10802,1,8,0:0:0:0:
269,73,10883,1,0,0:0:0:0:
272,111,10965,1,0,0:0:0:0:
272,111,11046,1,0,0:0:0:0:
267,106,11128,1,0,0:0:0:0:
267,106,11209,1,8,0:0:0:0:
267,106,11291,1,8,0:0:0:0:
267,106,11372,1,4,0:0:0:0:
272,104,11698,1,8,0:0:0:0:
272,104,11861,1,0,0:0:0:0:
264,100,11943,1,0,0:0:0:0:
263,100,12024,1,8,0:0:0:0:
263,100,12187,1,0,0:0:0:0:
257,97,12351,1,8,0:0:0:0:
257,97,12514,1,8,0:0:0:0:
257,97,12595,1,0,0:0:0:0:
257,97,12677,1,8,0:0:0:0:
257,97,12840,1,0,0:0:0:0:
262,118,13003,1,8,0:0:0:0:
262,118,13166,1,0,0:0:0:0:
255,114,13247,1,0,0:0:0:0:
255,114,13329,1,8,0:0:0:0:
255,114,13492,1,0,0:0:0:0:
255,114,13573,1,0,0:0:0:0:
255,114,13655,1,8,0:0:0:0:
255,114,13736,1,0,0:0:0:0:
255,114,13818,1,8,0:0:0:0:
255,114,13981,1,12,0:0:0:0:
239,104,14307,1,8,0:0:0:0:
239,104,14633,1,8,0:0:0:0:
239,104,14796,1,0,0:0:0:0:
239,104,14878,1,0,0:0:0:0:
239,104,14959,1,8,0:0:0:0:
239,104,15122,1,8,0:0:0:0:
239,104,15204,1,8,0:0:0:0:
239,104,15285,1,0,0:0:0:0:
239,104,15448,1,8,0:0:0:0:
239,104,15530,1,8,0:0:0:0:
239,104,15611,1,8,0:0:0:0:
239,104,15774,1,8,0:0:0:0:
235,122,15937,1,4,0:0:0:0:
235,122,16101,1,8,0:0:0:0:
223,115,16182,1,8,0:0:0:0:
222,115,16264,1,0,0:0:0:0:
223,115,16345,1,0,0:0:0:0:
222,115,16427,1,0,0:0:0:0:
223,115,16508,1,0,0:0:0:0:
222,115,16590,1,12,0:0:0:0:
321,147,16916,1,8,0:0:0:0:
321,147,17079,1,0,0:0:0:0:
321,147,17160,1,0,0:0:0:0:
321,147,17242,1,8,0:0:0:0:
321,147,17405,1,0,0:0:0:0:
321,147,17568,1,8,0:0:0:0:
321,147,17731,1,0,0:0:0:0:
321,147,17894,1,8,0:0:0:0:
321,147,18057,1,0,0:0:0:0:
321,147,18139,1,0,0:0:0:0:
321,147,18220,1,8,0:0:0:0:
321,147,18383,1,0,0:0:0:0:
321,147,18546,1,8,0:0:0:0:
321,147,18628,1,0,0:0:0:0:
321,147,18709,1,8,0:0:0:0:
321,147,18791,1,8,0:0:0:0:
321,147,18872,1,0,0:0:0:0:
321,147,19035,1,0,0:0:0:0:
321,147,19198,1,8,0:0:0:0:
321,146,19524,1,8,0:0:0:0:
321,146,19687,1,0,0:0:0:0:
294,168,20014,1,0,0:0:0:0:
294,168,20095,1,0,0:0:0:0:
294,168,20177,1,8,0:0:0:0:
294,168,20340,1,8,0:0:0:0:
294,168,20503,1,0,0:0:0:0:
294,168,20666,1,0,0:0:0:0:
294,168,20747,1,0,0:0:0:0:
294,168,20829,1,8,0:0:0:0:
294,168,20992,1,0,0:0:0:0:
294,168,21155,1,8,0:0:0:0:
294,168,21236,1,8,0:0:0:0:
294,168,21318,1,0,0:0:0:0:
294,168,21399,1,8,0:0:0:0:
294,168,21481,1,0,0:0:0:0:
294,168,21562,1,0,0:0:0:0:
294,168,21644,1,0,0:0:0:0:
289,165,21726,1,0,0:0:0:0:
289,165,21807,1,12,0:0:0:0:
248,153,22133,1,8,0:0:0:0:
248,153,22296,1,0,0:0:0:0:
248,153,22459,1,8,0:0:0:0:
248,153,22622,1,0,0:0:0:0:
248,153,22704,1,0,0:0:0:0:
248,153,22785,1,8,0:0:0:0:
248,153,22948,1,8,0:0:0:0:
248,153,23111,1,0,0:0:0:0:
247,156,23437,1,8,0:0:0:0:
247,156,23601,1,0,0:0:0:0:
247,156,23682,1,8,0:0:0:0:
247,156,23764,1,0,0:0:0:0:
247,156,23927,1,0,0:0:0:0:
247,156,24090,1,8,0:0:0:0:
247,156,24253,1,8,0:0:0:0:
247,156,24416,1,0,0:0:0:0:
247,155,24742,1,8,0:0:0:0:
247,155,24905,1,8,0:0:0:0:
247,155,24986,1,8,0:0:0:0:
247,155,25068,1,0,0:0:0:0:
236,70,25149,1,0,0:0:0:0:
247,155,25231,1,8,0:0:0:0:
247,155,25312,1,8,0:0:0:0:
247,155,25394,1,0,0:0:0:0:
247,155,25476,1,8,0:0:0:0:
247,155,25557,1,8,0:0:0:0:
247,155,25639,1,8,0:0:0:0:
247,155,25720,1,4,0:0:0:0:
245,161,26372,1,8,0:0:0:0:
245,161,26535,1,8,0:0:0:0:
245,161,26617,1,8,0:0:0:0:
245,161,26698,1,0,0:0:0:0:
245,161,26861,1,8,0:0:0:0:
245,161,27024,1,4,0:0:0:0:
241,132,27351,1,8,0:0:0:0:
241,132,27514,1,0,0:0:0:0:
244,95,27595,1,0,0:0:0:0:
244,95,27677,1,0,0:0:0:0:
244,95,27840,1,0,0:0:0:0:
244,95,28003,1,8,0:0:0:0:
244,95,28166,1,8,0:0:0:0:
135,133,28247,1,8,0:0:0:0:
244,95,28329,1,0,0:0:0:0:
244,95,28492,1,0,0:0:0:0:
244,95,28573,1,0,0:0:0:0:
244,95,28655,1,8,0:0:0:0:
244,95,28818,1,8,0:0:0:0:
244,95,28981,1,0,0:0:0:0:
244,95,29144,1,0,0:0:0:0:
244,95,29307,1,8,0:0:0:0:
244,95,29389,1,8,0:0:0:0:
244,95,29470,1,8,0:0:0:0:
244,95,29552,1,8,0:0:0:0:
258,126,29633,1,4,0:0:0:0:
262,131,29959,1,8,0:0:0:0:
262,131,30122,1,0,0:0:0:0:
262,131,30204,1,8,0:0:0:0:
262,131,30285,1,0,0:0:0:0:
262,131,30448,1,0,0:0:0:0:
262,131,30530,1,0,0:0:0:0:
262,131,30611,1,8,0:0:0:0:
269,115,30774,1,8,0:0:0:0:
264,120,30937,1,0,0:0:0:0:
264,120,31019,1,0,0:0:0:0:
264,120,31101,1,0,0:0:0:0:
264,120,31182,1,0,0:0:0:0:
264,120,31264,1,8,0:0:0:0:
258,105,31427,1,0,0:0:0:0:
258,105,31590,1,0,0:0:0:0:
251,93,31671,1,0,0:0:0:0:
251,93,31753,1,0,0:0:0:0:
251,93,31834,1,0,0:0:0:0:
251,93,31916,1,8,0:0:0:0:
251,94,32079,1,8,0:0:0:0:
251,94,32242,1,4,0:0:0:0:
236,111,32568,1,8,0:0:0:0:
222,89,32731,1,8,0:0:0:0:
222,89,32812,1,8,0:0:0:0:
222,89,32894,1,0,0:0:0:0:
222,89,33057,1,0,0:0:0:0:
222,89,33220,1,8,0:0:0:0:
222,89,33383,1,0,0:0:0:0:
222,89,33465,1,8,0:0:0:0:
222,89,33546,1,0,0:0:0:0:
222,79,33709,1,0,0:0:0:0:
222,79,33872,1,8,0:0:0:0:
222,79,34035,1,0,0:0:0:0:
222,79,34117,1,0,0:0:0:0:
222,79,34198,1,0,0:0:0:0:
222,79,34361,1,0,0:0:0:0:
222,79,34524,1,8,0:0:0:0:
257,95,34606,1,8,0:0:0:0:
222,79,34687,1,8,0:0:0:0:
257,95,34769,1,8,0:0:0:0:
222,79,34851,1,4,0:0:0:0:
256,92,35177,1,8,0:0:0:0:
240,75,35340,1,8,0:0:0:0:
240,75,35421,1,8,0:0:0:0:
240,75,35503,1,0,0:0:0:0:
254,108,35666,1,0,0:0:0:0:
254,108,35829,1,8,0:0:0:0:
254,108,35992,1,0,0:0:0:0:
254,108,36073,1,8,0:0:0:0:
254,108,36155,1,8,0:0:0:0:
254,108,36318,1,4,0:0:0:0:
254,108,36644,1,4,0:0:0:0:
254,108,36970,1,12,0:0:0:0:
244,85,37133,1,8,0:0:0:0:
254,108,37296,1,4,0:0:0:0:
212,135,37622,1,0,0:0:0:0:
212,135,37704,1,0,0:0:0:0:
212,135,37785,1,8,0:0:0:0:
205,127,37948,1,8,0:0:0:0:
205,127,38111,1,0,0:0:0:0:
205,127,38274,1,0,0:0:0:0:
205,127,38356,1,0,0:0:0:0:
205,127,38437,1,8,0:0:0:0:
215,103,38519,1,0,0:0:0:0:
216,104,38601,1,8,0:0:0:0:
229,99,38764,1,0,0:0:0:0:
229,99,38927,1,0,0:0:0:0:
229,99,39090,1,8,0:0:0:0:
229,99,39171,1,8,0:0:0:0:
229,99,39253,1,0,0:0:0:0:
227,91,39334,1,0,0:0:0:0:
226,85,39416,1,8,0:0:0:0:
226,85,39579,1,0,0:0:0:0:
226,85,39742,1,8,0:0:0:0:
226,85,39905,1,8,0:0:0:0:
226,85,40068,1,4,0:0:0:0:
147,196,40394,1,8,0:0:0:0:
312,193,40557,1,8,0:0:0:0:
312,193,40639,1,8,0:0:0:0:
312,193,40720,1,0,0:0:0:0:
312,193,40883,1,0,0:0:0:0:
312,193,40965,1,0,0:0:0:0:
312,193,41046,1,8,0:0:0:0:
312,193,41209,1,0,0:0:0:0:
312,193,41372,1,8,0:0:0:0:
312,193,41454,1,0,0:0:0:0:
312,193,41535,1,0,0:0:0:0:
312,193,41617,1,0,0:0:0:0:
312,193,41698,1,8,0:0:0:0:
312,193,41861,1,0,0:0:0:0:
312,193,42024,1,0,0:0:0:0:
312,193,42106,1,0,0:0:0:0:
312,193,42187,1,0,0:0:0:0:
312,193,42269,1,0,0:0:0:0:
312,193,42351,1,8,0:0:0:0:
253,99,42514,1,8,0:0:0:0:
267,107,42677,1,4,0:0:0:0:
342,139,43003,1,8,0:0:0:0:
342,139,43166,1,0,0:0:0:0:
342,139,43247,1,8,0:0:0:0:
342,139,43329,1,0,0:0:0:0:
311,156,43492,1,0,0:0:0:0:
308,151,43655,1,8,0:0:0:0:
308,151,43736,1,8,0:0:0:0:
308,151,43818,1,8,0:0:0:0:
308,151,43899,1,8,0:0:0:0:
308,151,43981,1,4,0:0:0:0:
307,146,44307,1,8,0:0:0:0:
307,146,44470,1,0,0:0:0:0:
307,146,44633,1,8,0:0:0:0:
307,146,44796,1,0,0:0:0:0:
307,146,44878,1,0,0:0:0:0:
307,146,44959,1,8,0:0:0:0:
307,146,45041,1,8,0:0:0:0:
307,146,45122,1,8,0:0:0:0:
307,146,45204,1,8,0:0:0:0:
307,146,45285,1,4,0:0:0:0:
307,146,45448,1,8,0:0:0:0:
307,146,45611,1,0,0:0:0:0:
307,146,45774,1,0,0:0:0:0:
307,146,45856,1,0,0:0:0:0:
307,146,45937,1,0,0:0:0:0:
307,146,46101,1,0,0:0:0:0:
307,146,46182,1,8,0:0:0:0:
307,146,46264,1,8,0:0:0:0:
307,146,46427,1,0,0:0:0:0:
222,66,46590,1,8,0:0:0:0:
222,66,46753,1,0,0:0:0:0:
222,66,46834,1,8,0:0:0:0:
222,66,46916,1,8,0:0:0:0:
222,66,47079,1,8,0:0:0:0:
222,66,47242,1,8,0:0:0:0:
222,66,47405,1,8,0:0:0:0:
225,62,47568,1,8,0:0:0:0:
225,62,47731,1,8,0:0:0:0:
225,62,47894,1,4,0:0:0:0:
243,155,48220,1,8,0:0:0:0:
243,155,48383,1,0,0:0:0:0:
243,155,48546,1,8,0:0:0:0:
243,155,48709,1,0,0:0:0:0:
243,155,48791,1,0,0:0:0:0:
243,155,48872,1,8,0:0:0:0:
243,155,49035,1,0,0:0:0:0:
243,155,49198,1,8,0:0:0:0:
243,155,49361,1,0,0:0:0:0:
178,120,49443,1,0,0:0:0:0:
243,155,49524,1,8,0:0:0:0:
243,155,49687,1,0,0:0:0:0:
250,160,49851,1,8,0:0:0:0:
243,155,49932,1,0,0:0:0:0:
250,160,50014,1,8,0:0:0:0:
249,160,50095,1,8,0:0:0:0:
250,160,50177,1,0,0:0:0:0:
208,105,50340,1,0,0:0:0:0:
259,98,50503,1,8,0:0:0:0:
258,101,50829,1,8,0:0:0:0:
258,101,50992,1,0,0:0:0:0:
258,101,51073,1,0,0:0:0:0:
258,101,51155,1,8,0:0:0:0:
189,105,51236,1,8,0:0:0:0:
189,105,51318,1,0,0:0:0:0:
189,105,51481,1,8,0:0:0:0:
190,114,51644,1,0,0:0:0:0:
190,114,51807,1,8,0:0:0:0:
237,126,51970,1,0,0:0:0:0:
237,126,52052,1,0,0:0:0:0:
237,126,52133,1,0,0:0:0:0:
237,126,52296,1,8,0:0:0:0:
236,119,52459,1,8,0:0:0:0:
237,114,52541,1,0,0:0:0:0:
237,114,52622,1,8,0:0:0:0:
237,114,52704,1,8,0:0:0:0:
237,126,52785,1,0,0:0:0:0:
237,126,52867,1,0,0:0:0:0:
237,126,52948,1,0,0:0:0:0:
237,126,53030,1,0,0:0:0:0:
237,126,53111,1,12,0:0:0:0:
199,95,53437,1,8,0:0:0:0:
199,95,53601,1,0,0:0:0:0:
199,95,53764,1,8,0:0:0:0:
199,95,53927,1,0,0:0:0:0:
199,88,54008,1,0,0:0:0:0:
198,82,54090,1,8,0:0:0:0:
198,82,54253,1,0,0:0:0:0:
198,82,54416,1,8,0:0:0:0:
198,82,54497,1,8,0:0:0:0:
198,82,54579,1,0,0:0:0:0:
198,82,54742,1,8,0:0:0:0:
198,82,54823,1,0,0:0:0:0:
198,82,54905,1,0,0:0:0:0:
198,82,55068,1,8,0:0:0:0:
198,82,55149,1,0,0:0:0:0:
198,82,55231,1,8,0:0:0:0:
198,82,55312,1,8,0:0:0:0:
198,82,55394,1,0,0:0:0:0:
198,82,55557,1,0,0:0:0:0:
201,94,55720,1,8,0:0:0:0:
174,191,56046,1,0,0:0:0:0:
174,191,56209,1,8,0:0:0:0:
174,191,56291,1,8,0:0:0:0:
174,191,56372,1,0,0:0:0:0:
173,198,56535,1,0,0:0:0:0:
173,198,56698,1,8,0:0:0:0:
173,198,56861,1,0,0:0:0:0:
173,198,56943,1,0,0:0:0:0:
173,198,57024,1,8,0:0:0:0:
173,200,57351,1,8,0:0:0:0:
173,200,57514,1,0,0:0:0:0:
173,200,57595,1,0,0:0:0:0:
173,200,57677,1,8,0:0:0:0:
173,200,57758,1,8,0:0:0:0:
173,200,57840,1,8,0:0:0:0:
173,200,57921,1,8,0:0:0:0:
168,209,58003,1,0,0:0:0:0:
171,208,58084,1,0,0:0:0:0:
168,209,58166,1,8,0:0:0:0:
171,208,58247,1,8,0:0:0:0:
168,209,58329,1,4,0:0:0:0:
196,91,58655,1,8,0:0:0:0:
196,91,58818,1,0,0:0:0:0:
196,91,58899,1,0,0:0:0:0:
196,91,58981,1,8,0:0:0:0:
196,91,59144,1,0,0:0:0:0:
196,91,59307,1,8,0:0:0:0:
196,91,59470,1,0,0:0:0:0:
196,91,59552,1,0,0:0:0:0:
196,91,59633,1,8,0:0:0:0:
196,91,59796,1,0,0:0:0:0:
196,91,59959,1,8,0:0:0:0:
196,91,60041,1,8,0:0:0:0:
196,91,60122,1,0,0:0:0:0:
209,146,60285,1,8,0:0:0:0:
209,146,60367,1,8,0:0:0:0:
209,146,60448,1,0,0:0:0:0:
204,123,60530,1,0,0:0:0:0:
210,116,60611,1,8,0:0:0:0:
210,116,60774,1,0,0:0:0:0:
210,116,60937,1,12,0:0:0:0:
204,126,61264,1,8,0:0:0:0:
204,126,61427,1,0,0:0:0:0:
204,126,61508,1,8,0:0:0:0:
204,126,61590,1,0,0:0:0:0:
204,126,61753,1,0,0:0:0:0:
205,118,61916,1,8,0:0:0:0:
204,123,62079,1,0,0:0:0:0:
204,123,62242,1,8,0:0:0:0:
244,96,62568,1,8,0:0:0:0:
244,96,62731,1,0,0:0:0:0:
244,96,62812,1,8,0:0:0:0:
244,96,62894,1,0,0:0:0:0:
244,96,63057,1,0,0:0:0:0:
244,96,63220,1,8,0:0:0:0:
244,96,63302,1,0,0:0:0:0:
244,96,63383,1,0,0:0:0:0:
244,96,63465,1,0,0:0:0:0:
244,96,63546,1,12,0:0:0:0:
217,132,63872,1,8,0:0:0:0:
228,137,64035,1,0,0:0:0:0:
161,92,64117,1,0,0:0:0:0:
162,106,64198,1,0,0:0:0:0:
162,106,64361,1,0,0:0:0:0:
162,106,64524,1,8,0:0:0:0:
163,114,64687,1,0,0:0:0:0:
163,114,64851,1,12,0:0:0:0:
177,110,65177,1,8,0:0:0:0:
171,132,65340,1,0,0:0:0:0:
171,132,65421,1,0,0:0:0:0:
171,132,65503,1,8,0:0:0:0:
171,132,65584,1,0,0:0:0:0:
171,132,65666,1,8,0:0:0:0:
171,132,65747,1,8,0:0:0:0:
171,132,65829,1,0,0:0:0:0:
189,143,65992,1,0,0:0:0:0:
189,143,66155,1,8,0:0:0:0:
180,137,66318,1,0,0:0:0:0:
180,137,66481,1,0,0:0:0:0:
180,137,66644,1,8,0:0:0:0:
180,137,66726,1,8,0:0:0:0:
180,137,66807,1,0,0:0:0:0:
294,192,66970,1,0,0:0:0:0:
294,192,67133,1,8,0:0:0:0:
287,197,67296,1,0,0:0:0:0:
287,197,67378,1,8,0:0:0:0:
284,202,67459,1,0,0:0:0:0:
284,202,67622,1,0,0:0:0:0:
275,214,67785,1,8,0:0:0:0:
261,191,67948,1,0,0:0:0:0:
261,198,68111,1,8,0:0:0:0:
261,198,68193,1,8,0:0:0:0:
261,198,68274,1,8,0:0:0:0:
261,198,68356,1,8,0:0:0:0:
261,198,68437,1,0,0:0:0:0:
261,198,68519,1,0,0:0:0:0:
261,198,68600,1,0,0:0:0:0:
261,198,68682,1,0,0:0:0:0:
258,187,68764,1,12,0:0:0:0:
294,165,69090,1,8,0:0:0:0:
281,173,69416,1,8,0:0:0:0:
281,173,69497,1,0,0:0:0:0:
281,173,69579,1,8,0:0:0:0:
219,81,69660,1,8,0:0:0:0:
281,173,69742,1,0,0:0:0:0:
277,164,69905,1,12,0:0:0:0:
194,113,70231,1,0,0:0:0:0:
194,113,70312,1,0,0:0:0:0:
194,113,70394,1,8,0:0:0:0:
199,108,70557,1,0,0:0:0:0:
201,92,70720,1,8,0:0:0:0:
200,107,70883,1,0,0:0:0:0:
185,117,71046,1,0,0:0:0:0:
191,123,71209,1,8,0:0:0:0:
206,110,71372,1,4,0:0:0:0:
226,106,71698,1,8,0:0:0:0:
221,98,71861,1,8,0:0:0:0:
221,98,71943,1,8,0:0:0:0:
221,98,72024,1,0,0:0:0:0:
221,98,72106,1,0,0:0:0:0:
217,101,72187,1,8,0:0:0:0:
217,101,72351,1,8,0:0:0:0:
217,101,72514,1,4,0:0:0:0:
228,99,72840,1,0,0:0:0:0:
228,99,73003,1,8,0:0:0:0:
228,99,73166,1,0,0:0:0:0:
228,99,73247,1,0,0:0:0:0:
221,100,73329,1,8,0:0:0:0:
221,100,73410,1,8,0:0:0:0:
221,100,73492,1,0,0:0:0:0:
221,100,73573,1,0,0:0:0:0:
221,100,73655,1,8,0:0:0:0:
221,100,73736,1,8,0:0:0:0:
221,100,73818,1,8,0:0:0:0:
221,100,73899,1,8,0:0:0:0:
221,100,73981,1,4,0:0:0:0:
219,96,74307,1,0,0:0:0:0:
264,129,74633,1,8,0:0:0:0:
264,129,74796,1,0,0:0:0:0:
264,129,74878,1,0,0:0:0:0:
264,129,74959,1,0,0:0:0:0:
264,129,75122,1,12,0:0:0:0:
263,132,75448,1,0,0:0:0:0:
263,132,75611,1,8,0:0:0:0:
263,132,75774,1,0,0:0:0:0:
263,132,75856,1,0,0:0:0:0:
263,132,75937,1,8,0:0:0:0:
263,132,76019,1,8,0:0:0:0:
263,132,76101,1,8,0:0:0:0:
263,132,76182,1,0,0:0:0:0:
263,132,76264,1,0,0:0:0:0:
263,132,76427,1,0,0:0:0:0:
263,132,76590,1,12,0:0:0:0:
299,92,76916,1,8,0:0:0:0:
178,74,76997,1,8,0:0:0:0:
256,102,77079,1,0,0:0:0:0:
256,102,77160,1,0,0:0:0:0:
256,102,77242,1,8,0:0:0:0:
256,102,77323,1,0,0:0:0:0:
256,102,77405,1,8,0:0:0:0:
256,102,77568,1,8,0:0:0:0:
256,102,77731,1,4,0:0:0:0:
243,113,78057,1,0,0:0:0:0:
243,113,78220,1,8,0:0:0:0:
242,111,78302,1,8,0:0:0:0:
243,113,78383,1,0,0:0:0:0:
242,111,78465,1,0,0:0:0:0:
243,113,78546,1,8,0:0:0:0:
243,113,78709,1,8,0:0:0:0:
243,113,78872,1,0,0:0:0:0:
243,113,79035,1,8,0:0:0:0:
243,113,79198,1,4,0:0:0:0:
242,111,79524,1,0,0:0:0:0:
242,111,79851,1,8,0:0:0:0:
192,95,79932,1,0,0:0:0:0:
242,111,80014,1,8,0:0:0:0:
242,111,80177,1,0,0:0:0:0:
242,111,80340,1,8,0:0:0:0:
147,115,80421,1,8,0:0:0:0:
152,129,80503,1,0,0:0:0:0:
206,92,80666,1,0,0:0:0:0:
206,92,80829,1,8,0:0:0:0:
206,92,80992,1,0,0:0:0:0:
195,61,81073,1,8,0:0:0:0:
206,92,81155,1,0,0:0:0:0:
206,92,81318,1,0,0:0:0:0:
206,92,81399,1,0,0:0:0:0:
206,92,81481,1,8,0:0:0:0:
203,104,81562,1,0,0:0:0:0:
206,92,81644,1,0,0:0:0:0:
208,94,81726,1,0,0:0:0:0:
206,92,81807,1,12,0:0:0:0:
236,78,82133,1,8,0:0:0:0:
236,78,82214,1,8,0:0:0:0:
236,78,82296,1,0,0:0:0:0:
236,78,82459,1,8,0:0:0:0:
236,78,82541,1,0,0:0:0:0:
236,78,82622,1,8,0:0:0:0:
236,78,82785,1,8,0:0:0:0:
236,78,82948,1,0,0:0:0:0:
123,144,83030,1,0,0:0:0:0:
127,154,83111,1,0,0:0:0:0:
199,125,83274,1,0,0:0:0:0:
168,67,83356,1,0,0:0:0:0:
199,125,83437,1,8,0:0:0:0:
199,125,83601,1,8,0:0:0:0:
199,125,83682,1,0,0:0:0:0:
199,125,83764,1,8,0:0:0:0:
199,125,83927,1,0,0:0:0:0:
199,125,84090,1,8,0:0:0:0:
199,125,84171,1,8,0:0:0:0:
199,125,84253,1,8,0:0:0:0:
199,125,84334,1,8,0:0:0:0:
184,123,84416,1,4,0:0:0:0:
195,135,84742,1,8,0:0:0:0:
134,116,84905,1,8,0:0:0:0:
179,104,85068,1,0,0:0:0:0:
180,111,85231,1,0,0:0:0:0:
180,111,85312,1,0,0:0:0:0:
180,111,85394,1,8,0:0:0:0:
180,111,85557,1,8,0:0:0:0:
124,120,85720,1,0,0:0:0:0:
172,137,85883,1,0,0:0:0:0:
172,137,86046,1,8,0:0:0:0:
157,134,86128,1,8,0:0:0:0:
157,134,86209,1,0,0:0:0:0:
157,134,86291,1,0,0:0:0:0:
157,134,86372,1,8,0:0:0:0:
157,134,86535,1,0,0:0:0:0:
157,134,86698,1,8,0:0:0:0:
157,134,86861,1,8,0:0:0:0:
157,134,87024,1,4,0:0:0:0:
157,134,87187,1,8,0:0:0:0:
157,134,87269,1,8,0:0:0:0:
157,134,87351,1,8,0:0:0:0:
157,134,87432,1,8,0:0:0:0:
157,134,87514,1,4,0:0:0:0:
157,134,87677,1,0,0:0:0:0:
157,134,87759,1,0,0:0:0:0:
157,134,87841,1,0,0:0:0:0:
157,134,87922,1,0,0:0:0:0:
253,120,88003,1,12,0:0:0:0:
225,80,88166,1,8,0:0:0:0:
225,80,88247,1,8,0:0:0:0:
225,80,88329,1,0,0:0:0:0:
225,80,88410,1,0,0:0:0:0:
225,80,88492,1,8,0:0:0:0:
225,80,88573,1,0,0:0:0:0:
225,80,88655,1,8,0:0:0:0:
225,80,88736,1,8,0:0:0:0:
225,80,88818,1,0,0:0:0:0:
225,80,88899,1,8,0:0:0:0:
210,65,88981,1,8,0:0:0:0:
210,65,89062,1,8,0:0:0:0:
210,65,89144,1,0,0:0:0:0:
210,65,89226,1,0,0:0:0:0:
210,65,89307,1,8,0:0:0:0:
210,65,89389,1,0,0:0:0:0:
210,65,89470,1,0,0:0:0:0:
210,65,89552,1,0,0:0:0:0:
210,65,89633,1,12,0:0:0:0:
183,105,89796,1,0,0:0:0:0:
183,105,89959,1,8,0:0:0:0:
183,105,90122,1,0,0:0:0:0:
183,105,90204,1,0,0:0:0:0:
183,105,90285,1,8,0:0:0:0:
183,105,90367,1,0,0:0:0:0:
183,105,90448,1,8,0:0:0:0:
183,105,90530,1,8,0:0:0:0:
183,105,90611,1,0,0:0:0:0:
183,105,90693,1,8,0:0:0:0:
183,105,90774,1,8,0:0:0:0:
183,105,90856,1,8,0:0:0:0:
183,105,90937,1,4,0:0:0:0:
170,107,91753,1,0,0:0:0:0:
176,78,91916,1,8,0:0:0:0:
179,74,92242,1,12,0:0:0:0:
230,140,92405,1,8,0:0:0:0:
230,140,92568,1,0,0:0:0:0:
230,140,92649,1,0,0:0:0:0:
230,140,92731,1,8,0:0:0:0:
204,71,92812,1,0,0:0:0:0:
217,132,92894,1,8,0:0:0:0:
231,114,93057,1,0,0:0:0:0:
225,107,93220,1,8,0:0:0:0:
229,124,93302,1,0,0:0:0:0:
242,136,93383,1,8,0:0:0:0:
241,127,93465,1,8,0:0:0:0:
240,127,93546,1,0,0:0:0:0:
141,48,93628,1,0,0:0:0:0:
240,127,93709,1,8,0:0:0:0:
240,127,93791,1,0,0:0:0:0:
240,127,93872,1,8,0:0:0:0:
240,127,94035,1,0,0:0:0:0:
246,137,94198,1,8,0:0:0:0:
246,137,94361,1,0,0:0:0:0:
246,137,94443,1,0,0:0:0:0:
246,137,94524,1,8,0:0:0:0:
243,131,94606,1,8,0:0:0:0:
246,137,94687,1,8,0:0:0:0:
225,67,94769,1,8,0:0:0:0:
215,107,94851,1,0,0:0:0:0:
210,115,95177,1,8,0:0:0:0:
195,168,95340,1,0,0:0:0:0:
195,168,95421,1,8,0:0:0:0:
195,168,95503,1,0,0:0:0:0:
195,168,95666,1,0,0:0:0:0:
190,164,95829,1,8,0:0:0:0:
190,164,95992,1,8,0:0:0:0:
226,89,96073,1,8,0:0:0:0:
190,164,96155,1,0,0:0:0:0:
190,164,96318,1,0,0:0:0:0:
190,164,96399,1,0,0:0:0:0:
190,164,96481,1,8,0:0:0:0:
190,164,96644,1,0,0:0:0:0:
190,164,96807,1,8,0:0:0:0:
190,164,96889,1,8,0:0:0:0:
190,164,96970,1,0,0:0:0:0:
190,164,97052,1,0,0:0:0:0:
179,156,97133,1,8,0:0:0:0:
182,160,97215,1,8,0:0:0:0:
182,160,97296,1,8,0:0:0:0:
182,160,97378,1,8,0:0:0:0:
156,113,97459,1,4,0:0:0:0:
228,184,97622,1,0,0:0:0:0:
236,143,97785,1,8,0:0:0:0:
236,143,97867,1,0,0:0:0:0:
236,143,97948,1,8,0:0:0:0:
236,143,98030,1,8,0:0:0:0:
236,143,98111,1,0,0:0:0:0:
236,143,98274,1,0,0:0:0:0:
236,143,98437,1,8,0:0:0:0:
236,143,98519,1,8,0:0:0:0:
236,143,98601,1,0,0:0:0:0:
236,143,98682,1,0,0:0:0:0:
236,143,98764,1,8,0:0:0:0:
236,143,98845,1,0,0:0:0:0:
236,143,98927,1,8,0:0:0:0:
236,143,99008,1,8,0:0:0:0:
236,143,99090,1,0,0:0:0:0:
236,143,99253,1,0,0:0:0:0:
236,143,99416,1,8,0:0:0:0:
236,143,99579,1,0,0:0:0:0:
236,143,99742,1,8,0:0:0:0:
236,143,99823,1,8,0:0:0:0:
236,143,99905,1,8,0:0:0:0:
236,143,99986,1,8,0:0:0:0:
236,143,100068,1,4,0:0:0:0:
267,142,100394,1,8,0:0:0:0:
258,136,100557,1,0,0:0:0:0:
258,136,100639,1,8,0:0:0:0:
258,136,100720,1,0,0:0:0:0:
245,132,100883,1,0,0:0:0:0:
231,127,100965,1,0,0:0:0:0:
231,127,101046,1,8,0:0:0:0:
209,100,101209,1,8,0:0:0:0:
209,100,101291,1,8,0:0:0:0:
209,100,101372,1,4,0:0:0:0:
209,100,101535,1,4,0:0:0:0:
211,101,101861,1,4,0:0:0:0:
211,101,102187,1,12,0:0:0:0:
211,101,102351,1,8,0:0:0:0:
206,104,102514,1,4,0:0:0:0:
187,85,102840,1,0,0:0:0:0:
187,85,102921,1,0,0:0:0:0:
187,85,103003,1,8,0:0:0:0:
187,85,103166,1,0,0:0:0:0:
185,74,103329,1,8,0:0:0:0:
185,74,103410,1,8,0:0:0:0:
185,81,103492,1,0,0:0:0:0:
185,81,103655,1,8,0:0:0:0:
187,86,103818,1,8,0:0:0:0:
187,86,103899,1,8,0:0:0:0:
187,86,103981,1,0,0:0:0:0:
187,86,104062,1,0,0:0:0:0:
187,86,104144,1,8,0:0:0:0:
187,86,104226,1,0,0:0:0:0:
187,86,104307,1,8,0:0:0:0:
187,86,104470,1,0,0:0:0:0:
190,100,104633,1,8,0:0:0:0:
190,100,104796,1,0,0:0:0:0:
190,90,104959,1,8,0:0:0:0:
226,105,105041,1,8,0:0:0:0:
190,90,105122,1,8,0:0:0:0:
221,112,105204,1,8,0:0:0:0:
190,90,105285,1,0,0:0:0:0:
209,115,105611,1,8,0:0:0:0:
209,149,105774,1,0,0:0:0:0:
209,149,105856,1,8,0:0:0:0:
209,149,105937,1,0,0:0:0:0:
208,137,106101,1,0,0:0:0:0:
208,137,106264,1,8,0:0:0:0:
141,86,106345,1,0,0:0:0:0:
208,137,106427,1,0,0:0:0:0:
208,137,106508,1,0,0:0:0:0:
208,137,106590,1,12,0:0:0:0:
208,137,106753,1,0,0:0:0:0:
203,98,106916,1,12,0:0:0:0:
201,118,107079,1,0,0:0:0:0:
201,118,107242,1,8,0:0:0:0:
201,118,107323,1,8,0:0:0:0:
201,118,107405,1,0,0:0:0:0:
201,118,107486,1,0,0:0:0:0:
201,118,107568,1,8,0:0:0:0:
201,118,107649,1,8,0:0:0:0:
201,118,107731,1,8,0:0:0:0:
201,118,107812,1,8,0:0:0:0:
201,118,107894,1,4,0:0:0:0:
212,70,108220,1,8,0:0:0:0:
211,76,108383,1,0,0:0:0:0:
239,71,108465,1,8,0:0:0:0:
246,81,108546,1,0,0:0:0:0:
246,81,108709,1,0,0:0:0:0:
246,81,108791,1,0,0:0:0:0:
246,81,108872,1,8,0:0:0:0:
246,81,108954,1,0,0:0:0:0:
246,81,109117,1,0,0:0:0:0:
246,68,109198,1,8,0:0:0:0:
204,73,109361,1,8,0:0:0:0:
204,73,109524,1,0,0:0:0:0:
204,73,109687,1,0,0:0:0:0:
163,67,109769,1,0,0:0:0:0:
204,73,109851,1,8,0:0:0:0:
204,73,110014,1,0,0:0:0:0:
204,73,110095,1,0,0:0:0:0:
204,73,110177,1,8,0:0:0:0:
204,73,110258,1,8,0:0:0:0:
204,73,110340,1,8,0:0:0:0:
204,73,110421,1,8,0:0:0:0:
204,73,110503,1,0,0:0:0:0:
247,71,110666,1,8,0:0:0:0:
247,110,110829,1,0,0:0:0:0:
247,110,110910,1,0,0:0:0:0:
247,110,110992,1,0,0:0:0:0:
247,110,111073,1,0,0:0:0:0:
247,110,111155,1,0,0:0:0:0:
247,110,111318,1,0,0:0:0:0:
247,145,111399,1,0,0:0:0:0:
247,145,111481,1,8,0:0:0:0:
247,145,111644,1,8,0:0:0:0:
188,94,111807,1,8,0:0:0:0:
188,94,111889,1,8,0:0:0:0:
188,94,111970,1,0,0:0:0:0:
228,57,112052,1,0,0:0:0:0:
238,95,112133,1,8,0:0:0:0:
238,95,112296,1,0,0:0:0:0:
179,106,112459,1,12,0:0:0:0:
179,106,112785,1,4,0:0:0:0:
179,106,113111,1,12,0:0:0:0:
215,133,113274,1,0,0:0:0:0:
215,133,113437,1,0,0:0:0:0:
215,133,113601,1,8,0:0:0:0:
215,133,113682,1,0,0:0:0:0:
215,133,113764,1,8,0:0:0:0:
215,133,113845,1,8,0:0:0:0:
215,133,113927,1,0,0:0:0:0:
208,124,114090,1,0,0:0:0:0:
208,124,114253,1,8,0:0:0:0:
208,124,114334,1,8,0:0:0:0:
208,124,114416,1,0,0:0:0:0:
208,124,114579,1,0,0:0:0:0:
209,118,114742,1,8,0:0:0:0:
209,118,114823,1,8,0:0:0:0:
209,118,114905,1,0,0:0:0:0:
209,118,114986,1,0,0:0:0:0:
209,118,115068,1,8,0:0:0:0:
206,96,115231,1,0,0:0:0:0:
217,98,115394,1,8,0:0:0:0:
217,98,115476,1,8,0:0:0:0:
217,98,115557,1,8,0:0:0:0:
217,98,115639,1,8,0:0:0:0:
172,98,115720,1,0,0:0:0:0:
172,98,115883,1,8,0:0:0:0:
180,101,116046,1,0,0:0:0:0:
180,101,116209,1,8,0:0:0:0:
180,101,116291,1,0,0:0:0:0:
180,101,116372,1,8,0:0:0:0:
180,101,116454,1,8,0:0:0:0:
180,101,116535,1,0,0:0:0:0:
180,101,116698,1,8,0:0:0:0:
180,101,116780,1,8,0:0:0:0:
180,101,116861,1,0,0:0:0:0:
189,98,117024,1,4,0:0:0:0:
193,105,117187,1,8,0:0:0:0:
203,116,117351,1,0,0:0:0:0:
203,116,117432,1,0,0:0:0:0:
203,116,117514,1,8,0:0:0:0:
225,112,117677,1,4,0:0:0:0:
225,112,117840,1,8,0:0:0:0:
225,112,118003,1,0,0:0:0:0:
225,112,118084,1,0,0:0:0:0:
225,112,118166,1,8,0:0:0:0:
225,97,118329,1,12,0:0:0:0:
239,203,118492,1,0,0:0:0:0:
229,178,118655,1,0,0:0:0:0:
229,178,118736,1,0,0:0:0:0:
229,178,118818,1,8,0:0:0:0:
223,134,118899,1,0,0:0:0:0:
229,178,118981,1,8,0:0:0:0:
220,137,119144,1,0,0:0:0:0:
194,145,119226,1,0,0:0:0:0:
188,145,119307,1,0,0:0:0:0:
198,144,119470,1,8,0:0:0:0:
198,144,119552,1,0,0:0:0:0:
198,144,119633,1,8,0:0:0:0:
198,144,119796,1,0,0:0:0:0:
198,144,119878,1,0,0:0:0:0:
198,144,119959,1,8,0:0:0:0:
198,144,120041,1,8,0:0:0:0:
198,144,120122,1,0,0:0:0:0:
198,144,120285,1,8,0:0:0:0:
198,144,120448,1,0,0:0:0:0:
198,144,120530,1,0,0:0:0:0:
214,110,120611,1,0,0:0:0:0:
214,110,120774,1,8,0:0:0:0:
192,108,120937,1,4,0:0:0:0:
237,127,121101,1,8,0:0:0:0:
237,127,121264,1,0,0:0:0:0:
237,127,121427,1,8,0:0:0:0:
232,125,121508,1,8,0:0:0:0:
232,125,121590,1,0,0:0:0:0:
232,125,121671,1,0,0:0:0:0:
232,125,121753,1,8,0:0:0:0:
232,125,121916,1,8,0:0:0:0:
200,160,121997,1,8,0:0:0:0:
232,125,122079,1,8,0:0:0:0:
232,125,122160,1,8,0:0:0:0:
232,125,122242,1,4,0:0:0:0:
224,159,122405,1,0,0:0:0:0:
222,149,122568,1,8,0:0:0:0:
222,149,122649,1,0,0:0:0:0:
222,149,122731,1,8,0:0:0:0:
204,87,122894,1,0,0:0:0:0:
203,97,122976,1,8,0:0:0:0:
201,97,123057,1,8,0:0:0:0:
203,97,123139,1,8,0:0:0:0:
201,97,123220,1,0,0:0:0:0:
201,97,123302,1,0,0:0:0:0:
201,97,123383,1,0,0:0:0:0:
201,97,123465,1,0,0:0:0:0:
201,97,123546,1,12,0:0:0:0:
196,191,123709,1,0,0:0:0:0:
196,191,123872,1,0,0:0:0:0:
196,191,124035,1,8,0:0:0:0:
196,191,124117,1,0,0:0:0:0:
200,198,124198,1,8,0:0:0:0:
200,195,124280,1,8,0:0:0:0:
200,198,124361,1,0,0:0:0:0:
200,198,124524,1,0,0:0:0:0:
204,195,124687,1,8,0:0:0:0:
204,195,124769,1,8,0:0:0:0:
204,195,124851,1,0,0:0:0:0:
204,195,125014,1,0,0:0:0:0:
204,195,125177,1,8,0:0:0:0:
204,195,125340,1,0,0:0:0:0:
204,195,125421,1,0,0:0:0:0:
204,195,125503,1,8,0:0:0:0:
204,195,125666,1,8,0:0:0:0:
204,195,125829,1,0,0:0:0:0:
204,195,125910,1,0,0:0:0:0:
204,195,125992,1,0,0:0:0:0:
204,195,126073,1,0,0:0:0:0:
204,195,126155,1,8,0:0:0:0:
185,211,126318,1,8,0:0:0:0:
185,211,126481,1,0,0:0:0:0:
185,211,126644,1,8,0:0:0:0:
185,211,126726,1,0,0:0:0:0:
185,211,126807,1,8,0:0:0:0:
185,211,126889,1,8,0:0:0:0:
185,211,126970,1,0,0:0:0:0:
185,211,127052,1,0,0:0:0:0:
185,211,127133,1,8,0:0:0:0:
185,211,127296,1,0,0:0:0:0:
185,211,127459,1,12,0:0:0:0:
220,212,127622,1,0,0:0:0:0:
220,212,127785,1,8,0:0:0:0:
220,212,127948,1,0,0:0:0:0:
250,141,128111,1,8,0:0:0:0:
250,141,128193,1,8,0:0:0:0:
250,141,128274,1,8,0:0:0:0:
250,141,128437,1,8,0:0:0:0:
250,141,128519,1,8,0:0:0:0:
250,141,128600,1,8,0:0:0:0:
182,180,128764,1,4,0:0:0:0:
164,127,128927,1,0,0:0:0:0:
172,114,129008,1,0,0:0:0:0:
174,130,129090,1,0,0:0:0:0:
172,114,129253,1,8,0:0:0:0:
172,114,129334,1,0,0:0:0:0:
172,114,129416,1,8,0:0:0:0:
172,114,129579,1,0,0:0:0:0:
172,114,129742,1,0,0:0:0:0:
172,114,129905,1,8,0:0:0:0:
172,114,129986,1,8,0:0:0:0:
172,114,130068,1,0,0:0:0:0:
172,114,130231,1,8,0:0:0:0:
172,114,130394,1,0,0:0:0:0:
172,114,130476,1,0,0:0:0:0:
172,114,130557,1,8,0:0:0:0:
172,114,130639,1,0,0:0:0:0:
172,114,130720,1,8,0:0:0:0:
172,114,130883,1,0,0:0:0:0:
184,117,130965,1,0,0:0:0:0:
184,117,131046,1,8,0:0:0:0:
184,117,131128,1,8,0:0:0:0:
184,117,131209,1,8,0:0:0:0:
184,117,131291,1,8,0:0:0:0:
184,117,131372,1,4,0:0:0:0:
174,129,131535,1,8,0:0:0:0:
174,129,131698,1,0,0:0:0:0:
174,129,131780,1,0,0:0:0:0:
174,129,131861,1,8,0:0:0:0:
174,129,132024,1,0,0:0:0:0:
174,129,132106,1,0,0:0:0:0:
174,129,132187,1,8,0:0:0:0:
186,113,132351,1,0,0:0:0:0:
178,138,132432,1,8,0:0:0:0:
186,113,132514,1,8,0:0:0:0:
182,117,132677,1,4,0:0:0:0:
180,112,132840,1,0,0:0:0:0:
180,112,133003,1,8,0:0:0:0:
180,112,133084,1,0,0:0:0:0:
180,112,133166,1,8,0:0:0:0:
210,85,133329,1,0,0:0:0:0:
224,102,133492,1,8,0:0:0:0:
224,102,133573,1,8,0:0:0:0:
215,99,133655,1,0,0:0:0:0:
215,99,133736,1,8,0:0:0:0:
215,99,133818,1,8,0:0:0:0:
215,99,133899,1,8,0:0:0:0:
215,99,133981,1,4,0:0:0:0:
146,99,134144,1,0,0:0:0:0:
146,99,134307,1,8,0:0:0:0:
146,104,134470,1,0,0:0:0:0:
146,104,134552,1,0,0:0:0:0:
146,104,134633,1,8,0:0:0:0:
146,104,134715,1,8,0:0:0:0:
146,104,134796,1,0,0:0:0:0:
146,104,134959,1,8,0:0:0:0:
146,104,135122,1,0,0:0:0:0:
146,104,135285,1,8,0:0:0:0:
146,104,135448,1,0,0:0:0:0:
146,104,135611,1,8,0:0:0:0:
146,104,135693,1,8,0:0:0:0:
146,104,135774,1,0,0:0:0:0:
146,104,135937,1,8,0:0:0:0:
146,104,136019,1,0,0:0:0:0:
146,104,136101,1,8,0:0:0:0:
146,104,136182,1,8,0:0:0:0:
146,104,136264,1,0,0:0:0:0:
146,104,136427,1,0,0:0:0:0:
140,102,136590,1,8,0:0:0:0:
173,59,136753,1,0,0:0:0:0:
173,65,136916,1,8,0:0:0:0:
173,65,137079,1,0,0:0:0:0:
173,65,137160,1,0,0:0:0:0:
173,65,137242,1,8,0:0:0:0:
173,65,137323,1,8,0:0:0:0:
173,65,137405,1,0,0:0:0:0:
173,65,137568,1,8,0:0:0:0:
173,65,137731,1,8,0:0:0:0:
165,67,137894,1,4,0:0:0:0:
161,72,138057,1,4,0:0:0:0:
161,72,138383,1,12,0:0:0:0:
344,112,138546,1,8,0:0:0:0:
278,187,138628,5,8,0:0:0:0:
161,72,138709,1,0,0:0:0:0:
161,72,138872,1,8,0:0:0:0:
157,68,139035,1,8,0:0:0:0:
152,93,139198,1,4,0:0:0:0:
164,112,139361,1,8,0:0:0:0:
164,112,139443,1,8,0:0:0:0:
164,112,139524,1,0,0:0:0:0:
164,112,139687,1,8,0:0:0:0:
154,94,139851,1,8,0:0:0:0:
146,99,139932,1,0,0:0:0:0:
146,99,140014,1,0,0:0:0:0:
146,99,140177,1,8,0:0:0:0:
146,99,140258,1,8,0:0:0:0:
146,99,140340,1,0,0:0:0:0:
186,76,140503,1,8,0:0:0:0:
186,76,140666,1,0,0:0:0:0:
186,76,140829,1,12,0:0:0:0:
235,128,141155,1,0,0:0:0:0:
235,128,141318,1,0,0:0:0:0:
235,128,141399,1,0,0:0:0:0:
224,118,141481,1,8,0:0:0:0:
224,118,141644,1,8,0:0:0:0:
224,118,141807,1,4,0:0:0:0:
157,137,143111,1,0,0:0:0:0:
215,100,143220,1,8,0:0:0:0:
215,100,143329,1,8,0:0:0:0:
194,73,143437,1,0,0:0:0:0:
194,73,143546,1,0,0:0:0:0:
193,78,143655,1,0,0:0:0:0:
185,79,143764,1,8,0:0:0:0:
185,79,143872,1,8,0:0:0:0:
185,79,143981,1,0,0:0:0:0:
185,79,144090,1,8,0:0:0:0:
185,79,144198,1,0,0:0:0:0:
184,92,144307,1,0,0:0:0:0:
184,99,144416,1,12,0:0:0:0:
278,132,144742,1,8,0:0:0:0:
278,132,144905,1,0,0:0:0:0:
278,132,144986,1,0,0:0:0:0:
273,130,145068,1,8,0:0:0:0:
273,130,145231,1,0,0:0:0:0:
273,130,145394,1,8,0:0:0:0:
273,130,145476,1,8,0:0:0:0:
273,130,145557,1,0,0:0:0:0:
262,128,145720,1,8,0:0:0:0:
262,128,145883,1,0,0:0:0:0:
262,128,146046,1,8,0:0:0:0:
262,128,146209,1,0,0:0:0:0:
262,128,146291,1,0,0:0:0:0:
262,128,146372,1,8,0:0:0:0:
262,128,146454,1,0,0:0:0:0:
262,128,146535,1,8,0:0:0:0:
262,128,146617,1,8,0:0:0:0:
262,128,146698,1,0,0:0:0:0:
262,128,146861,1,0,0:0:0:0:
239,153,147024,1,12,0:0:0:0:
239,149,147351,1,8,0:0:0:0:
239,149,147514,1,0,0:0:0:0:
239,149,147595,1,0,0:0:0:0:
239,149,147677,1,0,0:0:0:0:
239,149,147840,1,8,0:0:0:0:
239,149,147921,1,0,0:0:0:0:
239,149,148003,1,8,0:0:0:0:
239,149,148084,1,8,0:0:0:0:
239,149,148166,1,0,0:0:0:0:
236,155,148329,1,12,0:0:0:0:
238,163,148655,1,8,0:0:0:0:
238,163,148818,1,8,0:0:0:0:
238,163,148899,1,8,0:0:0:0:
238,163,148981,1,0,0:0:0:0:
238,163,149144,1,0,0:0:0:0:
238,163,149226,1,0,0:0:0:0:
238,163,149307,1,8,0:0:0:0:
238,163,149389,1,0,0:0:0:0:
238,163,149470,1,0,0:0:0:0:
238,163,149552,1,0,0:0:0:0:
238,163,149633,1,12,0:0:0:0:
208,135,149959,1,8,0:0:0:0:
208,135,150122,1,0,0:0:0:0:
208,135,150204,1,0,0:0:0:0:
208,135,150285,1,0,0:0:0:0:
208,135,150448,1,0,0:0:0:0:
208,135,150611,1,8,0:0:0:0:
208,135,150774,1,0,0:0:0:0:
208,135,150937,1,12,0:0:0:0:
198,116,151264,1,8,0:0:0:0:
198,116,151427,1,8,0:0:0:0:
198,116,151508,1,8,0:0:0:0:
198,116,151590,1,0,0:0:0:0:
198,116,151671,1,8,0:0:0:0:
198,116,151753,1,0,0:0:0:0:
198,116,151834,1,0,0:0:0:0:
198,116,151916,1,8,0:0:0:0:
183,115,152079,1,8,0:0:0:0:
183,115,152242,1,4,0:0:0:0:
183,115,152568,1,0,0:0:0:0:
232,139,152731,1,12,0:0:0:0:
225,146,153057,1,8,0:0:0:0:
227,122,153220,1,4,0:0:0:0:
221,123,153546,1,12,0:0:0:0:
221,123,153709,1,0,0:0:0:0:
221,123,153791,1,0,0:0:0:0:
221,123,153872,1,0,0:0:0:0:
221,123,154035,1,0,0:0:0:0:
221,123,154198,1,8,0:0:0:0:
216,118,154280,1,8,0:0:0:0:
301,198,154361,1,0,0:0:0:0:
301,198,154443,1,0,0:0:0:0:
291,190,154524,1,0,0:0:0:0:
291,190,154606,1,0,0:0:0:0:
291,190,154687,1,0,0:0:0:0:
291,190,154769,1,0,0:0:0:0:
258,187,154851,1,12,0:0:0:0:
294,165,155177,1,8,0:0:0:0:
281,173,155503,1,8,0:0:0:0:
281,173,155584,1,0,0:0:0:0:
280,101,155666,1,0,0:0:0:0:
219,81,155747,1,0,0:0:0:0:
281,173,155829,1,8,0:0:0:0:
277,164,155992,1,4,0:0:0:0:
194,113,156318,1,0,0:0:0:0:
194,113,156399,1,0,0:0:0:0:
194,113,156481,1,8,0:0:0:0:
228,114,156562,1,8,0:0:0:0:
199,108,156644,1,0,0:0:0:0:
201,92,156807,1,8,0:0:0:0:
200,107,156970,1,0,0:0:0:0:
185,117,157133,1,0,0:0:0:0:
191,123,157296,1,8,0:0:0:0:
206,110,157459,1,4,0:0:0:0:
226,106,157785,1,8,0:0:0:0:
221,98,157948,1,8,0:0:0:0:
221,98,158111,1,0,0:0:0:0:
221,98,158193,1,0,0:0:0:0:
217,101,158274,1,8,0:0:0:0:
217,101,158438,1,8,0:0:0:0:
217,101,158601,1,4,0:0:0:0:
228,99,158927,1,0,0:0:0:0:
228,99,159090,1,8,0:0:0:0:
228,99,159253,1,0,0:0:0:0:
228,99,159334,1,0,0:0:0:0:
221,100,159416,1,8,0:0:0:0:
221,100,159497,1,0,0:0:0:0:
221,100,159579,1,8,0:0:0:0:
221,100,159660,1,8,0:0:0:0:
221,100,159742,1,0,0:0:0:0:
221,100,159823,1,0,0:0:0:0:
221,100,159905,1,0,0:0:0:0:
221,100,159986,1,0,0:0:0:0:
221,100,160068,1,12,0:0:0:0:
219,96,160394,1,8,0:0:0:0:
264,129,160720,1,0,0:0:0:0:
264,129,160883,1,8,0:0:0:0:
264,129,160965,1,8,0:0:0:0:
264,129,161046,1,0,0:0:0:0:
264,129,161209,1,12,0:0:0:0:
263,132,161535,1,0,0:0:0:0:
263,132,161698,1,8,0:0:0:0:
263,132,161861,1,0,0:0:0:0:
263,132,162024,1,8,0:0:0:0:
263,132,162106,1,0,0:0:0:0:
263,132,162187,1,0,0:0:0:0:
263,132,162351,1,8,0:0:0:0:
263,132,162514,1,8,0:0:0:0:
263,132,162677,1,4,0:0:0:0:
191,133,162840,1,0,0:0:0:0:
191,133,162921,1,0,0:0:0:0:
299,92,163003,1,8,0:0:0:0:
178,74,163084,1,0,0:0:0:0:
256,102,163166,1,8,0:0:0:0:
256,102,163247,1,8,0:0:0:0:
256,102,163329,1,0,0:0:0:0:
256,102,163410,1,0,0:0:0:0:
256,102,163492,1,8,0:0:0:0:
256,102,163655,1,8,0:0:0:0:
256,102,163818,1,4,0:0:0:0:
243,113,164144,1,0,0:0:0:0:
243,113,164307,1,0,0:0:0:0:
242,111,164389,1,0,0:0:0:0:
243,113,164470,1,8,0:0:0:0:
242,111,164552,1,0,0:0:0:0:
243,113,164633,1,8,0:0:0:0:
243,113,164796,1,8,0:0:0:0:
243,113,164959,1,0,0:0:0:0:
243,113,165122,1,8,0:0:0:0:
243,113,165285,1,4,0:0:0:0:
242,111,165611,1,0,0:0:0:0:
203,27,165774,1,0,0:0:0:0:
242,111,165938,1,8,0:0:0:0:
192,95,166019,1,0,0:0:0:0:
242,111,166101,1,8,0:0:0:0:
208,150,166182,1,8,0:0:0:0:
242,111,166264,1,0,0:0:0:0:
242,111,166427,1,8,0:0:0:0:
213,143,166590,1,0,0:0:0:0:
206,92,166753,1,0,0:0:0:0:
206,92,166916,1,8,0:0:0:0:
206,92,167079,1,8,0:0:0:0:
195,61,167160,1,8,0:0:0:0:
206,92,167242,1,0,0:0:0:0:
206,92,167405,1,0,0:0:0:0:
206,92,167486,1,0,0:0:0:0:
206,92,167568,1,8,0:0:0:0:
203,104,167649,1,8,0:0:0:0:
206,92,167731,1,8,0:0:0:0:
208,94,167813,1,8,0:0:0:0:
206,92,167894,1,4,0:0:0:0:
236,78,168220,1,8,0:0:0:0:
236,78,168302,1,0,0:0:0:0:
236,78,168383,1,0,0:0:0:0:
236,78,168546,1,8,0:0:0:0:
236,78,168628,1,0,0:0:0:0:
236,78,168709,1,8,0:0:0:0:
171,30,168791,1,8,0:0:0:0:
236,78,168872,1,0,0:0:0:0:
236,78,169035,1,0,0:0:0:0:
232,148,169198,1,8,0:0:0:0:
199,125,169361,1,0,0:0:0:0:
168,67,169443,1,0,0:0:0:0:
199,125,169524,1,8,0:0:0:0:
199,125,169688,1,8,0:0:0:0:
199,125,169769,1,0,0:0:0:0:
199,125,169851,1,8,0:0:0:0:
199,125,170014,1,0,0:0:0:0:
199,125,170177,1,8,0:0:0:0:
199,125,170258,1,8,0:0:0:0:
199,125,170340,1,8,0:0:0:0:
199,125,170421,1,8,0:0:0:0:
184,123,170503,1,4,0:0:0:0:
195,135,170829,1,8,0:0:0:0:
185,153,170992,1,0,0:0:0:0:
179,104,171155,1,8,0:0:0:0:
180,111,171318,1,8,0:0:0:0:
180,111,171399,1,8,0:0:0:0:
180,111,171481,1,0,0:0:0:0:
180,111,171644,1,8,0:0:0:0:
178,99,171807,1,0,0:0:0:0:
172,137,171970,1,0,0:0:0:0:
175,98,172052,1,0,0:0:0:0:
172,137,172133,1,8,0:0:0:0:
157,134,172296,1,0,0:0:0:0:
157,134,172378,1,0,0:0:0:0:
157,134,172459,1,8,0:0:0:0:
157,134,172541,1,8,0:0:0:0:
157,134,172622,1,0,0:0:0:0:
157,134,172785,1,8,0:0:0:0:
157,134,172948,1,8,0:0:0:0:
157,134,173111,1,4,0:0:0:0:
157,134,173274,1,8,0:0:0:0:
157,134,173356,1,8,0:0:0:0:
157,134,173438,1,8,0:0:0:0:
157,134,173519,1,8,0:0:0:0:
157,134,173601,1,4,0:0:0:0:
157,134,173764,1,0,0:0:0:0:
157,134,173846,1,0,0:0:0:0:
157,134,173928,1,0,0:0:0:0:
157,134,174009,1,0,0:0:0:0:
253,120,174090,1,12,0:0:0:0:
225,80,174253,1,8,0:0:0:0:
225,80,174334,1,8,0:0:0:0:
225,80,174416,1,0,0:0:0:0:
225,80,174497,1,0,0:0:0:0:
225,80,174579,1,8,0:0:0:0:
225,80,174660,1,8,0:0:0:0:
225,80,174742,1,0,0:0:0:0:
225,80,174823,1,8,0:0:0:0:
225,80,174905,1,0,0:0:0:0:
225,80,174986,1,8,0:0:0:0:
210,65,175068,1,8,0:0:0:0:
210,65,175149,1,8,0:0:0:0:
210,65,175231,1,0,0:0:0:0:
210,65,175313,1,8,0:0:0:0:
210,65,175394,1,8,0:0:0:0:
210,65,175476,1,0,0:0:0:0:
210,65,175557,1,0,0:0:0:0:
210,65,175639,1,0,0:0:0:0:
210,65,175720,1,12,0:0:0:0:
240,120,175883,1,8,0:0:0:0:
240,120,175965,1,8,0:0:0:0:
240,120,176046,1,0,0:0:0:0:
240,120,176128,1,0,0:0:0:0:
240,120,176209,1,8,0:0:0:0:
240,120,176291,1,0,0:0:0:0:
240,120,176372,1,8,0:0:0:0:
240,120,176454,1,8,0:0:0:0:
240,120,176535,1,8,0:0:0:0:
240,120,176617,1,8,0:0:0:0:
240,120,176698,1,0,0:0:0:0:
240,120,176780,1,0,0:0:0:0:
240,120,176861,1,0,0:0:0:0:
240,120,176943,1,0,0:0:0:0:
240,120,177024,1,12,0:0:0:0:
283,143,177840,1,0,0:0:0:0:
283,143,178003,1,8,0:0:0:0:
276,129,178329,1,4,0:0:0:0:
241,190,178492,1,0,0:0:0:0:
241,190,178573,1,0,0:0:0:0:
241,190,178655,1,8,0:0:0:0:
241,190,178736,1,0,0:0:0:0:
241,190,178818,1,8,0:0:0:0:
241,190,178981,1,0,0:0:0:0:
241,190,179144,1,0,0:0:0:0:
241,190,179307,1,8,0:0:0:0:
241,190,179389,1,8,0:0:0:0:
241,190,179470,1,0,0:0:0:0:
241,190,179552,1,0,0:0:0:0:
241,190,179633,1,8,0:0:0:0:
205,111,179715,1,0,0:0:0:0:
241,190,179796,1,8,0:0:0:0:
217,58,179878,1,8,0:0:0:0:
217,58,179959,1,0,0:0:0:0:
217,58,180122,1,0,0:0:0:0:
217,58,180285,1,8,0:0:0:0:
217,58,180448,1,0,0:0:0:0:
217,58,180530,1,0,0:0:0:0:
217,58,180611,1,8,0:0:0:0:
217,58,180774,1,8,0:0:0:0:
212,89,180937,1,0,0:0:0:0:
212,89,181264,1,8,0:0:0:0:
212,89,181427,1,0,0:0:0:0:
212,89,181508,1,8,0:0:0:0:
212,89,181590,1,0,0:0:0:0:
212,89,181753,1,0,0:0:0:0:
212,89,181834,1,0,0:0:0:0:
212,89,181916,1,8,0:0:0:0:
212,89,181997,1,0,0:0:0:0:
212,89,182079,1,8,0:0:0:0:
212,89,182160,1,8,0:0:0:0:
212,89,182242,1,0,0:0:0:0:
212,89,182405,1,0,0:0:0:0:
212,89,182568,1,8,0:0:0:0:
212,89,182731,1,0,0:0:0:0:
212,89,182812,1,0,0:0:0:0:
212,89,182894,1,0,0:0:0:0:
212,89,183057,1,0,0:0:0:0:
171,66,183220,1,8,0:0:0:0:
171,66,183302,1,8,0:0:0:0:
171,66,183383,1,8,0:0:0:0:
171,66,183465,1,8,0:0:0:0:
171,66,183546,1,4,0:0:0:0:
181,111,183709,1,0,0:0:0:0:
181,111,183872,1,8,0:0:0:0:
181,111,183954,1,8,0:0:0:0:
181,111,184035,1,0,0:0:0:0:
181,111,184117,1,0,0:0:0:0:
181,111,184198,1,8,0:0:0:0:
181,111,184361,1,0,0:0:0:0:
181,111,184524,1,8,0:0:0:0:
181,111,184606,1,0,0:0:0:0:
181,111,184687,1,8,0:0:0:0:
181,111,184769,1,8,0:0:0:0:
188,79,184851,1,0,0:0:0:0:
188,79,184932,1,0,0:0:0:0:
188,79,185014,1,8,0:0:0:0:
188,79,185095,1,0,0:0:0:0:
188,79,185177,1,8,0:0:0:0:
188,79,185340,1,8,0:0:0:0:
188,79,185503,1,0,0:0:0:0:
188,79,185666,1,0,0:0:0:0:
188,79,185747,1,0,0:0:0:0:
188,79,185829,1,8,0:0:0:0:
188,79,185910,1,8,0:0:0:0:
188,79,185992,1,8,0:0:0:0:
188,79,186073,1,8,0:0:0:0:
188,79,186155,1,4,0:0:0:0:
247,169,186481,1,8,0:0:0:0:
247,169,186644,1,0,0:0:0:0:
247,169,186726,1,8,0:0:0:0:
247,169,186807,1,0,0:0:0:0:
247,169,186970,1,0,0:0:0:0:
247,169,187052,1,0,0:0:0:0:
247,169,187133,1,8,0:0:0:0:
247,169,187296,1,8,0:0:0:0:
247,169,187378,1,8,0:0:0:0:
247,169,187459,1,0,0:0:0:0:
247,169,187622,1,12,0:0:0:0:
243,171,187948,1,4,0:0:0:0:
243,171,188274,1,12,0:0:0:0:
243,171,188437,1,0,0:0:0:0:
274,163,188601,1,4,0:0:0:0:
274,163,188927,1,0,0:0:0:0:
274,163,189008,1,0,0:0:0:0:
274,163,189090,1,8,0:0:0:0:
275,143,189171,1,8,0:0:0:0:
274,163,189253,1,0,0:0:0:0:
274,163,189416,1,8,0:0:0:0:
274,163,189579,1,0,0:0:0:0:
275,143,189742,1,8,0:0:0:0:
275,143,189823,1,0,0:0:0:0:
275,143,189905,1,8,0:0:0:0:
228,99,189986,1,8,0:0:0:0:
228,99,190068,1,0,0:0:0:0:
228,99,190149,1,0,0:0:0:0:
228,99,190231,1,8,0:0:0:0:
228,99,190394,1,8,0:0:0:0:
228,99,190557,1,0,0:0:0:0:
228,99,190720,1,8,0:0:0:0:
228,99,190883,1,0,0:0:0:0:
228,99,190965,1,0,0:0:0:0:
228,99,191046,1,8,0:0:0:0:
228,99,191128,1,8,0:0:0:0:
228,99,191209,1,0,0:0:0:0:
228,99,191372,1,8,0:0:0:0:
227,121,191698,1,8,0:0:0:0:
227,121,191861,1,0,0:0:0:0:
227,121,191943,1,8,0:0:0:0:
227,121,192024,1,0,0:0:0:0:
227,121,192187,1,0,0:0:0:0:
227,121,192351,1,8,0:0:0:0:
227,121,192514,1,8,0:0:0:0:
200,126,192677,1,4,0:0:0:0:
200,126,192840,1,0,0:0:0:0:
200,126,193003,1,12,0:0:0:0:
200,126,193166,1,0,0:0:0:0:
197,106,193329,1,12,0:0:0:0:
197,111,193492,1,8,0:0:0:0:
197,111,193573,1,8,0:0:0:0:
197,111,193655,1,0,0:0:0:0:
197,111,193736,1,8,0:0:0:0:
197,111,193818,1,8,0:0:0:0:
197,111,193899,1,8,0:0:0:0:
197,111,193981,1,4,0:0:0:0:
205,133,194144,1,0,0:0:0:0:
205,133,194307,1,8,0:0:0:0:
205,133,194470,1,8,0:0:0:0:
205,133,194552,1,8,0:0:0:0:
205,133,194633,1,0,0:0:0:0:
205,133,194796,1,0,0:0:0:0:
205,133,194959,1,8,0:0:0:0:
201,129,195041,1,0,0:0:0:0:
161,88,195122,1,0,0:0:0:0:
205,133,195204,1,0,0:0:0:0:
205,133,195285,1,12,0:0:0:0:
211,133,195448,1,0,0:0:0:0:
211,133,195611,1,8,0:0:0:0:
211,133,195774,1,8,0:0:0:0:
211,133,195856,1,8,0:0:0:0:
211,133,195937,1,0,0:0:0:0:
211,133,196101,1,0,0:0:0:0:
211,133,196182,1,0,0:0:0:0:
211,133,196264,1,8,0:0:0:0:
211,133,196345,1,0,0:0:0:0:
211,133,196427,1,8,0:0:0:0:
211,133,196508,1,8,0:0:0:0:
211,133,196590,1,0,0:0:0:0:
207,110,196753,1,0,0:0:0:0:
204,116,196834,1,8,0:0:0:0:
203,120,196916,1,0,0:0:0:0:
203,120,197079,1,0,0:0:0:0:
203,120,197242,1,0,0:0:0:0:
203,120,197405,1,0,0:0:0:0:
203,120,197486,1,0,0:0:0:0:
203,120,197568,1,0,0:0:0:0:
203,120,197731,1,8,0:0:0:0:
203,120,197894,1,0,0:0:0:0:
203,120,197976,1,0,0:0:0:0:
203,120,198057,1,0,0:0:0:0:
203,120,198220,1,0,0:0:0:0:
203,120,198302,1,0,0:0:0:0:
203,120,198383,1,0,0:0:0:0:
203,120,198546,1,8,0:0:0:0:
203,120,198628,1,8,0:0:0:0:
203,120,198709,1,8,0:0:0:0:
203,120,198791,1,8,0:0:0:0:
203,120,198872,1,0,0:0:0:0:
203,120,198954,1,0,0:0:0:0:
203,120,199035,1,8,0:0:0:0:
203,120,199117,1,8,0:0:0:0:
203,120,199198,1,4,0:0:0:0:
197,126,199687,1,0,0:0:0:0:
197,126,199769,1,0,0:0:0:0:
197,126,199851,1,0,0:0:0:0:
197,126,200177,1,0,0:0:0:0:
197,126,200259,1,0,0:0:0:0:
197,126,200341,1,0,0:0:0:0:
197,126,200666,1,0,0:0:0:0:
197,126,200748,1,0,0:0:0:0:
197,126,200829,1,0,0:0:0:0:
224,108,200992,1,8,0:0:0:0:
224,104,201073,1,8,0:0:0:0:
224,108,201155,1,0,0:0:0:0:
224,104,201236,1,0,0:0:0:0:
224,108,201318,1,0,0:0:0:0:
224,104,201399,1,0,0:0:0:0:
197,126,201481,1,8,0:0:0:0:
197,126,201562,1,8,0:0:0:0:
197,126,201644,1,8,0:0:0:0:
197,126,201726,1,8,0:0:0:0:
192,75,201807,1,0,0:0:0:0:
192,75,201889,1,0,0:0:0:0:
192,75,201970,1,0,0:0:0:0:
192,75,202296,1,0,0:0:0:0:
192,75,202378,1,0,0:0:0:0:
192,75,202459,1,0,0:0:0:0:
192,75,202785,1,0,0:0:0:0:
192,75,202867,1,0,0:0:0:0:
192,75,202948,1,0,0:0:0:0:
192,122,203111,1,8,0:0:0:0:
192,122,203274,1,8,0:0:0:0:
192,122,203356,1,8,0:0:0:0:
184,113,203437,1,0,0:0:0:0:
184,113,203601,1,0,0:0:0:0:
184,113,203682,1,0,0:0:0:0:
181,108,203764,1,8,0:0:0:0:
181,108,203845,1,0,0:0:0:0:
181,108,203927,1,8,0:0:0:0:
181,108,204008,1,8,0:0:0:0:
181,108,204090,1,0,0:0:0:0:
181,108,204171,1,0,0:0:0:0:
181,108,204253,1,8,0:0:0:0:
181,108,204334,1,8,0:0:0:0:
181,108,204416,1,0,0:0:0:0:
181,108,204497,1,0,0:0:0:0:
181,108,204579,1,0,0:0:0:0:
181,108,204905,1,0,0:0:0:0:
181,108,204986,1,0,0:0:0:0:
181,108,205068,1,0,0:0:0:0:
181,108,205394,1,0,0:0:0:0:
181,108,205475,1,0,0:0:0:0:
181,108,205557,1,0,0:0:0:0:
181,108,205883,1,0,0:0:0:0:
181,108,205964,1,0,0:0:0:0:
181,108,206046,1,0,0:0:0:0:
172,71,206372,1,0,0:0:0:0:
174,56,206454,1,0,0:0:0:0:
175,56,206535,1,0,0:0:0:0:
174,56,206617,1,0,0:0:0:0:
175,56,206698,1,8,0:0:0:0:
175,56,206780,1,8,0:0:0:0:
175,56,206861,1,8,0:0:0:0:
175,56,206943,1,8,0:0:0:0:
159,52,207024,1,0,0:0:0:0:
175,56,207106,1,8,0:0:0:0:
175,56,207187,1,8,0:0:0:0:
197,133,207351,1,0,0:0:0:0:
195,81,207514,1,8,0:0:0:0:
195,81,207595,1,8,0:0:0:0:
195,81,207677,1,0,0:0:0:0:
195,81,207840,1,0,0:0:0:0:
195,81,208003,1,8,0:0:0:0:
195,81,208084,1,8,0:0:0:0:
195,81,208166,1,8,0:0:0:0:
195,81,208247,1,8,0:0:0:0:
181,84,208329,1,0,0:0:0:0:
195,81,208492,1,8,0:0:0:0:
195,81,208573,1,8,0:0:0:0:
195,81,208655,1,8,0:0:0:0:
195,81,208736,1,8,0:0:0:0:
181,84,208818,1,0,0:0:0:0:
216,78,208981,1,12,0:0:0:0:
217,78,209198,1,12,0:0:0:0:
217,78,209416,1,12,0:0:0:0:
245,113,209633,1,4,0:0:0:0:
230,85,209959,1,8,0:0:0:0:
230,85,210122,1,0,0:0:0:0:
230,85,210204,1,0,0:0:0:0:
230,85,210285,1,8,0:0:0:0:
230,85,210448,1,0,0:0:0:0:
224,82,210611,1,8,0:0:0:0:
224,82,210774,1,8,0:0:0:0:
224,82,210856,1,8,0:0:0:0:
224,82,210937,1,0,0:0:0:0:
224,82,211101,1,8,0:0:0:0:
224,82,211182,1,0,0:0:0:0:
224,82,211264,1,0,0:0:0:0:
224,82,211427,1,0,0:0:0:0:
224,82,211590,1,8,0:0:0:0:
224,82,211753,1,0,0:0:0:0:
224,82,211916,1,8,0:0:0:0:
224,82,212079,1,8,0:0:0:0:
224,82,212242,1,0,0:0:0:0:
224,82,212323,1,0,0:0:0:0:
224,82,212405,1,0,0:0:0:0:
208,78,212568,1,0,0:0:0:0:
208,78,212731,1,0,0:0:0:0:
208,78,212894,1,8,0:0:0:0:
208,78,213057,1,0,0:0:0:0:
208,78,213220,1,8,0:0:0:0:
208,78,213383,1,8,0:0:0:0:
208,78,213465,1,8,0:0:0:0:
208,78,213546,1,0,0:0:0:0:
208,78,213709,1,0,0:0:0:0:
208,78,213872,1,8,0:0:0:0:
208,78,214035,1,0,0:0:0:0:
208,78,214117,1,8,0:0:0:0:
208,78,214198,1,8,0:0:0:0:
208,78,214361,1,8,0:0:0:0:
208,78,214524,1,8,0:0:0:0:
208,78,214687,1,0,0:0:0:0:
208,78,215014,1,0,0:0:0:0:
208,78,215177,1,8,0:0:0:0:
208,78,215258,1,0,0:0:0:0:
208,78,215340,1,8,0:0:0:0:
208,78,215421,1,8,0:0:0:0:
208,78,215503,1,0,0:0:0:0:
208,78,215666,1,0,0:0:0:0:
208,78,215829,1,8,0:0:0:0:
208,78,215992,1,0,0:0:0:0:
208,78,216155,1,8,0:0:0:0:
208,78,216318,1,8,0:0:0:0:
208,78,216399,1,8,0:0:0:0:
208,78,216481,1,0,0:0:0:0:
208,78,216644,1,0,0:0:0:0:
208,78,216807,1,8,0:0:0:0:
208,78,216970,1,0,0:0:0:0:
208,78,217133,1,8,0:0:0:0:
208,78,217296,1,8,0:0:0:0:
208,78,217459,1,0,0:0:0:0:
208,78,217541,1,0,0:0:0:0:
208,78,217622,1,0,0:0:0:0:
208,78,217785,1,0,0:0:0:0:
208,78,217948,1,0,0:0:0:0:
208,78,218111,1,8,0:0:0:0:
208,78,218274,1,0,0:0:0:0:
208,78,218437,1,0,0:0:0:0:
208,78,218601,1,8,0:0:0:0:
208,78,218682,1,8,0:0:0:0:
208,78,218764,1,0,0:0:0:0:
208,78,218927,1,8,0:0:0:0:
208,78,219008,1,0,0:0:0:0:
208,78,219090,1,8,0:0:0:0:
196,46,219171,1,8,0:0:0:0:
196,46,219253,1,0,0:0:0:0:
196,46,219334,1,0,0:0:0:0:
187,43,219416,1,8,0:0:0:0:
187,43,219579,1,0,0:0:0:0:
187,43,219742,1,12,0:0:0:0:
194,147,220068,1,0,0:0:0:0:
194,147,220231,1,0,0:0:0:0:
194,147,220394,1,8,0:0:0:0:
194,147,220557,1,0,0:0:0:0:
194,147,220639,1,8,0:0:0:0:
194,147,220720,1,0,0:0:0:0:
194,147,220883,1,0,0:0:0:0:
194,147,221046,1,8,0:0:0:0:
194,147,221209,1,8,0:0:0:0:
168,102,221291,1,8,0:0:0:0:
173,108,221372,1,0,0:0:0:0:
168,108,221535,1,8,0:0:0:0:
168,108,221617,1,0,0:0:0:0:
168,108,221698,1,0,0:0:0:0:
168,108,221861,1,0,0:0:0:0:
168,108,222024,1,8,0:0:0:0:
248,100,222187,1,0,0:0:0:0:
230,147,222351,1,8,0:0:0:0:
230,147,222514,1,8,0:0:0:0:
230,147,222677,1,0,0:0:0:0:
230,147,222758,1,0,0:0:0:0:
230,147,222840,1,0,0:0:0:0:
230,147,223003,1,0,0:0:0:0:
230,147,223166,1,0,0:0:0:0:
230,147,223329,1,8,0:0:0:0:
230,147,223410,1,8,0:0:0:0:
230,147,223492,1,0,0:0:0:0:
230,147,223573,1,0,0:0:0:0:
230,147,223655,1,8,0:0:0:0:
230,147,223818,1,0,0:0:0:0:
230,147,223899,1,0,0:0:0:0:
214,116,223981,1,8,0:0:0:0:
214,116,224144,1,8,0:0:0:0:
214,116,224226,1,8,0:0:0:0:
214,116,224307,1,0,0:0:0:0:
214,116,224470,1,0,0:0:0:0:
214,116,224633,1,8,0:0:0:0:
214,116,224796,1,8,0:0:0:0:
214,116,224878,1,8,0:0:0:0:
214,116,224959,1,8,0:0:0:0:
214,116,225122,1,8,0:0:0:0:
221,113,225448,1,0,0:0:0:0:
221,113,225611,1,8,0:0:0:0:
221,113,225774,1,0,0:0:0:0:
221,113,225856,1,0,0:0:0:0:
221,113,225937,1,8,0:0:0:0:
221,113,226101,1,0,0:0:0:0:
221,113,226264,1,8,0:0:0:0:
221,113,226427,1,0,0:0:0:0:
221,113,226508,1,0,0:0:0:0:
221,113,226590,1,8,0:0:0:0:
221,113,226753,1,8,0:0:0:0:
221,113,226916,1,0,0:0:0:0:
221,113,227079,1,8,0:0:0:0:
221,113,227160,1,0,0:0:0:0:
221,113,227242,1,8,0:0:0:0:
221,113,227405,1,8,0:0:0:0:
221,113,227568,1,0,0:0:0:0:
221,113,227731,1,0,0:0:0:0:
221,113,227812,1,8,0:0:0:0:
221,113,227894,1,0,0:0:0:0:
221,113,227976,1,0,0:0:0:0:
221,113,228057,1,8,0:0:0:0:
221,113,228220,1,8,0:0:0:0:
212,117,228383,1,0,0:0:0:0:
212,117,228546,1,8,0:0:0:0:
212,117,228628,1,0,0:0:0:0:
212,117,228791,1,0,0:0:0:0:
201,109,228872,1,8,0:0:0:0:
201,109,229035,1,8,0:0:0:0:
201,109,229198,1,0,0:0:0:0:
201,109,229361,1,8,0:0:0:0:
201,109,229524,1,0,0:0:0:0:
192,68,229687,1,0,0:0:0:0:
192,68,229769,1,0,0:0:0:0:
201,111,229851,1,8,0:0:0:0:
201,111,230014,1,0,0:0:0:0:
201,111,230177,1,8,0:0:0:0:
201,111,230258,1,8,0:0:0:0:
201,111,230340,1,8,0:0:0:0:
201,111,230421,1,8,0:0:0:0:
201,111,230503,1,4,0:0:0:0:
334,157,230720,1,0,0:0:0:0:
334,157,230829,1,8,0:0:0:0:
334,157,230937,1,8,0:0:0:0:
334,157,231046,1,0,0:0:0:0:
344,128,231155,1,8,0:0:0:0:
344,128,231264,1,0,0:0:0:0:
269,120,231372,1,0,0:0:0:0:
269,120,231481,1,8,0:0:0:0:
269,120,231590,1,8,0:0:0:0:
269,120,231698,1,0,0:0:0:0:
269,120,231807,1,8,0:0:0:0:
247,108,231916,1,0,0:0:0:0:
247,108,232024,1,8,0:0:0:0:
347,119,232133,1,8,0:0:0:0:
347,119,232242,1,8,0:0:0:0:
347,119,232351,1,0,0:0:0:0:
347,119,232459,1,8,0:0:0:0:
347,119,232568,1,8,0:0:0:0:
347,119,232677,1,0,0:0:0:0:
347,119,232785,1,8,0:0:0:0:
347,119,232894,1,8,0:0:0:0:
355,115,233003,1,0,0:0:0:0:
355,115,233111,1,8,0:0:0:0:
258,83,233220,1,0,0:0:0:0:
229,53,233329,1,0,0:0:0:0:
229,53,233437,1,8,0:0:0:0:
305,78,233519,1,8,0:0:0:0:
305,78,233601,1,0,0:0:0:0:
305,78,233682,1,0,0:0:0:0:
305,78,233764,1,8,0:0:0:0:
305,78,233845,1,0,0:0:0:0:
305,78,233927,1,0,0:0:0:0:
305,78,234008,1,0,0:0:0:0:
305,78,234090,1,8,0:0:0:0:
191,63,234171,1,0,0:0:0:0:
305,78,234253,1,8,0:0:0:0:
305,78,234334,1,8,0:0:0:0:
305,78,234416,1,0,0:0:0:0:
305,78,234497,1,0,0:0:0:0:
305,78,234579,1,0,0:0:0:0:
305,78,234660,1,0,0:0:0:0:
305,78,234742,1,8,0:0:0:0:
305,78,234905,1,0,0:0:0:0:
305,78,235068,1,8,0:0:0:0:
305,78,235231,1,8,0:0:0:0:
305,78,235312,1,8,0:0:0:0:
305,78,235394,1,0,0:0:0:0:
305,78,235557,1,8,0:0:0:0:
305,78,235720,1,4,0:0:0:0:
356,197,235883,1,8,0:0:0:0:
356,197,235965,1,8,0:0:0:0:
342,201,236046,1,8,0:0:0:0:
339,203,236128,1,8,0:0:0:0:
326,201,236209,1,4,0:0:0:0:
356,197,236372,1,0,0:0:0:0:
356,197,236454,1,0,0:0:0:0:
342,201,236535,1,0,0:0:0:0:
339,203,236617,1,0,0:0:0:0:
326,201,236698,1,12,0:0:0:0:
356,197,236861,1,0,0:0:0:0:
356,197,236943,1,0,0:0:0:0:
342,201,237024,1,0,0:0:0:0:
339,203,237106,1,0,0:0:0:0:
326,201,237187,1,12,0:0:0:0:
356,197,237351,1,0,0:0:0:0:
356,197,237433,1,0,0:0:0:0:
342,201,237514,1,0,0:0:0:0:
339,203,237596,1,0,0:0:0:0:
326,201,237677,1,12,0:0:0:0:
200,116,237840,1,0,0:0:0:0:
162,13,237921,1,8,0:0:0:0:
200,116,238003,1,0,0:0:0:0:
216,95,238084,1,8,0:0:0:0:
244,64,238166,1,8,0:0:0:0:
244,64,238247,1,8,0:0:0:0:
244,64,238329,1,4,0:0:0:0:
244,64,238492,1,8,0:0:0:0:
244,64,238573,1,0,0:0:0:0:
244,64,238655,1,8,0:0:0:0:
205,78,238736,1,0,0:0:0:0:
207,83,238818,1,8,0:0:0:0:
206,83,238899,1,8,0:0:0:0:
207,83,238981,1,0,0:0:0:0:
206,83,239062,1,0,0:0:0:0:
207,83,239144,1,0,0:0:0:0:
206,83,239226,1,0,0:0:0:0:
207,83,239307,1,8,0:0:0:0:
206,83,239389,1,8,0:0:0:0:
207,83,239470,1,8,0:0:0:0:
206,83,239552,1,8,0:0:0:0:
207,83,239633,1,8,0:0:0:0:
207,83,239715,1,8,0:0:0:0:
207,83,239796,1,8,0:0:0:0:
207,83,239878,1,8,0:0:0:0:
207,83,239959,1,8,0:0:0:0:
207,83,240041,1,8,0:0:0:0:
207,83,240122,1,8,0:0:0:0:
207,83,240204,1,8,0:0:0:0:
207,83,240285,1,8,0:0:0:0:
207,83,240367,1,8,0:0:0:0:
207,83,240448,1,8,0:0:0:0:
207,83,240530,1,8,0:0:0:0:
207,83,240611,1,8,0:0:0:0:
207,83,240693,1,8,0:0:0:0:
207,83,240774,1,8,0:0:0:0:
207,83,240856,1,8,0:0:0:0:
279,190,240937,1,0,0:0:0:0:
298,195,243220,1,0,0:0:0:0:
295,194,243546,1,12,0:0:0:0:
290,235,243872,1,0,0:0:0:0:
290,235,244035,1,8,0:0:0:0:
290,235,244117,1,0,0:0:0:0:
288,226,244198,1,8,0:0:0:0:
235,85,244280,1,8,0:0:0:0:
288,226,244361,1,0,0:0:0:0:
245,116,244524,1,8,0:0:0:0:
245,116,244687,1,8,0:0:0:0:
245,116,244851,1,0,0:0:0:0:
245,116,245014,1,0,0:0:0:0:
245,116,245095,1,0,0:0:0:0:
245,116,245177,1,8,0:0:0:0:
238,72,245258,1,8,0:0:0:0:
245,116,245340,1,0,0:0:0:0:
245,116,245421,1,0,0:0:0:0:
245,116,245503,1,8,0:0:0:0:
245,116,245666,1,0,0:0:0:0:
268,98,245829,1,8,0:0:0:0:
275,97,246155,1,12,0:0:0:0:
283,106,246318,1,0,0:0:0:0:
283,106,246481,1,8,0:0:0:0:
283,106,246562,1,8,0:0:0:0:
283,106,246644,1,0,0:0:0:0:
283,106,246726,1,8,0:0:0:0:
283,106,246807,1,0,0:0:0:0:
253,113,246970,1,0,0:0:0:0:
262,88,247133,1,8,0:0:0:0:
262,88,247215,1,0,0:0:0:0:
262,88,247296,1,8,0:0:0:0:
262,88,247378,1,8,0:0:0:0:
262,88,247459,1,0,0:0:0:0:
262,88,247541,1,0,0:0:0:0:
262,88,247622,1,8,0:0:0:0:
262,88,247704,1,0,0:0:0:0:
262,88,247785,1,8,0:0:0:0:
284,57,247948,1,0,0:0:0:0:
284,57,248111,1,8,0:0:0:0:
284,57,248274,1,0,0:0:0:0:
284,57,248356,1,0,0:0:0:0:
284,57,248437,1,8,0:0:0:0:
284,57,248519,1,8,0:0:0:0:
284,57,248601,1,0,0:0:0:0:
284,57,248764,1,12,0:0:0:0:
282,57,249090,1,8,0:0:0:0:
282,57,249253,1,0,0:0:0:0:
282,57,249334,1,8,0:0:0:0:
282,57,249416,1,0,0:0:0:0:
282,57,249579,1,0,0:0:0:0:
282,57,249660,1,0,0:0:0:0:
282,57,249742,1,0,0:0:0:0:
282,57,249905,1,8,0:0:0:0:
193,98,249986,1,8,0:0:0:0:
282,57,250068,1,0,0:0:0:0:
241,80,250231,1,12,0:0:0:0:
241,80,250557,1,4,0:0:0:0:
241,74,250883,1,12,0:0:0:0:
233,56,251046,1,8,0:0:0:0:
238,156,251209,1,4,0:0:0:0:
238,156,251535,1,0,0:0:0:0:
238,156,251617,1,0,0:0:0:0:
238,156,251698,1,8,0:0:0:0:
238,156,251780,1,0,0:0:0:0:
238,156,251861,1,8,0:0:0:0:
235,145,252024,1,0,0:0:0:0:
234,154,252187,1,0,0:0:0:0:
233,115,252351,1,8,0:0:0:0:
238,116,252432,1,8,0:0:0:0:
238,116,252514,1,0,0:0:0:0:
238,116,252595,1,0,0:0:0:0:
238,116,252677,1,8,0:0:0:0:
238,116,252758,1,0,0:0:0:0:
238,116,252840,1,8,0:0:0:0:
238,116,252921,1,8,0:0:0:0:
238,116,253003,1,0,0:0:0:0:
232,112,253166,1,0,0:0:0:0:
338,86,253329,1,8,0:0:0:0:
232,112,253492,1,0,0:0:0:0:
226,106,253655,1,8,0:0:0:0:
226,106,253736,1,8,0:0:0:0:
226,106,253818,1,8,0:0:0:0:
221,101,253899,1,8,0:0:0:0:
221,101,253981,1,0,0:0:0:0:
233,175,254307,1,8,0:0:0:0:
233,175,254470,1,0,0:0:0:0:
233,175,254552,1,8,0:0:0:0:
228,164,254633,1,0,0:0:0:0:
228,164,254796,1,0,0:0:0:0:
228,164,254959,1,8,0:0:0:0:
228,164,255122,1,0,0:0:0:0:
228,164,255285,1,12,0:0:0:0:
216,151,255448,1,0,0:0:0:0:
228,164,255611,1,12,0:0:0:0:
216,151,255774,1,0,0:0:0:0:
226,164,255937,1,12,0:0:0:0:
216,100,256101,1,8,0:0:0:0:
216,100,256182,1,8,0:0:0:0:
216,100,256264,1,0,0:0:0:0:
216,100,256345,1,0,0:0:0:0:
216,100,256427,1,0,0:0:0:0:
216,100,256508,1,0,0:0:0:0:
232,117,256590,1,12,0:0:0:0:
207,119,256916,1,8,0:0:0:0:
207,119,257079,1,0,0:0:0:0:
195,122,257160,1,8,0:0:0:0:
195,122,257242,1,0,0:0:0:0:
195,122,257405,1,0,0:0:0:0:
195,122,257568,1,8,0:0:0:0:
195,122,257649,1,0,0:0:0:0:
195,122,257812,1,0,0:0:0:0:
195,122,257894,1,8,0:0:0:0:
195,122,258057,1,8,0:0:0:0:
195,122,258139,1,8,0:0:0:0:
195,122,258220,1,0,0:0:0:0:
195,116,258383,1,8,0:0:0:0:
195,116,258546,1,0,0:0:0:0:
195,116,258628,1,0,0:0:0:0:
195,116,258709,1,0,0:0:0:0:
195,116,258791,1,0,0:0:0:0:
195,116,258872,1,8,0:0:0:0:
195,116,258954,1,8,0:0:0:0:
195,116,259035,1,8,0:0:0:0:
195,116,259117,1,8,0:0:0:0:
216,105,259198,1,4,0:0:0:0:
215,95,259361,1,0,0:0:0:0:
215,95,259524,1,8,0:0:0:0:
215,95,259687,1,0,0:0:0:0:
212,87,259851,1,0,0:0:0:0:
212,87,260014,1,0,0:0:0:0:
212,87,260095,1,0,0:0:0:0:
212,87,260177,1,8,0:0:0:0:
159,48,260258,1,0,0:0:0:0:
216,83,260340,1,8,0:0:0:0:
216,83,260503,1,0,0:0:0:0:
216,83,260584,1,0,0:0:0:0:
212,87,260666,1,0,0:0:0:0:
216,83,260829,1,0,0:0:0:0:
216,83,260910,1,0,0:0:0:0:
212,87,260992,1,0,0:0:0:0:
288,115,261155,1,8,0:0:0:0:
288,115,261196,1,8,0:0:0:0:
288,115,261318,1,8,0:0:0:0:
288,115,261359,1,8,0:0:0:0:
288,115,261481,1,8,0:0:0:0:
288,115,261522,1,8,0:0:0:0:
274,146,261644,1,4,0:0:0:0:
374,156,261970,1,0,0:0:0:0:
374,156,262133,1,8,0:0:0:0:
374,156,262296,1,0,0:0:0:0:
374,156,262378,1,0,0:0:0:0:
374,156,262459,1,8,0:0:0:0:
374,156,262622,1,0,0:0:0:0:
374,156,262785,1,8,0:0:0:0:
374,156,262867,1,0,0:0:0:0:
374,156,263030,1,0,0:0:0:0:
374,156,263111,1,8,0:0:0:0:
374,156,263274,1,0,0:0:0:0:
374,156,263437,1,8,0:0:0:0:
374,156,263519,1,0,0:0:0:0:
374,156,263682,1,0,0:0:0:0:
350,150,263764,1,8,0:0:0:0:
350,150,263845,1,8,0:0:0:0:
350,150,263927,1,0,0:0:0:0:
350,150,264090,1,12,0:0:0:0:
350,150,264416,1,4,0:0:0:0:
285,148,264579,1,0,0:0:0:0:
285,148,264742,1,8,0:0:0:0:
283,143,264823,1,0,0:0:0:0:
278,141,264986,1,0,0:0:0:0:
278,141,265068,1,8,0:0:0:0:
278,141,265231,1,0,0:0:0:0:
273,137,265394,1,8,0:0:0:0:
273,137,265476,1,8,0:0:0:0:
273,137,265557,1,8,0:0:0:0:
273,137,265639,1,8,0:0:0:0:
206,40,265720,1,0,0:0:0:0:
219,70,265883,1,0,0:0:0:0:
219,70,266046,1,8,0:0:0:0:
219,70,266128,1,0,0:0:0:0:
219,70,266209,1,8,0:0:0:0:
219,70,266291,1,8,0:0:0:0:
219,70,266372,1,0,0:0:0:0:
219,70,266454,1,0,0:0:0:0:
219,70,266535,1,0,0:0:0:0:
219,70,266617,1,0,0:0:0:0:
219,70,266698,1,12,0:0:0:0:
243,120,266861,1,0,0:0:0:0:
243,120,267024,1,12,0:0:0:0:
270,148,267187,1,0,0:0:0:0:
270,148,267269,1,0,0:0:0:0:
268,143,267351,1,8,0:0:0:0:
263,138,267514,1,0,0:0:0:0:
263,138,267595,1,8,0:0:0:0:
255,129,267677,1,0,0:0:0:0:
255,129,267840,1,0,0:0:0:0:
221,70,268003,1,8,0:0:0:0:
221,70,268084,1,8,0:0:0:0:
225,79,268166,1,0,0:0:0:0:
225,79,268247,1,0,0:0:0:0:
225,79,268329,1,8,0:0:0:0:
225,79,268410,1,0,0:0:0:0:
225,79,268492,1,8,0:0:0:0:
225,79,268573,1,8,0:0:0:0:
225,79,268655,1,0,0:0:0:0:
225,79,268818,1,0,0:0:0:0:
225,79,268981,1,8,0:0:0:0:
225,79,269144,1,0,0:0:0:0:
225,79,269226,1,0,0:0:0:0:
225,79,269307,1,8,0:0:0:0:
225,79,269389,1,8,0:0:0:0:
225,79,269470,1,8,0:0:0:0:
225,79,269552,1,8,0:0:0:0:
225,79,269633,1,4,0:0:0:0:
214,106,269796,1,8,0:0:0:0:
216,90,269959,1,0,0:0:0:0:
215,92,270204,1,0,0:0:0:0:
215,92,270285,1,8,0:0:0:0:
215,92,270448,1,0,0:0:0:0:
215,92,270611,1,8,0:0:0:0:
215,92,270774,1,8,0:0:0:0:
215,92,270856,1,8,0:0:0:0:
215,92,270937,1,0,0:0:0:0:
215,92,271101,1,12,0:0:0:0:
214,91,271427,1,4,0:0:0:0:
214,91,271753,1,12,0:0:0:0:
214,91,271916,1,8,0:0:0:0:
214,91,272079,1,4,0:0:0:0:
222,129,272405,1,0,0:0:0:0:
215,126,272486,1,0,0:0:0:0:
214,122,272568,1,8,0:0:0:0:
214,122,272731,1,0,0:0:0:0:
215,116,272894,1,8,0:0:0:0:
215,116,273057,1,8,0:0:0:0:
214,122,273220,1,0,0:0:0:0:
214,122,273302,1,0,0:0:0:0:
214,122,273383,1,0,0:0:0:0:
214,122,273465,1,0,0:0:0:0:
214,122,273546,1,8,0:0:0:0:
214,122,273628,1,0,0:0:0:0:
214,122,273709,1,8,0:0:0:0:
214,122,273791,1,8,0:0:0:0:
214,122,273872,1,0,0:0:0:0:
214,122,273954,1,0,0:0:0:0:
214,122,274035,1,0,0:0:0:0:
214,122,274117,1,0,0:0:0:0:
214,122,274198,1,8,0:0:0:0:
214,122,274361,1,0,0:0:0:0:
214,122,274443,1,0,0:0:0:0:
214,122,274524,1,8,0:0:0:0:
214,122,274687,1,8,0:0:0:0:
214,122,274769,1,8,0:0:0:0:
214,122,274851,1,0,0:0:0:0:
214,122,274932,1,0,0:0:0:0:
214,122,275014,1,0,0:0:0:0:
214,122,275095,1,0,0:0:0:0:
214,122,275177,1,0,0:0:0:0:
214,122,275258,1,0,0:0:0:0:
214,122,275340,1,8,0:0:0:0:
214,122,275421,1,0,0:0:0:0:
214,122,275503,1,8,0:0:0:0:
214,122,275584,1,8,0:0:0:0:
214,122,275666,1,0,0:0:0:0:
214,122,275747,1,0,0:0:0:0:
214,122,275829,1,8,0:0:0:0:
208,87,275910,1,8,0:0:0:0:
214,122,275992,1,8,0:0:0:0:
232,65,276073,1,8,0:0:0:0:
214,122,276155,1,4,0:0:0:0:
230,117,276318,1,0,0:0:0:0:
238,82,276481,1,12,0:0:0:0:
238,82,276644,1,0,0:0:0:0:
238,82,276807,1,12,0:0:0:0:
238,82,276970,1,8,0:0:0:0:
238,82,277133,1,4,0:0:0:0:
238,82,277296,1,0,0:0:0:0:
238,82,277459,1,12,0:0:0:0:
227,63,277622,1,0,0:0:0:0:
220,65,277785,1,8,0:0:0:0:
220,65,277948,1,0,0:0:0:0:
220,65,278030,1,0,0:0:0:0:
220,65,278111,1,8,0:0:0:0:
220,65,278193,1,8,0:0:0:0:
220,65,278274,1,0,0:0:0:0:
220,65,278437,1,8,0:0:0:0:
220,65,278519,1,0,0:0:0:0:
220,65,278682,1,0,0:0:0:0:
220,65,278764,1,8,0:0:0:0:
222,70,278927,1,0,0:0:0:0:
222,58,279090,1,8,0:0:0:0:
222,58,279171,1,8,0:0:0:0:
222,58,279253,1,0,0:0:0:0:
222,58,279334,1,0,0:0:0:0:
222,58,279416,1,8,0:0:0:0:
222,58,279579,1,0,0:0:0:0:
222,58,279742,1,8,0:0:0:0:
222,58,279823,1,8,0:0:0:0:
222,58,279905,1,8,0:0:0:0:
222,58,279986,1,8,0:0:0:0:
222,58,280068,1,0,0:0:0:0:
222,58,280231,1,8,0:0:0:0:
222,58,280312,1,0,0:0:0:0:
222,58,280394,1,8,0:0:0:0:
222,58,280476,1,8,0:0:0:0:
222,58,280557,1,0,0:0:0:0:
222,58,280639,1,0,0:0:0:0:
222,58,280720,1,8,0:0:0:0:
222,58,280883,1,0,0:0:0:0:
222,58,281046,1,0,0:0:0:0:
222,58,281209,1,8,0:0:0:0:
222,58,281291,1,0,0:0:0:0:
222,58,281372,1,8,0:0:0:0:
225,75,281454,1,8,0:0:0:0:
222,58,281535,1,0,0:0:0:0:
222,58,281698,1,0,0:0:0:0:
222,58,281780,1,0,0:0:0:0:
222,58,281861,1,0,0:0:0:0:
222,58,282024,1,12,0:0:0:0:
222,58,282351,1,4,0:0:0:0:
179,106,282677,1,12,0:0:0:0:
215,133,282840,1,0,0:0:0:0:
215,133,283003,1,0,0:0:0:0:
215,133,283167,1,8,0:0:0:0:
215,133,283248,1,0,0:0:0:0:
215,133,283330,1,8,0:0:0:0:
215,133,283411,1,8,0:0:0:0:
215,133,283493,1,0,0:0:0:0:
208,124,283656,1,0,0:0:0:0:
208,124,283819,1,8,0:0:0:0:
208,124,283900,1,0,0:0:0:0:
208,124,283982,1,8,0:0:0:0:
208,124,284145,1,8,0:0:0:0:
209,118,284308,1,0,0:0:0:0:
209,118,284389,1,0,0:0:0:0:
209,118,284471,1,0,0:0:0:0:
209,118,284552,1,0,0:0:0:0:
209,118,284634,1,8,0:0:0:0:
206,96,284797,1,0,0:0:0:0:
217,98,284960,1,8,0:0:0:0:
217,98,285042,1,8,0:0:0:0:
217,98,285123,1,0,0:0:0:0:
217,98,285205,1,0,0:0:0:0:
172,98,285286,1,0,0:0:0:0:
172,98,285449,1,8,0:0:0:0:
180,101,285612,1,0,0:0:0:0:
180,101,285775,1,8,0:0:0:0:
180,101,285857,1,0,0:0:0:0:
180,101,285938,1,8,0:0:0:0:
180,101,286020,1,8,0:0:0:0:
180,101,286101,1,0,0:0:0:0:
180,101,286264,1,8,0:0:0:0:
180,101,286346,1,8,0:0:0:0:
180,101,286427,1,0,0:0:0:0:
189,98,286590,1,12,0:0:0:0:
193,105,286753,1,0,0:0:0:0:
203,116,286916,1,8,0:0:0:0:
203,116,286998,1,8,0:0:0:0:
203,116,287080,1,0,0:0:0:0:
225,112,287243,1,12,0:0:0:0:
225,112,287405,1,0,0:0:0:0:
225,112,287569,1,8,0:0:0:0:
225,112,287649,1,8,0:0:0:0:
225,112,287731,1,0,0:0:0:0:
225,97,287895,1,12,0:0:0:0:
239,203,288058,1,0,0:0:0:0:
229,178,288221,1,0,0:0:0:0:
229,178,288384,1,8,0:0:0:0:
223,134,288465,1,0,0:0:0:0:
229,178,288547,1,8,0:0:0:0:
229,178,288628,1,8,0:0:0:0:
220,137,288710,1,0,0:0:0:0:
188,145,288873,1,0,0:0:0:0:
198,144,289036,1,8,0:0:0:0:
198,144,289199,1,8,0:0:0:0:
198,144,289280,1,8,0:0:0:0:
198,144,289362,1,0,0:0:0:0:
198,144,289444,1,0,0:0:0:0:
198,144,289525,1,8,0:0:0:0:
198,144,289688,1,0,0:0:0:0:
198,144,289851,1,8,0:0:0:0:
198,144,289932,1,0,0:0:0:0:
198,144,290095,1,0,0:0:0:0:
214,110,290177,1,8,0:0:0:0:
214,110,290340,1,8,0:0:0:0:
192,108,290503,1,4,0:0:0:0:
237,127,290667,1,0,0:0:0:0:
237,127,290830,1,8,0:0:0:0:
237,127,290993,1,0,0:0:0:0:
232,125,291074,1,0,0:0:0:0:
232,125,291156,1,0,0:0:0:0:
232,125,291237,1,0,0:0:0:0:
232,125,291319,1,8,0:0:0:0:
232,125,291482,1,8,0:0:0:0:
200,160,291563,1,8,0:0:0:0:
232,125,291645,1,8,0:0:0:0:
232,125,291726,1,8,0:0:0:0:
232,125,291808,1,4,0:0:0:0:
224,159,291971,1,0,0:0:0:0:
222,149,292134,1,8,0:0:0:0:
222,149,292215,1,0,0:0:0:0:
222,149,292297,1,8,0:0:0:0:
204,87,292460,1,8,0:0:0:0:
203,97,292542,1,8,0:0:0:0:
201,97,292623,1,0,0:0:0:0:
203,97,292705,1,0,0:0:0:0:
201,97,292786,1,8,0:0:0:0:
201,97,292868,1,8,0:0:0:0:
201,97,292949,1,8,0:0:0:0:
201,97,293031,1,8,0:0:0:0:
201,97,293111,1,4,0:0:0:0:
196,191,293275,1,0,0:0:0:0:
196,191,293438,1,0,0:0:0:0:
196,191,293601,1,8,0:0:0:0:
196,191,293683,1,0,0:0:0:0:
200,198,293764,1,8,0:0:0:0:
200,195,293846,1,8,0:0:0:0:
200,198,293927,1,0,0:0:0:0:
200,198,294090,1,0,0:0:0:0:
204,195,294253,1,8,0:0:0:0:
204,195,294335,1,0,0:0:0:0:
204,195,294417,1,8,0:0:0:0:
204,195,294580,1,0,0:0:0:0:
204,195,294743,1,8,0:0:0:0:
204,195,294906,1,0,0:0:0:0:
204,195,294987,1,0,0:0:0:0:
204,195,295069,1,8,0:0:0:0:
204,195,295232,1,8,0:0:0:0:
204,195,295395,1,0,0:0:0:0:
204,195,295476,1,0,0:0:0:0:
204,195,295557,1,8,0:0:0:0:
204,195,295639,1,8,0:0:0:0:
204,195,295720,1,0,0:0:0:0:
185,211,295884,1,8,0:0:0:0:
185,211,296047,1,0,0:0:0:0:
185,211,296210,1,8,0:0:0:0:
185,211,296373,1,8,0:0:0:0:
185,211,296455,1,8,0:0:0:0:
185,211,296536,1,0,0:0:0:0:
185,211,296618,1,0,0:0:0:0:
185,211,296699,1,8,0:0:0:0:
185,211,296862,1,0,0:0:0:0:
185,211,297025,1,12,0:0:0:0:
220,212,297188,1,0,0:0:0:0:
220,212,297351,1,8,0:0:0:0:
196,62,297432,1,8,0:0:0:0:
220,212,297514,1,0,0:0:0:0:
250,141,297677,1,12,0:0:0:0:
250,141,297840,1,0,0:0:0:0:
250,141,298003,1,8,0:0:0:0:
250,141,298085,1,8,0:0:0:0:
250,141,298166,1,0,0:0:0:0:
182,180,298330,1,12,0:0:0:0:
164,127,298493,1,0,0:0:0:0:
172,114,298573,1,0,0:0:0:0:
174,130,298656,1,0,0:0:0:0:
172,114,298819,1,8,0:0:0:0:
172,114,298900,1,0,0:0:0:0:
172,114,298982,1,8,0:0:0:0:
182,69,299062,1,8,0:0:0:0:
172,114,299145,1,0,0:0:0:0:
172,114,299308,1,0,0:0:0:0:
172,114,299471,1,8,0:0:0:0:
172,114,299552,1,0,0:0:0:0:
172,114,299634,1,8,0:0:0:0:
172,114,299797,1,8,0:0:0:0:
172,114,299960,1,4,0:0:0:0:
172,114,300205,1,0,0:0:0:0:
172,114,300286,1,8,0:0:0:0:
172,114,300449,1,0,0:0:0:0:
184,117,300531,1,0,0:0:0:0:
184,117,300612,1,8,0:0:0:0:
184,117,300694,1,8,0:0:0:0:
184,117,300775,1,8,0:0:0:0:
184,117,300857,1,8,0:0:0:0:
184,117,300937,1,4,0:0:0:0:
195,129,302242,1,0,0:0:0:0:
233,104,302351,1,8,0:0:0:0:
233,104,302459,1,8,0:0:0:0:
228,69,302568,1,0,0:0:0:0:
228,69,302677,1,0,0:0:0:0:
225,76,302785,1,0,0:0:0:0:
225,76,302894,1,8,0:0:0:0:
225,76,303003,1,8,0:0:0:0:
225,76,303111,1,8,0:0:0:0:
225,76,303220,1,0,0:0:0:0:
225,76,303329,1,0,0:0:0:0:
225,76,303437,1,0,0:0:0:0:
225,76,303546,1,12,0:0:0:0:
225,76,303709,1,0,0:0:0:0:
225,76,303872,1,12,0:0:0:0:
225,76,304035,1,0,0:0:0:0:
225,76,304198,1,8,0:0:0:0:
331,104,304280,1,0,0:0:0:0:
331,104,304361,1,8,0:0:0:0:
331,104,304443,1,8,0:0:0:0:
331,104,304524,1,0,0:0:0:0:
331,104,304687,1,12,0:0:0:0:
271,83,305014,1,8,0:0:0:0:
271,83,305177,1,0,0:0:0:0:
271,83,305258,1,0,0:0:0:0:
271,83,305340,1,0,0:0:0:0:
271,83,305421,1,0,0:0:0:0:
271,83,305503,1,8,0:0:0:0:
271,83,305584,1,8,0:0:0:0:
271,83,305666,1,8,0:0:0:0:
271,83,305747,1,8,0:0:0:0:
193,48,305829,1,0,0:0:0:0:
195,57,305910,1,0,0:0:0:0:
195,57,305992,1,0,0:0:0:0:
195,57,306073,1,0,0:0:0:0:
195,57,306155,1,8,0:0:0:0:
195,57,306318,1,0,0:0:0:0:
195,64,306481,1,8,0:0:0:0:
195,64,306562,1,8,0:0:0:0:
195,64,306644,1,0,0:0:0:0:
207,69,306807,1,8,0:0:0:0:
207,69,306889,1,0,0:0:0:0:
207,69,306970,1,8,0:0:0:0:
132,88,307296,1,0,0:0:0:0:
132,88,307351,1,0,0:0:0:0:
204,95,307405,1,0,0:0:0:0:
225,88,307459,1,12,0:0:0:0:
256,192,307622,12,0,312677,0:0:0:0:
