osu file format v14

[General]
AudioFilename: audio.mp3
AudioLeadIn: 0
PreviewTime: 21319
Countdown: 0
SampleSet: Soft
StackLeniency: 0.4
Mode: 0
LetterboxInBreaks: 0
WidescreenStoryboard: 0

[Editor]
DistanceSpacing: 1.2
BeatDivisor: 4
GridSize: 32
TimelineZoom: 1.7

[Metadata]
Title:Eien no Tabibito
TitleUnicode:永遠の旅人
Artist:Falcom Sound Team jdk feat. Sasaka Megumi & Suehiro Yuuri
ArtistUnicode:Falcom Sound Team jdk feat. 佐坂めぐみ & 末廣優里
Creator:Shurelia
Version:Dana Iclucia
Source:イースVIII -Lacrimosa of DANA-
Tags:J.D.K. Ys VIII 8 Lacrimosa DANA Super Ultimate Eternal Traveler 真我 光生 Mitsuo Singa video game JRPG japanese Everlasting Transeunt Jazz ADD
BeatmapID:2473451
BeatmapSetID:1186821

[Difficulty]
HPDrainRate:6
CircleSize:4.2
OverallDifficulty:7.5
ApproachRate:8
SliderMultiplier:1.5
SliderTickRate:1

[Events]
//Background and Video events
0,0,"dana.jpg",0,0
//Break Periods
2,83292,85897
//Storyboard Layer 0 (Background)
//Storyboard Layer 1 (Fail)
//Storyboard Layer 2 (Pass)
//Storyboard Layer 3 (Foreground)
//Storyboard Layer 4 (Overlay)
//Storyboard Sound Samples

[TimingPoints]
398,394.736842105263,3,2,1,43,1,0
9871,-90.9090909090909,3,2,1,53,0,0
15003,-80,3,2,1,53,0,0
15397,-76.9230769230769,3,2,1,53,0,0
16582,-100,3,2,1,53,0,0
16878,-90.9090909090909,3,2,1,53,0,0
21713,-125,3,2,1,37,0,0
40661,-100,3,2,1,47,0,0
51713,-95.2380952380952,3,2,1,47,0,0
52108,-90.9090909090909,3,2,1,47,0,0
52503,-100,3,2,1,47,0,0
63161,-117.647058823529,3,2,1,37,0,0
63457,-100,3,2,1,5,0,0
63555,-100,3,2,1,47,0,0
63851,-100,3,2,1,5,0,0
63950,-86.9565217391304,3,2,1,57,0,0
64246,-100,3,2,1,5,0,0
64345,-83.3333333333333,3,2,1,67,0,1
73720,-83.3333333333333,3,2,1,67,0,0
73819,-76.9230769230769,3,2,1,67,0,1
82108,-76.9230769230769,3,2,1,53,0,0
86647,-100,3,2,1,47,0,0
105792,-117.647058823529,3,2,1,37,0,0
106088,-100,3,2,1,5,0,0
106187,-100,3,2,1,47,0,0
106483,-100,3,2,1,5,0,0
106582,-86.9565217391304,3,2,1,57,0,0
106878,-100,3,2,1,5,0,0
106976,-83.3333333333333,3,2,1,67,0,1
116351,-83.3333333333333,3,2,1,67,0,0
116450,-76.9230769230769,3,2,1,67,0,1
128292,-100,3,2,1,53,0,0
130266,-90.9090909090909,3,2,1,53,0,0
130661,-100,3,2,1,53,0,0
133029,-111.111111111111,3,2,1,53,0,0
133819,-100,3,2,1,53,0,0
134608,-90.9090909090909,3,2,1,53,0,0
135003,-100,3,2,1,53,0,0
135397,-111.111111111111,3,2,1,53,0,0
135792,-100,3,2,1,53,0,0
136187,-125,3,2,1,53,0,0
136582,-100,3,2,1,53,0,0
139345,-90.9090909090909,3,2,1,53,0,0
139740,-83.3333333333333,3,2,1,53,0,0
140134,-100,3,2,1,53,0,0
141713,-83.3333333333333,3,2,1,53,0,0
142108,-76.9230769230769,3,2,1,53,0,0
142503,-100,3,2,1,53,0,0
144082,-111.111111111111,3,2,1,53,0,0
144476,-125,3,2,1,53,0,0
144871,-100,3,2,1,53,0,0
145661,-90.9090909090909,3,2,1,53,0,0
147240,-83.3333333333333,3,2,1,53,0,0
158292,-80,3,2,1,53,0,0
158687,-76.9230769230769,3,2,1,53,0,0
159082,-83.3333333333333,3,2,1,53,0,0
166187,-83.3333333333333,3,2,1,53,0,1
166286,-83.3333333333333,3,2,1,53,0,0
185134,-83.3333333333333,3,2,1,53,0,1
185233,-83.3333333333333,3,2,1,53,0,0
205266,-125,3,2,1,47,0,0
206450,-83.3333333333333,3,2,1,67,0,1
215825,-83.3333333333333,3,2,1,67,0,0
215924,-83.3333333333333,3,2,1,67,0,1
225299,-83.3333333333333,3,2,1,67,0,0
225397,-76.9230769230769,3,2,1,67,0,1
234772,-76.9230769230769,3,2,1,67,0,0
234871,-76.9230769230769,3,2,1,67,0,1
245529,-76.9230769230769,3,2,1,67,0,0
246713,-90.9090909090909,3,2,1,53,0,0

[Colours]
Combo1 : 0,128,255
Combo2 : 120,200,230

[HitObjects]
325,340,200,5,0,0:0:0:0:
325,340,299,1,0,0:0:0:0:
325,340,398,2,0,P|399:332|474:325,1,150,2|0,0:0|0:0,0:0:0:0:
101,243,1187,1,0,0:0:0:0:
457,155,1582,6,0,P|382:147|307:140,1,150,2|0,0:0|0:0,0:0:0:0:
55,110,2370,1,0,0:0:0:0:
194,344,2766,1,2,0:0:0:0:
365,113,3161,1,0,0:0:0:0:
420,69,3358,1,0,0:0:0:0:
442,135,3555,6,0,P|441:211|436:285,1,150,0|2,0:0|0:0,0:0:0:0:
245,23,4345,1,0,0:0:0:0:
100,271,4740,1,0,0:0:0:0:
49,90,4937,1,0,0:0:0:0:
49,90,5036,1,0,0:0:0:0:
49,90,5134,6,0,P|123:95|198:102,1,150,2|0,0:0|0:0,0:0:0:0:
273,112,5726,1,0,0:0:0:0:
343,86,5924,1,0,0:0:0:0:
390,27,6121,1,0,0:0:0:0:
451,68,6319,6,0,P|463:67|475:64,5,25,2|0|0|0|0|0,3:2|3:0|3:0|3:0|3:0|3:0,0:0:0:0:
446,145,6713,6,0,P|458:146|470:146,5,25,2|0|0|0|0|0,3:2|3:0|3:0|3:0|3:0|3:0,0:0:0:0:
420,221,7108,6,0,P|431:225|443:229,5,25,2|0|0|0|0|0,3:2|3:0|3:0|3:0|3:0|3:0,0:0:0:0:
373,286,7503,5,0,3:0:0:0:
313,221,7700,1,0,3:0:0:0:
271,298,7897,1,8,0:3:0:0:
212,130,8292,1,4,0:3:0:0:
68,233,8687,2,0,P|59:308|49:382,1,150,4|0,0:0|0:0,0:0:0:0:
22,23,9674,1,0,0:0:0:0:
22,23,9772,1,0,0:0:0:0:
22,23,9871,6,0,P|100:44|180:24,1,165.000005035401,4|2,0:0|0:0,0:0:0:0:
318,15,10463,1,0,0:0:0:0:
391,107,10661,2,0,P|431:111|472:116,1,82.5000025177003,2|0,0:0|0:0,0:0:0:0:
251,129,11055,2,0,P|210:133|169:138,1,82.5000025177003,8|0,0:0|0:0,0:0:0:0:
344,240,11450,1,2,0:0:0:0:
406,187,11647,1,0,0:0:0:0:
253,223,11845,2,0,P|221:249|218:289,1,82.5000025177003,2|8,0:0|0:0,0:0:0:0:
262,338,12141,1,8,0:0:0:0:
262,338,12240,5,0,0:0:0:0:
156,370,12437,1,8,0:0:0:0:
64,312,12634,1,2,0:0:0:0:
76,204,12832,1,0,0:0:0:0:
174,241,13029,6,0,P|188:181|157:129,1,123.75000377655,2|0,0:0|0:0,0:0:0:0:
110,113,13424,1,8,0:0:0:0:
197,66,13621,1,8,0:0:0:0:
296,66,13819,1,10,0:0:0:0:
385,108,14016,1,8,0:3:0:0:
480,82,14213,2,0,P|465:141|456:203,1,123.75000377655,2|0,0:0|0:0,0:0:0:0:
397,262,14608,6,0,P|411:223|441:195,1,82.5000025177003,2|0,0:0|0:0,0:0:0:0:
270,316,15003,2,0,P|252:273|217:241,1,93.75,8|0,0:3|0:0,0:0:0:0:
341,153,15397,2,0,P|359:109|396:77,1,97.4999955368044,4|8,0:3|0:0,0:0:0:0:
431,78,15694,1,8,0:0:0:0:
431,78,15792,5,4,0:0:0:0:
504,151,15990,5,0,0:0:0:0:
362,196,16187,5,0,0:0:0:0:
461,239,16384,5,0,0:0:0:0:
380,286,16582,6,0,P|381:323|384:360,1,75,0|8,0:0|0:0,0:0:0:0:
354,368,16878,1,8,0:0:0:0:
354,368,16976,5,0,0:0:0:0:
256,320,17174,1,8,0:3:0:0:
153,355,17371,2,0,P|113:361|72:367,1,82.5000025177003,4|0,0:3|0:0,0:0:0:0:
264,213,17766,2,0,P|263:151|266:89,1,123.75000377655,4|0,0:3|0:0,0:0:0:0:
269,0,18161,1,8,0:0:0:0:
269,0,18555,5,0,3:0:0:0:
166,30,18753,1,0,3:0:0:0:
62,56,18950,2,0,P|63:118|68:180,1,123.75000377655,0|0,3:0|0:0,0:0:0:0:
77,294,19345,5,4,0:3:0:0:
173,190,19542,1,8,0:0:0:0:
224,313,19740,1,4,0:3:0:0:
319,40,20134,2,0,P|376:24|429:53,1,123.75000377655,12|0,0:3|0:0,0:0:0:0:
480,143,20529,1,2,0:0:0:0:
480,143,21713,6,0,B|434:195|507:273|464:315,1,180,2|0,0:0|0:0,0:0:0:0:
390,262,22503,2,0,P|334:240|275:245,1,120,0|2,0:0|0:0,0:0:0:0:
274,245,24082,6,0,P|194:281|149:357,1,180,2|0,0:0|0:0,0:0:0:0:
84,293,24872,2,0,P|77:235|38:190,1,120,0|2,0:0|0:0,0:0:0:0:
38,190,26450,6,0,P|97:129|54:57,1,180,2|0,0:0|0:0,0:0:0:0:
142,35,27240,2,0,P|201:45|260:53,1,120,0|2,0:0|0:0,0:0:0:0:
388,205,28029,2,0,P|447:197|506:186,1,120,2|0,0:0|0:0,0:0:0:0:
190,95,28819,6,0,B|139:177|272:244|207:319,1,240,2|2,0:0|0:0,0:0:0:0:
70,186,30003,2,0,P|68:127|45:72,1,120,2|0,0:0|0:0,0:0:0:0:
153,357,31187,6,0,P|237:324|326:327,1,180,2|0,0:0|0:0,0:0:0:0:
413,352,31977,2,0,P|469:336|503:288,1,120,0|2,0:0|0:0,0:0:0:0:
475,110,32766,1,2,0:0:0:0:
255,0,33161,1,2,0:0:0:0:
53,116,33555,6,0,P|69:204|71:294,1,180,2|0,0:0|0:0,0:0:0:0:
132,361,34345,2,0,P|147:303|179:253,1,120,0|2,0:0|0:0,0:0:0:0:
179,253,35924,6,0,P|224:176|223:87,1,180,2|0,0:0|0:0,0:0:0:0:
307,118,36714,2,0,P|319:176|340:232,1,120,0|2,0:0|0:0,0:0:0:0:
482,31,37503,1,2,0:0:0:0:
467,315,37897,1,2,0:0:0:0:
252,319,38292,6,0,P|162:330|73:345,1,180,2|0,0:0|0:0,0:0:0:0:
148,251,39082,2,0,P|176:241|204:230,1,60
72,183,39476,1,2,0:3:0:0:
72,183,39871,5,0,0:0:0:0:
93,95,40069,1,4,0:3:0:0:
93,95,40463,1,4,0:3:0:0:
157,32,40661,5,2,0:3:0:0:
244,53,40858,2,0,P|282:58|319:62,1,75,8|0,0:0|0:0,0:0:0:0:
406,41,41253,1,2,0:3:0:0:
457,114,41450,1,8,0:0:0:0:
408,189,41647,1,0,3:0:0:0:
408,189,41746,1,0,3:0:0:0:
408,189,41845,2,0,P|413:227|419:264,1,75,8|8,0:3|0:3,0:0:0:0:
349,361,42240,2,0,P|340:306|332:250,1,112.5,4|0,0:3|0:0,0:0:0:0:
318,160,42634,1,8,0:0:0:0:
318,160,43029,5,2,0:3:0:0:
232,195,43226,2,0,P|195:189|159:182,1,75,8|0,0:0|0:0,0:0:0:0:
71,161,43621,1,2,0:3:0:0:
46,247,43819,1,8,0:0:0:0:
133,268,44016,1,8,3:0:0:0:
133,268,44115,1,8,3:0:0:0:
133,268,44213,1,8,3:0:0:0:
73,336,44411,1,2,0:3:0:0:
477,351,45003,2,0,P|425:338|409:287,1,112.5,8|0,0:0|0:0,0:0:0:0:
442,256,45397,5,2,0:3:0:0:
401,175,45595,2,0,P|406:137|412:100,1,75,8|0,0:0|0:0,0:0:0:0:
461,25,45990,1,2,0:3:0:0:
325,50,46187,2,0,P|287:46|250:43,1,75,8|0,0:0|3:0,0:0:0:0:
173,127,46483,1,0,3:0:0:0:
173,127,46582,2,0,P|136:130|99:134,1,75,0|0,3:0|0:0,0:0:0:0:
293,231,46976,2,0,P|330:234|367:237,1,75,2|0,0:0|0:0,0:0:0:0:
131,383,47371,2,0,P|130:327|121:272,1,112.5,8|0,0:0|0:0,0:0:0:0:
97,234,47766,5,2,0:3:0:0:
30,173,47963,2,0,P|23:136|11:100,1,75,8|0,0:0|0:0,0:0:0:0:
118,192,48358,1,2,0:3:0:0:
187,134,48555,2,0,P|224:139|261:141,1,75,8|0,0:0|3:0,0:0:0:0:
310,142,48851,1,0,3:0:0:0:
310,142,48950,1,0,3:0:0:0:
396,118,49147,1,2,0:3:0:0:
1,343,49740,1,8,0:0:0:0:
302,251,50134,5,2,0:3:0:0:
368,312,50332,2,0,P|404:320|440:329,1,75,8|0,0:0|0:0,0:0:0:0:
298,212,50726,1,2,0:3:0:0:
244,321,50924,2,0,P|207:329|171:338,1,75,8|0,0:0|3:0,0:0:0:0:
89,277,51220,1,0,3:0:0:0:
89,277,51319,2,0,P|80:240|57:211,1,75,0|0,3:0|0:0,0:0:0:0:
193,125,51713,2,0,P|170:155|161:193,1,78.7499975967408,2|0,0:0|0:0,0:0:0:0:
58,47,52108,2,0,P|82:80|90:120,1,82.5000025177003,8|0,0:0|0:0,0:0:0:0:
177,11,52503,5,2,0:3:0:0:
286,48,52700,1,8,0:0:0:0:
262,32,53095,5,2,0:3:0:0:
398,19,53292,2,0,P|434:26|471:35,1,75,8|0,0:0|3:0,0:0:0:0:
476,83,53588,1,0,3:0:0:0:
476,83,53687,1,0,3:0:0:0:
393,118,53884,1,2,0:3:0:0:
30,343,54476,2,0,P|72:310|125:325,1,112.5,8|0,0:0|0:0,0:0:0:0:
149,349,54871,5,2,0:3:0:0:
193,269,55069,2,0,P|197:232|202:195,1,75,8|0,0:0|0:0,0:0:0:0:
264,323,55463,1,2,0:3:0:0:
319,250,55661,2,0,P|371:236|412:271,1,112.5,8|0,0:0|0:0,0:0:0:0:
407,315,56055,1,2,0:3:0:0:
454,238,56253,1,8,0:3:0:0:
427,150,56450,2,0,P|421:114|422:76,1,75,2|0,0:0|0:0,0:0:0:0:
237,63,56845,2,0,P|279:28|333:40,1,112.5,8|0,0:0|0:0,0:0:0:0:
340,84,57240,5,2,0:3:0:0:
277,148,57437,2,0,P|273:185|273:222,1,75,8|0,0:0|0:0,0:0:0:0:
164,116,57832,1,2,0:3:0:0:
157,205,58029,2,0,P|160:242|160:279,1,75,8|0,0:0|3:0,0:0:0:0:
162,324,58325,1,0,3:0:0:0:
161,369,58424,1,0,3:0:0:0:
115,12,58819,1,8,0:3:0:0:
84,368,59213,1,4,0:3:0:0:
219,10,59608,5,4,0:0:0:0:
300,67,59805,2,0,P|337:70|374:73,1,75,2|0,0:0|0:0,0:0:0:0:
464,65,60200,1,2,0:3:0:0:
500,152,60397,1,0,0:0:0:0:
500,152,60595,1,2,0:3:0:0:
372,165,60792,2,0,P|365:201|362:239,1,75,8|0,0:0|0:0,0:0:0:0:
271,363,61187,2,0,P|268:325|261:288,1,75,8|0,0:3|0:0,0:0:0:0:
170,122,61582,2,0,P|163:158|160:196,1,75,8|0,0:3|0:0,0:0:0:0:
159,241,61878,1,0,0:0:0:0:
162,285,61976,5,2,0:3:0:0:
73,227,62174,1,8,0:0:0:0:
28,319,62371,1,8,0:3:0:0:
420,355,62766,1,4,0:3:0:0:
264,87,63161,6,0,P|307:67|332:26,1,95.6250018239022,8|0,0:0|0:0,0:0:0:0:
353,38,63555,6,0,P|323:85|276:113,1,112.5
291,133,63950,6,0,P|345:99|367:39,1,129.375002467632
446,133,64345,6,0,P|455:222|452:312,1,179.999994506836,4|0,0:0|0:0,0:0:0:0:
351,226,64937,1,0,0:0:0:0:
260,284,65134,2,0,P|215:281|170:275,1,89.9999972534181,2|0,0:3|0:0,0:0:0:0:
0,200,65529,2,0,P|64:144|147:170,1,179.999994506836,8|2,0:0|0:0,0:0:0:0:
289,384,66319,1,2,0:0:0:0:
422,344,66516,1,0,3:0:0:0:
422,344,66615,1,0,3:0:0:0:
422,344,66713,6,0,P|410:255|429:167,1,179.999994506836,2|0,0:3|0:0,0:0:0:0:
485,74,67305,1,2,0:3:0:0:
383,38,67503,2,0,P|338:32|294:22,1,89.9999972534181,2|0,0:3|0:0,0:0:0:0:
92,47,67897,2,0,P|179:49|236:115,1,179.999994506836,8|2,0:0|0:0,0:0:0:0:
22,358,68687,1,2,0:0:0:0:
110,295,68884,1,0,3:0:0:0:
110,295,68983,1,0,3:0:0:0:
110,295,69082,6,0,P|198:310|287:321,1,179.999994506836,4|0,0:0|0:0,0:0:0:0:
395,331,69674,1,0,0:0:0:0:
348,233,69871,2,0,P|301:229|258:222,1,89.9999972534181,2|0,0:3|0:0,0:0:0:0:
442,77,70266,2,0,P|435:121|427:165,1,89.9999972534181,12|0,0:0|0:0,0:0:0:0:
290,9,70661,2,0,P|287:54|287:98,1,89.9999972534181,2|0,0:3|0:0,0:0:0:0:
132,63,71056,1,2,0:3:0:0:
165,163,71253,1,0,3:0:0:0:
165,163,71352,1,0,3:0:0:0:
165,163,71450,6,0,P|96:216|85:303,1,179.999994506836,2|0,0:3|0:0,0:0:0:0:
187,268,72042,1,2,0:3:0:0:
274,329,72240,2,0,P|342:326|406:307,1,134.999995880127,2|0,0:0|0:0,0:0:0:0:
512,184,72634,5,4,0:1:0:0:
512,184,73029,2,0,P|454:151|390:166,1,134.999995880127,8|0,0:3|0:0,0:0:0:0:
364,173,73424,2,0,P|388:111|370:46,1,134.999995880127,4|0,0:3|0:0,0:0:0:0:
297,109,73819,6,0,B|249:157|168:84|111:131,1,194.999991073609,4|0,0:0|0:0,0:0:0:0:
35,220,74411,1,0,0:0:0:0:
135,279,74608,2,0,P|142:327|147:375,1,97.4999955368044,2|0,0:3|0:0,0:0:0:0:
221,199,75003,2,0,P|321:206|415:215,1,194.999991073609,8|2,0:0|0:0,0:0:0:0:
42,346,75792,1,2,0:0:0:0:
17,216,75990,1,0,3:0:0:0:
17,216,76088,1,0,3:0:0:0:
17,216,76187,6,0,P|70:141|25:60,1,194.999991073609,2|0,0:3|0:0,0:0:0:0:
138,27,76779,1,0,0:0:0:0:
224,105,76976,2,0,P|272:104|321:98,1,97.4999955368044,2|0,0:3|0:0,0:0:0:0:
511,143,77371,2,0,P|416:142|351:211,1,194.999991073609,8|2,0:0|0:0,0:0:0:0:
86,22,78161,1,2,0:0:0:0:
10,110,78358,1,0,3:0:0:0:
10,110,78456,1,0,3:0:0:0:
10,110,78555,6,0,P|41:203|42:300,1,194.999991073609,4|0,0:0|0:0,0:0:0:0:
144,356,79147,1,0,0:0:0:0:
223,270,79344,2,0,P|227:221|234:173,1,97.4999955368044,2|0,0:3|0:0,0:0:0:0:
306,351,79739,2,0,P|353:342|402:344,1,97.4999955368044,8|0,0:0|0:0,0:0:0:0:
512,222,80134,2,0,P|464:212|415:214,1,97.4999955368044,8|0,0:3|0:0,0:0:0:0:
312,269,80528,1,4,0:3:0:0:
321,152,80726,1,0,3:0:0:0:
327,164,80824,1,0,3:0:0:0:
334,176,80924,5,8,0:0:0:0:
423,102,81121,1,8,0:0:0:0:
320,42,81319,2,0,P|251:27|194:69,1,146.249993305207,8|0,0:3|0:0,0:0:0:0:
166,103,81713,2,0,P|103:70|38:98,1,146.249993305207,4|0,0:3|0:0,0:0:0:0:
0,212,82108,5,4,0:1:0:0:
416,317,86647,5,0,3:0:0:0:
410,338,86746,1,0,3:0:0:0:
404,359,86845,1,8,0:0:0:0:
333,280,87042,2,0,P|328:242|325:205,1,75,8|0,0:0|0:0,0:0:0:0:
260,333,87437,1,8,0:3:0:0:
232,353,87832,1,4,0:3:0:0:
151,309,88029,6,0,P|119:245|48:249,1,150,2|0,0:3|0:0,0:0:0:0:
110,151,88621,2,0,P|120:114|125:77,1,75,0|8,0:0|0:1,0:0:0:0:
207,41,89016,1,0,0:0:0:0:
321,98,89213,2,0,P|284:101|251:119,1,75,2|2,0:3|0:3,0:0:0:0:
438,203,89608,2,0,P|475:206|508:223,1,75,2|0,0:0|0:0,0:0:0:0:
308,330,90003,2,0,P|254:334|216:295,1,112.5,8|0,0:1|0:0,0:0:0:0:
228,270,90397,6,0,P|269:213|224:159,1,150,2|2,0:3|0:0,0:0:0:0:
48,131,90990,1,2,0:3:0:0:
147,71,91187,2,0,P|180:72|179:38,1,75,8|0,0:1|0:0,0:0:0:0:
126,210,91582,2,0,P|123:247|120:284,1,75,2|2,0:3|0:3,0:0:0:0:
113,374,91976,1,2,0:0:0:0:
34,25,92371,2,0,P|80:54|133:43,1,112.5,8|0,0:1|0:0,0:0:0:0:
162,31,92766,6,0,P|155:105|172:178,1,150,2|0,0:3|0:0,0:0:0:0:
214,257,93358,1,2,0:3:0:0:
284,202,93555,2,0,P|321:195|359:190,1,75,8|0,0:1|0:0,0:0:0:0:
112,248,93950,2,0,P|74:252|37:259,1,75,2|2,0:3|0:3,0:0:0:0:
306,295,94345,2,0,P|342:288|380:283,1,75,2|0,0:0|0:0,0:0:0:0:
108,342,94740,2,0,P|53:347|0:365,1,112.5,8|0,0:1|0:0,0:0:0:0:
114,298,95134,6,0,P|126:224|108:152,1,150,2|0,0:3|0:0,0:0:0:0:
44,87,95726,1,2,0:3:0:0:
108,24,95924,2,0,P|145:28|182:35,1,75,8|0,0:1|0:0,0:0:0:0:
240,104,96319,1,2,0:3:0:0:
240,104,96516,1,2,0:3:0:0:
315,50,96713,1,2,0:0:0:0:
499,378,97108,1,8,0:1:0:0:
160,343,97503,6,0,P|86:340|11:334,1,150,2|0,0:3|0:0,0:0:0:0:
97,223,98095,1,2,0:3:0:0:
219,275,98292,2,0,P|257:280|294:286,1,75,8|0,0:1|0:0,0:0:0:0:
196,150,98687,2,0,P|233:144|270:138,1,75,2|2,0:3|0:3,0:0:0:0:
85,108,99082,2,0,P|98:73|112:38,1,75,2|0,0:0|0:0,0:0:0:0:
11,232,99476,2,0,P|45:275|55:330,1,112.5,8|0,0:1|0:0,0:0:0:0:
42,365,99871,6,0,P|99:321|170:339,1,150,2|0,0:3|0:0,0:0:0:0:
335,369,100463,1,2,0:3:0:0:
414,320,100661,2,0,P|451:315|488:310,1,75,8|0,0:0|0:0,0:0:0:0:
266,279,101055,1,2,0:3:0:0:
351,250,101253,1,8,0:0:0:0:
437,224,101450,2,0,P|437:168|467:121,1,112.5,8|0,0:3|0:0,0:0:0:0:
500,158,101845,2,0,P|455:124|400:122,1,112.5,4|0,0:3|0:0,0:0:0:0:
367,148,102240,5,4,0:0:0:0:
294,65,102437,2,0,P|220:52|149:73,1,150
72,216,103029,2,0,P|34:213|-2:208,1,75,2|0,0:0|0:0,0:0:0:0:
184,181,103424,2,0,P|187:218|190:255,1,75,8|0,0:0|0:0,0:0:0:0:
193,345,103819,1,2,0:0:0:0:
281,360,104016,1,2,0:3:0:0:
364,327,104213,1,8,0:0:0:0:
394,241,104411,1,8,0:0:0:0:
415,247,104509,1,8,0:0:0:0:
436,253,104608,5,2,0:3:0:0:
367,141,104805,1,8,0:0:0:0:
428,74,105003,1,8,0:3:0:0:
353,23,105200,1,8,0:3:0:0:
331,29,105299,1,8,0:3:0:0:
309,36,105397,1,8,0:3:0:0:
186,131,105595,1,4,0:3:0:0:
205,142,105694,1,4,0:3:0:0:
223,158,105792,6,0,P|243:200|237:247,1,95.6250018239022,4|0,0:0|0:0,0:0:0:0:
259,250,106187,6,0,P|271:197|249:146,1,112.5,4|0,0:0|0:0,0:0:0:0:
290,132,106582,6,0,P|312:191|291:251,1,129.375002467632,4|0,0:0|0:0,0:0:0:0:
274,349,106976,6,0,P|308:269|392:245,1,179.999994506836,4|0,0:0|0:0,0:0:0:0:
468,322,107568,1,0,0:0:0:0:
506,221,107765,2,0,P|503:176|497:131,1,89.9999972534181,2|0,0:3|0:0,0:0:0:0:
433,0,108160,2,0,P|360:39|389:117,1,179.999994506836,8|2,0:0|0:0,0:0:0:0:
133,22,108950,1,2,0:0:0:0:
26,56,109147,1,0,3:0:0:0:
26,56,109246,1,0,3:0:0:0:
26,56,109345,6,0,P|37:146|41:236,1,179.999994506836,2|0,0:3|0:0,0:0:0:0:
21,341,109936,1,2,0:3:0:0:
126,320,110134,2,0,P|169:310|214:304,1,89.9999972534181,2|0,0:3|0:0,0:0:0:0:
416,305,110529,2,0,P|330:301|289:226,1,179.999994506836,8|2,0:0|0:0,0:0:0:0:
490,20,111318,1,2,0:0:0:0:
442,117,111516,1,0,3:0:0:0:
442,117,111614,1,0,3:0:0:0:
442,117,111713,6,0,P|352:106|263:90,1,179.999994506836,4|0,0:0|0:0,0:0:0:0:
159,61,112305,1,0,0:0:0:0:
75,128,112503,2,0,P|82:172|85:217,1,89.9999972534181,2|0,0:3|0:0,0:0:0:0:
250,378,112897,2,0,P|253:333|260:288,1,89.9999972534181,12|0,0:0|0:0,0:0:0:0:
437,128,113292,2,0,P|429:172|426:217,1,89.9999972534181,2|0,0:3|0:0,0:0:0:0:
250,378,113687,1,2,0:3:0:0:
104,205,113884,1,0,3:0:0:0:
104,205,113983,1,0,3:0:0:0:
104,205,114081,6,0,P|90:293|62:379,1,179.999994506836,2|0,0:3|0:0,0:0:0:0:
6,259,114673,1,2,0:3:0:0:
57,115,114871,2,0,P|125:118|189:137,1,134.999995880127,2|0,0:3|0:0,0:0:0:0:
302,210,115266,1,8,0:0:0:0:
302,210,115661,2,0,P|366:196|424:229,1,134.999995880127,8|0,0:3|0:0,0:0:0:0:
432,268,116055,2,0,P|365:278|302:301,1,134.999995880127,4|0,0:3|0:0,0:0:0:0:
218,250,116450,6,0,P|124:250|72:328,1,194.999991073609,4|0,0:0|0:0,0:0:0:0:
170,355,117042,1,0,0:0:0:0:
19,245,117239,2,0,P|13:196|6:148,1,97.4999955368044,2|0,0:3|0:0,0:0:0:0:
219,83,117634,2,0,P|126:99|56:37,1,194.999991073609,8|2,0:0|0:0,0:0:0:0:
463,15,118423,1,2,0:0:0:0:
350,86,118621,1,0,3:0:0:0:
350,86,118719,1,0,3:0:0:0:
350,86,118818,6,0,P|356:183|366:280,1,194.999991073609,2|0,0:3|0:0,0:0:0:0:
436,373,119411,1,0,0:3:0:0:
488,268,119608,2,0,P|484:219|483:170,1,97.4999955368044,2|0,0:3|0:0,0:0:0:0:
271,132,120002,2,0,P|336:63|431:65,1,194.999991073609,8|2,0:0|0:0,0:0:0:0:
148,48,120792,1,2,0:0:0:0:
10,110,120989,1,0,3:0:0:0:
10,110,121087,1,0,3:0:0:0:
10,110,121187,6,0,P|41:203|42:300,1,194.999991073609,4|0,0:0|0:0,0:0:0:0:
144,356,121778,1,0,0:0:0:0:
223,270,121976,2,0,P|227:221|234:173,1,97.4999955368044,2|0,0:3|0:0,0:0:0:0:
406,0,122371,2,0,P|413:48|416:96,1,97.4999955368044,12|0,0:0|0:0,0:0:0:0:
192,248,122766,2,0,P|196:199|203:151,1,97.4999955368044,2|0,0:0|0:0,0:0:0:0:
447,98,123161,1,2,0:0:0:0:
474,192,123357,1,0,3:0:0:0:
480,204,123457,1,0,3:0:0:0:
487,216,123555,5,4,0:0:0:0:
397,273,123752,1,0,0:0:0:0:
353,158,123950,2,0,P|284:143|227:185,1,146.249993305207,2|0,0:3|0:0,0:0:0:0:
186,291,124345,1,2,0:3:0:0:
112,200,124542,1,0,0:0:0:0:
158,92,124740,5,2,0:3:0:0:
306,369,125134,1,8,0:0:0:0:
439,81,125529,5,8,0:0:0:0:
315,139,125726,1,2,0:3:0:0:
435,206,125924,1,8,0:0:0:0:
22,246,126319,5,8,0:0:0:0:
481,360,126713,1,8,0:0:0:0:
33,334,127108,5,8,0:0:0:0:
161,278,127305,1,8,0:3:0:0:
37,218,127503,1,8,0:0:0:0:
417,160,127897,5,8,0:0:0:0:
312,105,128095,1,2,0:0:0:0:
312,105,128194,1,2,0:0:0:0:
312,105,128292,6,0,B|249:99|241:159|184:216|116:180,1,225,4|0,0:0|0:0,0:0:0:0:
72,69,129082,2,0,P|108:75|143:89,1,75,2|0,0:3|0:0,0:0:0:0:
151,286,129476,2,0,P|95:287|44:264,1,112.5,8|0,0:0|0:0,0:0:0:0:
27,240,129871,2,0,P|53:289|57:344,1,112.5,2|0,0:0|0:0,0:0:0:0:
47,382,130266,2,0,P|105:364|167:368,1,123.75000377655,2|0,0:0|0:0,0:0:0:0:
199,377,130661,6,0,B|236:338|300:398|340:350,1,150,2|0,0:3|0:0,0:0:0:0:
399,283,131253,1,2,0:3:0:0:
359,201,131450,2,0,P|361:164|369:128,1,75,2|0,0:0|0:0,0:0:0:0:
418,24,131845,2,0,P|378:110|312:41,1,225,8|0,0:0|0:0,0:0:0:0:
441,23,132634,2,0,P|453:77|443:132,1,112.5,2|0,0:3|0:0,0:0:0:0:
425,161,133029,6,0,B|393:202|405:258|438:261|448:314|422:353,1,202.499993820191,2|0,0:0|0:0,0:0:0:0:
326,280,133819,2,0,P|313:244|311:207,1,75,2|0,0:3|0:0,0:0:0:0:
260,363,134213,2,0,P|205:355|153:333,1,112.5,8|0,0:0|0:0,0:0:0:0:
130,316,134608,2,0,P|153:259|148:198,1,123.75000377655,2|0,0:0|0:0,0:0:0:0:
127,179,135003,2,0,P|119:125|161:91,1,112.5,2|0,0:0|0:0,0:0:0:0:
189,102,135397,6,0,P|238:103|273:69,1,101.249996910095,2|0,0:3|0:0,0:0:0:0:
286,35,135792,2,0,P|337:17|383:47,1,112.5,2|0,0:0|0:0,0:0:0:0:
393,74,136187,2,0,P|397:104|400:134,1,60,2|0,0:0|0:0,0:0:0:0:
361,333,136582,2,0,P|365:278|327:239,1,112.5,12|0,0:0|0:0,0:0:0:0:
278,311,136976,1,8,0:3:0:0:
278,311,137371,1,12,0:3:0:0:
159,287,137569,1,2,0:0:0:0:
55,343,137766,6,0,B|100:298|101:263|59:232|25:188|41:149|91:111,1,262.5,4|0,0:0|0:0,0:0:0:0:
119,109,138555,2,0,P|113:145|127:179,1,75,2|0,0:3|0:0,0:0:0:0:
269,256,138950,2,0,P|268:201|247:149,1,112.5,8|0,0:0|0:0,0:0:0:0:
224,157,139345,2,0,P|223:219|216:281,1,123.75000377655,2|0,0:0|0:0,0:0:0:0:
211,316,139740,2,0,B|260:303|292:359|339:341,1,134.999995880127,2|0,0:0|0:0,0:0:0:0:
370,320,140134,6,0,P|326:223|390:137,1,225,2|2,0:3|0:3,0:0:0:0:
476,108,140924,1,0,0:0:0:0:
446,22,141121,1,2,0:3:0:0:
357,42,141319,2,0,P|307:65|259:95,1,112.5,8|0,0:0|0:0,0:0:0:0:
237,123,141713,2,0,P|178:89|112:90,1,134.999995880127,2|0,0:0|0:0,0:0:0:0:
95,113,142108,2,0,P|107:184|92:256,1,146.249993305207,2|0,0:0|0:0,0:0:0:0:
82,299,142503,6,0,P|160:226|259:265,1,225,2|0,0:3|0:0,0:0:0:0:
156,384,143292,2,0,P|161:346|174:311,1,75,2|0,0:3|0:0,0:0:0:0:
292,165,143687,2,0,P|342:189|396:205,1,112.5,8|0,0:0|0:0,0:0:0:0:
426,217,144082,2,0,P|415:167|420:117,1,101.249996910095,2|0,0:3|0:0,0:0:0:0:
440,104,144476,2,0,P|458:67|427:38,1,90,2|0,0:3|0:0,0:0:0:0:
349,84,144871,5,2,0:3:0:0:
271,38,145069,1,8,0:0:0:0:
183,58,145266,2,0,P|128:64|78:41,1,112.5,8|0,0:3|0:0,0:0:0:0:
63,24,145661,2,0,P|70:85|66:146,1,123.75000377655,4|0,0:3|0:0,0:0:0:0:
55,174,146055,5,2,0:3:0:0:
3,286,146253,1,8,0:0:0:0:
188,378,146450,5,8,0:3:0:0:
129,269,146648,1,0,0:0:0:0:
292,152,146845,5,4,0:3:0:0:
255,271,147043,1,0,0:0:0:0:
187,75,147240,6,0,P|275:59|365:51,1,179.999994506836,4|0,0:0|0:0,0:0:0:0:
444,124,147832,1,0,0:0:0:0:
410,228,148029,2,0,P|419:272|427:316,1,89.9999972534181,2|0,0:3|0:0,0:0:0:0:
284,205,148424,2,0,P|263:120|187:75,1,179.999994506836,8|2,0:0|0:0,0:0:0:0:
102,204,149016,2,0,P|146:195|187:177,1,89.9999972534181,0|2,0:0|0:0,0:0:0:0:
0,313,149608,6,0,P|82:328|172:330,1,179.999994506836,2|0,0:3|0:0,0:0:0:0:
277,361,150200,1,2,0:3:0:0:
368,303,150397,2,0,P|412:305|448:331,1,89.9999972534181,2|0,0:3|0:0,0:0:0:0:
261,254,150792,2,0,P|247:166|286:86,1,179.999994506836,8|2,0:0|0:0,0:0:0:0:
378,29,151384,1,0,0:0:0:0:
415,129,151582,2,0,P|378:155|335:170,1,89.9999972534181,2|0,0:0|0:0,0:0:0:0:
174,73,151976,6,0,P|84:67|0:37,1,179.999994506836,2|0,0:3|0:0,0:0:0:0:
56,151,152569,1,0,0:0:0:0:
95,262,152766,2,0,P|161:255|223:280,1,134.999995880127,2|0,0:3|0:0,0:0:0:0:
269,305,153161,1,8,0:0:0:0:
269,305,153555,5,0,0:3:0:0:
389,367,153753,1,0,0:0:0:0:
462,276,153950,1,4,0:3:0:0:
468,168,154147,1,0,0:0:0:0:
392,137,154345,6,0,B|331:65|189:166|148:68,1,269.999991760254,8|2,0:0|0:3,0:0:0:0:
148,176,155134,1,0,0:0:0:0:
156,284,155332,1,2,0:3:0:0:
233,365,155529,2,0,P|277:358|322:354,1,89.9999972534181,8|0,0:0|0:0,0:0:0:0:
492,384,155924,1,8,0:3:0:0:
393,51,156319,2,0,P|455:47|472:107,1,134.999995880127,4|0,0:3|0:0,0:0:0:0:
461,160,156713,6,0,P|330:179|244:279,1,269.999991760254,6|0,0:0|0:0,0:0:0:0:
160,347,157503,2,0,P|116:347|74:364,1,89.9999972534181,2|0,0:3|0:0,0:0:0:0:
157,210,157897,2,0,P|142:145|91:102,1,134.999995880127,8|0,0:0|0:0,0:0:0:0:
46,92,158292,2,0,P|114:99|168:57,1,140.625,2|0,0:0|0:0,0:0:0:0:
153,6,158687,2,0,P|208:52|278:69,1,146.249993305207,2|0,0:0|0:0,0:0:0:0:
301,41,159082,6,0,P|362:15|428:27,1,134.999995880127,2|0,0:3|0:0,0:0:0:0:
423,68,159476,2,0,P|424:135|451:196,1,134.999995880127,2|0,0:0|0:0,0:0:0:0:
482,220,159871,2,0,P|469:263|468:307,1,89.9999972534181,2|2,0:0|0:3,0:0:0:0:
289,369,160266,2,0,P|306:311|248:297,1,134.999995880127,8|0,0:0|0:0,0:0:0:0:
143,373,160661,1,2,0:0:0:0:
111,183,161055,2,0,P|105:139|103:94,1,89.9999972534181,2|0,0:0|0:0,0:0:0:0:
125,46,161351,1,0,0:0:0:0:
125,46,161450,6,0,P|249:98|383:93,1,269.999991760254,2|0,0:3|0:0,0:0:0:0:
477,144,162240,2,0,P|489:188|496:232,1,89.9999972534181,2|0,0:3|0:0,0:0:0:0:
294,236,162634,2,0,P|359:239|403:288,1,134.999995880127,8|0,0:0|0:0,0:0:0:0:
407,328,163029,2,0,P|339:332|275:351,1,134.999995880127,2|0,0:3|0:0,0:0:0:0:
242,367,163424,2,0,P|174:361|109:345,1,134.999995880127,8|0,0:3|0:0,0:0:0:0:
77,327,163819,5,4,0:3:0:0:
3,214,164016,1,8,0:0:0:0:
201,90,164213,1,8,0:3:0:0:
132,205,164411,1,8,0:3:0:0:
12,38,164608,2,0,P|56:31|100:23,1,89.9999972534181,4|0,0:3|0:0,0:0:0:0:
292,0,165003,1,12,0:0:0:0:
133,182,165397,1,8,0:3:0:0:
283,30,165792,1,8,0:3:0:0:
394,136,165990,1,0,3:0:0:0:
394,136,166088,1,0,3:0:0:0:
394,136,166187,6,0,P|400:221|477:258,1,179.999994506836,4|0,0:0|0:0,0:0:0:0:
503,153,166779,1,0,0:0:0:0:
454,55,166976,2,0,P|412:40|368:35,1,89.9999972534181,2|0,0:3|0:0,0:0:0:0:
161,53,167371,2,0,P|249:55|304:123,1,179.999994506836,8|2,0:0|0:0,0:0:0:0:
262,223,167963,1,0,0:0:0:0:
164,271,168161,2,0,P|120:268|76:256,1,89.9999972534181,2|0,0:0|3:0,0:0:0:0:
42,152,168457,1,0,3:0:0:0:
42,152,168555,6,0,P|54:242|53:332,1,179.999994506836,2|0,0:3|0:0,0:0:0:0:
156,363,169147,1,2,0:3:0:0:
220,276,169344,2,0,P|264:284|309:287,1,89.9999972534181,2|0,0:3|0:0,0:0:0:0:
386,368,169641,1,0,3:0:0:0:
386,368,169740,2,0,P|351:288|375:180,1,179.999994506836,8|2,0:0|0:0,0:0:0:0:
421,105,170331,1,0,0:0:0:0:
329,46,170529,2,0,P|284:41|239:38,1,89.9999972534181,2|0,0:0|3:0,0:0:0:0:
156,94,170825,1,0,3:0:0:0:
156,94,170924,6,0,P|76:104|72:24,1,179.999994506836,4|0,0:0|0:0,0:0:0:0:
40,171,171516,1,0,0:0:0:0:
110,251,171713,2,0,P|170:220|237:210,1,134.999995880127,2|0,0:3|0:0,0:0:0:0:
276,342,172108,2,0,P|272:297|270:253,1,89.9999972534181,12|0,0:0|0:0,0:0:0:0:
414,90,172503,2,0,P|412:135|409:180,1,89.9999972534181,4|0,0:3|0:0,0:0:0:0:
272,100,172897,2,0,P|268:55|266:11,1,89.9999972534181,4|0,0:3|3:0,0:0:0:0:
328,179,173194,1,0,3:0:0:0:
328,179,173292,6,0,P|401:132|484:159,1,179.999994506836,2|0,0:3|0:0,0:0:0:0:
509,263,173884,1,2,0:3:0:0:
443,349,174082,2,0,P|399:349|354:341,1,89.9999972534181,0|2,0:0|0:3,0:0:0:0:
241,278,174378,1,0,3:0:0:0:
241,278,174476,2,0,P|196:269|151:270,1,89.9999972534181,8|0,0:0|0:0,0:0:0:0:
0,376,174871,2,0,P|44:384|89:383,1,89.9999972534181,8|0,0:3|0:0,0:0:0:0:
248,249,175266,2,0,P|245:205|239:160,1,89.9999972534181,4|0,0:3|3:0,0:0:0:0:
176,91,175562,1,0,3:0:0:0:
176,91,175661,6,0,P|249:140|332:115,1,179.999994506836,4|0,0:0|0:0,0:0:0:0:
411,41,176253,1,0,0:0:0:0:
470,132,176450,2,0,P|476:200|494:264,1,134.999995880127,2|0,3:0|0:0,0:0:0:0:
398,334,176845,2,0,P|441:320|486:317,1,89.9999972534181,8|0,0:0|0:0,0:0:0:0:
289,252,177240,2,0,P|246:238|202:235,1,89.9999972534181,2|0,0:0|0:0,0:0:0:0:
297,104,177634,2,0,P|340:90|385:88,1,89.9999972534181,2|0,0:0|3:0,0:0:0:0:
239,150,177931,1,0,3:0:0:0:
239,150,178029,6,0,P|259:71|183:40,1,179.999994506836,2|0,0:3|0:0,0:0:0:0:
84,85,178621,1,2,0:3:0:0:
123,185,178818,2,0,P|120:229|117:274,1,89.9999972534181,0|2,0:0|0:3,0:0:0:0:
266,384,179213,2,0,P|263:339|261:295,1,89.9999972534181,8|0,0:0|0:0,0:0:0:0:
361,171,179608,2,0,P|405:161|449:154,1,89.9999972534181,2|0,0:0|0:0,0:0:0:0:
369,197,180003,2,0,P|413:187|457:180,1,89.9999972534181,2|0,0:0|3:0,0:0:0:0:
427,273,180299,1,0,3:0:0:0:
427,273,180397,6,0,P|341:282|284:217,1,179.999994506836,4|0,0:0|0:0,0:0:0:0:
303,109,180990,1,0,0:0:0:0:
196,123,181186,2,0,P|151:114|107:105,1,89.9999972534181,2|0,0:3|0:0,0:0:0:0:
144,221,181483,1,0,0:0:0:0:
144,221,181581,2,0,P|153:265|159:309,1,89.9999972534181,12|0,0:0|0:0,0:0:0:0:
2,143,181976,2,0,P|8:99|18:55,1,89.9999972534181,8|0,0:3|0:0,0:0:0:0:
208,159,182371,2,0,P|218:202|224:247,1,89.9999972534181,4|0,0:3|3:0,0:0:0:0:
159,309,182667,1,0,3:0:0:0:
159,309,182766,6,0,P|239:269|326:285,1,179.999994506836,4|0,0:0|0:0,0:0:0:0:
403,360,183358,1,0,0:0:0:0:
489,295,183555,2,0,P|487:250|492:205,1,89.9999972534181,8|0,0:0|0:0,0:0:0:0:
380,102,183950,2,0,P|385:147|384:192,1,89.9999972534181,4|0,0:0|0:0,0:0:0:0:
325,285,184345,1,8,0:0:0:0:
219,260,184542,1,8,0:0:0:0:
112,238,184740,1,8,0:3:0:0:
6,216,184937,1,8,0:3:0:0:
6,216,185036,1,8,0:3:0:0:
6,216,185134,6,0,P|95:216|163:159,1,179.999994506836,4|0,0:0|0:0,0:0:0:0:
129,55,185726,1,0,0:0:0:0:
236,47,185923,2,0,P|279:57|324:62,1,89.9999972534181,2|0,0:3|0:0,0:0:0:0:
496,48,186318,2,0,P|412:66|389:149,1,179.999994506836,8|2,0:0|0:0,0:0:0:0:
451,237,186910,1,0,0:0:0:0:
386,324,187108,2,0,P|342:321|297:316,1,89.9999972534181,2|0,0:0|3:0,0:0:0:0:
184,358,187404,1,0,3:0:0:0:
184,358,187502,6,0,P|104:318|15:310,1,179.999994506836,2|0,0:3|0:0,0:0:0:0:
141,243,188095,1,2,0:3:0:0:
50,184,188292,2,0,P|50:139|56:94,1,89.9999972534181,0|2,0:0|0:3,0:0:0:0:
163,34,188588,1,0,0:0:0:0:
163,34,188687,2,0,P|226:95|314:96,1,179.999994506836,8|2,0:0|0:0,0:0:0:0:
406,40,189278,1,0,0:0:0:0:
416,147,189476,2,0,P|414:191|412:236,1,89.9999972534181,2|0,0:0|3:0,0:0:0:0:
311,199,189772,1,0,3:0:0:0:
311,199,189871,6,0,P|221:201|131:209,1,179.999994506836,4|0,0:0|0:0,0:0:0:0:
58,289,190463,1,0,0:0:0:0:
144,351,190660,2,0,P|205:322|272:324,1,134.999995880127,2|0,0:3|0:0,0:0:0:0:
401,333,191055,2,0,P|358:347|315:357,1,89.9999972534181,12|0,0:0|0:0,0:0:0:0:
424,208,191450,2,0,P|466:222|510:231,1,89.9999972534181,2|0,0:0|0:0,0:0:0:0:
379,85,191845,2,0,P|336:99|292:108,1,89.9999972534181,2|0,0:3|3:0,0:0:0:0:
216,44,192141,1,0,3:0:0:0:
216,44,192239,6,0,P|130:37|76:104,1,179.999994506836,2|0,0:3|0:0,0:0:0:0:
151,181,192831,1,2,0:3:0:0:
60,239,193028,2,0,P|54:283|54:328,1,89.9999972534181,0|2,0:0|0:3,0:0:0:0:
170,366,193325,1,0,0:0:0:0:
170,366,193423,2,0,P|213:354|256:342,1,89.9999972534181,12|0,0:0|0:0,0:0:0:0:
326,185,193819,2,0,P|335:229|341:274,1,89.9999972534181,0|0,0:3|0:0,0:0:0:0:
472,164,194213,2,0,P|462:208|457:252,1,89.9999972534181,4|0,0:3|3:0,0:0:0:0:
390,110,194509,1,0,3:0:0:0:
390,110,194608,6,0,P|317:159|231:141,1,179.999994506836,4|0,0:0|0:0,0:0:0:0:
165,54,195200,1,0,0:0:0:0:
80,120,195397,2,0,P|69:186|50:251,1,134.999995880127,2|0,0:3|0:0,0:0:0:0:
154,277,195792,2,0,P|110:288|68:302,1,89.9999972534181,8|0,0:0|0:0,0:0:0:0:
320,384,196187,2,0,P|277:370|233:359,1,89.9999972534181,2|0,0:0|0:0,0:0:0:0:
456,244,196582,2,0,P|412:254|369:268,1,89.9999972534181,0|0,0:3|3:0,0:0:0:0:
493,342,196878,1,0,3:0:0:0:
493,342,196976,6,0,P|484:252|482:162,1,179.999994506836,2|0,0:3|0:0,0:0:0:0:
485,18,197568,1,2,0:3:0:0:
345,165,197766,1,0,0:0:0:0:
413,89,197963,1,2,0:3:0:0:
286,241,198160,2,0,P|242:233|198:226,1,89.9999972534181,8|0,0:0|0:0,0:0:0:0:
43,150,198555,2,0,P|50:105|57:61,1,89.9999972534181,2|0,0:0|0:0,0:0:0:0:
80,149,198950,2,0,P|87:104|94:60,1,89.9999972534181,2|0,0:0|3:0,0:0:0:0:
171,124,199246,1,0,3:0:0:0:
171,124,199345,6,0,P|260:119|350:108,1,179.999994506836,4|0,0:0|0:0,0:0:0:0:
451,71,199936,1,0,0:0:0:0:
492,170,200134,2,0,P|493:214|487:259,1,89.9999972534181,2|0,0:3|0:0,0:0:0:0:
389,305,200430,1,0,0:0:0:0:
389,305,200529,2,0,P|382:260|384:215,1,89.9999972534181,12|0,0:0|0:0,0:0:0:0:
265,269,200924,2,0,P|236:233|216:194,1,89.9999972534181,2|0,0:0|0:0,0:0:0:0:
194,368,201319,2,0,P|152:351|114:327,1,89.9999972534181,8|0,0:3|3:0,0:0:0:0:
13,381,201614,1,0,3:0:0:0:
13,381,201713,6,0,P|18:291|30:202,1,179.999994506836,12|8,0:0|0:3,0:0:0:0:
82,107,202305,1,0,0:0:0:0:
186,133,202502,2,0,P|230:129|275:125,1,89.9999972534181,4|0,0:3|0:0,0:0:0:0:
487,22,202897,2,0,P|442:18|397:14,1,89.9999972534181,12|0,0:0|0:0,0:0:0:0:
428,161,203292,1,8,0:3:0:0:
428,161,203687,1,4,0:3:0:0:
473,258,203884,1,0,3:0:0:0:
473,258,203983,1,0,3:0:0:0:
473,258,204082,5,2,0:3:0:0:
418,350,204279,1,8,0:0:0:0:
365,255,204476,1,2,0:3:0:0:
55,368,204871,1,4,0:3:0:0:
178,87,205266,2,0,P|237:96|296:104,2,120,2|2|2,0:0|0:0|0:0,0:0:0:0:
55,368,206450,6,0,P|87:288|173:280,1,179.999994506836,4|0,0:0|0:0,0:0:0:0:
273,321,207042,1,0,0:0:0:0:
335,233,207239,2,0,P|332:188|326:143,1,89.9999972534181,2|0,0:3|0:0,0:0:0:0:
109,59,207634,2,0,P|188:94|264:53,1,179.999994506836,8|2,0:0|0:0,0:0:0:0:
498,162,208424,1,2,0:0:0:0:
448,262,208621,1,0,3:0:0:0:
448,262,208720,1,0,3:0:0:0:
448,262,208818,6,0,P|360:246|274:272,1,179.999994506836,2|0,0:3|0:0,0:0:0:0:
191,341,209411,1,2,0:3:0:0:
93,295,209608,2,0,P|48:300|4:311,1,89.9999972534181,0|2,0:0|0:3,0:0:0:0:
175,213,210002,2,0,P|159:124|134:37,1,179.999994506836,8|2,0:0|0:0,0:0:0:0:
347,348,210792,1,2,0:0:0:0:
451,302,210990,1,0,3:0:0:0:
451,302,211088,1,0,3:0:0:0:
451,302,211187,6,0,P|462:212|478:123,1,179.999994506836,4|0,0:0|0:0,0:0:0:0:
407,41,211779,1,0,0:0:0:0:
306,79,211976,2,0,P|262:86|217:89,1,89.9999972534181,2|0,0:3|0:0,0:0:0:0:
88,127,212272,1,0,3:0:0:0:
88,127,212371,2,0,P|91:82|98:37,1,89.9999972534181,12|0,0:0|0:0,0:0:0:0:
287,181,212766,2,0,P|293:225|296:270,1,89.9999972534181,2|0,0:3|0:0,0:0:0:0:
125,360,213161,1,2,0:3:0:0:
16,228,213358,1,0,3:0:0:0:
16,228,213457,1,0,3:0:0:0:
16,228,213555,6,0,P|104:242|190:270,1,179.999994506836,2|0,0:3|0:0,0:0:0:0:
261,351,214147,1,2,0:3:0:0:
366,322,214345,2,0,P|356:255|356:185,1,134.999995880127
420,41,214740,1,12,0:0:0:0:
420,41,215134,2,0,P|353:32|286:42,1,134.999995880127,8|0,0:3|0:0,0:0:0:0:
264,92,215529,2,0,P|197:102|132:85,1,134.999995880127,4|0,0:3|0:0,0:0:0:0:
61,13,215924,6,0,P|21:89|70:160,1,179.999994506836,4|0,0:0|0:0,0:0:0:0:
174,187,216516,1,0,0:0:0:0:
136,288,216713,2,0,P|91:293|47:301,1,89.9999972534181,2|0,0:3|0:0,0:0:0:0:
252,353,217108,2,0,P|340:335|429:326,1,179.999994506836,8|2,0:0|0:0,0:0:0:0:
140,107,217897,1,2,0:0:0:0:
227,32,218095,1,0,3:0:0:0:
227,32,218193,1,0,3:0:0:0:
227,32,218292,6,0,P|316:37|406:45,1,179.999994506836,2|0,0:3|0:0,0:0:0:0:
486,117,218884,1,2,0:3:0:0:
450,222,219082,2,0,P|452:266|456:311,1,89.9999972534181,0|2,0:0|0:3,0:0:0:0:
372,158,219476,2,0,P|284:153|218:211,1,179.999994506836,8|2,0:0|0:0,0:0:0:0:
26,27,220266,1,2,0:0:0:0:
91,123,220463,1,0,3:0:0:0:
91,123,220561,1,0,3:0:0:0:
91,123,220660,6,0,P|113:209|127:298,1,179.999994506836,4|0,0:0|0:0,0:0:0:0:
204,375,221252,1,0,0:0:0:0:
296,319,221450,2,0,P|340:312|384:304,1,89.9999972534181,2|0,0:3|0:0,0:0:0:0:
483,231,221746,1,0,3:0:0:0:
483,231,221845,2,0,P|490:186|497:142,1,89.9999972534181,12|0,0:0|0:0,0:0:0:0:
312,130,222240,2,0,P|319:174|326:218,1,89.9999972534181,2|0,0:3|0:0,0:0:0:0:
417,54,222633,1,4,0:3:0:0:
312,26,222831,1,0,3:0:0:0:
288,38,222929,1,0,3:0:0:0:
263,51,223029,5,4,0:0:0:0:
159,20,223226,1,0,0:0:0:0:
11,114,223424,2,0,P|97:95|181:126,1,179.999994506836,2|2,0:3|0:3,0:0:0:0:
184,234,224016,1,0,0:0:0:0:
176,341,224213,1,8,0:0:0:0:
297,2,224608,1,8,0:0:0:0:
392,317,225003,1,8,0:0:0:0:
443,125,225200,1,0,0:0:0:0:
443,125,225299,1,0,0:0:0:0:
443,125,225397,6,0,P|347:126|261:82,1,194.999991073609,4|2,0:0|0:3,0:0:0:0:
74,141,225990,2,0,P|123:142|170:157,1,97.4999955368044,8|0,0:0|0:0,0:0:0:0:
230,320,226384,1,2,0:3:0:0:
213,302,226483,1,2,0:3:0:0:
207,279,226582,2,0,P|255:271|303:270,1,97.4999955368044,4|0,0:0|0:0,0:0:0:0:
481,286,226976,2,0,P|488:335|495:383,1,97.4999955368044,2|0,0:3|0:0,0:0:0:0:
401,216,227371,1,2,0:3:0:0:
462,115,227569,1,8,0:0:0:0:
462,115,227667,1,8,0:0:0:0:
462,115,227766,6,0,P|366:113|286:167,1,194.999991073609,4|2,0:0|0:3,0:0:0:0:
164,25,228359,2,0,P|169:73|177:122,1,97.4999955368044,8|0,0:0|0:0,0:0:0:0:
112,230,228753,1,2,0:3:0:0:
135,224,228851,1,2,0:3:0:0:
161,221,228951,2,0,P|149:268|145:316,1,97.4999955368044,12|0,0:0|0:0,0:0:0:0:
387,378,229345,2,0,P|382:329|371:282,1,97.4999955368044,2|0,0:3|0:0,0:0:0:0:
288,199,229740,1,4,0:3:0:0:
198,122,229938,1,0,3:0:0:0:
198,122,230036,1,0,3:0:0:0:
198,122,230134,6,0,P|284:78|380:67,1,194.999991073609,4|2,0:0|0:3,0:0:0:0:
512,192,230726,2,0,P|463:188|416:179,1,97.4999955368044,8|2,0:0|0:3,0:0:0:0:
325,280,231121,1,2,0:3:0:0:
312,258,231220,1,2,0:3:0:0:
295,239,231319,2,0,P|281:285|274:333,1,97.4999955368044,4|0,0:0|0:0,0:0:0:0:
109,369,231713,2,0,P|102:321|89:275,1,97.4999955368044,2|8,0:3|0:0,0:0:0:0:
32,171,232108,1,4,0:3:0:0:
70,59,232306,1,0,3:0:0:0:
70,59,232404,1,0,3:0:0:0:
70,59,232503,6,0,P|165:82|261:67,1,194.999991073609,4|2,0:0|0:3,0:0:0:0:
369,24,233095,1,0,0:0:0:0:
457,100,233292,2,0,P|462:148|470:196,1,97.4999955368044,2|0,0:3|0:0,0:0:0:0:
411,297,233687,5,8,0:0:0:0:
362,294,233786,1,8,0:0:0:0:
313,292,233884,1,8,0:0:0:0:
264,289,233983,1,8,0:0:0:0:
215,286,234082,1,8,0:0:0:0:
399,180,234279,5,8,0:3:0:0:
281,171,234476,1,4,0:3:0:0:
163,165,234675,1,12,0:3:0:0:
163,165,234773,1,12,0:3:0:0:
163,165,234871,6,0,P|112:246|135:338,1,194.999991073609,4|2,0:0|0:3,0:0:0:0:
32,220,235464,2,0,P|35:172|32:123,1,97.4999955368044,8|0,0:0|0:0,0:0:0:0:
201,52,235858,1,2,0:3:0:0:
222,41,235957,1,2,0:3:0:0:
245,36,236056,2,0,P|293:40|341:49,1,97.4999955368044,12|0,0:0|0:0,0:0:0:0:
358,236,236450,2,0,P|359:284|361:333,1,97.4999955368044,2|8,0:3|0:0,0:0:0:0:
478,279,236845,1,4,0:3:0:0:
451,164,237043,1,8,0:0:0:0:
451,164,237141,1,8,0:0:0:0:
451,164,237240,6,0,P|358:189|262:179,1,194.999991073609,4|2,0:0|0:3,0:0:0:0:
156,301,237833,2,0,P|154:253|146:205,1,97.4999955368044,8|0,0:0|0:0,0:0:0:0:
100,70,238226,1,2,0:3:0:0:
107,93,238325,1,2,0:3:0:0:
107,117,238425,2,0,P|63:97|16:88,1,97.4999955368044,12|0,0:0|0:0,0:0:0:0:
213,90,238819,2,0,P|257:69|304:60,1,97.4999955368044,2|2,0:3|0:3,0:0:0:0:
417,92,239214,1,4,0:3:0:0:
328,168,239412,1,0,3:0:0:0:
328,168,239510,1,0,3:0:0:0:
328,168,239608,6,0,P|322:266|322:363,1,194.999991073609,4|2,0:0|0:3,0:0:0:0:
185,283,240201,2,0,P|171:236|152:191,1,97.4999955368044,8|4,0:0|0:0,0:0:0:0:
80,56,240595,1,0,0:0:0:0:
82,80,240694,1,0,0:0:0:0:
102,96,240792,2,0,P|151:86|197:74,1,97.4999955368044,8|0,0:0|0:0,0:0:0:0:
460,227,241187,2,0,P|412:217|365:205,1,97.4999955368044,2|0,0:3|0:0,0:0:0:0:
108,364,241582,2,0,P|156:354|202:342,1,97.4999955368044,12|0,0:0|0:0,0:0:0:0:
98,86,241976,6,0,P|113:182|136:276,1,194.999991073609,2|2,0:3|0:3,0:0:0:0:
331,361,242569,1,8,0:0:0:0:
202,329,242766,1,8,0:0:0:0:
362,285,242963,1,8,0:0:0:0:
167,260,243161,1,8,0:0:0:0:
399,212,243358,1,8,0:0:0:0:
131,188,243555,1,8,0:0:0:0:
435,141,243753,1,8,0:0:0:0:
96,121,243950,1,8,0:0:0:0:
472,73,244147,1,8,0:0:0:0:
61,54,244345,5,4,0:0:0:0:
96,121,244542,1,8,0:3:0:0:
131,188,244740,1,8,0:3:0:0:
167,260,244937,1,8,0:3:0:0:
202,329,245134,1,12,0:3:0:0:
84,252,245332,1,8,0:3:0:0:
84,252,245430,1,8,0:3:0:0:
84,252,245529,1,4,0:0:0:0:
118,365,246319,5,4,0:3:0:0:
238,356,246516,2,0,P|259:346|283:339,1,48.7499977684022
242,278,246713,6,0,P|309:324|388:310,1,165.000005035401,4|2,0:0|0:0,0:0:0:0:
453,235,247305,1,0,0:0:0:0:
413,144,247503,2,0,P|405:103|403:62,1,82.5000025177003,2|0,0:0|0:0,0:0:0:0:
262,10,247897,2,0,P|259:51|252:91,1,82.5000025177003,12|0,0:0|0:0,0:0:0:0:
189,168,248292,1,2,0:3:0:0:
189,168,248489,1,0,0:0:0:0:
122,93,248687,2,0,P|84:79|54:51,1,82.5000025177003,2|0,0:3|3:0,0:0:0:0:
58,121,248983,1,0,3:0:0:0:
58,121,249082,6,0,P|79:201|78:283,1,165.000005035401,2|2,0:3|0:0,0:0:0:0:
37,373,249674,1,0,0:0:0:0:
173,308,249871,2,0,P|213:313|254:318,1,82.5000025177003,2|0,0:3|3:0,0:0:0:0:
329,376,250167,1,0,3:0:0:0:
329,376,250266,2,0,B|286:338|285:291|321:264|353:236|352:195|309:152,1,247.500007553101,12|0,0:0|0:0,0:0:0:0:
239,12,251055,2,0,P|223:71|217:133,1,123.75000377655,2|0,0:3|0:0,0:0:0:0:
215,182,251450,6,0,P|172:115|93:118,1,165.000005035401,4|2,0:0|0:0,0:0:0:0:
62,212,252042,1,0,0:0:0:0:
92,306,252240,1,2,0:3:0:0:
179,362,252437,1,0,3:0:0:0:
179,362,252536,1,0,3:0:0:0:
179,362,252634,2,0,P|262:360|342:341,1,165.000005035401,12|2,0:0|0:0,0:0:0:0:
423,283,253226,1,8,0:3:0:0:
459,190,253424,1,8,0:3:0:0:
432,94,253621,1,8,0:3:0:0:
432,94,253720,1,8,0:3:0:0:
432,94,253819,6,0,P|350:80|273:50,1,165.000005035401,2|2,0:3|0:0,0:0:0:0:
185,96,254411,1,0,0:0:0:0:
252,172,254608,2,0,P|242:233|238:294,1,123.75000377655,2|0,0:3|0:0,0:0:0:0:
274,384,255003,1,8,0:0:0:0:
432,94,255397,1,8,0:3:0:0:
504,369,255792,1,4,0:3:0:0:
387,327,255990,1,0,3:0:0:0:
387,327,256088,1,0,3:0:0:0:
387,327,256187,6,0,P|304:334|222:336,1,165.000005035401,4|2,0:0|0:0,0:0:0:0:
125,312,256779,1,0,0:0:0:0:
34,350,256976,2,0,P|28:310|25:268,1,82.5000025177003,2|0,0:3|3:0,0:0:0:0:
106,186,257272,1,0,3:0:0:0:
106,186,257371,2,0,P|104:111|29:109,1,165.000005035401,12|2,0:0|0:0,0:0:0:0:
176,66,257963,1,0,0:0:0:0:
268,99,258161,2,0,P|309:97|349:90,1,82.5000025177003,2|0,0:0|0:0,0:0:0:0:
512,107,258555,6,0,P|433:108|396:177,1,165.000005035401,2|2,0:3|0:0,0:0:0:0:
435,267,259147,1,0,0:0:0:0:
363,336,259345,2,0,P|322:331|281:328,1,82.5000025177003,2|0,0:3|3:0,0:0:0:0:
244,240,259641,1,0,3:0:0:0:
244,240,259740,2,0,P|248:318|178:352,1,165.000005035401,12|0,0:0|0:0,0:0:0:0:
35,15,260529,2,0,P|41:77|43:139,1,123.75000377655,2|0,0:0|3:0,0:0:0:0:
66,95,260924,6,0,P|107:89|149:89,1,82.5000025177003,0|0,3:0|0:0,0:0:0:0:
322,185,261319,2,0,P|281:179|240:180,1,82.5000025177003,2|0,0:3|0:0,0:0:0:0:
88,312,261713,2,0,P|128:306|170:306,1,82.5000025177003,4|0,0:3|0:0,0:0:0:0:
361,384,262108,1,4,0:0:0:0:
195,314,262305,1,0,0:0:0:0:
345,309,262503,1,0,0:0:0:0:
248,258,262700,1,0,0:0:0:0:
335,220,262897,2,0,P|345:181|360:142,1,82.5000025177003,0|0,0:0|3:0,0:0:0:0:
461,83,263194,1,0,3:0:0:0:
461,83,263292,5,4,0:0:0:0:
369,44,263490,1,8,0:0:0:0:
276,78,263687,1,0,0:0:0:0:
193,42,263884,1,0,3:0:0:0:
188,66,263983,1,0,3:0:0:0:
183,90,264082,1,8,0:0:0:0:
5,350,264476,5,4,3:2:0:0:
99,319,264674,1,8,0:0:0:0:
507,350,265069,5,0,3:0:0:0:
413,319,265267,1,8,0:0:0:0:
318,344,265463,1,8,0:0:0:0:
309,320,265562,1,8,0:0:0:0:
299,297,265661,5,8,0:0:0:0:
431,243,265858,1,0,0:0:0:0:
273,229,266055,1,8,0:3:0:0:
405,175,266252,1,0,0:0:0:0:
242,158,266450,1,8,0:0:0:0:
374,104,266647,1,0,0:0:0:0:
212,80,266845,6,0,P|160:141|179:219,1,165.000005035401,8|0,0:0|0:0,0:0:0:0:
