osu file format v14

[General]
AudioFilename: audio.mp3
AudioLeadIn: 0
PreviewTime: 63855
Countdown: 0
SampleSet: Soft
StackLeniency: 0.7
Mode: 3
LetterboxInBreaks: 0
SpecialStyle: 0
WidescreenStoryboard: 0

[Editor]
Bookmarks: 17827,42512,113827
DistanceSpacing: 0.8
BeatDivisor: 4
GridSize: 4
TimelineZoom: 2.2

[Metadata]
Title:Senkou no Yukue -Opening size-
TitleUnicode:閃光の行方 -Opening size-
Artist:Falcom Sound Team jdk feat. Kotera Kanako
ArtistUnicode:Falcom Sound Team jdk feat. 小寺可南子
Creator:FerdiXIA-
Version:Civil War
Source:英雄伝説 閃の軌跡II
Tags:Savageeeee Raisky757 Eiyuu Densetsu Sen no Kiseki 2 The Legend of Heroes Trails of Cold Steel II オリジナルサウンドトラック J.D.K. Original Soundtrack OST Opening OP Video Game Japanese RPG JRPG J-RPG Pop Jpop J-pop Female Vocals
BeatmapID:4176594
BeatmapSetID:2007857

[Difficulty]
HPDrainRate:8.2
CircleSize:4
OverallDifficulty:8.2
ApproachRate:5
SliderMultiplier:1.4
SliderTickRate:1

[Events]
//Background and Video events
0,0,"Class VII.jpg",0,0
Video,0,"opening.mp4"
//Break Periods
//Storyboard Layer 0 (Background)
//Storyboard Layer 1 (Fail)
//Storyboard Layer 2 (Pass)
//Storyboard Layer 3 (Foreground)
//Storyboard Layer 4 (Overlay)
//Storyboard Sound Samples

[TimingPoints]
1370,342.857142857143,4,2,1,50,1,0
64455,-100,4,2,1,50,0,1
108341,-100,4,2,1,50,0,0

[HitObjects]
64,192,1370,128,0,2741:0:0:0:0:
448,192,1370,1,0,0:0:0:0:
320,192,1541,1,0,0:0:0:0:
192,192,1712,1,0,0:0:0:0:
448,192,1884,1,0,0:0:0:0:
320,192,2055,1,0,0:0:0:0:
192,192,2227,1,0,0:0:0:0:
448,192,2398,1,0,0:0:0:0:
320,192,2570,1,0,0:0:0:0:
192,192,2741,1,0,0:0:0:0:
448,192,2741,128,0,4112:0:0:0:0:
64,192,2912,1,0,0:0:0:0:
192,192,3084,1,0,0:0:0:0:
320,192,3255,1,0,0:0:0:0:
64,192,3427,1,0,0:0:0:0:
192,192,3598,1,0,0:0:0:0:
64,192,3770,1,0,0:0:0:0:
320,192,3941,1,0,0:0:0:0:
64,192,4112,128,0,6170:0:0:0:0:
192,192,4112,1,0,0:0:0:0:
448,192,4284,1,0,0:0:0:0:
320,192,4455,1,0,0:0:0:0:
192,192,4627,1,0,0:0:0:0:
448,192,4798,1,0,0:0:0:0:
192,192,4970,1,0,0:0:0:0:
320,192,5141,1,0,0:0:0:0:
448,192,5312,1,0,0:0:0:0:
192,192,5484,1,0,0:0:0:40:Hat Open.wav
320,192,5484,1,0,0:0:0:0:
320,192,5655,1,0,0:0:0:0:
192,192,5827,1,0,0:0:0:40:Hat Open.wav
448,192,5827,1,0,0:0:0:0:
192,192,5998,1,0,0:0:0:0:
320,192,6170,1,0,0:0:0:40:Tom1.wav
448,192,6170,1,0,0:0:0:0:
192,192,6255,1,0,0:0:0:40:Tom2.wav
64,192,6341,1,2,0:0:0:0:
448,192,6341,1,0,0:0:0:0:
320,192,6427,1,2,0:0:0:0:
64,192,6512,1,8,0:0:0:0:
192,192,6512,1,4,0:0:0:0:
448,192,6512,1,0,0:0:0:0:
320,192,6684,1,0,0:0:0:0:
64,192,6855,1,2,0:0:0:0:
192,192,6855,1,4,0:0:0:0:
448,192,6855,128,0,7198:0:0:0:0:
320,192,7027,1,0,0:0:0:0:
64,192,7198,1,8,0:0:0:0:
192,192,7198,1,0,0:0:0:40:Hat Open.wav
320,192,7198,1,0,0:0:0:0:
192,192,7370,1,0,0:0:0:0:
320,192,7455,1,8,0:0:0:0:
448,192,7455,1,0,0:0:0:0:
64,192,7541,1,2,0:0:0:0:
192,192,7541,1,0,0:0:0:40:Hat Open.wav
64,192,7712,1,2,0:0:0:0:
448,192,7712,1,0,0:0:0:0:
192,192,7884,1,8,0:0:0:0:
320,192,7884,1,0,0:0:0:0:
448,192,7884,1,0,0:0:0:0:
64,192,8055,128,2,8398:0:0:0:0:
192,192,8055,1,4,0:0:0:0:
320,192,8055,1,0,0:0:0:0:
320,192,8398,1,2,0:0:0:0:
448,192,8398,1,0,0:0:0:0:
64,192,8570,1,8,0:0:0:0:
192,192,8570,1,0,0:0:0:40:Hat Open.wav
448,192,8570,1,0,0:0:0:0:
320,192,8741,1,0,0:0:0:0:
64,192,8827,1,8,0:0:0:0:
192,192,8827,1,0,0:0:0:0:
320,192,8912,1,2,0:0:0:0:
448,192,8912,1,0,0:0:0:40:Hat Open.wav
64,192,9084,1,2,0:0:0:0:
192,192,9084,1,0,0:0:0:0:
64,192,9255,1,8,0:0:0:0:
320,192,9255,1,0,0:0:0:40:Hat Open.wav
448,192,9255,1,0,0:0:0:0:
192,192,9427,1,0,0:0:0:0:
320,192,9427,1,0,0:0:0:0:
64,192,9598,1,2,0:0:0:0:
192,192,9598,128,4,9941:0:0:0:0:
448,192,9598,1,0,0:0:0:0:
64,192,9941,1,8,0:0:0:0:
320,192,9941,1,0,0:0:0:40:Hat Open.wav
448,192,9941,1,0,0:0:0:0:
192,192,10112,1,0,0:0:0:0:
64,192,10198,1,8,0:0:0:0:
448,192,10198,1,0,0:0:0:0:
192,192,10284,1,2,0:0:0:0:
320,192,10284,1,0,0:0:0:40:Hat Open.wav
320,192,10455,1,2,0:0:0:0:
448,192,10455,1,0,0:0:0:0:
64,192,10627,1,8,0:0:0:0:
192,192,10627,1,0,0:0:0:0:
448,192,10627,1,0,0:0:0:0:
64,192,10798,1,2,0:0:0:0:
192,192,10798,1,4,0:0:0:0:
320,192,10798,128,0,11141:0:0:0:0:
64,192,11141,1,2,0:0:0:0:
448,192,11141,1,0,0:0:0:0:
192,192,11312,1,8,0:0:0:0:
320,192,11312,1,0,0:0:0:40:Hat Open.wav
448,192,11312,1,0,0:0:0:0:
64,192,11484,1,0,0:0:0:0:
192,192,11570,1,8,0:0:0:0:
448,192,11570,1,0,0:0:0:0:
64,192,11655,1,2,0:0:0:0:
320,192,11655,1,0,0:0:0:40:Hat Open.wav
192,192,11827,1,2,0:0:0:0:
320,192,11827,1,0,0:0:0:0:
64,192,11998,1,8,0:0:0:0:
192,192,11998,1,0,0:0:0:40:Hat Open.wav
448,192,11998,1,0,0:0:0:0:
320,192,12170,1,0,0:0:0:0:
64,192,12341,1,2,0:0:0:0:
192,192,12341,1,4,0:0:0:0:
448,192,12341,128,0,12684:0:0:0:0:
64,192,12684,1,8,0:0:0:0:
192,192,12684,1,0,0:0:0:40:Hat Open.wav
320,192,12684,1,0,0:0:0:0:
192,192,12855,1,0,0:0:0:0:
64,192,13027,1,2,0:0:0:0:
448,192,13027,1,0,0:0:0:40:Hat Open.wav
192,192,13198,1,2,0:0:0:0:
320,192,13198,1,0,0:0:0:0:
64,192,13370,1,8,0:0:0:0:
320,192,13370,1,0,0:0:0:0:
448,192,13370,1,0,0:0:0:0:
64,192,13541,1,2,0:0:0:0:
192,192,13541,128,4,13884:0:0:0:0:
448,192,13541,1,0,0:0:0:0:
320,192,13884,1,2,0:0:0:0:
448,192,13884,1,0,0:0:0:0:
64,192,14055,1,8,0:0:0:0:
320,192,14055,1,0,0:0:0:40:Hat Open.wav
448,192,14055,1,0,0:0:0:0:
192,192,14227,1,0,0:0:0:0:
320,192,14312,1,8,0:0:0:0:
448,192,14312,1,0,0:0:0:0:
64,192,14398,128,2,14741:0:0:0:0:
192,192,14398,1,0,0:0:0:40:Hat Open.wav
320,192,14570,1,2,0:0:0:0:
192,192,14741,1,8,0:0:0:0:
448,192,14741,1,0,0:0:0:0:
320,192,14827,1,8,0:0:0:0:
64,192,14912,1,0,0:0:0:40:Tom3.wav
192,192,14912,1,0,0:0:0:0:
64,192,15084,1,8,0:0:0:0:
320,192,15084,1,0,0:0:0:40:Tom3.wav
448,192,15084,1,0,0:0:0:0:
64,192,15255,1,8,0:0:0:0:
192,192,15255,1,0,0:0:0:40:Tom3.wav
448,192,15255,1,0,0:0:0:0:
192,192,15427,1,2,0:0:0:0:
320,192,15427,1,0,0:0:0:0:
64,192,15598,128,8,15770:0:0:0:0:
192,192,15598,128,4,15770:0:0:0:0:
448,192,15598,128,0,15770:0:0:0:0:
192,192,15941,1,2,0:0:0:0:
320,192,15941,1,0,0:0:0:0:
64,192,16112,1,8,0:0:0:0:
192,192,16112,1,0,0:0:0:40:Tom3.wav
448,192,16112,1,0,0:0:0:0:
64,192,16284,1,8,0:0:0:0:
320,192,16284,1,0,0:0:0:40:Tom3.wav
448,192,16284,1,0,0:0:0:0:
192,192,16455,1,2,0:0:0:0:
320,192,16455,1,0,0:0:0:0:
64,192,16627,128,8,16798:0:0:0:0:
192,192,16627,128,4,16798:0:0:0:0:
448,192,16627,128,0,16798:0:0:0:0:
320,192,16970,128,2,17141:0:0:0:0:
448,192,16970,128,0,17141:0:0:0:0:
64,192,17141,128,8,17312:0:0:0:0:
192,192,17141,128,4,17484:0:0:0:0:
320,192,17312,128,2,17484:0:0:0:0:
64,192,17484,128,8,17655:0:0:0:0:
448,192,17484,128,4,17827:0:0:0:0:
192,192,17655,128,0,17827:0:0:0:40:Tom3.wav
64,192,17827,1,2,0:0:0:0:
320,192,17827,128,4,18170:0:0:0:0:
64,192,18170,1,2,0:0:0:0:
448,192,18170,1,0,0:0:0:0:
64,192,18341,1,0,0:0:0:0:
192,192,18512,1,2,0:0:0:0:
320,192,18512,1,0,0:0:0:0:
320,192,18684,1,0,0:0:0:0:
64,192,18855,1,2,0:0:0:0:
448,192,18855,1,0,0:0:0:0:
448,192,19027,1,0,0:0:0:0:
64,192,19198,1,2,0:0:0:0:
192,192,19198,1,0,0:0:0:0:
192,192,19370,1,0,0:0:0:0:
320,192,19541,1,2,0:0:0:0:
448,192,19541,1,0,0:0:0:0:
320,192,19712,1,0,0:0:0:0:
64,192,19884,1,2,0:0:0:0:
448,192,19884,1,0,0:0:0:0:
64,192,20055,1,0,0:0:0:0:
192,192,20227,1,2,0:0:0:0:
320,192,20227,1,0,0:0:0:0:
192,192,20398,1,0,0:0:0:0:
320,192,20484,1,0,0:0:0:0:
64,192,20570,1,2,0:0:0:0:
448,192,20570,1,0,0:0:0:0:
448,192,20741,1,0,0:0:0:0:
64,192,20912,1,2,0:0:0:0:
192,192,20912,1,0,0:0:0:0:
64,192,21084,1,0,0:0:0:0:
320,192,21255,1,2,0:0:0:0:
448,192,21255,1,0,0:0:0:0:
320,192,21427,1,0,0:0:0:0:
64,192,21598,1,2,0:0:0:0:
192,192,21598,1,0,0:0:0:0:
192,192,21770,1,0,0:0:0:0:
64,192,21941,1,2,0:0:0:0:
448,192,21941,1,0,0:0:0:0:
448,192,22112,1,0,0:0:0:0:
64,192,22284,1,2,0:0:0:0:
320,192,22284,1,0,0:0:0:0:
320,192,22455,1,0,0:0:0:0:
64,192,22627,1,2,0:0:0:0:
192,192,22627,1,0,0:0:0:0:
192,192,22798,1,0,0:0:0:0:
320,192,22884,1,0,0:0:0:0:
64,192,22970,1,2,0:0:0:0:
448,192,22970,1,0,0:0:0:0:
64,192,23141,1,0,0:0:0:0:
192,192,23227,1,0,0:0:0:0:
320,192,23312,1,2,0:0:0:0:
448,192,23312,1,0,0:0:0:0:
320,192,23484,1,0,0:0:0:0:
64,192,23655,1,2,0:0:0:0:
192,192,23655,1,0,0:0:0:0:
192,192,23827,1,0,0:0:0:0:
64,192,23998,1,2,0:0:0:0:
448,192,23998,1,0,0:0:0:0:
448,192,24170,1,0,0:0:0:0:
64,192,24341,1,2,0:0:0:0:
320,192,24341,1,0,0:0:0:0:
64,192,24512,1,0,0:0:0:0:
448,192,24598,1,0,0:0:0:0:
192,192,24684,1,2,0:0:0:0:
320,192,24684,1,0,0:0:0:0:
192,192,24855,1,0,0:0:0:0:
320,192,25027,1,2,0:0:0:0:
448,192,25027,1,0,0:0:0:0:
320,192,25198,1,0,0:0:0:0:
64,192,25370,1,2,0:0:0:0:
448,192,25370,1,0,0:0:0:0:
448,192,25541,1,0,0:0:0:0:
64,192,25712,1,2,0:0:0:0:
192,192,25712,1,0,0:0:0:0:
192,192,25884,1,0,0:0:0:0:
448,192,25970,1,0,0:0:0:0:
64,192,26055,1,2,0:0:0:0:
320,192,26055,1,0,0:0:0:0:
64,192,26227,1,0,0:0:0:0:
192,192,26398,1,2,0:0:0:0:
448,192,26398,1,0,0:0:0:0:
448,192,26570,1,0,0:0:0:0:
192,192,26741,1,2,0:0:0:0:
320,192,26741,1,0,0:0:0:0:
320,192,26912,1,0,0:0:0:0:
64,192,27084,1,2,0:0:0:0:
448,192,27084,1,0,0:0:0:0:
64,192,27255,1,0,0:0:0:0:
320,192,27341,1,0,0:0:0:0:
192,192,27427,1,2,0:0:0:0:
448,192,27427,1,0,0:0:0:0:
192,192,27598,1,0,0:0:0:0:
64,192,27770,1,2,0:0:0:0:
448,192,27770,1,0,0:0:0:0:
64,192,27941,1,0,0:0:0:0:
192,192,28112,1,2,0:0:0:0:
320,192,28112,1,0,0:0:0:0:
64,192,28284,1,8,0:0:0:0:
192,192,28284,1,0,0:0:0:40:Hat Open.wav
448,192,28284,1,0,0:0:0:0:
320,192,28455,1,2,0:0:0:0:
448,192,28455,1,0,0:0:0:0:
64,192,28627,1,0,0:0:0:40:Tom2.wav
192,192,28627,1,0,0:0:0:0:
320,192,28712,1,0,0:0:0:40:Tom2.wav
64,192,28798,1,2,0:0:0:0:
192,192,28798,1,4,0:0:0:0:
448,192,28798,1,0,0:0:0:0:
448,192,28970,1,0,0:0:0:0:
192,192,29141,1,2,0:0:0:0:
320,192,29141,1,0,0:0:0:0:
192,192,29312,1,0,0:0:0:0:
64,192,29484,1,2,0:0:0:0:
448,192,29484,1,0,0:0:0:0:
448,192,29655,1,0,0:0:0:0:
64,192,29827,1,2,0:0:0:0:
192,192,29827,1,0,0:0:0:0:
64,192,29998,1,0,0:0:0:0:
192,192,30170,1,2,0:0:0:0:
320,192,30170,1,0,0:0:0:0:
320,192,30341,1,0,0:0:0:0:
64,192,30512,1,2,0:0:0:0:
448,192,30512,1,0,0:0:0:0:
448,192,30684,1,0,0:0:0:0:
192,192,30855,1,2,0:0:0:0:
320,192,30855,1,0,0:0:0:0:
192,192,31027,1,0,0:0:0:0:
64,192,31198,1,2,0:0:0:0:
448,192,31198,1,0,0:0:0:0:
64,192,31370,1,0,0:0:0:0:
192,192,31455,1,0,0:0:0:0:
320,192,31541,1,2,0:0:0:0:
448,192,31541,1,0,0:0:0:0:
320,192,31712,1,0,0:0:0:0:
64,192,31884,1,2,0:0:0:0:
192,192,31884,1,0,0:0:0:0:
192,192,32055,1,0,0:0:0:0:
64,192,32227,1,2,0:0:0:0:
448,192,32227,1,0,0:0:0:0:
448,192,32398,1,0,0:0:0:0:
192,192,32570,1,2,0:0:0:0:
320,192,32570,1,0,0:0:0:0:
320,192,32741,1,0,0:0:0:0:
64,192,32912,1,2,0:0:0:0:
448,192,32912,1,0,0:0:0:0:
64,192,33084,1,0,0:0:0:0:
192,192,33255,1,2,0:0:0:0:
320,192,33255,1,0,0:0:0:0:
192,192,33427,1,0,0:0:0:0:
320,192,33598,1,2,0:0:0:0:
448,192,33598,1,0,0:0:0:0:
192,192,33770,1,2,0:0:0:0:
320,192,33770,1,0,0:0:0:0:
64,192,33941,1,8,0:0:0:0:
192,192,33941,1,0,0:0:0:40:Hat Open.wav
448,192,33941,1,0,0:0:0:0:
448,192,34112,1,0,0:0:0:0:
64,192,34284,128,2,34627:0:0:0:0:
192,192,34284,1,4,0:0:0:0:
320,192,34284,1,0,0:0:0:0:
192,192,34627,1,2,0:0:0:0:
320,192,34627,1,8,0:0:0:0:
448,192,34627,1,0,0:0:0:0:
64,192,34798,1,0,0:0:0:0:
320,192,34884,1,8,0:0:0:0:
448,192,34884,1,0,0:0:0:0:
64,192,34970,1,2,0:0:0:0:
192,192,34970,1,0,0:0:0:0:
192,192,35141,1,2,0:0:0:0:
320,192,35141,1,0,0:0:0:0:
64,192,35312,1,8,0:0:0:0:
320,192,35312,1,0,0:0:0:0:
448,192,35312,1,0,0:0:0:0:
64,192,35484,1,0,0:0:0:0:
192,192,35655,1,2,0:0:0:0:
448,192,35655,128,0,35998:0:0:0:0:
64,192,35998,1,8,0:0:0:0:
192,192,35998,1,0,0:0:0:0:
320,192,35998,1,0,0:0:0:0:
448,192,36170,1,0,0:0:0:0:
64,192,36255,1,8,0:0:0:0:
192,192,36255,1,0,0:0:0:0:
320,192,36341,1,2,0:0:0:0:
448,192,36341,1,0,0:0:0:0:
192,192,36512,1,2,0:0:0:0:
320,192,36512,1,0,0:0:0:0:
64,192,36684,1,8,0:0:0:0:
192,192,36684,1,0,0:0:0:0:
448,192,36684,1,0,0:0:0:0:
320,192,36855,1,0,0:0:0:0:
192,192,36941,1,0,0:0:0:0:
64,192,37027,128,2,37370:0:0:0:0:
320,192,37027,1,4,0:0:0:0:
448,192,37027,1,0,0:0:0:0:
192,192,37370,1,8,0:0:0:0:
320,192,37370,1,0,0:0:0:0:
448,192,37370,1,0,0:0:0:0:
448,192,37541,1,0,0:0:0:0:
64,192,37627,1,8,0:0:0:0:
320,192,37627,1,0,0:0:0:0:
192,192,37712,1,2,0:0:0:0:
448,192,37712,1,0,0:0:0:0:
192,192,37884,1,2,0:0:0:0:
320,192,37884,1,0,0:0:0:0:
64,192,38055,1,8,0:0:0:0:
320,192,38055,1,0,0:0:0:0:
448,192,38055,1,0,0:0:0:0:
64,192,38227,1,0,0:0:0:0:
192,192,38398,128,2,38741:0:0:0:0:
320,192,38398,1,0,0:0:0:0:
448,192,38570,1,0,0:0:0:0:
64,192,38741,1,8,0:0:0:0:
320,192,38741,128,0,39084:0:0:0:0:
448,192,38741,1,0,0:0:0:0:
192,192,38912,1,0,0:0:0:0:
448,192,38998,1,8,0:0:0:0:
64,192,39084,128,2,39427:0:0:0:0:
192,192,39084,1,0,0:0:0:0:
320,192,39255,1,2,0:0:0:0:
192,192,39427,1,8,0:0:0:0:
320,192,39427,1,4,0:0:0:0:
448,192,39427,128,0,39770:0:0:0:0:
64,192,39598,1,0,0:0:0:0:
64,192,39770,1,4,0:0:0:0:
192,192,39770,1,8,0:0:0:0:
320,192,39770,1,2,0:0:0:0:
192,192,39941,128,8,40112:0:0:0:0:
320,192,39941,128,2,40112:0:0:0:0:
448,192,39941,128,4,40112:0:0:0:0:
64,192,40284,1,8,0:0:0:0:
192,192,40284,1,2,0:0:0:0:
448,192,40284,1,4,0:0:0:0:
64,192,40455,128,8,40627:0:0:0:0:
320,192,40455,128,2,40627:0:0:0:0:
448,192,40455,128,4,40627:0:0:0:0:
64,192,40798,1,8,0:0:0:0:
320,192,40798,1,2,0:0:0:0:
448,192,40798,1,4,0:0:0:0:
64,192,40970,128,8,41141:0:0:0:0:
192,192,40970,128,2,41141:0:0:0:0:
448,192,40970,128,4,41141:0:0:0:0:
192,192,41312,128,2,41484:0:0:0:0:
320,192,41312,1,0,0:0:0:0:
64,192,41484,128,8,41655:0:0:0:0:
448,192,41484,1,0,0:0:0:40:Hat Open.wav
320,192,41655,128,0,41827:0:0:0:0:
64,192,41827,1,8,0:0:0:0:
192,192,41827,128,0,41998:0:0:0:0:
448,192,41998,128,0,42170:0:0:0:40:Tom1.wav
320,192,42170,128,0,42341:0:0:0:40:Tom2.wav
192,192,42341,128,0,42512:0:0:0:40:Tom3.wav
64,192,42512,1,2,0:0:0:0:
320,192,42512,1,4,0:0:0:0:
448,192,42512,128,0,43027:0:0:0:0:
64,192,42855,1,0,0:0:0:40:Ride.wav
192,192,43027,1,2,0:0:0:0:
320,192,43027,1,0,0:0:0:0:
64,192,43198,1,8,0:0:0:0:
320,192,43198,1,0,0:0:0:40:Ride.wav
448,192,43198,1,0,0:0:0:0:
192,192,43370,1,0,0:0:0:0:
320,192,43541,1,0,0:0:0:40:Ride.wav
64,192,43712,1,2,0:0:0:0:
448,192,43712,1,0,0:0:0:0:
64,192,43884,128,2,44227:0:0:0:0:
192,192,43884,1,0,0:0:0:40:Ride.wav
320,192,44055,1,8,0:0:0:0:
448,192,44055,1,0,0:0:0:0:
192,192,44227,1,0,0:0:0:40:Ride.wav
192,192,44398,1,2,0:0:0:0:
320,192,44398,128,0,44912:0:0:0:0:
64,192,44570,1,8,0:0:0:0:
448,192,44570,1,0,0:0:0:40:Ride.wav
448,192,44912,1,0,0:0:0:40:Ride.wav
64,192,45084,1,2,0:0:0:0:
192,192,45084,1,0,0:0:0:0:
320,192,45255,1,2,0:0:0:0:
448,192,45255,128,0,45598:0:0:0:40:Ride.wav
64,192,45427,1,8,0:0:0:0:
192,192,45598,1,0,0:0:0:40:Ride.wav
320,192,45598,1,0,0:0:0:0:
64,192,45770,1,2,0:0:0:0:
448,192,45770,1,0,0:0:0:0:
192,192,45941,1,8,0:0:0:0:
320,192,45941,1,0,0:0:0:40:Ride.wav
448,192,45941,1,0,0:0:0:0:
64,192,46112,128,0,46455:0:0:0:0:
192,192,46284,1,0,0:0:0:40:Ride.wav
320,192,46455,1,2,0:0:0:0:
448,192,46455,1,0,0:0:0:0:
64,192,46627,1,2,0:0:0:0:
192,192,46627,1,0,0:0:0:40:Ride.wav
64,192,46798,1,8,0:0:0:0:
320,192,46798,1,0,0:0:0:0:
448,192,46798,1,0,0:0:0:0:
192,192,46970,1,0,0:0:0:40:Ride.wav
320,192,47141,1,2,0:0:0:0:
448,192,47141,1,0,0:0:0:0:
64,192,47312,1,8,0:0:0:0:
192,192,47312,1,0,0:0:0:40:Ride.wav
448,192,47312,1,0,0:0:0:0:
320,192,47484,1,0,0:0:0:0:
64,192,47655,1,0,0:0:0:40:Ride.wav
192,192,47827,1,2,0:0:0:0:
320,192,47827,1,0,0:0:0:0:
64,192,47998,1,2,0:0:0:0:
192,192,47998,1,4,0:0:0:0:
448,192,47998,128,0,48341:0:0:0:0:
320,192,48341,1,0,0:0:0:40:Ride.wav
64,192,48512,1,2,0:0:0:0:
192,192,48512,128,0,49027:0:0:0:0:
320,192,48684,1,8,0:0:0:0:
448,192,48684,1,0,0:0:0:40:Ride.wav
320,192,49027,128,0,49370:0:0:0:40:Ride.wav
64,192,49198,1,2,0:0:0:0:
448,192,49198,1,0,0:0:0:0:
64,192,49370,1,2,0:0:0:0:
192,192,49370,1,0,0:0:0:40:Ride.wav
64,192,49541,1,8,0:0:0:0:
320,192,49541,1,0,0:0:0:0:
448,192,49541,1,0,0:0:0:0:
192,192,49712,1,0,0:0:0:40:Ride.wav
320,192,49884,1,2,0:0:0:0:
448,192,49884,128,0,50398:0:0:0:0:
64,192,50055,1,8,0:0:0:0:
192,192,50055,1,0,0:0:0:40:Ride.wav
64,192,50398,1,0,0:0:0:40:Ride.wav
192,192,50570,1,2,0:0:0:0:
320,192,50570,1,0,0:0:0:0:
64,192,50741,128,2,51084:0:0:0:0:
448,192,50741,1,0,0:0:0:40:Ride.wav
192,192,51084,1,0,0:0:0:40:Ride.wav
320,192,51255,1,2,0:0:0:0:
448,192,51255,1,0,0:0:0:0:
64,192,51427,1,8,0:0:0:0:
192,192,51427,1,0,0:0:0:40:Ride.wav
448,192,51427,1,0,0:0:0:0:
320,192,51598,1,0,0:0:0:0:
192,192,51770,1,0,0:0:0:40:Ride.wav
64,192,51941,1,2,0:0:0:0:
448,192,51941,1,0,0:0:0:0:
64,192,52112,1,2,0:0:0:0:
448,192,52112,1,0,0:0:0:40:Ride.wav
192,192,52284,1,8,0:0:0:0:
320,192,52284,1,0,0:0:0:0:
448,192,52284,1,0,0:0:0:0:
64,192,52455,1,0,0:0:0:40:Ride.wav
192,192,52627,1,2,0:0:0:0:
320,192,52627,1,0,0:0:0:0:
64,192,52798,1,8,0:0:0:0:
320,192,52798,1,4,0:0:0:0:
448,192,52798,1,0,0:0:0:0:
192,192,52970,1,8,0:0:0:0:
320,192,53141,1,8,0:0:0:0:
448,192,53141,1,2,0:0:0:0:
64,192,53227,1,8,0:0:0:0:
192,192,53227,1,0,0:0:0:0:
320,192,53312,1,8,0:0:0:0:
448,192,53312,1,0,0:0:0:0:
192,192,53398,1,8,0:0:0:0:
64,192,53484,128,2,53827:0:0:0:0:
320,192,53484,1,4,0:0:0:0:
448,192,53484,1,0,0:0:0:0:
192,192,53827,1,8,0:0:0:0:
320,192,53827,1,0,0:0:0:40:Hat Open.wav
448,192,53827,1,0,0:0:0:0:
64,192,53998,1,0,0:0:0:0:
320,192,54084,1,8,0:0:0:0:
448,192,54084,1,0,0:0:0:0:
64,192,54170,1,2,0:0:0:0:
192,192,54170,1,0,0:0:0:40:Hat Open.wav
192,192,54341,1,2,0:0:0:0:
320,192,54341,1,0,0:0:0:0:
64,192,54512,1,8,0:0:0:0:
320,192,54512,1,0,0:0:0:40:Hat Open.wav
448,192,54512,1,0,0:0:0:0:
192,192,54684,1,0,0:0:0:0:
64,192,54855,1,2,0:0:0:0:
448,192,54855,128,0,55198:0:0:0:40:Hat Open.wav
64,192,55198,1,8,0:0:0:0:
192,192,55198,1,0,0:0:0:40:Hat Open.wav
320,192,55198,1,0,0:0:0:0:
448,192,55370,1,0,0:0:0:0:
64,192,55455,1,8,0:0:0:0:
192,192,55455,1,0,0:0:0:0:
320,192,55541,1,2,0:0:0:0:
448,192,55541,1,0,0:0:0:40:Hat Open.wav
192,192,55712,1,2,0:0:0:0:
320,192,55712,1,0,0:0:0:0:
64,192,55884,1,8,0:0:0:0:
192,192,55884,1,0,0:0:0:40:Hat Open.wav
448,192,55884,1,0,0:0:0:0:
320,192,56055,1,0,0:0:0:0:
64,192,56227,1,2,0:0:0:0:
192,192,56227,1,4,0:0:0:0:
448,192,56227,1,0,0:0:0:0:
192,192,56398,1,2,0:0:0:0:
320,192,56398,1,0,0:0:0:0:
64,192,56570,1,8,0:0:0:0:
320,192,56570,1,0,0:0:0:40:Hat Open.wav
448,192,56570,1,0,0:0:0:0:
192,192,56741,1,0,0:0:0:0:
320,192,56912,1,2,0:0:0:0:
448,192,56912,1,0,0:0:0:40:Hat Open.wav
64,192,57084,1,2,0:0:0:0:
192,192,57084,1,0,0:0:0:0:
64,192,57255,1,8,0:0:0:0:
320,192,57255,1,0,0:0:0:0:
448,192,57255,1,0,0:0:0:0:
192,192,57427,128,2,57770:0:0:0:0:
320,192,57427,1,4,0:0:0:0:
448,192,57427,1,0,0:0:0:0:
64,192,57770,1,2,0:0:0:0:
320,192,57770,1,0,0:0:0:0:
64,192,57941,1,8,0:0:0:0:
192,192,57941,1,0,0:0:0:40:Hat Open.wav
448,192,57941,1,0,0:0:0:0:
320,192,58112,1,0,0:0:0:0:
64,192,58198,1,8,0:0:0:0:
192,192,58198,1,0,0:0:0:0:
320,192,58284,1,2,0:0:0:0:
448,192,58284,1,0,0:0:0:40:Hat Open.wav
64,192,58455,1,2,0:0:0:0:
192,192,58455,1,0,0:0:0:0:
64,192,58627,1,8,0:0:0:0:
320,192,58627,1,0,0:0:0:40:Hat Open.wav
448,192,58627,1,0,0:0:0:0:
192,192,58798,1,0,0:0:0:0:
64,192,58970,128,2,59141:0:0:0:0:
320,192,58970,1,4,0:0:0:0:
448,192,58970,1,0,0:0:0:0:
192,192,59141,1,0,0:0:0:0:
64,192,59312,1,8,0:0:0:0:
320,192,59312,1,0,0:0:0:40:Hat Open.wav
448,192,59312,1,0,0:0:0:0:
192,192,59484,1,0,0:0:0:0:
320,192,59570,1,8,0:0:0:0:
448,192,59570,1,0,0:0:0:0:
64,192,59655,1,2,0:0:0:0:
192,192,59655,1,0,0:0:0:40:Hat Open.wav
320,192,59827,1,2,0:0:0:0:
64,192,59998,1,8,0:0:0:0:
192,192,59998,1,0,0:0:0:40:Hat Open.wav
448,192,59998,1,0,0:0:0:0:
320,192,60170,1,0,0:0:0:0:
64,192,60341,1,2,0:0:0:0:
448,192,60341,128,0,60512:0:0:0:40:Hat Open.wav
192,192,60512,1,0,0:0:0:0:
64,192,60684,1,8,0:0:0:0:
320,192,60684,1,0,0:0:0:40:Hat Open.wav
448,192,60684,1,0,0:0:0:0:
192,192,60855,1,0,0:0:0:0:
320,192,60941,1,8,0:0:0:0:
448,192,60941,1,0,0:0:0:0:
64,192,61027,1,2,0:0:0:0:
192,192,61027,1,0,0:0:0:40:Hat Open.wav
320,192,61198,1,2,0:0:0:0:
448,192,61198,1,0,0:0:0:0:
64,192,61370,1,8,0:0:0:0:
192,192,61370,1,4,0:0:0:0:
448,192,61370,1,0,0:0:0:0:
320,192,61541,1,0,0:0:0:0:
64,192,61712,1,8,0:0:0:0:
192,192,61712,1,0,0:0:0:40:Tom3.wav
448,192,61712,1,0,0:0:0:0:
64,192,61884,1,8,0:0:0:0:
320,192,61884,1,0,0:0:0:40:Tom3.wav
448,192,61884,1,0,0:0:0:0:
192,192,62055,1,8,0:0:0:0:
320,192,62055,1,0,0:0:0:40:Tom3.wav
448,192,62055,1,0,0:0:0:0:
64,192,62227,128,8,62398:0:0:0:0:
192,192,62227,128,0,62398:0:0:0:40:Tom3.wav
320,192,62227,128,0,62398:0:0:0:0:
64,192,62570,128,2,62741:0:0:0:0:
320,192,62570,128,4,62741:0:0:0:0:
448,192,62570,128,0,62741:0:0:0:0:
64,192,62912,128,2,63255:0:0:0:0:
192,192,62912,1,4,0:0:0:0:
448,192,62912,128,0,63255:0:0:0:0:
192,192,63255,1,2,0:0:0:0:
320,192,63255,1,0,0:0:0:0:
64,192,63427,1,8,0:0:0:0:
320,192,63427,128,0,63770:0:0:0:40:Hat Open.wav
448,192,63427,1,0,0:0:0:0:
64,192,63770,1,2,0:0:0:0:
192,192,63770,1,0,0:0:0:0:
320,192,63855,1,8,0:0:0:0:
448,192,63855,1,0,0:0:0:0:
64,192,63941,1,8,0:0:0:0:
192,192,63941,1,0,0:0:0:0:
320,192,64027,1,8,0:0:0:0:
448,192,64027,1,0,0:0:0:0:
64,192,64112,1,8,0:0:0:0:
192,192,64112,1,0,0:0:0:0:
320,192,64198,1,8,0:0:0:0:
448,192,64198,1,0,0:0:0:0:
64,192,64284,1,8,0:0:0:0:
192,192,64284,1,0,0:0:0:0:
320,192,64370,1,8,0:0:0:0:
64,192,64455,1,2,0:0:0:0:
192,192,64455,1,4,0:0:0:0:
448,192,64455,128,0,64798:0:0:0:0:
64,192,64798,1,8,0:0:0:0:
192,192,64798,1,0,0:0:0:40:Hat Open.wav
320,192,64798,1,0,0:0:0:0:
448,192,64970,1,0,0:0:0:0:
64,192,65055,1,8,0:0:0:0:
192,192,65055,1,0,0:0:0:0:
320,192,65141,1,2,0:0:0:0:
448,192,65141,1,0,0:0:0:40:Hat Open.wav
192,192,65312,1,2,0:0:0:0:
320,192,65312,1,0,0:0:0:0:
64,192,65484,1,8,0:0:0:0:
192,192,65484,1,0,0:0:0:40:Hat Open.wav
448,192,65484,1,0,0:0:0:0:
64,192,65655,1,0,0:0:0:0:
320,192,65827,128,2,66170:0:0:0:0:
448,192,65827,1,0,0:0:0:40:Hat Open.wav
192,192,65998,1,0,0:0:0:0:
64,192,66170,1,8,0:0:0:0:
192,192,66170,1,2,0:0:0:0:
448,192,66170,1,0,0:0:0:40:Hat Open.wav
320,192,66341,1,0,0:0:0:0:
64,192,66427,1,8,0:0:0:0:
448,192,66427,1,0,0:0:0:0:
192,192,66512,1,2,0:0:0:0:
320,192,66512,1,0,0:0:0:40:Hat Open.wav
192,192,66684,1,2,0:0:0:0:
64,192,66855,1,8,0:0:0:0:
320,192,66855,1,0,0:0:0:40:Hat Open.wav
448,192,66855,1,0,0:0:0:0:
320,192,67027,1,0,0:0:0:0:
64,192,67198,128,2,67541:0:0:0:0:
192,192,67198,1,0,0:0:0:40:Hat Open.wav
448,192,67198,1,0,0:0:0:0:
320,192,67370,1,0,0:0:0:0:
192,192,67541,1,8,0:0:0:0:
320,192,67541,1,0,0:0:0:40:Hat Open.wav
448,192,67541,1,0,0:0:0:0:
64,192,67712,1,0,0:0:0:0:
192,192,67798,1,8,0:0:0:0:
320,192,67798,1,0,0:0:0:0:
64,192,67884,1,2,0:0:0:0:
448,192,67884,1,0,0:0:0:40:Hat Open.wav
192,192,68055,1,2,0:0:0:0:
320,192,68055,1,0,0:0:0:0:
64,192,68227,1,8,0:0:0:0:
320,192,68227,1,0,0:0:0:40:Hat Open.wav
448,192,68227,1,0,0:0:0:0:
448,192,68398,1,0,0:0:0:0:
64,192,68570,1,2,0:0:0:0:
192,192,68570,128,0,68912:0:0:0:40:Hat Open.wav
320,192,68741,1,0,0:0:0:0:
64,192,68912,1,8,0:0:0:0:
320,192,68912,1,0,0:0:0:40:Hat Open.wav
448,192,68912,1,0,0:0:0:0:
192,192,69084,1,0,0:0:0:0:
320,192,69170,1,8,0:0:0:0:
448,192,69170,1,0,0:0:0:0:
64,192,69255,1,2,0:0:0:0:
192,192,69255,1,0,0:0:0:40:Hat Open.wav
64,192,69427,1,2,0:0:0:0:
448,192,69427,1,0,0:0:0:0:
192,192,69598,1,8,0:0:0:0:
320,192,69598,1,0,0:0:0:40:Hat Open.wav
448,192,69598,1,0,0:0:0:0:
192,192,69770,1,0,0:0:0:0:
64,192,69941,1,2,0:0:0:0:
320,192,69941,128,4,70284:0:0:0:0:
448,192,69941,1,0,0:0:0:0:
64,192,70284,1,8,0:0:0:0:
192,192,70284,1,0,0:0:0:40:Hat Open.wav
448,192,70284,1,0,0:0:0:0:
320,192,70455,1,0,0:0:0:0:
64,192,70541,1,8,0:0:0:0:
192,192,70541,1,0,0:0:0:0:
320,192,70627,1,2,0:0:0:0:
448,192,70627,1,0,0:0:0:40:Hat Open.wav
64,192,70798,1,2,0:0:0:0:
192,192,70798,1,0,0:0:0:0:
64,192,70970,1,8,0:0:0:0:
320,192,70970,1,0,0:0:0:40:Hat Open.wav
448,192,70970,1,0,0:0:0:0:
320,192,71141,1,0,0:0:0:0:
64,192,71312,1,2,0:0:0:0:
192,192,71312,128,0,71655:0:0:0:40:Hat Open.wav
448,192,71484,1,0,0:0:0:0:
64,192,71655,1,8,0:0:0:0:
320,192,71655,1,0,0:0:0:40:Hat Open.wav
448,192,71655,1,0,0:0:0:0:
192,192,71827,1,0,0:0:0:0:
320,192,71912,1,8,0:0:0:0:
448,192,71912,1,0,0:0:0:0:
64,192,71998,1,2,0:0:0:0:
192,192,71998,1,0,0:0:0:40:Hat Open.wav
320,192,72170,1,2,0:0:0:0:
448,192,72170,1,0,0:0:0:0:
64,192,72341,1,8,0:0:0:0:
192,192,72341,1,0,0:0:0:40:Hat Open.wav
448,192,72341,1,0,0:0:0:0:
64,192,72512,1,0,0:0:0:0:
320,192,72684,128,2,73027:0:0:0:0:
448,192,72684,1,0,0:0:0:40:Hat Open.wav
192,192,72855,1,0,0:0:0:0:
64,192,73027,1,8,0:0:0:0:
192,192,73027,1,0,0:0:0:40:Hat Open.wav
448,192,73027,1,0,0:0:0:0:
320,192,73198,1,0,0:0:0:0:
192,192,73284,1,8,0:0:0:0:
448,192,73284,1,0,0:0:0:0:
64,192,73370,1,2,0:0:0:0:
320,192,73370,1,0,0:0:0:40:Hat Open.wav
64,192,73541,1,2,0:0:0:0:
192,192,73541,1,0,0:0:0:0:
192,192,73712,1,8,0:0:0:0:
320,192,73712,1,0,0:0:0:40:Hat Open.wav
448,192,73712,1,0,0:0:0:0:
448,192,73884,1,0,0:0:0:0:
64,192,74055,128,2,74398:0:0:0:0:
192,192,74055,1,0,0:0:0:40:Hat Open.wav
320,192,74227,1,0,0:0:0:0:
192,192,74398,1,8,0:0:0:0:
320,192,74398,1,0,0:0:0:40:Hat Open.wav
448,192,74398,1,0,0:0:0:0:
64,192,74570,1,0,0:0:0:0:
192,192,74655,1,8,0:0:0:0:
448,192,74655,1,0,0:0:0:0:
64,192,74741,1,2,0:0:0:0:
320,192,74741,128,0,75084:0:0:0:40:Hat Open.wav
192,192,74912,1,2,0:0:0:0:
64,192,75084,1,8,0:0:0:0:
192,192,75084,1,0,0:0:0:40:Hat Open.wav
448,192,75084,1,0,0:0:0:0:
320,192,75255,1,0,0:0:0:0:
64,192,75427,1,2,0:0:0:0:
192,192,75427,1,4,0:0:0:0:
448,192,75427,128,0,75770:0:0:0:0:
64,192,75770,1,8,0:0:0:0:
192,192,75770,1,2,0:0:0:0:
320,192,75770,1,0,0:0:0:40:Hat Open.wav
448,192,75941,1,0,0:0:0:0:
64,192,76027,1,8,0:0:0:0:
192,192,76027,1,0,0:0:0:0:
320,192,76112,1,2,0:0:0:0:
448,192,76112,1,0,0:0:0:40:Hat Open.wav
64,192,76284,1,2,0:0:0:0:
192,192,76284,1,0,0:0:0:0:
64,192,76455,1,8,0:0:0:0:
320,192,76455,1,0,0:0:0:40:Hat Open.wav
448,192,76455,1,0,0:0:0:0:
320,192,76627,1,0,0:0:0:0:
64,192,76798,128,2,77141:0:0:0:0:
192,192,76798,1,0,0:0:0:40:Hat Open.wav
448,192,76970,1,0,0:0:0:0:
192,192,77141,128,8,77484:0:0:0:0:
320,192,77141,1,0,0:0:0:40:Hat Open.wav
448,192,77141,1,0,0:0:0:0:
64,192,77312,1,0,0:0:0:0:
448,192,77398,1,8,0:0:0:0:
64,192,77484,1,2,0:0:0:0:
320,192,77484,128,0,77827:0:0:0:40:Hat Open.wav
192,192,77655,1,2,0:0:0:0:
64,192,77827,1,8,0:0:0:0:
192,192,77827,1,0,0:0:0:40:Hat Open.wav
448,192,77827,128,0,78170:0:0:0:0:
320,192,77998,1,0,0:0:0:0:
64,192,78170,128,2,78512:0:0:0:0:
192,192,78170,1,0,0:0:0:40:Hat Open.wav
320,192,78341,1,0,0:0:0:0:
192,192,78512,1,8,0:0:0:0:
320,192,78512,1,0,0:0:0:40:Hat Open.wav
448,192,78512,1,0,0:0:0:0:
64,192,78684,1,0,0:0:0:0:
320,192,78770,1,8,0:0:0:0:
448,192,78770,1,0,0:0:0:0:
64,192,78855,1,2,0:0:0:0:
192,192,78855,1,0,0:0:0:40:Hat Open.wav
192,192,79027,1,2,0:0:0:0:
448,192,79027,1,0,0:0:0:0:
64,192,79198,1,8,0:0:0:0:
320,192,79198,1,0,0:0:0:40:Hat Open.wav
448,192,79198,1,0,0:0:0:0:
64,192,79370,1,0,0:0:0:0:
320,192,79541,1,2,0:0:0:0:
448,192,79541,128,0,79884:0:0:0:40:Hat Open.wav
192,192,79712,1,0,0:0:0:0:
64,192,79884,1,8,0:0:0:0:
192,192,79884,1,0,0:0:0:40:Hat Open.wav
320,192,79884,1,0,0:0:0:0:
448,192,80055,1,0,0:0:0:0:
64,192,80141,1,8,0:0:0:0:
320,192,80141,1,0,0:0:0:0:
192,192,80227,1,2,0:0:0:0:
448,192,80227,1,0,0:0:0:40:Hat Open.wav
64,192,80398,1,2,0:0:0:0:
320,192,80398,1,0,0:0:0:0:
192,192,80570,1,8,0:0:0:0:
320,192,80570,1,0,0:0:0:40:Hat Open.wav
448,192,80570,1,0,0:0:0:0:
192,192,80741,1,0,0:0:0:0:
64,192,80912,128,2,81255:0:0:0:0:
320,192,80912,1,4,0:0:0:0:
448,192,80912,1,0,0:0:0:0:
192,192,81255,1,8,0:0:0:0:
320,192,81255,1,2,0:0:0:0:
448,192,81255,1,0,0:0:0:40:Hat Open.wav
320,192,81427,1,0,0:0:0:0:
64,192,81512,1,8,0:0:0:0:
448,192,81512,1,0,0:0:0:0:
192,192,81598,1,2,0:0:0:0:
320,192,81598,1,0,0:0:0:40:Hat Open.wav
64,192,81770,1,2,0:0:0:0:
448,192,81770,1,0,0:0:0:0:
192,192,81941,1,8,0:0:0:0:
320,192,81941,1,0,0:0:0:40:Hat Open.wav
448,192,81941,1,0,0:0:0:0:
192,192,82112,1,0,0:0:0:0:
64,192,82284,1,2,0:0:0:0:
320,192,82284,128,0,82627:0:0:0:40:Hat Open.wav
192,192,82455,1,0,0:0:0:0:
64,192,82627,1,8,0:0:0:0:
192,192,82627,1,2,0:0:0:0:
448,192,82627,1,0,0:0:0:40:Hat Open.wav
448,192,82798,1,0,0:0:0:0:
192,192,82884,1,8,0:0:0:0:
320,192,82884,1,0,0:0:0:0:
64,192,82970,1,2,0:0:0:0:
448,192,82970,1,0,0:0:0:40:Hat Open.wav
192,192,83141,1,2,0:0:0:0:
320,192,83141,1,0,0:0:0:0:
64,192,83312,1,8,0:0:0:0:
192,192,83312,1,0,0:0:0:40:Hat Open.wav
448,192,83312,1,0,0:0:0:0:
64,192,83484,1,0,0:0:0:0:
192,192,83655,1,2,0:0:0:0:
320,192,83655,1,4,0:0:0:0:
448,192,83655,128,0,83998:0:0:0:0:
64,192,83998,1,8,0:0:0:0:
192,192,83998,1,2,0:0:0:0:
320,192,83998,1,0,0:0:0:40:Hat Open.wav
64,192,84170,1,0,0:0:0:0:
192,192,84255,1,8,0:0:0:0:
320,192,84255,1,0,0:0:0:0:
64,192,84341,1,2,0:0:0:0:
448,192,84341,1,0,0:0:0:40:Hat Open.wav
192,192,84512,1,2,0:0:0:0:
320,192,84512,1,0,0:0:0:0:
64,192,84684,1,8,0:0:0:0:
320,192,84684,1,0,0:0:0:40:Hat Open.wav
448,192,84684,1,0,0:0:0:0:
192,192,84855,1,0,0:0:0:0:
320,192,84941,1,0,0:0:0:0:
64,192,85027,1,2,0:0:0:0:
192,192,85027,1,4,0:0:0:0:
448,192,85027,1,0,0:0:0:0:
320,192,85198,1,8,0:0:0:0:
448,192,85198,1,0,0:0:0:0:
64,192,85284,1,8,0:0:0:0:
192,192,85284,1,0,0:0:0:0:
320,192,85370,1,8,0:0:0:0:
448,192,85370,1,0,0:0:0:0:
64,192,85455,1,8,0:0:0:0:
192,192,85455,1,0,0:0:0:0:
320,192,85541,1,2,0:0:0:0:
448,192,85627,1,2,0:0:0:0:
64,192,85712,1,8,0:0:0:0:
192,192,85712,1,0,0:0:0:0:
320,192,85798,1,8,0:0:0:0:
448,192,85798,1,0,0:0:0:0:
192,192,85884,1,2,0:0:0:0:
64,192,85970,1,2,0:0:0:0:
320,192,86055,1,8,0:0:0:0:
448,192,86055,1,0,0:0:0:0:
192,192,86141,1,8,0:0:0:0:
64,192,86227,1,0,0:0:0:40:Tom2.wav
448,192,86227,1,0,0:0:0:0:
320,192,86312,1,0,0:0:0:40:Tom2.wav
64,192,86398,1,2,0:0:0:0:
192,192,86398,1,4,0:0:0:0:
448,192,86398,128,0,86741:0:0:0:0:
64,192,86741,1,8,0:0:0:0:
192,192,86741,1,2,0:0:0:0:
320,192,86741,1,0,0:0:0:40:Hat Open.wav
64,192,86912,1,0,0:0:0:0:
320,192,86998,1,8,0:0:0:0:
448,192,86998,1,0,0:0:0:0:
64,192,87084,1,2,0:0:0:0:
192,192,87084,1,0,0:0:0:40:Hat Open.wav
192,192,87255,1,2,0:0:0:0:
320,192,87255,1,0,0:0:0:0:
64,192,87427,1,8,0:0:0:0:
320,192,87427,1,0,0:0:0:40:Hat Open.wav
448,192,87427,1,0,0:0:0:0:
448,192,87598,1,0,0:0:0:0:
64,192,87770,1,2,0:0:0:0:
192,192,87770,128,0,88112:0:0:0:40:Hat Open.wav
320,192,87941,1,0,0:0:0:0:
64,192,88112,1,8,0:0:0:0:
320,192,88112,1,2,0:0:0:0:
448,192,88112,1,0,0:0:0:40:Hat Open.wav
192,192,88284,1,0,0:0:0:0:
64,192,88370,1,8,0:0:0:0:
448,192,88370,1,0,0:0:0:0:
192,192,88455,1,2,0:0:0:0:
320,192,88455,1,0,0:0:0:40:Hat Open.wav
320,192,88627,1,2,0:0:0:0:
64,192,88798,1,8,0:0:0:0:
192,192,88798,1,0,0:0:0:40:Hat Open.wav
448,192,88798,1,0,0:0:0:0:
192,192,88970,1,0,0:0:0:0:
64,192,89141,1,2,0:0:0:0:
320,192,89141,1,0,0:0:0:40:Hat Open.wav
448,192,89141,128,0,89484:0:0:0:0:
192,192,89312,1,0,0:0:0:0:
64,192,89484,1,8,0:0:0:0:
192,192,89484,1,2,0:0:0:0:
320,192,89484,1,0,0:0:0:40:Hat Open.wav
448,192,89655,1,0,0:0:0:0:
192,192,89741,1,8,0:0:0:0:
320,192,89741,1,0,0:0:0:0:
64,192,89827,1,2,0:0:0:0:
448,192,89827,1,0,0:0:0:40:Hat Open.wav
192,192,89998,1,2,0:0:0:0:
320,192,89998,1,0,0:0:0:0:
64,192,90170,1,8,0:0:0:0:
192,192,90170,1,0,0:0:0:40:Hat Open.wav
448,192,90170,1,0,0:0:0:0:
64,192,90341,1,0,0:0:0:0:
320,192,90512,128,2,90855:0:0:0:0:
448,192,90512,1,0,0:0:0:40:Hat Open.wav
192,192,90684,1,0,0:0:0:0:
64,192,90855,1,8,0:0:0:0:
192,192,90855,1,0,0:0:0:40:Hat Open.wav
448,192,90855,1,0,0:0:0:0:
320,192,91027,1,0,0:0:0:0:
64,192,91112,1,8,0:0:0:0:
192,192,91112,1,0,0:0:0:0:
320,192,91198,1,2,0:0:0:0:
448,192,91198,1,0,0:0:0:40:Hat Open.wav
64,192,91370,1,2,0:0:0:0:
448,192,91370,1,0,0:0:0:0:
64,192,91541,1,8,0:0:0:0:
192,192,91541,1,0,0:0:0:40:Hat Open.wav
320,192,91541,1,0,0:0:0:0:
320,192,91712,1,0,0:0:0:0:
64,192,91884,1,2,0:0:0:0:
192,192,91884,128,4,92227:0:0:0:0:
448,192,91884,1,0,0:0:0:0:
64,192,92227,1,8,0:0:0:0:
320,192,92227,1,2,0:0:0:0:
448,192,92227,1,0,0:0:0:40:Hat Open.wav
192,192,92398,1,0,0:0:0:0:
320,192,92484,1,8,0:0:0:0:
448,192,92484,1,0,0:0:0:0:
64,192,92570,1,2,0:0:0:0:
192,192,92570,1,0,0:0:0:40:Hat Open.wav
320,192,92741,1,2,0:0:0:0:
448,192,92741,1,0,0:0:0:0:
64,192,92912,1,8,0:0:0:0:
192,192,92912,1,0,0:0:0:40:Hat Open.wav
448,192,92912,1,0,0:0:0:0:
192,192,93084,1,0,0:0:0:0:
320,192,93255,128,2,93598:0:0:0:0:
448,192,93255,1,0,0:0:0:40:Hat Open.wav
64,192,93427,1,0,0:0:0:0:
64,192,93598,1,8,0:0:0:0:
192,192,93598,1,0,0:0:0:40:Hat Open.wav
448,192,93598,1,0,0:0:0:0:
320,192,93770,1,0,0:0:0:0:
64,192,93855,1,8,0:0:0:0:
192,192,93855,1,0,0:0:0:0:
320,192,93941,1,2,0:0:0:0:
448,192,93941,1,0,0:0:0:40:Hat Open.wav
64,192,94112,1,2,0:0:0:0:
192,192,94112,1,0,0:0:0:0:
64,192,94284,1,8,0:0:0:0:
320,192,94284,1,0,0:0:0:40:Hat Open.wav
448,192,94284,1,0,0:0:0:0:
448,192,94455,1,0,0:0:0:0:
64,192,94627,1,2,0:0:0:0:
192,192,94627,128,0,94970:0:0:0:40:Hat Open.wav
320,192,94798,1,0,0:0:0:0:
64,192,94970,1,8,0:0:0:0:
320,192,94970,1,2,0:0:0:0:
448,192,94970,1,0,0:0:0:40:Hat Open.wav
192,192,95141,1,0,0:0:0:0:
64,192,95227,1,8,0:0:0:0:
320,192,95227,1,0,0:0:0:0:
192,192,95312,1,2,0:0:0:0:
448,192,95312,1,0,0:0:0:40:Hat Open.wav
320,192,95484,1,2,0:0:0:0:
448,192,95484,1,0,0:0:0:0:
64,192,95655,1,8,0:0:0:0:
192,192,95655,1,0,0:0:0:40:Hat Open.wav
320,192,95655,1,0,0:0:0:0:
192,192,95827,1,0,0:0:0:0:
320,192,95998,1,2,0:0:0:0:
448,192,95998,128,0,96341:0:0:0:40:Hat Open.wav
64,192,96170,1,2,0:0:0:0:
64,192,96341,1,8,0:0:0:0:
192,192,96341,1,4,0:0:0:0:
320,192,96341,1,0,0:0:0:0:
192,192,96512,1,8,0:0:0:0:
320,192,96512,1,0,0:0:0:0:
448,192,96512,1,0,0:0:0:0:
64,192,96684,1,2,0:0:0:0:
192,192,96684,128,0,97027:0:0:0:0:
448,192,96684,1,0,0:0:0:0:
320,192,96855,1,2,0:0:0:0:
64,192,97027,1,8,0:0:0:0:
320,192,97027,1,4,0:0:0:0:
448,192,97027,1,0,0:0:0:0:
192,192,97198,1,0,0:0:0:0:
64,192,97370,128,2,97712:0:0:0:0:
320,192,97370,1,4,0:0:0:0:
448,192,97370,1,0,0:0:0:0:
192,192,97712,1,8,0:0:0:0:
320,192,97712,1,2,0:0:0:0:
448,192,97712,1,0,0:0:0:40:Hat Open.wav
64,192,97884,1,0,0:0:0:0:
320,192,97970,1,8,0:0:0:0:
448,192,97970,1,0,0:0:0:0:
64,192,98055,1,2,0:0:0:0:
192,192,98055,1,0,0:0:0:40:Hat Open.wav
320,192,98227,1,2,0:0:0:0:
448,192,98227,1,0,0:0:0:0:
64,192,98398,1,8,0:0:0:0:
192,192,98398,1,0,0:0:0:40:Hat Open.wav
448,192,98398,1,0,0:0:0:0:
192,192,98570,1,0,0:0:0:0:
320,192,98741,1,2,0:0:0:0:
448,192,98741,128,0,99084:0:0:0:40:Hat Open.wav
64,192,98912,1,0,0:0:0:0:
64,192,99084,1,8,0:0:0:0:
192,192,99084,1,2,0:0:0:0:
320,192,99084,128,0,99427:0:0:0:40:Hat Open.wav
448,192,99255,1,0,0:0:0:0:
64,192,99341,1,8,0:0:0:0:
192,192,99427,128,2,99770:0:0:0:0:
448,192,99427,1,0,0:0:0:40:Hat Open.wav
320,192,99598,1,2,0:0:0:0:
64,192,99770,128,8,100112:0:0:0:0:
320,192,99770,1,0,0:0:0:40:Hat Open.wav
448,192,99770,1,0,0:0:0:0:
192,192,99941,1,0,0:0:0:0:
320,192,100112,1,2,0:0:0:0:
448,192,100112,128,0,100455:0:0:0:40:Hat Open.wav
192,192,100284,1,0,0:0:0:0:
64,192,100455,1,8,0:0:0:0:
192,192,100455,1,2,0:0:0:0:
320,192,100455,1,0,0:0:0:40:Hat Open.wav
448,192,100627,1,0,0:0:0:0:
64,192,100712,1,8,0:0:0:0:
192,192,100712,1,0,0:0:0:0:
320,192,100798,1,2,0:0:0:0:
448,192,100798,1,0,0:0:0:40:Hat Open.wav
64,192,100970,1,2,0:0:0:0:
320,192,100970,1,0,0:0:0:0:
64,192,101141,1,8,0:0:0:0:
192,192,101141,1,0,0:0:0:40:Hat Open.wav
448,192,101141,1,0,0:0:0:0:
448,192,101312,1,0,0:0:0:0:
64,192,101484,128,2,101827:0:0:0:0:
192,192,101484,1,0,0:0:0:40:Hat Open.wav
320,192,101655,1,0,0:0:0:0:
192,192,101827,1,8,0:0:0:0:
320,192,101827,1,2,0:0:0:0:
448,192,101827,1,0,0:0:0:40:Hat Open.wav
64,192,101998,1,0,0:0:0:0:
192,192,102084,1,8,0:0:0:0:
448,192,102084,1,0,0:0:0:0:
64,192,102170,1,2,0:0:0:0:
320,192,102170,1,0,0:0:0:40:Hat Open.wav
192,192,102341,1,2,0:0:0:0:
448,192,102341,1,0,0:0:0:0:
64,192,102512,1,8,0:0:0:0:
192,192,102512,1,0,0:0:0:40:Hat Open.wav
320,192,102512,1,0,0:0:0:0:
320,192,102684,1,0,0:0:0:0:
64,192,102855,1,2,0:0:0:0:
192,192,102855,1,4,0:0:0:0:
448,192,102855,128,0,103198:0:0:0:0:
64,192,103198,1,8,0:0:0:0:
192,192,103198,1,2,0:0:0:0:
320,192,103198,1,0,0:0:0:40:Hat Open.wav
192,192,103370,1,0,0:0:0:0:
64,192,103455,1,8,0:0:0:0:
448,192,103455,1,0,0:0:0:0:
192,192,103541,1,2,0:0:0:0:
320,192,103541,1,0,0:0:0:40:Hat Open.wav
64,192,103712,1,2,0:0:0:0:
448,192,103712,1,0,0:0:0:0:
64,192,103884,1,8,0:0:0:0:
192,192,103884,1,0,0:0:0:40:Hat Open.wav
320,192,103884,1,0,0:0:0:0:
320,192,104055,1,0,0:0:0:0:
192,192,104227,128,2,104570:0:0:0:0:
448,192,104227,1,4,0:0:0:0:
320,192,104398,1,0,0:0:0:0:
64,192,104570,1,8,0:0:0:0:
320,192,104570,1,2,0:0:0:0:
448,192,104570,1,0,0:0:0:40:Hat Open.wav
64,192,104741,1,0,0:0:0:0:
192,192,104827,1,8,0:0:0:0:
320,192,104827,1,0,0:0:0:0:
64,192,104912,1,2,0:0:0:0:
448,192,104912,1,0,0:0:0:40:Hat Open.wav
192,192,105084,1,2,0:0:0:0:
320,192,105084,1,0,0:0:0:0:
64,192,105255,1,8,0:0:0:0:
320,192,105255,1,0,0:0:0:40:Hat Open.wav
448,192,105255,1,0,0:0:0:0:
448,192,105427,1,0,0:0:0:0:
64,192,105598,128,2,105941:0:0:0:0:
192,192,105598,1,4,0:0:0:0:
320,192,105598,1,0,0:0:0:0:
192,192,105941,1,8,0:0:0:0:
320,192,105941,1,0,0:0:0:40:Hat Open.wav
448,192,105941,1,0,0:0:0:0:
448,192,106112,1,0,0:0:0:0:
192,192,106198,1,8,0:0:0:0:
320,192,106198,1,0,0:0:0:0:
64,192,106284,1,2,0:0:0:0:
448,192,106284,1,0,0:0:0:40:Hat Open.wav
192,192,106455,1,2,0:0:0:0:
320,192,106455,1,0,0:0:0:0:
64,192,106627,1,8,0:0:0:0:
192,192,106627,1,0,0:0:0:40:Hat Open.wav
448,192,106627,1,0,0:0:0:0:
64,192,106798,1,0,0:0:0:0:
192,192,106970,1,2,0:0:0:0:
320,192,106970,1,0,0:0:0:0:
64,192,107141,1,2,0:0:0:0:
448,192,107141,1,0,0:0:0:0:
64,192,107312,1,8,0:0:0:0:
192,192,107312,1,4,0:0:0:0:
320,192,107312,1,0,0:0:0:0:
320,192,107484,1,8,0:0:0:0:
448,192,107484,1,0,0:0:0:0:
64,192,107570,1,8,0:0:0:0:
192,192,107570,1,0,0:0:0:0:
320,192,107655,1,8,0:0:0:0:
448,192,107655,1,0,0:0:0:0:
64,192,107741,1,8,0:0:0:0:
192,192,107741,1,0,0:0:0:0:
320,192,107827,1,0,0:0:0:40:Tom1.wav
448,192,107912,1,0,0:0:0:40:Tom1.wav
64,192,107998,1,0,0:0:0:40:Tom2.wav
192,192,107998,1,0,0:0:0:0:
320,192,108084,1,0,0:0:0:40:Tom2.wav
64,192,108170,1,0,0:0:0:40:Tom3.wav
448,192,108170,1,0,0:0:0:0:
192,192,108255,1,0,0:0:0:40:Tom3.wav
64,192,108341,1,2,0:0:0:0:
320,192,108341,1,4,0:0:0:0:
448,192,108341,128,0,109712:0:0:0:0:
64,192,109712,128,2,111084:0:0:0:0:
192,192,109712,1,4,0:0:0:0:
320,192,109712,1,0,0:0:0:0:
192,192,111084,128,2,113141:0:0:0:0:
320,192,111084,1,4,0:0:0:0:
448,192,111084,1,0,0:0:0:0:
448,192,112455,1,0,0:0:0:40:Hat Open.wav
448,192,112798,1,0,0:0:0:40:Hat Open.wav
320,192,113141,1,8,0:0:0:0:
448,192,113141,1,0,0:0:0:0:
64,192,113227,1,8,0:0:0:0:
192,192,113227,1,0,0:0:0:0:
320,192,113312,1,8,0:0:0:0:
448,192,113312,1,0,0:0:0:0:
64,192,113398,1,8,0:0:0:0:
192,192,113398,1,0,0:0:0:0:
320,192,113484,1,8,0:0:0:0:
448,192,113484,1,0,0:0:0:0:
64,192,113570,1,8,0:0:0:0:
192,192,113570,1,0,0:0:0:0:
320,192,113655,1,8,0:0:0:0:
448,192,113655,1,0,0:0:0:0:
192,192,113741,1,8,0:0:0:0:
64,192,113827,128,2,114170:0:0:0:0:
320,192,113827,1,4,0:0:0:0:
448,192,113827,1,0,0:0:0:0:
192,192,113998,1,0,0:0:0:0:
192,192,114170,1,8,0:0:0:0:
320,192,114170,1,0,0:0:0:40:Hat Open.wav
448,192,114170,1,0,0:0:0:0:
320,192,114341,1,0,0:0:0:0:
64,192,114427,1,8,0:0:0:0:
192,192,114427,1,0,0:0:0:0:
320,192,114512,1,2,0:0:0:0:
448,192,114512,1,0,0:0:0:40:Hat Open.wav
64,192,114684,1,2,0:0:0:0:
448,192,114684,1,0,0:0:0:0:
64,192,114855,1,8,0:0:0:0:
192,192,114855,1,0,0:0:0:0:
320,192,114855,1,0,0:0:0:0:
192,192,115027,1,2,0:0:0:0:
320,192,115027,1,4,0:0:0:0:
448,192,115027,128,0,115370:0:0:0:0:
64,192,115370,1,2,0:0:0:0:
192,192,115370,1,0,0:0:0:0:
64,192,115541,1,8,0:0:0:0:
320,192,115541,1,0,0:0:0:40:Hat Open.wav
448,192,115541,1,0,0:0:0:0:
192,192,115712,1,0,0:0:0:0:
320,192,115798,1,8,0:0:0:0:
448,192,115798,1,0,0:0:0:0:
64,192,115884,1,2,0:0:0:0:
192,192,115884,1,0,0:0:0:40:Hat Open.wav
320,192,116055,1,2,0:0:0:0:
448,192,116055,1,0,0:0:0:0:
64,192,116227,1,8,0:0:0:0:
192,192,116227,1,0,0:0:0:40:Hat Open.wav
448,192,116227,1,0,0:0:0:0:
192,192,116398,1,0,0:0:0:0:
320,192,116398,1,0,0:0:0:0:
64,192,116570,1,2,0:0:0:0:
320,192,116570,128,4,116912:0:0:0:0:
448,192,116570,1,0,0:0:0:0:
64,192,116912,1,8,0:0:0:0:
192,192,116912,1,0,0:0:0:40:Hat Open.wav
448,192,116912,1,0,0:0:0:0:
320,192,117084,1,0,0:0:0:0:
64,192,117170,1,8,0:0:0:0:
448,192,117170,1,0,0:0:0:0:
192,192,117255,1,2,0:0:0:0:
320,192,117255,1,0,0:0:0:40:Hat Open.wav
64,192,117427,1,2,0:0:0:0:
192,192,117427,1,0,0:0:0:0:
64,192,117598,1,8,0:0:0:0:
320,192,117598,1,0,0:0:0:0:
448,192,117598,1,0,0:0:0:0:
192,192,117770,128,2,118112:0:0:0:0:
320,192,117770,1,4,0:0:0:0:
448,192,117770,1,0,0:0:0:0:
64,192,118112,1,2,0:0:0:0:
448,192,118112,1,0,0:0:0:0:
64,192,118284,1,8,0:0:0:0:
192,192,118284,1,0,0:0:0:40:Hat Open.wav
320,192,118284,1,0,0:0:0:0:
448,192,118455,1,0,0:0:0:0:
64,192,118541,1,8,0:0:0:0:
320,192,118541,1,0,0:0:0:0:
192,192,118627,1,2,0:0:0:0:
448,192,118627,1,0,0:0:0:40:Hat Open.wav
192,192,118798,1,2,0:0:0:0:
320,192,118798,1,0,0:0:0:0:
64,192,118970,1,8,0:0:0:0:
320,192,118970,1,0,0:0:0:40:Hat Open.wav
448,192,118970,1,0,0:0:0:0:
192,192,119141,1,0,0:0:0:0:
64,192,119312,128,2,119655:0:0:0:0:
320,192,119312,1,4,0:0:0:0:
448,192,119312,1,0,0:0:0:0:
192,192,119655,1,8,0:0:0:0:
320,192,119655,1,0,0:0:0:40:Hat Open.wav
448,192,119655,1,0,0:0:0:0:
448,192,119827,1,0,0:0:0:0:
64,192,119912,1,8,0:0:0:0:
192,192,119912,1,0,0:0:0:0:
320,192,119998,1,2,0:0:0:0:
448,192,119998,1,0,0:0:0:40:Hat Open.wav
192,192,120170,1,2,0:0:0:0:
320,192,120170,1,0,0:0:0:0:
64,192,120341,1,8,0:0:0:0:
192,192,120341,1,0,0:0:0:0:
448,192,120341,1,0,0:0:0:0:
64,192,120512,1,2,0:0:0:0:
320,192,120512,128,4,120855:0:0:0:0:
448,192,120512,1,0,0:0:0:0:
64,192,120855,1,2,0:0:0:0:
192,192,120855,1,0,0:0:0:0:
64,192,121027,1,8,0:0:0:0:
192,192,121027,1,0,0:0:0:40:Hat Open.wav
448,192,121027,1,0,0:0:0:0:
320,192,121198,1,0,0:0:0:0:
64,192,121284,1,8,0:0:0:0:
192,192,121284,1,0,0:0:0:0:
320,192,121370,1,2,0:0:0:0:
448,192,121370,128,0,121712:0:0:0:40:Hat Open.wav
192,192,121541,1,2,0:0:0:0:
64,192,121712,1,8,0:0:0:0:
320,192,121712,1,0,0:0:0:0:
192,192,121798,1,8,0:0:0:0:
320,192,121884,1,0,0:0:0:40:Tom1.wav
448,192,121884,1,0,0:0:0:0:
64,192,122055,1,8,0:0:0:0:
192,192,122055,1,4,0:0:0:0:
448,192,122055,1,0,0:0:0:0:
64,192,122227,1,8,0:0:0:0:
320,192,122227,1,4,0:0:0:0:
448,192,122227,1,0,0:0:0:0:
192,192,122398,1,2,0:0:0:0:
320,192,122398,1,0,0:0:0:0:
64,192,122570,128,8,122741:0:0:0:0:
192,192,122570,128,4,122741:0:0:0:0:
448,192,122570,128,0,122741:0:0:0:0:
192,192,122912,1,2,0:0:0:0:
320,192,122912,1,0,0:0:0:0:
64,192,123084,1,8,0:0:0:0:
320,192,123084,1,4,0:0:0:0:
448,192,123084,1,0,0:0:0:0:
64,192,123255,1,8,0:0:0:0:
192,192,123255,1,4,0:0:0:0:
448,192,123255,1,0,0:0:0:0:
192,192,123427,1,2,0:0:0:0:
320,192,123427,1,0,0:0:0:0:
64,192,123598,128,8,123770:0:0:0:0:
192,192,123598,128,4,123770:0:0:0:0:
448,192,123598,128,0,123770:0:0:0:0:
320,192,123941,128,2,124112:0:0:0:0:
448,192,123941,128,0,124112:0:0:0:0:
64,192,124112,128,8,124284:0:0:0:0:
192,192,124112,128,0,124284:0:0:0:40:Hat Open.wav
320,192,124284,1,8,0:0:0:0:
448,192,124284,1,0,0:0:0:0:
64,192,124370,1,8,0:0:0:0:
192,192,124370,1,0,0:0:0:0:
320,192,124455,1,0,0:0:0:40:Tom1.wav
192,192,124541,1,0,0:0:0:40:Tom1.wav
64,192,124627,128,0,124798:0:0:0:40:Tom2.wav
448,192,124627,128,0,124798:0:0:0:0:
320,192,124798,1,0,0:0:0:0:
64,192,125141,128,8,125312:0:0:0:0:
320,192,125141,128,2,125312:0:0:0:0:
448,192,125141,128,4,125312:0:0:0:0:
64,192,125484,1,8,0:0:0:0:
320,192,125484,1,2,0:0:0:0:
448,192,125484,1,4,0:0:0:0:
64,192,125655,128,8,125827:0:0:0:0:
320,192,125655,128,2,125827:0:0:0:0:
448,192,125655,128,4,125827:0:0:0:0:
64,192,125998,128,2,128912:0:0:0:0:
320,192,125998,128,4,129084:0:0:0:0:
448,192,125998,128,0,129255:0:0:0:0:
