osu file format v14

[General]
AudioFilename: audio.mp3
AudioLeadIn: 0
PreviewTime:64027
Countdown: 0
SampleSet: Soft
StackLeniency: 0.7
Mode: 0
LetterboxInBreaks: 0
WidescreenStoryboard: 1

[Editor]
Bookmarks: 111195
DistanceSpacing: 1
BeatDivisor: 4
GridSize: 8
TimelineZoom: 1.5

[Metadata]
Title:Ashita e no Kodou -Opening size-
TitleUnicode:明日への鼓動 -Opening size-
Artist:Falcom Sound Team jdk feat. Kotera Kanako
ArtistUnicode:Falcom Sound Team jdk feat. 小寺可南子
Creator:KennethBBG
Version:sanairrt's Insane
Source:英雄伝説 閃の軌跡
Tags:sanairrt The Legend of Heroes: Trails Cold Steel Eiyuu Densetsu: Sen No Kiseki KOTECANA band Opening Op 1 j pop rock j-pop j-rock japanese video game OST female vocal vocalist
BeatmapID:3905080
BeatmapSetID:1894901

[Difficulty]
HPDrainRate:5.5
CircleSize:4
OverallDifficulty:8
ApproachRate:9
SliderMultiplier:1.6
SliderTickRate:1

[Events]
//Background and Video events
0,0,"Background.jpg",0,0
Video,1167,"kodou background video .mp4"
//Break Periods
//Storyboard Layer 0 (Background)
//Storyboard Layer 1 (Fail)
//Storyboard Layer 2 (Pass)
//Storyboard Layer 3 (Foreground)
//Storyboard Layer 4 (Overlay)
//Storyboard Sound Samples

[TimingPoints]
2120,346.820809248555,4,2,1,15,1,0
9923,-100,4,2,1,35,0,0
10443,-100,4,2,1,60,0,0
16686,-100,4,2,1,70,0,0
18767,-142.857142857143,4,2,1,35,0,0
28304,-142.857142857143,4,2,1,45,0,0
29865,-111.111111111111,4,2,1,45,0,0
38189,-111.111111111111,4,2,1,53,0,0
39403,-111.111111111111,4,2,1,60,0,0
40443,-111.111111111111,4,2,1,40,0,0
40963,-125,4,2,1,35,0,0
55703,-125,4,2,1,40,0,0
57611,-111.111111111111,4,2,1,45,0,0
62466,-111.111111111111,4,2,1,55,0,0
62987,-111.111111111111,4,2,1,60,0,0
64027,-111.111111111111,4,2,1,35,0,0
64547,-95.2380952380952,4,2,1,65,0,0
83969,-95.2380952380952,4,2,1,70,0,0
85183,-95.2380952380952,4,2,1,75,0,0
86050,-95.2380952380952,4,2,1,55,0,0
86657,-95.2380952380952,4,2,1,5,0,0
86744,-95.2380952380952,4,2,1,65,0,0
97235,-95.2380952380952,4,2,1,5,0,0
97322,-95.2380952380952,4,2,1,65,0,0
100617,-95.2380952380952,4,2,1,70,0,0
101137,-95.2380952380952,4,2,1,75,0,0
102177,-95.2380952380952,4,2,1,55,0,0
103391,-95.2380952380952,4,2,1,65,0,0
103651,-95.2380952380952,4,2,1,5,0,0
103738,-95.2380952380952,4,2,1,65,0,0
114403,-95.2380952380952,4,2,1,5,0,0
114489,-95.2380952380952,4,2,1,55,0,0
125588,-95.2380952380952,4,2,1,60,0,0
131830,-95.2380952380952,4,2,1,65,0,0
133911,-95.2380952380952,4,2,1,70,0,0
136426,-95.2380952380952,4,2,1,5,0,0
136513,-166.666666666667,4,2,1,70,0,0
137380,-166.666666666667,4,2,1,5,0,0

[Colours]
Combo1 : 255,213,85
Combo2 : 255,89,89
Combo3 : 83,160,255
Combo4 : 137,91,164

[HitObjects]
51,142,10443,6,0,P|99:183|194:165,1,160,6|10,3:2|0:2,0:0:0:0:
249,69,10963,2,0,P|204:59|149:49,1,80,2|0,0:2|3:2,0:0:0:0:
302,191,11310,2,0,P|346:181|402:171,1,80,2|10,3:2|0:2,0:0:0:0:
231,323,11657,6,0,P|217:264|182:149,1,160,2|0,3:2|3:2,0:0:0:0:
339,298,12177,2,0,P|333:328|320:399,1,80,10|0,0:2|3:2,0:0:0:0:
302,191,12524,1,2,0:2:0:0:
449,299,12698,1,2,3:2:0:0:
231,323,12871,2,0,P|193:310|136:303,1,80,8|0,0:2|0:0,0:0:0:0:
46,224,13218,6,0,B|97:211|97:211|119:183|119:183|164:187|202:160,1,160,6|10,3:2|0:2,0:0:0:0:
319,113,13738,2,0,P|311:142|298:219,1,80,2|0,3:2|0:0,0:0:0:0:
253,43,14085,1,2,3:2:0:0:
253,43,14258,1,10,0:2:0:0:
404,175,14432,6,0,P|461:156|468:40,1,160,6|0,3:2|3:2,0:0:0:0:
319,113,14952,1,8,0:2:0:0:
319,113,15125,2,0,P|247:104|131:92,1,160,0|2,3:2|3:2,0:0:0:0:
64,181,15646,1,10,0:2:0:0:
6,67,15819,1,0,0:0:0:0:
160,186,15992,6,0,B|130:278|166:241|136:345,2,160,6|8|2,3:2|0:2|3:2,0:0:0:0:
57,289,16859,1,2,3:2:0:0:
243,230,17033,1,10,0:2:0:0:
102,87,17206,6,0,P|141:132|247:117,1,160,6|2,3:2|3:2,0:0:0:0:
380,19,17726,1,10,0:2:0:0:
322,140,17900,2,0,P|309:84|298:54,1,80,6|0,3:2|0:0,0:0:0:0:
423,209,18247,1,6,3:2:0:0:
423,209,18420,2,0,P|436:153|447:123,1,80,0|0,3:2|0:0,0:0:0:0:
505,287,18767,5,4,3:2:0:0:
505,287,18940,2,0,P|451:297|384:315,1,111.999996582031,0|2,3:2|0:2,0:0:0:0:
306,315,19461,2,0,P|317:341|324:381,2,55.9999982910157,2|2|2,0:2|0:2|0:2,0:0:0:0:
217,357,19981,1,2,0:2:0:0:
217,357,20154,6,0,P|226:303|240:222,1,111.999996582031,0|0,3:2|0:0,0:0:0:0:
311,159,20674,2,0,P|317:182|330:238,1,55.9999982910157,2|2,0:2|0:2,0:0:0:0:
235,246,21021,2,0,P|194:219|129:235,1,111.999996582031,2|2,0:2|0:2,0:0:0:0:
62,111,21541,6,0,P|105:126|187:130,1,111.999996582031,2|2,3:2|0:2,0:0:0:0:
225,65,22062,1,2,0:2:0:0:
225,65,22409,2,0,P|216:26|209:-1,2,55.9999982910157,2|2|2,0:2|0:2|0:2,0:0:0:0:
310,127,22929,6,0,P|303:156|287:249,2,111.999996582031,0|0|0,3:2|0:0|0:0,0:0:0:0:
396,72,23796,1,0,0:0:0:0:
396,72,23969,2,0,P|404:103|412:149,1,55.9999982910157,2|2,0:2|0:2,0:0:0:0:
276,32,24316,5,2,3:2:0:0:
276,32,24489,2,0,P|238:41|145:53,2,111.999996582031,0|2|2,3:2|0:2|0:2,0:0:0:0:
112,128,25356,2,0,P|156:133|185:151,1,55.9999982910157,2|2,0:2|0:2,0:0:0:0:
253,261,25703,6,0,P|262:205|274:151,1,111.999996582031,2|0,3:2|0:0,0:0:0:0:
153,234,26224,2,0,P|162:279|178:364,1,111.999996582031,2|0,0:2|0:0,0:0:0:0:
253,261,26744,1,0,0:0:0:0:
253,261,27091,5,2,3:2:0:0:
253,261,27264,2,0,P|315:270|332:271,1,55.9999982910157,2|2,3:2|0:2,0:0:0:0:
383,173,27611,2,0,P|390:201|402:251,1,55.9999982910157,2|0,3:2|0:0,0:0:0:0:
476,307,27958,2,0,P|480:278|489:252,1,55.9999982910157,2|0,3:2|0:0,0:0:0:0:
308,269,28304,5,2,3:2:0:0:
302,281,28651,5,2,3:2:0:0:
296,293,28998,5,2,3:2:0:0:
45,89,29865,6,0,B|135:92|90:123|191:129,1,143.999995605469,4|8,3:2|0:2,0:0:0:0:
271,70,30385,1,2,0:2:0:0:
271,70,30559,2,0,P|264:23|257:-9,1,71.9999978027344,2|2,3:2|3:2,0:0:0:0:
182,129,30906,1,10,0:2:0:0:
363,26,31079,1,2,0:2:0:0:
363,26,31252,6,0,P|409:43|474:125,1,143.999995605469,0|8,3:2|0:2,0:0:0:0:
366,222,31773,2,0,P|358:179|346:133,1,71.9999978027344,2|2,3:2|0:2,0:0:0:0:
487,224,32120,1,2,3:2:0:0:
487,224,32293,2,0,P|478:259|472:294,1,71.9999978027344,8|2,0:2|0:2,0:0:0:0:
366,222,32640,5,2,3:2:0:0:
366,222,32813,2,0,B|270:237|331:259|228:278,1,143.999995605469,2|2,0:2|0:2,0:0:0:0:
159,156,33333,2,0,P|190:162|243:175,1,71.9999978027344,0|2,3:2|3:2,0:0:0:0:
99,248,33680,1,10,0:2:0:0:
218,82,33854,6,0,P|174:105|58:114,1,143.999995605469,2|0,3:2|3:2,0:0:0:0:
229,171,34374,1,8,0:2:0:0:
302,20,34547,2,0,P|369:26|392:104,1,143.999995605469,0|2,3:2|3:2,0:0:0:0:
218,82,35067,2,0,P|208:35|198:7,1,71.9999978027344,10|2,0:2|0:2,0:0:0:0:
332,175,35414,6,0,P|317:229|299:330,1,143.999995605469,6|10,3:2|0:2,0:0:0:0:
190,211,35935,1,2,0:2:0:0:
190,211,36108,2,0,P|197:245|206:297,1,71.9999978027344,0|2,3:2|3:2,0:0:0:0:
86,329,36455,2,0,P|92:293|99:258,1,71.9999978027344,10|2,0:2|0:2,0:0:0:0:
300,315,36802,6,0,P|364:342|445:334,1,143.999995605469,2|8,3:2|0:2,0:0:0:0:
454,230,37322,2,0,P|390:203|309:211,1,143.999995605469,2|2,3:2|3:2,0:0:0:0:
203,281,37842,2,0,P|197:246|190:211,1,71.9999978027344,10|2,0:2|0:2,0:0:0:0:
101,33,38189,6,0,P|90:90|62:190,1,143.999995605469,6|8,3:2|0:2,0:0:0:0:
213,118,38709,2,0,B|305:131|248:155|353:177,1,143.999995605469,4|2,3:2|3:2,0:0:0:0:
189,210,39229,1,8,0:2:0:0:
336,52,39403,5,6,3:2:0:0:
345,60,39750,5,0,3:2:0:0:
414,227,39923,1,8,0:0:0:0:
512,129,40096,2,0,P|463:121|424:110,1,71.9999978027344,0|0,3:2|0:0,0:0:0:0:
343,240,40443,1,2,3:2:0:0:
343,240,40617,2,0,P|392:232|431:221,1,71.9999978027344,10|2,0:2|3:2,0:0:0:0:
314,362,40963,6,0,P|275:330|190:334,1,128,6|2,3:2|0:2,0:0:0:0:
113,340,41484,2,0,B|107:306|124:280|124:280|103:246|103:246|129:211|122:157|122:157|83:163|68:189,1,256,2|0,3:2|0:0,0:0:0:0:
206,235,42351,5,0,3:2:0:0:
206,235,42698,1,0,0:0:0:0:
206,235,42871,2,0,P|252:227|340:211,1,128,0|2,3:2|0:2,0:0:0:0:
401,254,43391,1,2,0:2:0:0:
458,190,43565,1,2,0:2:0:0:
408,125,43738,6,0,P|396:94|402:-12,1,128,2|2,3:2|0:2,0:0:0:0:
287,59,44258,2,0,P|284:92|271:139,1,64,2|0,3:2|0:0,0:0:0:0:
206,235,44605,2,0,P|199:203|185:167,1,64,2|0,0:2|0:0,0:0:0:0:
35,38,44952,6,0,P|76:71|165:52,1,128,2|2,3:2|3:2,0:0:0:0:
88,170,45472,1,2,0:2:0:0:
88,170,45646,2,0,P|57:193|39:286,1,128,0|2,3:2|3:2,0:0:0:0:
206,235,46166,2,0,P|200:203|197:159,1,64,10|2,0:2|0:2,0:0:0:0:
286,338,46513,6,0,P|293:287|310:211,1,128,6|0,3:2|0:0,0:0:0:0:
369,100,47033,2,0,P|422:99|408:169,1,128,2|0,3:2|0:0,0:0:0:0:
309,212,47553,2,0,P|271:203|236:199,1,64
117,89,47900,6,0,P|168:82|244:65,1,128,2|0,3:2|0:0,0:0:0:0:
39,120,48420,2,0,P|101:127|148:169,1,128,2|0,3:2|0:0,0:0:0:0:
62,287,48940,2,0,P|60:250|51:219,1,64,2|0,0:2|0:0,0:0:0:0:
157,347,49287,6,0,B|195:326|195:326|288:343,1,128,2|0,3:2|0:0,0:0:0:0:
287,248,49807,2,0,B|370:263|370:263|408:242,1,128,2|0,3:2|0:0,0:0:0:0:
478,186,50328,1,10,0:2:0:0:
422,121,50501,1,2,0:2:0:0:
320,153,50674,6,0,P|321:93|300:22,1,128,0|0,3:2|0:0,0:0:0:0:
217,24,51195,2,0,P|211:53|201:111,2,64,0|0|2,3:2|0:0|3:2,0:0:0:0:
116,159,51715,2,0,P|110:127|109:95,1,64,10|2,0:2|3:2,0:0:0:0:
48,247,52062,6,0,P|86:207|172:223,1,128,6|2,3:2|0:2,0:0:0:0:
243,285,52582,2,0,B|231:246|259:209|259:209|229:139|229:139|273:100|267:51,1,256,2|0,3:2|0:0,0:0:0:0:
350,156,53449,5,0,3:2:0:0:
350,156,53796,1,0,0:0:0:0:
350,156,53969,2,0,L|369:290,1,128,0|2,3:2|0:2,0:0:0:0:
307,347,54489,1,2,0:2:0:0:
233,302,54663,1,2,0:2:0:0:
154,349,54836,6,0,P|110:349|29:309,1,128,2|2,3:2|0:2,0:0:0:0:
141,179,55356,2,0,P|138:212|119:257,1,64,2|0,3:2|0:0,0:0:0:0:
47,171,55703,2,0,P|43:141|40:107,1,64,2|8,0:2|0:2,0:0:0:0:
229,209,56050,6,0,B|308:212|270:242|359:250,1,128,2|2,3:2|3:2,0:0:0:0:
432,108,56570,1,10,0:2:0:0:
432,108,56744,2,0,P|373:98|357:174,1,128,0|2,3:2|3:2,0:0:0:0:
345,242,57264,1,10,0:2:0:0:
423,299,57437,1,2,0:2:0:0:
512,194,57611,6,0,P|395:222|347:241,1,143.999995605469,6|10,3:2|0:2,0:0:0:0:
234,371,58131,2,0,P|223:316|209:284,1,71.9999978027344,2|0,0:2|3:2,0:0:0:0:
185,146,58478,1,2,3:2:0:0:
92,307,58651,1,8,0:2:0:0:
11,186,58825,6,0,P|61:209|164:226,1,143.999995605469,2|2,3:2|3:2,0:0:0:0:
321,106,59345,2,0,P|250:117|184:145,1,143.999995605469,8|0,0:2|0:0,0:0:0:0:
225,37,59865,1,2,3:2:0:0:
277,202,60039,1,10,0:2:0:0:
228,31,60212,1,2,0:2:0:0:
283,208,60385,6,0,B|255:287|300:272|276:355,1,143.999995605469,2|10,3:2|0:2,0:0:0:0:
122,330,60906,2,0,P|152:321|207:310,1,71.9999978027344,2|0,3:2|3:2,0:0:0:0:
432,266,61252,2,0,P|401:257|347:246,1,71.9999978027344,2|8,3:2|0:2,0:0:0:0:
196,134,61599,6,0,B|286:120|243:83|341:76,1,143.999995605469,2|2,3:2|3:2,0:0:0:0:
114,70,62120,1,10,0:2:0:0:
241,218,62293,1,0,0:0:0:0:
46,183,62466,5,2,3:2:0:0:
121,159,62640,1,2,3:2:0:0:
196,135,62813,1,10,0:2:0:0:
79,320,62987,5,6,3:2:0:0:
82,326,63333,5,14,3:2:0:0:
85,332,63680,5,6,3:2:0:0:
117,66,64547,6,0,P|165:87|311:93,1,167.999994873047,6|10,3:2|0:2,0:0:0:0:
241,229,65067,2,0,P|190:241|146:268,1,83.9999974365235,2|0,0:2|3:2,0:0:0:0:
339,275,65414,1,2,3:2:0:0:
236,129,65588,1,8,0:2:0:0:
289,358,65761,6,0,P|373:366|435:291,1,167.999994873047,2|0,3:2|3:2,0:0:0:0:
241,230,66281,1,10,0:2:0:0:
393,109,66455,2,0,P|438:123|498:134,1,83.9999974365235,2|0,3:2|0:0,0:0:0:0:
339,274,66802,2,0,P|328:227|308:170,1,83.9999974365235,2|8,3:2|0:2,0:0:0:0:
477,226,67148,1,2,0:2:0:0:
289,358,67322,6,0,P|241:343|109:330,1,167.999994873047,4|10,3:2|0:2,0:0:0:0:
7,220,67842,2,0,P|61:211|112:182,1,83.9999974365235,2|0,3:2|0:0,0:0:0:0:
216,186,68189,1,2,3:2:0:0:
73,72,68362,1,8,0:2:0:0:
305,18,68536,6,0,P|239:33|165:107,1,167.999994873047,2|0,3:2|3:2,0:0:0:0:
275,260,69056,1,8,0:2:0:0:
407,165,69229,2,0,P|356:155|296:138,1,83.9999974365235,0|0,3:2|0:0,0:0:0:0:
193,278,69576,1,2,3:2:0:0:
193,278,69750,2,0,P|233:267|274:259,1,83.9999974365235,10|2,0:2|0:2,0:0:0:0:
396,76,70096,6,0,B|359:98|359:98|301:79|213:107,1,167.999994873047,6|10,3:2|0:2,0:0:0:0:
54,78,70617,2,0,P|93:92|131:139,1,83.9999974365235,2|0,3:2|0:0,0:0:0:0:
193,278,70963,2,0,P|199:232|213:173,1,83.9999974365235,2|8,3:2|0:2,0:0:0:0:
10,221,71310,6,0,P|31:284|42:392,1,167.999994873047,6|0,3:2|3:2,0:0:0:0:
193,278,71830,2,0,P|149:259|114:218,1,83.9999974365235,10|0,0:2|0:2,0:0:0:0:
265,371,72177,2,0,P|313:326|418:341,1,167.999994873047,2|10,3:2|0:2,0:0:0:0:
283,240,72698,1,0,3:2:0:0:
467,239,72871,6,0,P|463:195|469:127,1,83.9999974365235,6|0,3:2|0:0,0:0:0:0:
280,86,73218,1,10,0:2:0:0:
370,6,73391,2,0,P|371:86|361:181,1,167.999994873047,2|0,3:2|3:2,0:0:0:0:
283,240,73911,1,8,0:2:0:0:
161,86,74085,6,0,P|103:70|83:181,1,167.999994873047,4|0,3:2|3:2,0:0:0:0:
96,232,74605,1,8,0:2:0:0:
185,78,74778,2,0,P|143:53|84:60,1,83.9999974365235,0|0,3:2|0:0,0:0:0:0:
211,196,75125,1,2,3:2:0:0:
332,79,75299,2,0,P|332:30|297:-17,1,83.9999974365235,10|2,0:2|0:2,0:0:0:0:
325,193,75646,6,0,P|389:221|445:324,1,167.999994873047,6|10,3:2|0:2,0:0:0:0:
195,278,76166,2,0,L|214:174,1,83.9999974365235,2|0,0:2|3:2,0:0:0:0:
150,133,76513,1,2,3:2:0:0:
287,270,76686,1,8,0:2:0:0:
287,270,76859,1,2,0:2:0:0:
128,384,77033,6,0,L|109:280,1,83.9999974365235,0|0,3:2|3:2,0:0:0:0:
210,195,77380,1,10,0:2:0:0:
99,53,77553,2,0,B|118:72|136:90|136:90|103:214,1,167.999994873047,2|2,3:2|3:2,0:0:0:0:
242,91,78073,2,0,P|279:73|323:75,1,83.9999974365235,8|0,0:2|0:0,0:0:0:0:
387,257,78420,6,0,P|305:237|319:140,1,167.999994873047,6|10,3:2|0:2,0:0:0:0:
444,189,78940,2,0,P|474:237|471:289,1,83.9999974365235,2|0,3:2|0:0,0:0:0:0:
266,384,79287,1,2,3:2:0:0:
387,257,79461,1,8,0:2:0:0:
193,282,79634,6,0,P|259:290|364:350,1,167.999994873047,6|0,3:2|3:2,0:0:0:0:
125,373,80154,1,8,0:2:0:0:
208,183,80328,2,0,P|163:194|95:212,1,83.9999974365235,0|0,3:2|0:0,0:0:0:0:
306,99,80674,1,2,3:2:0:0:
306,99,80848,2,0,P|265:88|226:73,1,83.9999974365235,10|2,0:2|0:2,0:0:0:0:
323,190,81195,6,0,P|341:116|450:70,1,167.999994873047,6|10,3:2|0:2,0:0:0:0:
208,183,81715,2,0,P|223:252|242:352,1,167.999994873047,2|0,0:2|3:2,0:0:0:0:
323,190,82235,1,8,0:2:0:0:
323,190,82409,1,2,0:2:0:0:
121,127,82582,6,0,L|97:234,1,83.9999974365235,6|0,3:2|3:2,0:0:0:0:
226,101,82929,2,0,L|202:208,1,83.9999974365235,10|0,0:2|0:0,0:0:0:0:
302,351,83276,6,0,L|320:269,1,83.9999974365235,2|0,0:2|3:2,0:0:0:0:
407,325,83623,2,0,L|425:243,1,83.9999974365235,10|0,0:2|3:2,0:0:0:0:
159,317,83969,6,0,P|91:319|4:387,1,167.999994873047,6|8,3:2|0:2,0:0:0:0:
252,325,84489,2,0,P|194:301|232:192,1,167.999994873047,0|0,3:2|3:2,0:0:0:0:
326,379,85010,1,10,0:2:0:0:
431,148,85183,6,0,P|441:182|461:251,1,83.9999974365235,6|0,3:2|0:0,0:0:0:0:
280,27,85530,6,0,P|269:61|250:130,1,83.9999974365235,6|8,3:2|0:2,0:0:0:0:
85,223,85877,6,0,P|73:182|61:142,1,83.9999974365235,6|0,3:2|3:2,0:0:0:0:
154,49,86224,5,2,3:2:0:0:
189,202,86397,2,0,P|178:248|142:333,1,125.999996154785,10|0,0:2|0:0,0:0:0:0:
251,282,86744,6,0,B|300:300|300:300|360:269|438:303,1,167.999994873047,6|10,3:2|0:2,0:0:0:0:
512,164,87264,2,0,P|467:157|407:141,1,83.9999974365235,2|0,0:2|3:2,0:0:0:0:
255,113,87611,1,2,3:2:0:0:
429,16,87784,1,8,0:2:0:0:
309,190,87958,6,0,P|249:203|128:276,1,167.999994873047,2|0,3:2|3:2,0:0:0:0:
255,113,88478,1,10,0:2:0:0:
53,20,88651,2,0,P|46:55|29:124,1,83.9999974365235,2|0,3:2|0:0,0:0:0:0:
122,237,88998,2,0,P|129:195|139:154,1,83.9999974365235,2|8,3:2|0:2,0:0:0:0:
255,113,89345,1,2,0:2:0:0:
391,223,89518,6,0,B|405:232|425:245|425:245|489:196|445:105,1,167.999994873047,4|10,3:2|0:2,0:0:0:0:
284,220,90039,2,0,P|257:263|246:316,1,83.9999974365235,2|0,3:2|0:0,0:0:0:0:
195,185,90385,1,2,3:2:0:0:
324,336,90559,1,8,0:2:0:0:
375,137,90732,6,0,P|379:77|280:9,1,167.999994873047,2|0,3:2|3:2,0:0:0:0:
218,76,91252,1,8,0:2:0:0:
68,24,91426,2,0,P|102:16|173:2,1,83.9999974365235,0|0,3:2|0:0,0:0:0:0:
9,150,91773,1,2,0:2:0:0:
9,150,91946,2,0,P|50:158|91:172,1,83.9999974365235,10|2,0:2|0:2,0:0:0:0:
284,220,92293,6,0,B|181:249|245:262|134:296,1,167.999994873047,6|10,3:2|0:2,0:0:0:0:
376,311,92813,2,0,P|430:334|475:332,1,83.9999974365235,2|0,0:2|0:0,0:0:0:0:
258,365,93160,1,2,3:2:0:0:
258,365,93333,1,8,0:2:0:0:
377,210,93507,6,0,P|363:120|358:19,1,167.999994873047,6|0,3:2|3:2,0:0:0:0:
231,99,94027,2,0,P|213:136|162:171,1,83.9999974365235,10|0,0:2|3:2,0:0:0:0:
15,11,94374,2,0,P|53:1|144:99,1,167.999994873047,2|10,3:2|0:2,0:0:0:0:
90,155,94894,1,0,3:2:0:0:
303,17,95067,6,0,P|259:10|197:2,1,83.9999974365235,6|0,3:2|0:0,0:0:0:0:
90,155,95414,1,10,0:2:0:0:
231,99,95588,2,0,P|243:162|282:272,1,167.999994873047,2|0,3:2|3:2,0:0:0:0:
167,212,96108,1,8,0:2:0:0:
331,107,96281,6,0,B|356:110|386:96|386:96|420:141|407:211,1,167.999994873047,4|0,3:2|3:2,0:0:0:0:
276,260,96802,1,8,0:2:0:0:
167,212,96975,2,0,P|139:253|127:346,1,125.999996154785,0|0,3:2|0:0,0:0:0:0:
134,338,97322,1,2,3:2:0:0:
358,274,97495,2,0,P|310:268|255:252,1,83.9999974365235,10|2,0:2|0:2,0:0:0:0:
69,97,97842,6,0,B|91:98|119:115|119:115|172:88|252:102,1,167.999994873047,6|10,3:2|0:2,0:0:0:0:
368,15,98362,2,0,P|380:51|386:118,1,83.9999974365235,2|0,0:2|3:2,0:0:0:0:
289,174,98709,1,2,3:2:0:0:
450,255,98883,1,10,0:2:0:0:
450,255,99056,1,2,0:2:0:0:
318,349,99229,6,0,P|271:344|206:332,1,83.9999974365235,0|0,3:2|3:2,0:0:0:0:
68,219,99576,1,10,0:2:0:0:
187,164,99750,2,0,P|175:198|160:273,1,83.9999974365235,2|0,3:2|0:0,0:0:0:0:
127,90,100096,1,2,3:2:0:0:
277,224,100270,2,0,P|320:218|374:212,1,83.9999974365235,8|0,0:2|0:0,0:0:0:0:
469,59,100617,5,6,3:2:0:0:
382,45,100790,1,0,3:2:0:0:
295,32,100963,1,2,1:2:0:0:
360,213,101137,5,2,1:2:0:0:
366,224,101484,5,2,1:2:0:0:
363,237,101830,6,0,P|310:268|186:296,1,167.999994873047,6|0,3:2|3:2,0:0:0:0:
55,160,102351,1,8,0:2:0:0:
76,343,102524,2,0,P|90:292|100:244,1,83.9999974365235,0|0,3:2|0:0,0:0:0:0:
189,85,102871,1,2,3:2:0:0:
189,85,103044,2,0,P|203:135|213:184,1,83.9999974365235,10|2,0:2|0:2,0:0:0:0:
472,154,103391,6,0,P|424:107|343:121,1,125.999996154785,6|0,3:2|0:0,0:0:0:0:
308,36,103738,2,0,P|350:25|414:9,1,83.9999974365235,8|0,0:2|0:0,0:0:0:0:
254,151,104085,1,0,3:2:0:0:
135,15,104258,1,2,0:2:0:0:
55,114,104432,1,10,0:2:0:0:
221,60,104605,6,0,P|211:119|196:245,1,167.999994873047,6|2,3:2|3:2,0:0:0:0:
273,301,105125,1,10,0:2:0:0:
273,301,105299,1,2,3:2:0:0:
90,211,105472,2,0,P|102:250|111:319,1,83.9999974365235,0|0,0:0|3:2,0:0:0:0:
257,384,105819,2,0,P|264:342|273:301,1,83.9999974365235,8|0,0:2|0:0,0:0:0:0:
472,154,106166,6,0,B|458:164|433:186|433:186|366:191|308:142,1,167.999994873047,6|10,3:2|0:2,0:0:0:0:
227,58,106686,2,0,P|284:46|328:23,1,83.9999974365235,2|0,0:2|3:2,0:0:0:0:
94,46,107033,1,2,3:2:0:0:
215,186,107206,1,10,0:2:0:0:
23,118,107380,6,0,P|15:153|0:222,1,83.9999974365235,6|0,3:2|0:0,0:0:0:0:
208,59,107726,1,2,3:2:0:0:
208,59,107900,1,10,0:2:0:0:
135,208,108073,2,0,P|126:166|91:37,1,167.999994873047,2|2,3:2|3:2,0:0:0:0:
247,162,108593,1,10,0:2:0:0:
72,304,108767,6,0,P|117:243|208:251,1,167.999994873047,6|2,3:2|3:2,0:0:0:0:
312,88,109287,1,10,0:2:0:0:
461,251,109461,2,0,P|464:198|475:150,1,83.9999974365235,6|0,3:2|0:0,0:0:0:0:
247,162,109807,1,2,3:2:0:0:
247,162,109981,1,10,0:2:0:0:
329,300,110154,6,0,B|290:310|253:324|253:324|212:297|152:303,1,167.999994873047,6|0,3:2|3:2,0:0:0:0:
247,162,110674,1,8,0:2:0:0:
61,227,110848,1,0,3:2:0:0:
117,69,111021,1,8,0:2:0:0:
124,88,111107,1,0,3:2:0:0:
130,108,111194,1,2,3:2:0:0:
134,129,111281,1,2,0:0:0:0:
137,150,111368,2,0,P|140:174|146:215,1,41.9999987182618,10|0,0:2|0:0,0:0:0:0:
335,278,111541,6,0,P|343:227|360:171,1,83.9999974365235,6|0,3:2|0:0,0:0:0:0:
323,81,111888,1,2,3:2:0:0:
457,232,112062,1,10,0:2:0:0:
247,162,112235,2,0,P|209:180|157:192,1,83.9999974365235,6|0,3:2|0:0,0:0:0:0:
422,69,112582,1,2,3:2:0:0:
251,16,112755,1,10,0:2:0:0:
351,195,112929,6,0,P|357:254|331:365,1,167.999994873047,6|0,3:2|3:2,0:0:0:0:
82,265,113449,1,8,0:2:0:0:
174,377,113622,1,0,3:2:0:0:
237,243,113796,1,8,0:2:0:0:
246,224,113882,1,8,0:2:0:0:
251,203,113969,1,2,1:2:0:0:
251,182,114056,1,0,1:2:0:0:
247,162,114143,2,0,P|186:153|120:135,1,125.999996154785,6|0,3:2|0:0,0:0:0:0:
29,124,114489,6,0,B|120:74|88:130|193:82,2,167.999994873047,6|8|2,3:2|0:2|3:2,0:0:0:0:
251,203,115356,1,2,3:2:0:0:
251,203,115530,1,10,0:2:0:0:
312,66,115703,6,0,P|325:115|369:229,1,167.999994873047,2|0,3:2|3:2,0:0:0:0:
251,203,116224,1,10,0:2:0:0:
135,161,116397,2,0,P|126:194|110:256,1,83.9999974365235,2|0,3:2|0:0,0:0:0:0:
74,71,116744,1,2,3:2:0:0:
251,203,116917,2,0,P|242:169|226:108,1,83.9999974365235,8|0,0:2|0:0,0:0:0:0:
26,275,117264,6,0,P|68:325|168:316,2,167.999994873047,6|10|2,3:2|0:2|0:0,0:0:0:0:
229,121,118131,1,2,3:2:0:0:
113,242,118304,1,10,0:2:0:0:
310,198,118478,6,0,P|322:109|337:11,1,167.999994873047,2|2,3:2|3:2,0:0:0:0:
229,121,118998,1,10,0:2:0:0:
397,160,119172,2,0,P|401:195|412:274,1,83.9999974365235,2|0,3:2|0:0,0:0:0:0:
310,198,119518,1,2,3:2:0:0:
487,307,119692,1,10,0:2:0:0:
487,307,119865,1,2,0:2:0:0:
256,295,120039,6,0,P|180:319|70:337,2,167.999994873047,6|8|2,3:2|0:2|3:2,0:0:0:0:
164,230,120906,1,2,3:2:0:0:
314,371,121079,1,10,0:2:0:0:
407,243,121252,6,0,P|433:198|387:100,1,167.999994873047,6|2,3:2|3:2,0:0:0:0:
262,200,121773,1,8,0:2:0:0:
273,24,121946,2,0,P|283:69|294:132,1,83.9999974365235,2|0,3:2|0:0,0:0:0:0:
164,230,122293,1,2,3:2:0:0:
164,230,122466,2,0,P|118:220|57:208,1,83.9999974365235,10|2,0:2|3:2,0:0:0:0:
212,347,122813,5,6,3:2:0:0:
301,319,122987,1,2,0:2:0:0:
390,291,123160,1,10,0:2:0:0:
297,192,123333,6,0,B|206:187|242:120|122:137,1,167.999994873047,2|2,3:2|3:2,0:0:0:0:
296,92,123854,1,10,0:2:0:0:
164,230,124027,6,0,B|166:280|194:323|194:323|157:339|139:391,1,167.999994873047,6|2,3:2|3:2,0:0:0:0:
279,209,124547,1,10,0:2:0:0:
63,155,124721,2,0,P|113:142|163:130,1,83.9999974365235,2|0,3:2|0:0,0:0:0:0:
266,45,125067,1,2,3:2:0:0:
266,45,125241,2,0,P|216:32|167:10,1,83.9999974365235,10|2,0:2|0:2,0:0:0:0:
365,158,125588,6,0,P|418:177|475:287,1,167.999994873047,6|10,3:2|0:2,0:0:0:0:
350,374,126108,2,0,P|341:331|319:279,1,83.9999974365235,2|0,3:2|0:0,0:0:0:0:
234,151,126455,2,0,P|219:190|210:231,1,83.9999974365235,2|10,3:2|0:2,0:0:0:0:
0,376,126802,6,0,B|51:341|51:341|101:365|160:389,1,167.999994873047,2|0,3:2|3:2,0:0:0:0:
209,231,127322,2,0,P|159:245|99:251,1,83.9999974365235,10|0,0:2|3:2,0:0:0:0:
317,180,127669,1,2,0:2:0:0:
224,325,127842,1,2,3:2:0:0:
378,282,128015,2,0,P|395:351|400:397,1,83.9999974365235,8|0,0:2|0:0,0:0:0:0:
209,231,128362,6,0,P|221:144|222:59,1,167.999994873047,6|10,3:2|0:2,0:0:0:0:
317,179,128883,2,0,P|371:165|423:153,1,83.9999974365235,2|0,3:2|0:0,0:0:0:0:
222,63,129229,1,2,3:2:0:0:
222,63,129403,1,10,0:2:0:0:
343,274,129576,6,0,P|292:217|202:237,1,167.999994873047,6|0,3:2|3:2,0:0:0:0:
58,102,130096,1,8,0:2:0:0:
58,102,130270,2,0,P|106:92|237:57,1,167.999994873047,0|2,3:2|3:2,0:0:0:0:
317,179,130790,1,10,0:2:0:0:
404,80,130963,1,2,0:2:0:0:
215,165,131137,6,0,P|235:231|262:361,2,167.999994873047,6|8|2,3:2|0:2|3:2,0:0:0:0:
245,55,132004,1,2,3:2:0:0:
109,183,132177,1,10,0:2:0:0:
324,211,132351,6,0,P|402:178|421:91,1,167.999994873047,6|2,3:2|3:2,0:0:0:0:
215,165,132871,1,10,0:2:0:0:
308,35,133044,2,0,P|320:71|331:142,1,83.9999974365235,6|0,3:2|0:0,0:0:0:0:
190,329,133391,2,0,P|202:199|215:159,1,167.999994873047,6|0,3:2|0:0,0:0:0:0:
287,361,133911,5,2,1:2:0:0:
85,276,134085,1,2,1:2:0:0:
301,214,134258,1,2,1:2:0:0:
120,139,134432,2,0,P|79:148|38:158,1,83.9999974365235,6|0,3:2|3:2,0:0:0:0:
163,46,134778,1,2,0:0:0:0:
217,271,134952,5,6,3:2:0:0:
307,85,135126,1,2,3:2:0:0:
364,285,135299,1,2,3:2:0:0:
489,113,135473,2,0,P|448:122|407:133,1,83.9999974365235,6|0,3:2|3:2,0:0:0:0:
239,7,135819,1,2,0:2:0:0:
301,214,135992,5,10,1:2:0:0:
301,214,136166,2,0,P|306:306|316:364,1,125.999996154785,10|0,1:2|0:0,0:0:0:0:
222,384,136513,6,0,P|222:338|199:127,1,239.999992675781,6|0,3:2|0:0,0:0:0:0:
