osu file format v14

[General]
AudioFilename: audio.mp3
AudioLeadIn: 0
PreviewTime:64027
Countdown: 0
SampleSet: Soft
StackLeniency: 0.7
Mode: 0
LetterboxInBreaks: 0
WidescreenStoryboard: 1

[Editor]
Bookmarks: 29865,111195
DistanceSpacing: 1.5
BeatDivisor: 4
GridSize: 8
TimelineZoom: 1.5

[Metadata]
Title:Ashita e no Kodou -Opening size-
TitleUnicode:明日への鼓動 -Opening size-
Artist:Falcom Sound Team jdk feat. Kotera Kanako
ArtistUnicode:Falcom Sound Team jdk feat. 小寺可南子
Creator:KennethBBG
Version:Hard
Source:英雄伝説 閃の軌跡
Tags:sanairrt The Legend of Heroes: Trails Cold Steel Eiyuu Densetsu: Sen No Kiseki KOTECANA band Opening Op 1 j pop rock j-pop j-rock japanese video game OST female vocal vocalist
BeatmapID:3905077
BeatmapSetID:1894901

[Difficulty]
HPDrainRate:5
CircleSize:3.7
OverallDifficulty:6.5
ApproachRate:7.5
SliderMultiplier:1.3
SliderTickRate:1

[Events]
//Background and Video events
0,0,"Background.jpg",0,0
Video,1167,"kodou background video .mp4"
//Break Periods
//Storyboard Layer 0 (Background)
//Storyboard Layer 1 (Fail)
//Storyboard Layer 2 (Pass)
//Storyboard Layer 3 (Foreground)
//Storyboard Layer 4 (Overlay)
//Storyboard Sound Samples

[TimingPoints]
2120,346.820809248555,4,2,1,15,1,0
2120,-166.666666666667,4,2,1,15,0,0
9923,-166.666666666667,4,2,1,35,0,0
10443,-99.9999999999999,4,2,1,60,0,0
16686,-99.9999999999999,4,2,1,70,0,0
17726,-95.2380952380952,4,2,1,70,0,0
18767,-142.857142857143,4,2,1,35,0,0
27091,-125,4,2,1,35,0,0
28304,-125,4,2,1,45,0,0
29865,-111.111111111111,4,2,1,45,0,0
38189,-117.647058823529,4,2,1,53,0,0
39403,-117.647058823529,4,2,1,60,0,0
39750,-100,4,2,1,60,0,0
40096,-86.9565217391304,4,2,1,60,0,0
40443,-86.9565217391304,4,2,1,40,0,0
40963,-133.333333333333,4,2,1,35,0,0
46513,-133.333333333333,4,2,1,35,0,0
54836,-117.647058823529,4,2,1,35,0,0
55703,-117.647058823529,4,2,1,40,0,0
57611,-105.263157894737,4,2,1,45,0,0
60385,-90.9090909090909,4,2,1,45,0,0
62466,-90.9090909090909,4,2,1,55,0,0
62987,-90.9090909090909,4,2,1,60,0,0
64027,-100,4,2,1,35,0,0
64547,-100,4,2,1,65,0,1
78420,-83.3333333333333,4,2,1,65,0,1
80328,-100,4,2,1,65,0,1
83969,-100,4,2,1,70,0,1
85183,-86.9565217391304,4,2,1,75,0,1
85443,-86.9565217391304,4,2,1,5,0,1
85530,-86.9565217391304,4,2,1,75,0,1
85790,-86.9565217391304,4,2,1,5,0,1
85877,-86.9565217391304,4,2,1,75,0,1
86050,-86.9565217391304,4,2,1,55,0,1
86224,-100,4,2,1,55,0,1
86744,-100,4,2,1,65,0,1
92293,-86.9565217391304,4,2,1,65,0,1
94027,-100,4,2,1,65,0,1
100617,-100,4,2,1,70,0,1
101137,-100,4,2,1,75,0,1
101830,-100,4,2,1,75,0,1
102177,-100,4,2,1,55,0,1
103391,-86.9565217391304,4,2,1,65,0,1
108767,-83.3333333333333,4,2,1,65,0,1
109461,-76.9230769230769,4,2,1,65,0,1
110154,-76.9230769230769,4,2,1,65,0,1
112235,-76.9230769230769,4,2,1,65,0,1
112929,-71.4285714285714,4,2,1,65,0,1
113796,-71.4285714285714,4,2,1,65,0,1
114489,-100,4,2,1,55,0,0
124981,-100,4,2,1,55,0,0
125241,-100,4,2,1,55,0,0
125588,-100,4,2,1,60,0,0
131830,-100,4,2,1,65,0,0
133911,-100,4,2,1,70,0,0
137206,-100,4,2,1,70,0,0
137380,-100,4,2,1,5,0,0

[Colours]
Combo1 : 255,213,85
Combo2 : 255,89,89
Combo3 : 83,160,255
Combo4 : 137,91,164

[HitObjects]
339,242,10443,6,0,P|250:225|194:213,1,130,6|10,3:2|0:2,0:0:0:0:
192,319,10963,2,0,P|245:329|334:350,1,130,2|2,0:2|3:2,0:0:0:0:
424,326,11483,1,10,0:2:0:0:
424,326,11657,2,0,B|430:247|383:263|393:187,1,130,2|0,3:2|3:2,0:0:0:0:
324,123,12177,2,0,P|269:131|185:138,1,130,10|2,0:2|0:2,0:0:0:0:
110,75,12697,2,0,P|114:42|119:10,1,65,2|8,3:2|0:2,0:0:0:0:
316,10,13217,6,0,P|381:60|444:41,1,130,6|10,3:2|0:2,0:0:0:0:
497,118,13738,2,0,P|491:158|477:255,1,130,2|2,3:2|3:2,0:0:0:0:
512,328,14258,1,10,0:2:0:0:
422,384,14432,2,0,P|334:368|275:357,1,130,6|0,3:2|3:2,0:0:0:0:
197,384,14951,1,8,0:2:0:0:
197,384,15125,2,0,P|222:316|200:266,1,130,0|2,3:2|3:2,0:0:0:0:
184,185,15645,1,10,0:2:0:0:
184,185,15818,1,0,0:0:0:0:
288,126,15992,6,0,P|300:65|323:-14,1,130,6|8,3:2|0:2,0:0:0:0:
160,34,16685,2,0,L|175:114,1,65,2|2,3:2|3:2,0:0:0:0:
184,185,17032,1,10,0:2:0:0:
227,307,17206,2,0,P|175:270|109:283,1,130,6|2,3:2|3:2,0:0:0:0:
21,271,17726,1,10,0:2:0:0:
81,162,17899,2,0,P|89:120|94:86,1,68.2499979171754,6|0,3:2|0:0,0:0:0:0:
22,34,18246,2,0,P|61:5|151:24,1,136.499995834351,6|0,3:2|0:0,0:0:0:0:
202,89,18767,5,4,3:2:0:0:
202,89,18940,2,0,P|256:99|342:122,1,136.499995834351,0|2,3:2|0:2,0:0:0:0:
485,107,19807,2,0,L|495:174,1,45.4999986114502,2|2,0:2|0:2,0:0:0:0:
498,235,20154,6,0,P|489:289|486:344,1,90.9999972229005,0|0,3:2|0:0,0:0:0:0:
416,377,20674,2,0,P|393:375|371:369,1,45.4999986114502,2|2,0:2|0:2,0:0:0:0:
327,289,21021,2,0,P|287:267|244:276,1,90.9999972229005,2|2,0:2|0:2,0:0:0:0:
167,333,21541,6,0,P|157:285|155:235,1,90.9999972229005,2|2,3:2|0:2,0:0:0:0:
120,148,22062,1,2,0:2:0:0:
270,71,22409,2,0,L|279:126,2,45.4999986114502,2|2|2,0:2|0:2|0:2,0:0:0:0:
205,19,22929,2,0,B|101:2|123:74|21:54,1,181.999994445801,0|0,3:2|0:0,0:0:0:0:
25,204,23969,2,0,P|30:235|31:265,1,45.4999986114502,2|2,0:2|0:2,0:0:0:0:
22,337,24316,5,2,3:2:0:0:
22,337,24489,2,0,B|63:362|120:339,1,90.9999972229005,0|2,3:2|0:2,0:0:0:0:
240,297,25183,1,2,0:2:0:0:
240,297,25356,2,0,L|234:232,1,45.4999986114502,2|2,0:2|0:2,0:0:0:0:
192,173,25703,6,0,P|201:117|208:73,1,90.9999972229005,2|0,3:2|0:0,0:0:0:0:
269,31,26224,2,0,P|314:22|380:79,1,136.499995834351,2|0,0:2|0:0,0:0:0:0:
495,192,27091,5,2,3:2:0:0:
495,192,27264,2,0,P|503:249|504:265,1,52,2|2,3:2|0:2,0:0:0:0:
428,287,27611,2,0,P|403:281|378:276,1,52,2|0,3:2|0:0,0:0:0:0:
440,384,27958,2,0,P|465:375|491:373,1,52,2|0,3:2|0:0,0:0:0:0:
354,362,28304,5,2,3:2:0:0:
235,280,28651,1,2,3:2:0:0:
123,381,28998,1,2,3:2:0:0:
0,28,29865,6,0,B|90:31|44:78|165:69,1,175.499994644165,4|2,3:2|0:2,0:0:0:0:
250,86,30559,2,0,P|243:39|238:10,1,58.4999982147217,2|2,3:2|3:2,0:0:0:0:
327,3,30906,1,10,0:2:0:0:
327,3,31079,1,2,0:2:0:0:
390,74,31252,6,0,P|381:122|367:195,1,116.999996429443,0|8,3:2|0:2,0:0:0:0:
439,254,31773,2,0,P|406:234|335:265,1,116.999996429443,2|2,3:2|3:2,0:0:0:0:
239,265,32293,2,0,P|234:241|227:199,1,58.4999982147217,8|2,0:2|0:2,0:0:0:0:
151,154,32640,5,2,3:2:0:0:
151,154,32813,2,0,P|135:191|154:264,1,116.999996429443,2|2,0:2|0:2,0:0:0:0:
207,327,33333,2,0,L|195:390,1,58.4999982147217,0|2,3:2|3:2,0:0:0:0:
284,375,33680,1,10,0:2:0:0:
346,322,33854,6,0,B|431:306|421:384|523:353,1,175.499994644165,2|8,3:2|0:2,0:0:0:0:
482,269,34547,2,0,L|466:137,1,116.999996429443,0|2,3:2|3:2,0:0:0:0:
500,77,35067,1,10,0:2:0:0:
365,186,35414,6,0,P|322:200|251:172,1,116.999996429443,6|10,3:2|0:2,0:0:0:0:
185,118,35935,1,2,0:2:0:0:
135,201,36108,2,0,P|142:235|146:267,1,58.4999982147217,0|2,3:2|3:2,0:0:0:0:
231,308,36455,2,0,P|225:331|218:374,1,58.4999982147217,10|2,0:2|0:2,0:0:0:0:
118,384,36802,6,0,L|-8:359,1,116.999996429443,2|8,3:2|0:2,0:0:0:0:
0,275,37322,2,0,P|-2:227|52:169,1,116.999996429443,2|2,3:2|3:2,0:0:0:0:
123,160,37842,2,0,P|117:125|112:91,1,58.4999982147217,10|2,0:2|0:2,0:0:0:0:
107,11,38189,6,0,P|164:22|231:14,1,110.50000210762,6|8,3:2|0:2,0:0:0:0:
284,82,38709,2,0,B|342:74|328:48|386:40,1,110.50000210762,4|2,3:2|3:2,0:0:0:0:
460,64,39229,1,8,0:2:0:0:
432,159,39403,5,6,3:2:0:0:
512,277,39750,1,0,3:2:0:0:
512,277,39923,1,8,0:0:0:0:
465,350,40096,2,0,P|416:342|377:331,1,74.7500014257431,0|0,3:2|0:0,0:0:0:0:
303,267,40443,1,2,3:2:0:0:
303,267,40617,2,0,P|352:259|391:248,1,74.7500014257431,10|2,0:2|3:2,0:0:0:0:
308,160,40963,6,0,P|269:192|176:183,2,146.250005578995,6|2|0,3:2|3:2|0:0,0:0:0:0:
264,17,42351,2,0,P|202:12|137:79,2,146.250005578995,0|0|2,3:2|3:2|0:2,0:0:0:0:
86,143,43738,6,0,L|69:257,1,97.50000371933,2|2,3:2|0:2,0:0:0:0:
112,317,44258,2,0,P|159:322|206:295,1,97.50000371933,2|2,3:2|0:2,0:0:0:0:
304,384,44952,6,0,P|355:348|404:354,1,97.50000371933,2|2,3:2|3:2,0:0:0:0:
470,337,45472,2,0,P|501:314|504:201,1,146.250005578995,2|2,0:2|3:2,0:0:0:0:
473,145,46166,1,10,0:2:0:0:
414,19,46513,6,0,P|372:29|300:44,1,97.50000371933,6|0,3:2|0:0,0:0:0:0:
240,18,47033,2,0,P|267:59|264:105,1,97.50000371933,2|0,3:2|0:0,0:0:0:0:
193,156,47553,2,0,P|202:194|204:223,1,48.750001859665
172,280,47900,6,0,P|109:265|69:257,1,97.50000371933,2|0,3:2|0:0,0:0:0:0:
46,341,48420,2,0,P|93:351|141:362,1,97.50000371933,2|0,3:2|0:0,0:0:0:0:
225,353,48940,1,2,0:2:0:0:
375,382,49287,6,0,B|358:352|358:352|371:281,1,97.50000371933,2|0,3:2|0:0,0:0:0:0:
431,236,49807,2,0,B|447:206|447:206|434:135,1,97.50000371933,2|0,3:2|0:0,0:0:0:0:
415,64,50328,1,10,0:2:0:0:
286,6,50674,6,0,P|229:15|177:20,1,97.50000371933,0|0,3:2|0:0,0:0:0:0:
96,25,51195,2,0,P|131:74|118:127,1,97.50000371933,0|2,3:2|3:2,0:0:0:0:
52,152,51715,2,0,L|59:243,1,48.750001859665,10|2,0:2|3:2,0:0:0:0:
117,280,52062,6,0,P|188:284|246:242,2,146.250005578995,6|2|0,3:2|3:2|0:0,0:0:0:0:
334,384,53450,2,0,P|327:312|368:253,2,146.250005578995,0|0|2,3:2|3:2|0:2,0:0:0:0:
512,310,54836,6,0,L|506:194,1,110.50000210762,2|2,3:2|0:2,0:0:0:0:
471,129,55356,2,0,P|442:124|413:137,1,55.2500010538101,2|0,3:2|0:0,0:0:0:0:
358,185,55703,2,0,P|329:190|300:177,1,55.2500010538101,2|8,0:2|0:2,0:0:0:0:
241,125,56050,6,0,B|170:126|206:159|124:156,1,110.50000210762,2|2,3:2|3:2,0:0:0:0:
80,215,56570,1,10,0:2:0:0:
80,215,56744,2,0,P|50:169|62:116,1,110.50000210762,0|2,3:2|3:2,0:0:0:0:
104,48,57264,1,10,0:2:0:0:
104,48,57437,1,2,0:2:0:0:
210,24,57611,6,0,P|273:41|334:52,1,123.499996702194,6|10,3:2|0:2,0:0:0:0:
400,103,58131,2,0,P|411:137|416:172,1,61.7499983510972,2|0,0:2|3:2,0:0:0:0:
490,223,58478,1,2,3:2:0:0:
490,223,58651,1,8,0:2:0:0:
441,326,58825,6,0,P|404:285|331:300,1,123.499996702194,2|2,3:2|3:2,0:0:0:0:
298,367,59345,2,0,P|227:356|162:351,1,123.499996702194,8|0,0:2|0:0,0:0:0:0:
91,316,59865,1,2,3:2:0:0:
145,237,60039,1,10,0:2:0:0:
145,237,60212,1,2,0:2:0:0:
68,185,60385,6,0,B|40:106|86:121|61:38,1,143.000004364014,2|10,3:2|0:2,0:0:0:0:
145,48,60906,2,0,P|175:39|230:28,1,71.5000021820069,2|0,3:2|3:2,0:0:0:0:
246,100,61252,2,0,P|281:107|315:117,1,71.5000021820069,2|8,3:2|0:2,0:0:0:0:
279,202,61599,6,0,B|265:292|228:249|221:347,1,143.000004364014,2|2,3:2|3:2,0:0:0:0:
310,334,62120,2,0,P|345:326|379:316,1,71.5000021820069,10|0,0:2|0:0,0:0:0:0:
460,285,62466,5,2,3:2:0:0:
404,216,62640,1,2,3:2:0:0:
457,149,62813,1,10,0:2:0:0:
394,72,62987,5,6,3:2:0:0:
275,0,63333,1,14,3:2:0:0:
179,111,63680,1,6,3:2:0:0:
21,53,64547,6,0,P|87:38|154:28,1,130,6|10,3:2|0:2,0:0:0:0:
232,78,65067,2,0,P|262:124|238:193,1,130,2|2,0:2|3:2,0:0:0:0:
148,226,65588,1,8,0:2:0:0:
221,315,65761,6,0,P|308:299|372:285,1,130,2|0,3:2|3:2,0:0:0:0:
445,299,66281,1,10,0:2:0:0:
479,207,66455,2,0,P|473:164|463:123,1,65,2|0,3:2|0:0,0:0:0:0:
382,96,66802,2,0,P|374:138|366:180,1,65,2|8,3:2|0:2,0:0:0:0:
286,209,67148,1,2,0:2:0:0:
245,109,67322,6,0,P|190:101|119:143,1,130,4|10,3:2|0:2,0:0:0:0:
75,218,67842,2,0,P|83:259|87:291,1,65,2|0,3:2|0:0,0:0:0:0:
165,347,68189,2,0,P|169:314|176:282,1,65,2|8,3:2|0:2,0:0:0:0:
273,339,68536,6,0,B|348:329|324:292|393:281,1,130,2|0,3:2|3:2,0:0:0:0:
434,196,69056,1,8,0:2:0:0:
512,256,69229,2,0,L|492:402,1,130,0|2,3:2|3:2,0:0:0:0:
407,348,69750,1,10,0:2:0:0:
407,348,69923,1,2,0:2:0:0:
311,292,70096,6,0,P|302:228|289:136,1,130,6|10,3:2|0:2,0:0:0:0:
216,101,70617,2,0,P|272:118|330:68,1,130,2|2,3:2|3:2,0:0:0:0:
386,0,71138,1,8,0:2:0:0:
456,83,71310,6,0,B|466:101|485:125|485:125|471:167|456:219,1,130,6|0,3:2|3:2,0:0:0:0:
379,253,71830,2,0,P|347:246|315:241,1,65,10|0,0:2|0:2,0:0:0:0:
238,302,72177,2,0,P|229:335|226:368,1,65,2|0,3:2|3:2,0:0:0:0:
132,335,72524,2,0,P|128:302|120:271,1,65,10|0,0:2|3:2,0:0:0:0:
11,250,72871,6,0,P|68:241|148:230,1,130,6|10,3:2|0:2,0:0:0:0:
192,149,73391,2,0,P|135:140|55:129,1,130,2|0,3:2|3:2,0:0:0:0:
8,49,73911,1,8,0:2:0:0:
106,0,74085,6,0,P|163:47|222:40,1,130,4|0,3:2|3:2,0:0:0:0:
303,0,74605,1,8,0:2:0:0:
298,97,74778,2,0,P|289:136|272:234,1,130,0|2,3:2|3:2,0:0:0:0:
329,311,75299,1,10,0:2:0:0:
329,311,75472,1,2,0:2:0:0:
438,296,75646,6,0,P|456:215|433:167,1,130,6|10,3:2|0:2,0:0:0:0:
376,99,76166,2,0,P|335:105|226:127,1,130,2|2,0:2|3:2,0:0:0:0:
165,69,76686,1,8,0:2:0:0:
93,134,76859,6,0,P|104:194|122:285,1,130,2|0,0:2|3:2,0:0:0:0:
68,347,77380,1,10,0:2:0:0:
161,379,77553,2,0,P|192:372|224:367,1,65,2|0,3:2|0:0,0:0:0:0:
279,285,77900,2,0,P|246:279|215:273,1,65,2|8,3:2|0:2,0:0:0:0:
22,102,78420,6,0,B|47:65|96:64|96:64|119:98|155:101,1,155.999995239258,6|10,3:2|0:2,0:0:0:0:
238,21,78940,2,0,P|188:12|144:34,1,77.999997619629,2|0,3:2|0:0,0:0:0:0:
236,111,79287,2,0,B|280:101|321:92,1,77.999997619629,2|8,3:2|0:2,0:0:0:0:
420,50,79634,6,0,P|364:106|406:172,1,155.999995239258,6|0,3:2|3:2,0:0:0:0:
484,160,80154,1,8,0:2:0:0:
509,250,80328,2,0,P|491:340|482:398,1,130,0|2,3:2|3:2,0:0:0:0:
396,333,80848,1,10,0:2:0:0:
396,333,81021,1,2,0:2:0:0:
281,379,81195,6,0,P|209:368|138:352,1,130,6|10,3:2|0:2,0:0:0:0:
55,317,81715,2,0,P|117:330|168:286,1,130,2|0,0:2|3:2,0:0:0:0:
133,198,82235,2,0,P|124:159|120:127,1,65,8|2,0:2|0:2,0:0:0:0:
189,40,82582,6,0,P|233:49|277:56,1,65,6|0,3:2|3:2,0:0:0:0:
327,115,82929,2,0,P|358:109|390:102,1,65,10|0,0:2|0:0,0:0:0:0:
473,49,83276,2,0,P|487:88|477:129,1,65,2|0,0:2|3:2,0:0:0:0:
421,184,83622,2,0,P|406:223|416:264,1,65,10|0,0:2|3:2,0:0:0:0:
394,362,83969,6,0,P|359:324|285:334,1,130,6|8,3:2|0:2,0:0:0:0:
188,334,84489,2,0,B|186:288|219:262|219:262|225:234|196:197,1,130,0|0,3:2|3:2,0:0:0:0:
139,148,85010,1,10,0:2:0:0:
198,76,85183,6,0,P|261:90|320:105,1,112.125002138615,6|0,3:2|0:0,0:0:0:0:
337,99,85530,2,0,P|360:148|338:198,1,112.125002138615,6|0,3:2|0:0,0:0:0:0:
323,224,85877,2,0,L|301:383,1,149.500002851486,6|2,3:2|3:2,0:0:0:0:
222,342,86397,1,10,0:2:0:0:
222,342,86570,1,2,0:2:0:0:
160,241,86744,6,0,P|169:176|184:113,1,130,6|10,3:2|0:2,0:0:0:0:
252,42,87264,2,0,P|193:65|138:33,1,130,2|2,0:2|3:2,0:0:0:0:
45,2,87785,1,8,0:2:0:0:
20,96,87958,6,0,P|36:183|50:247,1,130,2|0,3:2|3:2,0:0:0:0:
22,318,88478,1,10,0:2:0:0:
94,383,88652,2,0,P|136:377|177:367,1,65,2|0,3:2|0:0,0:0:0:0:
205,286,88999,2,0,P|163:278|121:270,1,65,2|8,3:2|0:2,0:0:0:0:
118,179,89345,1,2,0:2:0:0:
215,112,89519,6,0,P|270:104|321:159,1,130,4|10,3:2|0:2,0:0:0:0:
272,238,90039,2,0,P|280:279|284:311,1,65,2|0,3:2|0:0,0:0:0:0:
366,371,90386,2,0,P|370:338|377:306,1,65,2|8,3:2|0:2,0:0:0:0:
427,215,90733,6,0,B|437:140|474:164|485:95,1,130,2|0,3:2|3:2,0:0:0:0:
422,29,91253,1,8,0:2:0:0:
332,62,91426,2,0,L|312:208,1,130,0|2,3:2|0:2,0:0:0:0:
219,202,91947,1,10,0:2:0:0:
219,202,92120,1,2,0:2:0:0:
116,162,92293,6,0,P|107:98|90:-9,1,149.500002851486,6|10,3:2|0:2,0:0:0:0:
185,87,92814,2,0,P|241:104|299:32,1,149.500002851486,2|2,0:2|3:2,0:0:0:0:
380,0,93333,1,8,0:2:0:0:
469,67,93507,6,0,B|479:85|498:109|498:109|484:151|465:212,1,149.500002851486,6|0,3:2|3:2,0:0:0:0:
390,261,94027,2,0,P|358:254|326:249,1,65,10|0,0:2|3:2,0:0:0:0:
246,306,94374,2,0,P|237:339|234:372,1,65,2|0,3:2|3:2,0:0:0:0:
142,333,94721,2,0,P|138:300|130:269,1,65,10|0,0:2|3:2,0:0:0:0:
36,239,95068,6,0,P|93:230|173:219,1,130,6|10,3:2|0:2,0:0:0:0:
226,144,95588,2,0,P|283:153|363:164,1,130,2|0,3:2|3:2,0:0:0:0:
428,98,96108,1,8,0:2:0:0:
388,0,96282,6,0,P|331:47|272:40,1,130,4|0,3:2|3:2,0:0:0:0:
190,23,96802,1,8,0:2:0:0:
121,77,96975,2,0,P|130:116|147:214,1,130,0|2,3:2|3:2,0:0:0:0:
119,301,97496,1,10,0:2:0:0:
119,301,97669,1,2,0:2:0:0:
210,374,97843,6,0,P|290:355|339:379,1,130,6|10,3:2|0:2,0:0:0:0:
418,328,98363,2,0,P|412:287|390:178,1,130,2|2,0:2|3:2,0:0:0:0:
471,138,98883,1,10,0:2:0:0:
403,59,99056,6,0,P|339:71|275:83,1,130,2|0,0:2|3:2,0:0:0:0:
192,43,99577,1,10,0:2:0:0:
140,116,99750,2,0,P|132:157|124:199,1,65,2|0,3:2|0:0,0:0:0:0:
201,235,100097,2,0,P|206:202|212:171,1,65,2|8,3:2|0:2,0:0:0:0:
26,365,100617,6,0,P|93:351|198:336,1,130,6|2,3:2|1:2,0:0:0:0:
244,311,101137,1,2,1:2:0:0:
365,384,101484,1,2,1:2:0:0:
499,298,101830,6,0,P|472:239|379:245,1,130,6|0,3:2|3:2,0:0:0:0:
365,151,102351,1,8,0:2:0:0:
274,149,102524,2,0,B|263:198|247:312,1,130,0|2,3:2|3:2,0:0:0:0:
176,250,103044,1,10,0:2:0:0:
176,250,103218,1,2,0:2:0:0:
82,302,103391,6,0,P|45:292|8:291,1,74.7500014257431,6|2,3:2|0:2,0:0:0:0:
0,209,103738,2,0,P|6:137|71:108,1,149.500002851486,8|0,0:2|3:2,0:0:0:0:
147,143,104258,1,2,0:2:0:0:
147,143,104432,1,10,0:2:0:0:
269,109,104605,6,0,L|244:274,1,149.500002851486,6|2,3:2|3:2,0:0:0:0:
338,274,105125,1,10,0:2:0:0:
338,274,105299,2,0,P|386:262|435:254,1,74.7500014257431,2|0,3:2|0:0,0:0:0:0:
485,212,105646,1,0,3:2:0:0:
512,134,105819,2,0,P|478:121|440:112,1,74.7500014257431,8|0,0:2|0:0,0:0:0:0:
402,10,106166,6,0,P|345:55|272:48,1,149.500002851486,6|10,3:2|0:2,0:0:0:0:
179,34,106686,2,0,P|188:70|196:106,1,74.7500014257431,2|0,0:2|3:2,0:0:0:0:
237,181,107033,1,2,3:2:0:0:
237,181,107206,1,10,0:2:0:0:
185,272,107380,6,0,P|113:254|38:247,1,149.500002851486,6|2,3:2|3:2,0:0:0:0:
64,333,107900,1,10,0:2:0:0:
64,333,108073,2,0,P|104:338|150:351,1,74.7500014257431,2|0,3:2|0:0,0:0:0:0:
224,359,108420,5,2,3:2:0:0:
224,359,108593,1,10,0:2:0:0:
333,356,108767,2,0,P|341:306|349:271,1,77.999997619629,6|0,3:2|0:0,0:0:0:0:
377,196,109114,1,2,3:2:0:0:
377,196,109287,1,10,0:2:0:0:
273,157,109461,2,0,P|265:107|255:64,1,84.4999961318971,6|0,3:2|0:0,0:0:0:0:
189,12,109807,5,2,3:2:0:0:
189,12,109981,1,10,0:2:0:0:
297,59,110154,2,0,P|378:73|431:7,1,168.999992263794,6|0,3:2|3:2,0:0:0:0:
490,94,110674,2,0,P|497:135|507:176,2,84.4999961318971,8|0|8,0:2|3:2|0:2,0:0:0:0:
418,154,111195,5,2,3:2:0:0:
418,154,111368,1,10,0:2:0:0:
352,242,111541,2,0,P|313:233|260:225,1,84.4999961318971,6|0,3:2|0:0,0:0:0:0:
280,128,111889,1,2,3:2:0:0:
280,128,112062,1,10,0:2:0:0:
173,171,112235,2,0,P|134:179|77:188,1,84.4999961318971,6|0,3:2|0:0,0:0:0:0:
0,123,112582,5,2,3:2:0:0:
1,123,112755,1,10,0:2:0:0:
63,206,112929,2,0,L|26:392,1,181.999994445801,6|0,3:2|3:2,0:0:0:0:
129,369,113449,2,0,P|139:316|153:256,1,90.9999972229005,8|0,0:2|3:2,0:0:0:0:
237,257,113796,1,8,0:2:0:0:
237,257,113883,1,8,0:2:0:0:
237,257,113969,1,2,1:2:0:0:
267,344,114143,2,0,P|313:338|379:331,1,90.9999972229005,6|2,3:2|0:2,0:0:0:0:
441,294,114489,6,0,P|497:321|508:395,2,130,6|8|2,3:2|0:2|3:2,0:0:0:0:
381,233,115356,1,2,3:2:0:0:
458,192,115530,2,0,L|451:119,1,65,10|2,0:2|3:2,0:0:0:0:
390,61,115877,2,0,P|320:70|234:79,1,130,0|10,0:0|0:2,0:0:0:0:
160,129,116397,2,0,P|169:30|136:-1,1,130,2|2,3:2|3:2,0:0:0:0:
62,8,116917,1,8,0:2:0:0:
32,169,117264,6,0,B|103:175|79:215|153:225,1,130,6|10,3:2|0:2,0:0:0:0:
240,192,117784,2,0,P|231:258|228:284,1,65,2|2,3:2|0:0,0:0:0:0:
298,325,118131,1,2,3:2:0:0:
298,325,118304,1,10,0:2:0:0:
370,277,118478,2,0,P|363:214|352:140,1,130,2|2,3:2|3:2,0:0:0:0:
390,73,118998,1,10,0:2:0:0:
390,73,119172,2,0,P|355:114|278:99,1,130,2|2,3:2|3:2,0:0:0:0:
229,48,119692,1,10,0:2:0:0:
229,48,119865,1,2,0:2:0:0:
158,115,120039,6,0,P|174:186|185:267,2,130,6|8|2,3:2|0:2|3:2,0:0:0:0:
101,50,120906,1,2,3:2:0:0:
25,101,121079,1,10,0:2:0:0:
92,179,121252,2,0,P|84:220|64:320,1,130,6|2,3:2|3:2,0:0:0:0:
7,372,121773,1,8,0:2:0:0:
107,335,121946,2,0,P|186:314|238:356,1,130,2|2,3:2|3:2,0:0:0:0:
316,375,122466,1,10,0:2:0:0:
316,375,122640,1,2,3:2:0:0:
396,299,122813,6,0,P|383:248|379:210,1,65,6|2,3:2|0:2,0:0:0:0:
427,157,123160,1,10,0:2:0:0:
336,158,123333,2,0,P|270:152|182:142,1,130,2|2,3:2|3:2,0:0:0:0:
134,96,123854,1,10,0:2:0:0:
134,96,124027,2,0,P|197:111|252:66,1,130,6|2,3:2|3:2,0:0:0:0:
313,6,124547,1,10,0:2:0:0:
313,6,124721,2,0,P|320:47|337:150,1,130,2|2,3:2|3:2,0:0:0:0:
420,179,125241,1,10,0:2:0:0:
420,179,125414,1,2,0:2:0:0:
438,307,125588,6,0,P|349:290|293:278,1,130,6|10,3:2|0:2,0:0:0:0:
250,352,126108,2,0,P|186:364|122:379,1,130,2|2,3:2|3:2,0:0:0:0:
37,338,126628,1,10,0:2:0:0:
37,338,126802,2,0,P|83:260|31:194,1,130,2|0,3:2|3:2,0:0:0:0:
64,140,127322,2,0,B|144:136|107:183|238:174,1,130,10|2,0:2|0:2,0:0:0:0:
181,91,127842,2,0,P|185:58|190:26,1,65,2|8,3:2|0:2,0:0:0:0:
357,80,128362,6,0,P|422:30|485:49,1,130,6|10,3:2|0:2,0:0:0:0:
437,123,128883,2,0,P|431:163|417:260,1,130,2|2,3:2|3:2,0:0:0:0:
485,321,129403,1,10,0:2:0:0:
394,384,129576,2,0,B|316:340|316:340|247:357,1,130,6|0,3:2|3:2,0:0:0:0:
210,277,130096,1,8,0:2:0:0:
210,277,130270,2,0,P|225:202|241:139,1,130,0|2,3:2|3:2,0:0:0:0:
296,77,130790,1,10,0:2:0:0:
296,77,130963,1,2,0:2:0:0:
196,16,131137,6,0,P|140:44|85:14,1,130,6|8,3:2|0:2,0:0:0:0:
22,198,131830,2,0,L|36:269,1,65,2|2,3:2|3:2,0:0:0:0:
2,354,132177,1,10,0:2:0:0:
118,379,132351,2,0,P|183:368|247:354,1,130,6|2,3:2|3:2,0:0:0:0:
329,304,132871,1,10,0:2:0:0:
265,217,133044,2,0,P|223:209|189:204,1,65,6|0,3:2|0:0,0:0:0:0:
139,278,133391,6,0,P|110:239|123:143,1,130,6|0,3:2|0:0,0:0:0:0:
199,92,133911,6,0,L|269:85,1,65,2|2,1:2|1:2,0:0:0:0:
338,28,134258,1,2,1:2:0:0:
387,133,134432,6,0,P|367:214|354:281,1,130,6|2,3:2|0:0,0:0:0:0:
455,239,134952,2,0,P|465:188|473:157,1,65,6|2,3:2|3:2,0:0:0:0:
490,85,135299,1,2,3:2:0:0:
408,11,135472,6,0,P|339:56|277:35,1,130,6|2,3:2|0:2,0:0:0:0:
193,19,135992,1,10,1:2:0:0:
193,19,136166,1,10,1:2:0:0:
54,253,136513,6,0,P|140:159|322:206,1,325,6|0,3:2|0:0,0:0:0:0:
