osu file format v14

[General]
AudioFilename: audio.mp3
AudioLeadIn: 0
PreviewTime: 64027
Countdown: 0
SampleSet: Soft
StackLeniency: 0.7
Mode: 0
LetterboxInBreaks: 0
WidescreenStoryboard: 0

[Editor]
Bookmarks: 111195
DistanceSpacing: 1
BeatDivisor: 4
GridSize: 8
TimelineZoom: 1.5

[Metadata]
Title:Ashita e no Kodou -Opening size-
TitleUnicode:明日への鼓動 -Opening size-
Artist:Falcom Sound Team jdk feat. Kotera Kanako
ArtistUnicode:Falcom Sound Team jdk feat. 小寺可南子
Creator:KennethBBG
Version:Bravery
Source:英雄伝説 閃の軌跡
Tags:sanairrt The Legend of Heroes: Trails Cold Steel Eiyuu Densetsu: Sen No Kiseki KOTECANA band Opening Op 1 j pop rock j-pop j-rock japanese video game OST female vocal vocalist
BeatmapID:3905076
BeatmapSetID:1894901

[Difficulty]
HPDrainRate:6
CircleSize:4
OverallDifficulty:8.5
ApproachRate:9.2
SliderMultiplier:1.7
SliderTickRate:1

[Events]
//Background and Video events
Video,1167,"kodou background video .mp4"
0,0,"Background.jpg",0,0
//Break Periods
//Storyboard Layer 0 (Background)
//Storyboard Layer 1 (Fail)
//Storyboard Layer 2 (Pass)
//Storyboard Layer 3 (Foreground)
//Storyboard Layer 4 (Overlay)
//Storyboard Sound Samples

[TimingPoints]
2120,346.820809248555,4,2,1,15,1,0
2120,-166.666666666667,4,2,1,15,0,0
9923,-166.666666666667,4,2,1,35,0,0
10443,-111.111111111111,4,2,1,60,0,0
16686,-111.111111111111,4,2,1,70,0,0
17726,-95.2380952380952,4,2,1,70,0,0
18767,-200,4,2,1,35,0,0
28304,-200,4,2,1,45,0,0
29865,-133.333333333333,4,2,1,45,0,0
38189,-117.647058823529,4,2,1,53,0,0
39403,-117.647058823529,4,2,1,60,0,0
39663,-117.647058823529,4,2,1,5,0,0
39750,-100,4,2,1,60,0,0
40010,-100,4,2,1,5,0,0
40096,-86.9565217391304,4,2,1,60,0,0
40356,-86.9565217391304,4,2,1,5,0,0
40443,-86.9565217391304,4,2,1,40,0,0
40963,-153.846153846153,4,2,1,35,0,0
46513,-133.333333333333,4,2,1,35,0,0
54836,-117.647058823529,4,2,1,35,0,0
55703,-117.647058823529,4,2,1,40,0,0
57611,-105.263157894737,4,2,1,45,0,0
60385,-90.9090909090909,4,2,1,45,0,0
61859,-90.9090909090909,4,2,1,5,0,0
61946,-90.9090909090909,4,2,1,45,0,0
62466,-90.9090909090909,4,2,1,55,0,0
62987,-90.9090909090909,4,2,1,60,0,0
64027,-100,4,2,1,35,0,0
64547,-100,4,2,1,65,0,1
73131,-100,4,2,1,5,0,1
73218,-100,4,2,1,65,0,1
78420,-83.3333333333333,4,2,1,65,0,1
78680,-83.3333333333333,4,2,1,5,0,1
78767,-83.3333333333333,4,2,1,65,0,1
80328,-100,4,2,1,65,0,1
80588,-100,4,2,1,5,0,1
80674,-100,4,2,1,65,0,1
83969,-100,4,2,1,70,0,1
85183,-100,4,2,1,75,0,1
85443,-100,4,2,1,5,0,1
85530,-86.9565217391304,4,2,1,75,0,1
85790,-86.9565217391304,4,2,1,5,0,1
85877,-76.9230769230769,4,2,1,75,0,1
86050,-76.9230769230769,4,2,1,55,0,1
86137,-76.9230769230769,4,2,1,5,0,1
86224,-100,4,2,1,55,0,1
86744,-100,4,2,1,65,0,1
92293,-86.9565217391304,4,2,1,65,0,1
94027,-100,4,2,1,65,0,1
100617,-83.3333333333333,4,2,1,70,0,1
100877,-83.3333333333333,4,2,1,70,0,1
100964,-83.3333333333333,4,2,1,70,0,1
101137,-83.3333333333333,4,2,1,75,0,1
101830,-83.3333333333333,4,2,1,75,0,1
102177,-83.3333333333333,4,2,1,55,0,1
103391,-86.9565217391304,4,2,1,65,0,1
107640,-86.9565217391304,4,2,1,5,0,1
107726,-86.9565217391304,4,2,1,65,0,1
108767,-83.3333333333333,4,2,1,65,0,1
109461,-76.9230769230769,4,2,1,65,0,1
110154,-76.9230769230769,4,2,1,65,0,1
110414,-76.9230769230769,4,2,1,5,0,1
110501,-76.9230769230769,4,2,1,65,0,1
112235,-76.9230769230769,4,2,1,65,0,1
112929,-71.4285714285714,4,2,1,65,0,1
113189,-71.4285714285714,4,2,1,5,0,1
113276,-71.4285714285714,4,2,1,65,0,1
113796,-71.4285714285714,4,2,1,65,0,1
114489,-100,4,2,1,55,0,0
117524,-100,4,2,1,5,0,0
117611,-100,4,2,1,55,0,0
125588,-100,4,2,1,60,0,0
131830,-100,4,2,1,65,0,0
133911,-100,4,2,1,70,0,0
137206,-100,4,2,1,70,0,0
137380,-100,4,2,1,5,0,0

[Colours]
Combo1 : 255,213,85
Combo2 : 255,89,89
Combo3 : 83,160,255
Combo4 : 137,91,164

[HitObjects]
30,317,9923,6,0,L|20:388,2,50.9999984436036,2|2|2,0:2|0:2|0:2,0:0:0:0:
138,384,10443,6,0,P|218:362|242:285,1,152.999995330811,6|10,3:2|0:2,0:0:0:0:
143,199,10963,2,0,L|150:275,1,76.4999976654053,2|0,0:2|3:2,0:0:0:0:
316,189,11310,1,2,3:2:0:0:
170,86,11484,1,10,0:2:0:0:
243,302,11657,6,0,P|324:285|393:273,1,152.999995330811,2|0,3:2|3:2,0:0:0:0:
512,164,12177,2,0,P|474:157|437:149,1,76.4999976654053,10|0,0:2|3:2,0:0:0:0:
237,8,12524,1,2,0:2:0:0:
427,47,12698,1,2,3:2:0:0:
318,191,12872,2,0,P|309:153|303:115,1,76.4999976654053,8|0,0:2|0:0,0:0:0:0:
67,225,13218,6,0,P|123:177|202:185,1,152.999995330811,6|10,3:2|0:2,0:0:0:0:
74,356,13738,2,0,P|36:347|-2:341,1,76.4999976654053,2|0,3:2|0:0,0:0:0:0:
156,273,14085,1,2,3:2:0:0:
261,383,14258,1,10,0:2:0:0:
369,154,14432,6,0,P|352:228|340:304,1,152.999995330811,6|0,3:2|3:2,0:0:0:0:
449,246,14952,1,8,0:2:0:0:
230,287,15125,2,0,P|192:278|154:272,1,76.4999976654053,0|2,3:2|0:2,0:0:0:0:
22,87,15472,1,2,3:2:0:0:
217,194,15646,1,10,0:2:0:0:
172,16,15819,1,0,0:0:0:0:
172,16,15906,1,0,0:0:0:0:
172,16,15992,6,0,P|123:73|129:147,2,152.999995330811,6|8|2,3:2|0:2|3:2,0:0:0:0:
364,0,16859,1,2,3:2:0:0:
224,107,17033,1,10,0:2:0:0:
362,270,17206,6,0,L|329:91,1,152.999995330811,6|2,3:2|3:2,0:0:0:0:
443,164,17726,1,10,0:2:0:0:
224,107,17900,1,6,3:2:0:0:
224,107,18247,1,6,3:2:0:0:
114,216,18420,2,0,P|162:205|211:197,1,89.2499972763062,0|0,3:2|0:0,0:0:0:0:
265,35,18767,5,4,3:2:0:0:
265,35,18940,1,0,3:2:0:0:
418,188,19287,1,2,0:2:0:0:
418,188,19461,2,0,P|373:181|355:185,1,42.5,2|2,0:2|0:2,0:0:0:0:
315,117,19807,2,0,P|270:124|252:120,1,42.5,2|2,0:2|0:2,0:0:0:0:
185,143,20154,2,0,P|191:184|196:227,1,85,0|0,3:2|0:0,0:0:0:0:
202,310,20674,2,0,P|175:323|154:326,2,42.5,2|2|2,0:2|0:2|0:2,0:0:0:0:
359,384,21368,1,2,0:2:0:0:
359,384,21541,6,0,P|363:341|370:299,1,85,2|2,3:2|0:2,0:0:0:0:
445,263,22062,1,2,0:2:0:0:
297,228,22409,2,0,P|273:230|241:238,2,42.5,2|2|2,0:2|0:2|0:2,0:0:0:0:
379,201,22929,2,0,L|388:114,1,85,0|0,3:2|0:0,0:0:0:0:
440,9,23622,1,0,0:0:0:0:
297,55,23969,2,0,P|274:56|252:46,1,42.5,2|2,0:2|0:2,0:0:0:0:
176,10,24316,6,0,L|184:94,1,85,2|2,3:2|0:2,0:0:0:0:
124,159,24836,1,2,0:2:0:0:
262,246,25183,1,2,0:2:0:0:
262,246,25356,2,0,P|281:240|304:234,1,42.5,2|2,0:2|0:2,0:0:0:0:
371,306,25703,2,0,P|301:319|236:345,2,127.5,2|2|0,3:2|0:2|0:0,0:0:0:0:
429,143,27091,5,2,3:2:0:0:
429,143,27264,1,2,3:2:0:0:
367,83,27437,1,2,0:2:0:0:
350,159,27611,1,2,3:2:0:0:
505,39,27958,2,0,P|499:64|495:100,1,42.5,2|0,3:2|0:0,0:0:0:0:
389,0,28304,5,2,3:2:0:0:
512,161,28651,1,2,3:2:0:0:
371,306,28998,1,2,3:2:0:0:
175,88,29865,6,0,P|230:80|311:67,1,127.500004863739,4|8,3:2|0:2,0:0:0:0:
449,1,30385,1,2,0:2:0:0:
406,140,30559,2,0,P|400:111|393:75,1,63.7500024318696,2|2,3:2|3:2,0:0:0:0:
512,125,30906,2,0,P|505:156|499:187,1,63.7500024318696,10|2,0:2|0:2,0:0:0:0:
360,265,31252,6,0,P|315:221|253:224,1,127.500004863739,0|8,3:2|0:2,0:0:0:0:
206,302,31773,1,2,3:2:0:0:
289,306,31946,1,2,0:2:0:0:
202,383,32120,2,0,P|170:377|139:371,1,63.7500024318696,2|8,3:2|0:2,0:0:0:0:
33,339,32466,5,2,0:2:0:0:
124,259,32640,1,2,3:2:0:0:
28,185,32813,2,0,L|37:248,1,63.7500024318696,2|8,0:2|0:2,0:0:0:0:
107,139,33160,2,0,P|47:93|-5:103,1,127.500004863739,2|2,0:2|3:2,0:0:0:0:
118,7,33680,1,10,0:2:0:0:
231,112,33854,6,0,P|166:124|92:141,1,127.500004863739,2|0,3:2|3:2,0:0:0:0:
193,29,34374,1,8,0:2:0:0:
315,144,34547,1,0,3:2:0:0:
315,144,34894,1,2,3:2:0:0:
411,98,35067,2,0,L|418:34,1,63.7500024318696,10|2,0:2|0:2,0:0:0:0:
509,242,35414,6,0,P|447:237|400:277,1,127.500004863739,6|10,3:2|0:2,0:0:0:0:
397,380,35935,2,0,P|335:368|254:358,1,127.500004863739,2|2,0:2|3:2,0:0:0:0:
202,215,36455,2,0,L|209:279,1,63.7500024318696,10|2,0:2|0:2,0:0:0:0:
102,384,36802,6,0,P|111:319|119:244,1,127.500004863739,2|8,3:2|0:2,0:0:0:0:
0,212,37322,2,0,P|53:234|127:196,1,127.500004863739,2|2,3:2|3:2,0:0:0:0:
162,93,37842,1,10,0:2:0:0:
59,140,38015,1,2,0:2:0:0:
0,0,38189,6,0,L|155:13,1,144.500002756119,6|8,3:2|0:2,0:0:0:0:
330,169,38709,2,0,L|175:182,1,144.500002756119,4|2,3:2|3:2,0:0:0:0:
232,75,39229,1,8,0:2:0:0:
398,102,39403,6,0,P|428:154|419:204,1,108.375002067089,6|0,3:2|0:0,0:0:0:0:
366,270,39750,2,0,L|214:256,1,127.5,0|0,3:2|0:0,0:0:0:0:
186,181,40096,2,0,B|103:175|130:236|45:227,1,146.62500279665,0|0,3:2|0:0,0:0:0:0:
16,215,40443,1,2,3:2:0:0:
136,104,40617,1,10,0:2:0:0:
55,49,40790,1,2,3:2:0:0:
237,0,40963,6,0,P|224:67|219:124,1,110.499994941712,6|2,3:2|0:2,0:0:0:0:
310,44,41484,2,0,P|384:32|433:116,1,165.749992412568,2|0,3:2|0:0,0:0:0:0:
280,291,42351,6,0,P|273:236|262:181,1,110.499994941712,0|0,3:2|0:0,0:0:0:0:
220,109,42871,1,0,3:2:0:0:
360,210,43218,1,2,0:2:0:0:
360,210,43391,2,0,P|390:218|438:215,1,55.2499974708558,2|2,0:2|0:2,0:0:0:0:
512,286,43738,6,0,P|484:287|457:294,1,55.2499974708558,2|0,3:2|0:0,0:0:0:0:
443,142,44085,1,2,0:2:0:0:
443,142,44258,2,0,P|449:87|460:32,1,110.499994941712,2|2,3:2|0:2,0:0:0:0:
285,181,44952,6,0,B|226:186|245:219|184:227,1,110.499994941712,2|2,3:2|3:2,0:0:0:0:
98,200,45472,1,2,0:2:0:0:
98,200,45646,2,0,P|118:311|120:329,1,110.499994941712,0|2,3:2|3:2,0:0:0:0:
256,297,46166,1,10,0:2:0:0:
187,227,46339,1,2,0:2:0:0:
351,258,46513,6,0,P|339:318|326:397,1,127.500004863739,6|0,3:2|0:0,0:0:0:0:
279,212,47033,2,0,P|335:230|416:186,1,127.500004863739,2|0,3:2|0:0,0:0:0:0:
469,146,47553,1,0,0:0:0:0:
313,42,47900,2,0,P|253:24|194:46,1,127.500004863739,2|0,3:2|0:0,0:0:0:0:
117,140,48420,2,0,P|106:77|94:14,1,127.500004863739,2|0,3:2|0:0,0:0:0:0:
256,121,48940,2,0,P|249:155|243:189,1,63.7500024318696,2|0,0:2|0:0,0:0:0:0:
116,220,49287,6,0,B|186:226|162:266|237:276,1,127.500004863739,2|0,3:2|0:0,0:0:0:0:
329,257,49807,2,0,P|357:305|310:368,1,127.500004863739,2|0,3:2|0:0,0:0:0:0:
226,374,50328,1,10,0:2:0:0:
226,374,50501,1,2,0:2:0:0:
120,309,50674,6,0,L|127:382,1,63.7500024318696,0|0,3:2|0:0,0:0:0:0:
26,339,51021,1,0,0:0:0:0:
90,219,51195,2,0,P|151:215|197:258,1,127.500004863739,0|2,3:2|3:2,0:0:0:0:
228,147,51715,2,0,L|219:83,1,63.7500024318696,10|2,0:2|3:2,0:0:0:0:
367,200,52062,6,0,P|400:237|477:238,1,127.500004863739,6|2,3:2|0:2,0:0:0:0:
461,32,52582,2,0,L|443:158,1,127.500004863739,2|0,3:2|0:0,0:0:0:0:
347,101,53102,1,0,0:0:0:0:
162,190,53449,6,0,B|91:183|115:143|40:133,1,127.500004863739,0|0,3:2|0:0,0:0:0:0:
160,99,53969,2,0,P|190:76|227:69,1,63.7500024318696,0|0,3:2|0:0,0:0:0:0:
311,204,54316,1,2,0:2:0:0:
232,155,54489,1,2,0:2:0:0:
347,101,54663,1,2,0:2:0:0:
369,260,54836,6,0,P|294:248|221:238,1,144.500002756119,2|2,3:2|0:2,0:0:0:0:
120,354,55356,2,0,P|180:374|260:334,1,144.500002756119,2|2,3:2|0:2,0:0:0:0:
311,204,55877,1,8,0:2:0:0:
155,129,56050,6,0,P|170:215|178:282,1,144.500002756119,2|2,3:2|3:2,0:0:0:0:
10,212,56570,1,10,0:2:0:0:
62,358,56744,2,0,P|68:317|74:278,1,72.2500013780594,0|0,3:2|0:0,0:0:0:0:
175,223,57091,1,2,3:2:0:0:
251,343,57264,1,10,0:2:0:0:
346,265,57437,1,2,0:2:0:0:
346,265,57524,1,0,0:0:0:0:
346,265,57611,6,0,L|242:252,1,80.7499978437424,6|0,3:2|0:0,0:0:0:0:
317,76,57958,1,10,0:2:0:0:
432,148,58131,2,0,L|351:158,1,80.7499978437424,2|0,0:2|3:2,0:0:0:0:
237,44,58478,1,2,3:2:0:0:
374,0,58651,1,8,0:2:0:0:
240,169,58825,6,0,P|179:120|105:142,1,161.499995687485,2|2,3:2|3:2,0:0:0:0:
189,275,59345,2,0,P|286:259|363:248,1,161.499995687485,8|0,0:2|0:0,0:0:0:0:
444,167,59865,1,2,3:2:0:0:
511,279,60039,1,10,0:2:0:0:
349,250,60212,1,2,0:2:0:0:
417,352,60385,6,0,P|426:280|445:160,1,187.000005706787,2|10,3:2|0:2,0:0:0:0:
270,125,60906,2,0,P|302:160|351:165,1,93.5000028533936,2|0,3:2|3:2,0:0:0:0:
433,60,61252,2,0,P|381:72|327:82,1,93.5000028533936,2|8,3:2|0:2,0:0:0:0:
60,8,61599,6,0,B|141:15|114:61|200:73,1,140.25000428009,2|0,3:2|0:0,0:0:0:0:
212,73,61946,1,2,3:2:0:0:
317,19,62120,1,10,0:2:0:0:
157,160,62293,1,0,0:0:0:0:
332,224,62466,5,2,3:2:0:0:
162,321,62640,1,2,3:2:0:0:
271,125,62813,1,10,0:2:0:0:
419,331,62987,5,6,3:2:0:0:
461,11,63333,5,14,3:2:0:0:
127,195,63680,5,6,3:2:0:0:
0,77,64547,6,0,P|54:21|142:27,1,170,6|10,3:2|0:2,0:0:0:0:
109,209,65067,2,0,P|103:169|93:119,1,85,2|0,0:2|3:2,0:0:0:0:
232,189,65414,1,2,3:2:0:0:
83,312,65588,1,8,0:2:0:0:
243,384,65761,6,0,P|330:368|420:354,1,170,2|0,3:2|3:2,0:0:0:0:
476,174,66281,1,10,0:2:0:0:
309,255,66455,2,0,P|263:245|226:240,1,85,2|0,3:2|0:0,0:0:0:0:
340,49,66802,2,0,P|348:91|356:133,1,85,2|8,3:2|0:2,0:0:0:0:
428,257,67148,1,2,0:2:0:0:
167,363,67322,6,0,P|94:346|-24:329,1,170,4|10,3:2|0:2,0:0:0:0:
87,123,67842,2,0,P|95:164|101:206,1,85,2|0,3:2|0:0,0:0:0:0:
214,370,68189,2,0,P|220:327|228:286,1,85,2|8,3:2|0:2,0:0:0:0:
411,114,68536,6,0,P|418:196|354:259,1,170,2|0,3:2|3:2,0:0:0:0:
187,124,69056,1,8,0:2:0:0:
326,76,69229,2,0,L|312:159,1,85,0|0,3:2|0:0,0:0:0:0:
225,24,69576,1,2,3:2:0:0:
411,114,69750,1,10,0:2:0:0:
237,200,69923,1,2,0:2:0:0:
439,379,70096,6,0,P|425:288|407:187,1,170,6|10,3:2|0:2,0:0:0:0:
240,295,70617,2,0,P|283:304|330:311,1,85,2|0,3:2|0:0,0:0:0:0:
212,136,70964,1,2,3:2:0:0:
107,281,71138,1,8,0:2:0:0:
11,49,71310,6,0,B|68:31|122:7|122:7|146:26|172:41,1,170,6|0,3:2|3:2,0:0:0:0:
303,111,71830,2,0,P|296:69|287:27,1,85,10|0,0:2|0:2,0:0:0:0:
128,120,72177,2,0,P|170:127|212:136,1,85,2|0,3:2|3:2,0:0:0:0:
465,43,72524,2,0,P|423:50|381:59,1,85,10|0,0:2|3:2,0:0:0:0:
362,290,72871,6,0,P|369:248|388:162,1,127.5,6|0,3:2|0:0,0:0:0:0:
398,140,73218,1,10,0:2:0:0:
216,364,73391,2,0,B|249:326|288:337|288:337|310:377|361:376,1,170,2|0,3:2|3:2,0:0:0:0:
478,220,73911,1,8,0:2:0:0:
237,237,74085,6,0,P|178:177|78:219,1,170,4|0,3:2|3:2,0:0:0:0:
198,40,74605,1,8,0:2:0:0:
4,0,74778,2,0,P|13:39|22:85,1,85,0|0,3:2|0:0,0:0:0:0:
146,286,75125,1,2,3:2:0:0:
213,125,75299,1,10,0:2:0:0:
22,245,75472,1,2,0:2:0:0:
208,384,75646,6,0,P|255:328|237:236,1,170,6|10,3:2|0:2,0:0:0:0:
5,365,76166,2,0,P|46:371|88:380,1,85,2|0,0:2|3:2,0:0:0:0:
211,210,76513,1,2,3:2:0:0:
22,245,76686,1,8,0:2:0:0:
126,22,76859,6,0,P|118:110|109:215,1,170,2|0,0:2|3:2,0:0:0:0:
240,119,77380,1,10,0:2:0:0:
161,294,77553,2,0,P|119:285|77:278,1,85,2|0,3:2|0:0,0:0:0:0:
281,222,77900,2,0,P|322:213|364:206,1,85,2|8,3:2|0:2,0:0:0:0:
290,23,78246,1,0,0:0:0:0:
110,193,78420,6,0,P|101:118|149:61,1,152.999995330811,6|0,3:2|0:0,0:0:0:0:
181,46,78767,1,10,0:2:0:0:
308,163,78940,2,0,P|258:172|214:150,1,101.999996887207,2|0,3:2|0:0,0:0:0:0:
118,366,79287,2,0,B|167:355|218:349,1,101.999996887207,2|8,3:2|0:2,0:0:0:0:
512,357,79634,6,0,P|463:295|347:318,1,203.999993774414,6|0,3:2|3:2,0:0:0:0:
160,213,80154,1,8,0:2:0:0:
279,140,80328,2,0,P|261:223|252:281,1,127.5,0|0,3:2|0:0,0:0:0:0:
249,303,80674,1,2,3:2:0:0:
420,377,80848,1,10,0:2:0:0:
504,188,81021,1,2,0:2:0:0:
345,241,81195,6,0,P|262:224|180:204,1,170,6|10,3:2|0:2,0:0:0:0:
29,304,81715,2,0,P|100:343|174:307,1,170,2|0,0:2|3:2,0:0:0:0:
293,144,82235,2,0,L|277:60,1,85,8|2,0:2|0:2,0:0:0:0:
8,141,82582,6,0,P|52:150|104:165,1,85,6|0,3:2|3:2,0:0:0:0:
249,283,82929,2,0,P|201:284|170:313,1,85,10|0,0:2|0:0,0:0:0:0:
0,384,83276,2,0,B|11:341|28:291,1,85,2|0,0:2|3:2,0:0:0:0:
177,110,83622,2,0,P|191:149|182:190,1,85,10|0,0:2|3:2,0:0:0:0:
314,363,83969,6,0,P|394:382|466:341,1,170,6|8,3:2|0:2,0:0:0:0:
255,298,84489,2,0,B|202:279|149:258|149:258|127:281|109:298,1,170,0|0,3:2|3:2,0:0:0:0:
319,216,85010,1,10,0:2:0:0:
203,58,85183,6,0,P|217:125|229:192,1,127.5,6|0,3:2|0:0,0:0:0:0:
319,216,85530,6,0,P|398:231|442:180,1,146.62500279665,6|0,3:2|0:0,0:0:0:0:
431,85,85877,6,0,B|387:88|365:133|365:133|348:89|299:82,1,165.749992412568,6|0,3:2|0:0,0:0:0:0:
203,58,86224,5,2,3:2:0:0:
5,173,86397,1,10,0:2:0:0:
212,251,86570,1,2,0:2:0:0:
118,35,86744,6,0,P|100:120|84:206,1,170,6|10,3:2|0:2,0:0:0:0:
245,240,87264,2,0,P|239:200|229:150,1,85,2|0,0:2|3:2,0:0:0:0:
113,284,87611,1,2,3:2:0:0:
256,349,87785,1,8,0:2:0:0:
56,384,87958,6,0,P|139:368|223:355,1,170,2|0,3:2|3:2,0:0:0:0:
322,202,88478,1,10,0:2:0:0:
166,271,88651,2,0,P|111:260|56:249,1,85,2|0,3:2|0:0,0:0:0:0:
214,72,88998,2,0,P|222:114|230:156,1,85,2|8,3:2|0:2,0:0:0:0:
94,82,89345,1,2,0:2:0:0:
312,0,89518,6,0,P|376:50|456:32,1,170,4|10,3:2|0:2,0:0:0:0:
400,199,90039,2,0,P|357:193|316:185,1,85,2|0,3:2|0:0,0:0:0:0:
133,85,90386,2,0,P|176:79|217:71,1,85,2|8,3:2|0:2,0:0:0:0:
259,364,90732,6,0,P|201:294|221:212,1,170,2|0,3:2|3:2,0:0:0:0:
418,140,91252,1,8,0:2:0:0:
302,268,91425,2,0,L|316:185,1,85,0|0,3:2|0:0,0:0:0:0:
385,362,91772,1,2,0:2:0:0:
209,290,91946,1,10,0:2:0:0:
395,215,92119,1,2,0:2:0:0:
215,75,92293,6,0,P|124:89|-5:113,1,195.500003728867,6|10,3:2|0:2,0:0:0:0:
39,346,92814,2,0,P|92:274|193:287,1,195.500003728867,2|2,0:2|3:2,0:0:0:0:
381,384,93333,1,8,0:2:0:0:
316,184,93507,6,0,P|298:281|278:385,1,195.500003728867,6|0,3:2|3:2,0:0:0:0:
481,251,94027,2,0,P|439:258|390:273,1,85,10|0,0:2|3:2,0:0:0:0:
215,199,94374,2,0,P|206:158|199:116,1,85,2|0,3:2|3:2,0:0:0:0:
401,35,94721,2,0,P|394:76|384:118,1,85,10|0,0:2|3:2,0:0:0:0:
201,19,95067,6,0,P|160:10|118:3,1,85,6|0,3:2|0:0,0:0:0:0:
45,107,95414,1,10,0:2:0:0:
215,199,95587,2,0,P|298:181|382:167,1,170,2|0,3:2|3:2,0:0:0:0:
278,73,96107,1,8,0:2:0:0:
319,300,96282,6,0,P|267:241|182:251,1,170,4|0,3:2|3:2,0:0:0:0:
78,133,96801,1,8,0:2:0:0:
0,301,96974,2,0,P|8:342|15:384,1,85,0|0,3:2|0:0,0:0:0:0:
183,251,97322,1,2,3:2:0:0:
3,187,97495,1,10,0:2:0:0:
125,333,97668,1,2,0:2:0:0:
228,142,97842,6,0,P|302:156|403:177,1,170,6|10,3:2|0:2,0:0:0:0:
489,60,98362,2,0,P|448:66|406:75,1,85,2|0,0:2|3:2,0:0:0:0:
326,255,98709,1,2,3:2:0:0:
489,158,98882,1,10,0:2:0:0:
500,377,99056,6,0,P|434:327|355:351,1,170,2|0,0:2|3:2,0:0:0:0:
267,172,99576,1,10,0:2:0:0:
155,349,99749,2,0,P|196:356|240:366,1,85,2|0,3:2|0:0,0:0:0:0:
409,240,100096,2,0,P|367:248|325:255,1,85,2|8,3:2|0:2,0:0:0:0:
165,184,100443,1,0,0:0:0:0:
10,372,100617,5,6,3:2:0:0:
267,172,100790,1,0,3:2:0:0:
55,124,100963,1,2,1:2:0:0:
238,365,101137,1,2,1:2:0:0:
238,365,101484,1,2,1:2:0:0:
398,268,101830,6,0,B|359:220|303:232|303:232|276:279|217:279,1,203.999993774414,6|0,3:2|3:2,0:0:0:0:
390,359,102351,1,8,0:2:0:0:
482,211,102524,2,0,B|471:162|465:111,1,101.999996887207,0|0,3:2|0:0,0:0:0:0:
317,215,102871,1,2,3:2:0:0:
490,310,103044,1,10,0:2:0:0:
384,155,103218,1,2,0:2:0:0:
254,350,103391,5,6,3:2:0:0:
200,165,103565,1,2,0:2:0:0:
20,252,103738,2,0,P|67:263|115:271,1,97.7500018644333,8|0,0:2|0:0,0:0:0:0:
22,141,104085,1,0,3:2:0:0:
184,29,104258,1,2,0:2:0:0:
120,176,104432,1,10,0:2:0:0:
394,151,104605,6,0,P|342:92|233:117,1,195.500003728867,6|2,3:2|3:2,0:0:0:0:
295,334,105125,1,10,0:2:0:0:
462,281,105299,2,0,P|414:267|363:256,1,97.7500018644333,2|0,3:2|0:0,0:0:0:0:
190,321,105645,1,0,3:2:0:0:
236,113,105819,2,0,P|249:163|258:209,1,97.7500018644333,8|0,0:2|0:0,0:0:0:0:
22,250,106166,6,0,P|-5:160|60:92,1,195.500003728867,6|10,3:2|0:2,0:0:0:0:
265,39,106686,2,0,L|169:17,1,97.7500018644333,2|0,0:2|3:2,0:0:0:0:
346,160,107033,1,2,3:2:0:0:
442,28,107206,1,10,0:2:0:0:
218,128,107380,6,0,P|236:200|253:271,1,146.62500279665,6|0,3:2|0:0,0:0:0:0:
266,309,107726,1,2,3:2:0:0:
26,204,107900,1,10,0:2:0:0:
134,76,108073,2,0,P|121:132|111:171,1,97.7500018644333,2|0,3:2|0:0,0:0:0:0:
189,365,108420,5,2,3:2:0:0:
299,181,108593,1,10,0:2:0:0:
99,365,108767,2,0,P|49:353|0:343,1,101.999996887207,6|0,3:2|0:0,0:0:0:0:
215,254,109114,5,2,3:2:0:0:
133,74,109287,1,10,0:2:0:0:
310,270,109461,2,0,P|359:258|417:246,1,110.499994941712,6|0,3:2|0:0,0:0:0:0:
196,144,109807,5,2,3:2:0:0:
298,384,109981,1,10,0:2:0:0:
512,223,110154,2,0,P|439:157|349:207,1,165.749992412568,6|0,3:2|0:0,0:0:0:0:
353,188,110501,1,0,3:2:0:0:
413,384,110674,1,8,0:2:0:0:
512,215,110848,1,0,3:2:0:0:
313,302,111021,5,8,0:2:0:0:
313,302,111108,1,0,3:2:0:0:
313,302,111195,1,2,3:2:0:0:
218,121,111368,1,10,0:2:0:0:
435,276,111542,2,0,P|423:325|413:386,1,110.499994941712,6|0,3:2|0:0,0:0:0:0:
309,132,111888,5,2,3:2:0:0:
206,314,112061,1,10,0:2:0:0:
419,148,112235,2,0,P|407:98|395:33,1,110.499994941712,6|0,3:2|0:0,0:0:0:0:
222,217,112582,5,2,3:2:0:0:
221,0,112755,1,10,0:2:0:0:
0,138,112929,2,0,P|49:198|145:191,1,178.499994552612,6|0,3:2|0:0,0:0:0:0:
171,171,113276,1,0,3:2:0:0:
50,35,113449,1,8,0:2:0:0:
0,268,113622,1,0,3:2:0:0:
254,141,113796,5,8,0:2:0:0:
254,141,113883,1,8,0:2:0:0:
254,141,113969,2,0,L|241:62,1,59.4999981842042,2|0,1:2|1:2,0:0:0:0:
334,311,114143,2,0,P|272:301|191:289,1,118.999996368408,6|2,3:2|0:2,0:0:0:0:
421,209,114489,6,0,L|446:387,2,170,6|8|2,3:2|0:2|3:2,0:0:0:0:
473,47,115356,1,2,3:2:0:0:
335,107,115530,2,0,P|387:112|442:121,1,85,10|2,0:2|3:2,0:0:0:0:
319,12,115877,6,0,P|237:27|149:41,1,170,0|10,0:0|0:2,0:0:0:0:
19,165,116397,2,0,P|118:174|170:128,1,170,2|2,3:2|3:2,0:0:0:0:
242,207,116917,2,0,L|232:291,1,85,8|0,0:2|0:0,0:0:0:0:
50,319,117264,6,0,B|121:325|97:365|171:375,1,127.5,6|0,3:2|0:0,0:0:0:0:
196,378,117611,1,10,0:2:0:0:
320,220,117784,2,0,P|251:203|225:217,1,85,2|2,3:2|0:0,0:0:0:0:
305,377,118131,1,2,3:2:0:0:
397,248,118304,1,10,0:2:0:0:
512,384,118478,6,0,P|499:283|485:185,1,170,2|2,3:2|3:2,0:0:0:0:
327,82,118998,1,10,0:2:0:0:
473,108,119172,2,0,B|383:116|413:166|320:178,1,170,2|2,3:2|3:2,0:0:0:0:
253,22,119692,1,10,0:2:0:0:
413,84,119865,1,2,0:2:0:0:
276,252,120039,6,0,P|283:170|224:112,2,170,6|8|2,3:2|0:2|3:2,0:0:0:0:
81,156,120906,1,2,3:2:0:0:
180,257,121079,1,10,0:2:0:0:
66,380,121252,6,0,P|105:370|152:362,1,85,6|0,3:2|0:0,0:0:0:0:
354,289,121599,2,0,P|312:281|270:271,1,85,2|8,3:2|0:2,0:0:0:0:
424,199,121946,2,0,P|476:262|456:341,1,170,2|2,3:2|3:2,0:0:0:0:
269,366,122466,1,10,0:2:0:0:
337,192,122640,1,2,3:2:0:0:
223,283,122813,5,6,3:2:0:0:
146,159,122987,1,2,0:2:0:0:
309,281,123160,1,10,0:2:0:0:
128,380,123333,6,0,P|134:314|150:196,1,170,2|2,3:2|3:2,0:0:0:0:
60,23,123854,1,10,0:2:0:0:
0,112,124027,2,0,P|98:121|151:75,1,170,6|2,3:2|3:2,0:0:0:0:
319,0,124547,1,10,0:2:0:0:
262,139,124721,2,0,P|254:79|245:38,1,85,2|0,3:2|0:0,0:0:0:0:
363,220,125067,1,2,3:2:0:0:
183,162,125241,1,10,0:2:0:0:
337,76,125414,1,2,0:2:0:0:
236,277,125588,6,0,P|147:260|67:243,1,170,6|10,3:2|0:2,0:0:0:0:
0,383,126108,2,0,P|64:333|147:357,1,170,2|2,3:2|3:2,0:0:0:0:
229,246,126628,1,10,0:2:0:0:
363,374,126802,2,0,B|454:361|424:312|513:303,1,170,2|0,3:2|3:2,0:0:0:0:
378,196,127322,2,0,P|370:251|365:301,1,85,10|0,0:2|3:2,0:0:0:0:
505,192,127669,1,2,0:2:0:0:
316,104,127842,1,2,3:2:0:0:
441,8,128016,2,0,P|447:50|452:92,1,85,8|0,0:2|0:0,0:0:0:0:
181,131,128362,6,0,P|101:152|36:102,1,170,6|10,3:2|0:2,0:0:0:0:
0,259,128883,2,0,P|41:249|83:243,1,85,2|0,3:2|0:0,0:0:0:0:
265,346,129229,1,2,3:2:0:0:
79,377,129403,1,10,0:2:0:0:
195,207,129576,6,0,P|179:295|166:374,1,170,6|0,3:2|3:2,0:0:0:0:
306,258,130096,1,8,0:2:0:0:
347,367,130270,2,0,P|306:356|256:343,1,85,0|0,3:2|0:0,0:0:0:0:
475,256,130617,1,2,3:2:0:0:
347,193,130790,1,10,0:2:0:0:
445,350,130963,1,2,0:2:0:0:
512,129,131137,6,0,P|447:78|368:98,1,170,6|8,3:2|0:2,0:0:0:0:
368,98,131830,1,2,3:2:0:0:
154,126,132004,1,2,3:2:0:0:
310,0,132177,1,10,0:2:0:0:
264,199,132351,6,0,P|242:121|215:32,1,170,6|2,3:2|3:2,0:0:0:0:
91,204,132871,1,10,0:2:0:0:
8,72,133044,2,0,P|48:67|99:56,1,85,6|0,3:2|0:0,0:0:0:0:
264,199,133391,6,0,P|196:239|188:326,1,170,6|0,3:2|0:0,0:0:0:0:
437,372,133911,1,2,1:2:0:0:
395,180,134085,1,2,1:2:0:0:
276,291,134258,1,2,1:2:0:0:
498,202,134432,6,0,P|494:159|488:117,1,85,6|0,3:2|3:2,0:0:0:0:
264,199,134778,1,2,0:0:0:0:
370,9,134952,2,0,P|366:51|360:93,1,85,6|2,3:2|3:2,0:0:0:0:
498,202,135299,1,2,3:2:0:0:
212,286,135472,6,0,P|167:217|199:126,1,170,6|2,3:2|0:2,0:0:0:0:
132,383,135992,5,10,1:2:0:0:
344,318,136166,1,10,1:2:0:0:
91,223,136513,6,0,B|44:222|-40:163|-16:3|122:21|122:21|149:87|108:113,1,425,6|0,3:2|0:0,0:0:0:0:
