osu file format v14

[General]
AudioFilename: audio.mp3
AudioLeadIn: 0
PreviewTime: 741356
Countdown: 0
SampleSet: Soft
StackLeniency: 0.4
Mode: 0
LetterboxInBreaks: 0
EpilepsyWarning: 1
WidescreenStoryboard: 0

[Editor]
Bookmarks: 224443,257056
DistanceSpacing: 0.3
BeatDivisor: 4
GridSize: 32
TimelineZoom: 2.699999

[Metadata]
Title:Ys series Songs Compilation
TitleUnicode:Ys series Songs Compilation
Artist:Falcom Sound Team jdk
ArtistUnicode:Falcom Sound Team jdk
Creator:Adol Christin
Version:LAST MOMENT OF DARK
Source:Ys series
Tags:イース j.d.k. band collab blueloniess Genesis Beyond the Beginning Quatera Woods Legend of Five Great Dragons Scarlet Tempest Over Drive Foliage Ocean in Celceta Smash Up Gust Wind A-to-Z Innocent Primeval Breaker Valestein Castle Theme Adol 2012 rpg violin
BeatmapID:1008027
BeatmapSetID:471665

[Difficulty]
HPDrainRate:5
CircleSize:4
OverallDifficulty:7.5
ApproachRate:9
SliderMultiplier:1.7
SliderTickRate:1

[Events]
//Background and Video events
0,0,"bg.jpg",0,0
//Break Periods
2,85764,89816
2,172986,174101
2,218547,222643
2,257159,260213
2,325205,330053
2,404018,408138
2,490137,496106
2,581133,585081
2,666729,670723
2,733681,736958
//Storyboard Layer 0 (Background)
//Storyboard Layer 1 (Fail)
//Storyboard Layer 2 (Pass)
//Storyboard Layer 3 (Foreground)
//Storyboard Sound Samples

[TimingPoints]
686,365.853658536585,4,1,1,50,1,0
8917,-166.666666666667,4,1,1,50,0,0
14039,-142.857142857143,4,1,1,50,0,0
15320,-166.666666666667,4,1,1,50,0,0
24100,-100,4,1,1,50,0,0
25655,-100,4,1,1,5,0,0
25746,-100,4,1,1,50,0,0
27850,-100,4,1,1,5,0,0
27942,-100,4,1,1,50,0,0
30777,-100,4,1,1,5,0,0
30868,-100,4,1,1,50,0,0
35807,-200,4,1,1,50,0,0
37088,-200,4,1,1,5,0,0
37271,-100,4,1,1,50,0,0
38734,-100,4,1,1,45,0,0
49893,-83.3333333333333,4,1,1,50,0,0
50259,-100,4,1,1,45,0,0
62149,-100,4,1,1,60,0,1
85655,-100,4,1,1,60,0,0
89174,387.096774193548,3,2,4,35,1,0
91496,-111.111111111111,3,2,4,35,0,0
133303,-99.9999999999999,3,2,4,45,0,1
172883,-111.111111111111,3,2,4,45,0,0
176083,377.358490566038,4,1,1,50,1,0
176083,-100,4,1,1,50,0,0
206271,-100,4,1,1,50,0,1
209290,-83.3333333333333,4,1,1,50,0,1
212309,-100,4,1,1,50,0,1
215328,-83.3333333333333,4,1,1,50,0,1
218441,-100,4,1,1,50,0,0
221347,387.096774193548,4,3,2,50,1,0
221347,-100,4,3,2,50,0,0
230635,-83.3333333333333,4,3,2,50,0,0
235280,-200,4,3,2,50,0,0
236830,-71.4285714285714,4,3,2,50,0,1
257056,-71.4285714285714,4,3,2,50,0,0
262005,375,4,2,2,50,1,0
262005,-100,4,2,2,50,0,0
271005,-125,4,2,2,50,0,0
271380,-100,4,2,2,50,0,0
271567,-125,4,2,2,50,0,0
271942,-100,4,2,2,50,0,0
272130,-125,4,2,2,50,0,0
272505,-100,4,2,2,50,0,0
301005,-100,4,2,2,50,0,1
325098,-100,4,2,2,50,0,0
329079,346.820809248555,4,2,2,50,1,0
331853,-142.857142857143,4,2,2,50,0,0
336015,-142.857142857143,4,2,2,5,0,0
336362,-111.111111111111,4,1,1,50,0,0
337402,-100,4,1,1,50,0,0
346506,-100,4,1,1,5,0,0
346593,-100,4,1,1,50,0,0
347200,-100,4,1,1,5,0,0
347287,-100,4,1,1,50,0,0
350061,-83.3333333333333,4,1,1,50,0,0
350408,-80,4,1,1,50,0,0
351275,-100,4,1,1,50,0,0
353443,-100,4,1,1,5,0,0
353529,-100,4,1,1,50,0,0
357084,-100,4,1,1,5,0,0
357171,-100,4,1,1,50,0,0
358472,-100,4,1,1,5,0,0
358558,-100,4,1,1,50,0,0
362287,-100,4,1,1,5,0,0
362373,-100,4,1,1,50,0,0
368183,-100,4,1,1,5,0,0
368269,-100,4,1,1,50,0,0
369396,-100,4,1,1,5,0,0
369483,-100,4,1,1,50,0,0
372778,-125,4,1,1,50,0,0
374946,-125,4,1,1,5,0,0
375032,-125,4,1,1,50,0,0
375292,-125,4,1,1,5,0,0
375379,-125,4,1,1,50,0,0
377460,-111.111111111111,4,1,1,50,0,0
379021,-100,4,1,1,50,0,0
384570,-100,4,1,1,50,0,1
384830,-100,4,1,1,5,0,1
384917,-100,4,1,1,50,0,1
387605,-100,4,1,1,5,0,1
387691,-100,4,1,1,50,0,1
394368,-100,4,1,1,5,0,1
394454,-100,4,1,1,50,0,1
395928,-100,4,1,1,5,0,1
396015,-100,4,1,1,50,0,1
398703,-100,4,1,1,5,0,1
398789,-100,4,1,1,50,0,1
402431,-83.3333333333333,4,1,1,50,0,1
402951,-100,4,1,1,50,0,1
404079,-100,4,1,1,50,0,0
409938,333.333333333333,4,2,1,40,1,0
409938,-166.666666666667,4,2,1,40,0,0
415271,-142.857142857143,4,2,1,40,0,0
419271,-142.857142857143,4,1,2,70,0,0
420438,-100,4,1,2,70,0,0
420938,-125,4,1,2,70,0,0
421771,-100,4,1,2,70,0,0
422438,-125,4,1,2,70,0,0
423104,-100,4,1,2,70,0,0
427771,-125,4,1,2,70,0,0
428438,-100,4,1,2,70,0,0
431438,-125,4,1,2,70,0,0
431771,-100,4,1,2,70,0,0
431938,-125,4,1,2,70,0,0
432271,-100,4,1,2,70,0,0
432438,-125,4,1,2,70,0,0
432771,-100,4,1,2,70,0,0
436604,-125,4,1,2,70,0,0
441937,-111.111111111111,4,1,2,70,0,0
446604,-83.3333333333333,4,1,2,70,0,0
447271,-125,4,1,2,70,0,0
455271,-100,4,1,3,70,0,0
456937,-96.1538461538461,4,1,3,70,0,0
457104,-92.5925925925926,4,1,3,70,0,0
457271,-89.2857142857143,4,1,3,70,0,0
457437,-86.2068965517241,4,1,3,70,0,0
457604,-83.3333333333333,4,1,3,70,0,0
457771,-100,4,1,3,70,0,0
459604,-96.1538461538461,4,1,3,70,0,0
459771,-92.5925925925926,4,1,3,70,0,0
459937,-89.2857142857143,4,1,3,70,0,0
460604,-100,4,1,3,70,0,0
462271,-96.1538461538461,4,1,3,70,0,0
462437,-92.5925925925926,4,1,3,70,0,0
462604,-89.2857142857143,4,1,3,70,0,0
462771,-86.2068965517241,4,1,3,70,0,0
462937,-83.3333333333333,4,1,3,70,0,0
463104,-100,4,1,3,70,0,0
465604,-83.3333333333333,4,1,3,70,0,0
465854,-83.3333333333333,4,1,3,5,0,0
465937,-111.111111111111,4,1,2,70,0,0
473937,-100,4,1,2,70,0,0
476604,-111.111111111111,4,1,2,70,0,0
483104,-105.263157894737,4,1,2,70,0,0
484437,-100,4,1,2,70,0,0
485771,-95.2380952380952,4,1,2,70,0,0
487104,-90.9090909090909,4,1,2,70,0,0
488437,-86.9565217391304,4,1,2,70,0,0
489271,-83.3333333333333,4,1,2,70,0,0
495312,324.324324324324,4,1,1,50,1,0
497906,-100,4,1,1,40,0,0
517690,-125,4,1,1,40,0,0
518176,-100,4,1,1,50,0,0
539420,-100,4,1,1,50,0,1
565447,-100,4,1,1,50,0,0
575744,-90.9090909090909,4,1,1,50,0,1
581014,-100,4,1,1,50,0,0
584386,400,4,2,1,20,1,0
584786,428.571428571429,4,2,1,20,1,0
585214,461.538461538462,4,2,1,20,1,0
585675,491.803278688525,4,2,1,20,1,0
585920,461.538461538462,4,2,1,20,1,0
586381,500,4,2,1,20,1,0
586881,468.75,4,2,1,20,1,0
587349,391.305198489562,4,2,1,23,1,0
588522,400,4,2,1,30,1,0
588922,428.571428571429,4,2,1,35,1,0
589350,517.241379310345,4,2,1,40,1,0
589608,571.428571428571,4,2,1,42,1,0
589893,625,4,2,1,45,1,0
590049,517.241379310345,4,2,1,47,1,0
590307,764.331210191083,4,2,1,50,1,0
590689,1200,4,2,1,55,1,0
591289,648.648648648649,4,2,1,60,1,0
592584,324.324324324324,4,2,0,60,1,0
593232,-100,4,2,1,60,0,0
593881,324.324324324324,4,1,1,60,1,0
605556,-74.0740740740741,4,1,1,60,0,0
606205,-100,4,1,1,60,0,0
671335,297.029702970297,4,1,1,50,1,0
672523,310.880829015544,4,1,1,55,1,0
672523,-125,4,1,1,55,0,0
676221,303.030303030303,4,1,1,55,1,0
676221,-125,4,1,1,55,0,0
677414,307.692307692308,4,1,1,55,1,0
677414,-125,4,1,1,55,0,0
679543,291.26213592233,4,1,1,55,1,0
679834,307.692307692308,4,1,1,55,1,0
680757,303.030303030303,4,1,1,55,1,0
682319,300,4,1,1,55,1,0
684756,277.777777777778,4,1,1,55,1,0
684756,-111.111111111111,4,1,1,55,0,0
685210,303.030303030303,4,1,1,55,1,0
685891,-100,4,1,1,5,0,0
685968,303.030303030303,4,1,1,55,1,0
687021,304.568527918782,4,1,1,55,1,0
687173,304.568527918782,4,1,1,55,1,0
688315,-100,4,1,1,5,0,0
688391,-100,4,1,1,55,0,0
690142,-100,4,1,1,5,0,0
690218,285.714285714286,4,1,1,55,1,0
690523,304.568527918782,4,1,1,55,1,0
690751,-100,4,1,1,5,0,0
690827,304.568527918782,4,1,1,55,1,0
691360,-100,4,1,1,5,0,0
691436,-100,4,1,1,55,0,0
691969,-100,4,1,1,5,0,0
692046,297.029702970297,4,1,1,55,1,0
694501,303.030303030303,4,1,1,60,1,1
696243,-100,4,1,1,5,0,1
696319,-100,4,1,1,60,0,1
698667,-100,4,1,1,5,0,1
698743,-100,4,1,1,60,0,1
701091,-100,4,1,1,5,0,1
701167,-100,4,1,1,60,0,1
703004,270.27027027027,4,1,1,60,1,1
703004,-111.111111111111,4,1,1,60,0,1
703588,288.461538461538,4,1,1,60,1,1
703804,-100,4,1,1,5,0,1
703876,-100,4,1,1,60,0,1
704237,304.568527918782,4,1,1,60,1,1
708424,-100,4,1,1,5,0,1
708500,-100,4,1,1,60,0,1
710861,-100,4,1,1,5,0,1
710937,-100,4,1,1,60,0,1
713983,303.79746835443,4,1,1,55,1,0
716945,-100,4,1,1,5,0,0
717020,-100,4,1,1,55,0,0
721198,-100,4,1,1,5,0,0
721274,-100,4,1,1,55,0,0
726462,280.373831775701,4,1,1,55,1,0
726742,304.568527918782,4,1,1,55,1,0
727350,304.568527918782,4,1,1,55,1,0
727426,-100,4,1,1,5,0,0
727502,-100,4,1,1,55,0,0
728565,304.568527918782,4,1,1,60,1,1
729859,-100,4,1,1,5,0,1
729935,-100,4,1,1,60,0,1
731001,312.5,4,1,1,60,1,1
732251,307.692307692308,4,1,1,60,1,1
733481,304.568527918782,4,1,1,60,1,0
736841,413.793103448276,4,1,1,55,1,0
737668,545.454545454546,4,1,1,55,1,0
738758,472.44094488189,4,1,1,55,1,0
741356,285.714285714286,4,1,1,55,1,0
741784,285.714285714286,4,1,1,55,1,0
745426,-100,4,1,1,5,0,0
745498,-100,4,1,1,55,0,0
747712,-100,4,1,1,5,0,0
747784,-100,4,1,1,55,0,0
752284,-100,4,1,1,5,0,0
752355,-100,4,1,1,55,0,0
757712,-100,4,1,1,5,0,0
757784,-100,4,1,1,55,0,0
792069,-125,4,1,1,55,0,0
792498,-100,4,1,1,55,0,0
814926,-90.9090909090909,4,1,1,60,0,0
822498,-80,4,1,1,60,0,0
822784,-74.0740740740741,4,1,1,60,0,0
823069,-68.9655172413793,4,1,1,60,0,0
823355,-90.9090909090909,4,1,1,60,0,0
824069,-100,4,1,1,60,0,0
826355,-90.9090909090909,4,1,1,60,0,0
828784,-90.9090909090909,4,1,1,56,0,0
828819,-90.9090909090909,4,1,1,52,0,0
828855,-90.9090909090909,4,1,1,48,0,0
828891,-90.9090909090909,4,1,1,44,0,0
828926,-90.9090909090909,4,1,1,40,0,0
828962,-90.9090909090909,4,1,1,36,0,0
828998,-90.9090909090909,4,1,1,32,0,0
829034,-90.9090909090909,4,1,1,28,0,0
829069,-90.9090909090909,4,1,1,24,0,0
829105,-90.9090909090909,4,1,1,20,0,0
829141,-90.9090909090909,4,1,1,15,0,0
829176,-100,4,1,1,10,0,0
829212,-100,4,1,1,5,0,0

[Colours]
Combo1 : 255,164,255
Combo2 : 170,170,255
Combo3 : 255,154,53
Combo4 : 168,255,81

[HitObjects]
212,219,8917,5,2,0:0:0:0:
296,250,9100,1,8,0:0:0:0:
322,169,9283,1,2,0:0:0:0:
238,139,9466,1,2,0:0:0:0:
254,229,10198,1,2,0:0:0:0:
361,145,10929,5,8,0:0:0:0:
260,164,11295,1,8,0:0:0:0:
349,239,11661,1,8,0:0:0:0:
340,241,11753,1,8,0:0:0:0:
332,243,11844,1,8,0:0:0:0:
324,245,11935,1,8,0:0:0:0:
314,249,12027,2,0,L|276:258,1,25.4999992218018,8|2,0:0|0:0,0:0:0:0:
289,78,12393,5,6,0:0:0:0:
208,106,13490,6,0,P|191:120|157:131,2,50.9999984436036,0|0|0,2:0|2:0|2:0,0:0:0:0:
299,108,14039,2,0,B|377:195|456:108|456:108|435:192|306:256,1,386.749988197327,0|0,2:0|0:0,0:0:0:0:
290,254,15320,6,0,P|248:255|211:240,2,76.4999976654053,6|0|0,0:0|2:0|2:0,0:0:0:0:
224,147,16051,2,0,P|186:152|152:169,2,76.4999976654053,0|0|0,2:0|2:0|2:0,0:0:0:0:
316,189,16783,6,0,P|373:184|449:112,1,152.999995330811,6|0,0:0|2:0,0:0:0:0:
153,170,17698,2,0,L|141:244,1,50.9999984436036,2|8,0:0|0:0,0:0:0:0:
252,107,18064,2,0,L|249:146,1,25.4999992218018,2|0,0:0|0:0,0:0:0:0:
244,222,18246,5,6,0:0:0:0:
269,218,18338,1,0,2:0:0:0:
292,208,18429,1,0,2:0:0:0:
312,193,18521,1,0,2:0:0:0:
327,172,18612,1,0,2:0:0:0:
335,147,18704,1,0,2:0:0:0:
337,121,18795,1,0,2:0:0:0:
327,97,18887,1,0,2:0:0:0:
311,76,18978,1,0,2:0:0:0:
299,66,19070,1,0,2:0:0:0:
284,62,19161,1,0,2:0:0:0:
268,61,19253,1,0,2:0:0:0:
252,62,19344,1,0,2:0:0:0:
237,67,19435,1,0,2:0:0:0:
223,75,19527,1,0,2:0:0:0:
209,82,19618,1,0,2:0:0:0:
196,96,19710,6,0,L|190:134,7,25.4999992218018,0|0|0|0|0|0|0|0,2:0|2:0|2:0|2:0|2:0|2:0|2:0|2:0,0:0:0:0:
191,196,20442,2,0,P|184:239|229:299,1,101.999996887207,0|0,2:0|2:0,0:0:0:0:
378,207,21082,1,2,0:0:0:0:
393,217,21173,6,0,P|399:258|317:324,1,152.999995330811,6|0,0:0|2:0,0:0:0:0:
263,217,21905,2,0,P|214:224|189:135,1,152.999995330811,2|0,0:0|2:0,0:0:0:0:
294,109,22637,5,8,0:0:0:0:
348,298,23003,1,8,0:0:0:0:
112,201,23368,1,8,0:0:0:0:
116,175,23460,1,8,0:0:0:0:
120,149,23551,1,8,0:0:0:0:
124,123,23643,1,8,0:0:0:0:
135,145,23734,1,8,0:0:0:0:
154,161,23826,1,8,0:0:0:0:
178,166,23917,1,8,0:0:0:0:
203,164,24009,1,8,0:0:0:0:
236,156,24100,6,0,P|265:135|295:73,1,85,6|0,0:0|0:0,0:0:0:0:
340,236,24466,1,8,0:0:0:0:
503,211,24649,2,0,P|431:166|392:92,1,170,2|2,0:0|0:0,0:0:0:0:
341,17,25198,1,8,0:0:0:0:
392,92,25381,6,0,P|390:139|337:211,1,127.5,2|0,0:0|2:0,0:0:0:0:
327,216,25746,1,2,0:0:0:0:
277,113,25929,2,0,P|228:99|174:103,1,85,8|2,0:0|0:0,0:0:0:0:
99,214,26295,1,0,0:0:0:0:
223,183,26478,1,2,0:0:0:0:
194,99,26661,1,8,0:0:0:0:
177,260,26844,1,2,0:0:0:0:
181,280,26935,1,0,0:0:0:0:
183,301,27027,6,0,P|234:284|277:281,1,85,2|2,0:0|0:0,0:0:0:0:
352,316,27393,1,8,0:0:0:0:
418,170,27576,2,0,P|340:178|272:196,1,127.5,2|0,0:0|2:0,0:0:0:0:
272,196,27942,1,2,0:0:0:0:
180,221,28125,1,8,0:0:0:0:
347,137,28307,6,0,P|341:94|327:51,1,85,2|0,0:0|0:0,0:0:0:0:
272,196,28673,2,0,P|281:244|299:289,1,85,2|0,0:0|0:0,0:0:0:0:
191,148,29039,2,0,P|227:123|273:106,1,85,2|0,0:0|0:0,0:0:0:0:
406,108,29405,1,2,0:0:0:0:
272,196,29588,1,8,0:0:0:0:
273,217,29679,1,8,0:0:0:0:
275,238,29771,1,2,0:0:0:0:
276,259,29862,1,0,0:0:0:0:
280,280,29954,6,0,P|233:287|181:303,1,85,6|0,0:0|0:0,0:0:0:0:
102,325,30320,1,8,0:0:0:0:
173,214,30503,2,0,P|178:151|155:79,1,127.5,2|0,0:0|2:0,0:0:0:0:
150,70,30868,1,2,0:0:0:0:
69,180,31051,1,8,0:0:0:0:
173,214,31234,6,0,P|220:205|261:205,1,85,2|0,0:0|0:0,0:0:0:0:
386,292,31600,2,0,P|382:244|370:193,1,85,2|0,0:0|0:0,0:0:0:0:
440,106,31966,2,0,P|450:166|466:208,1,85,2|0,0:0|0:0,0:0:0:0:
481,267,32332,1,2,0:0:0:0:
355,122,32515,1,8,0:0:0:0:
293,193,32698,1,2,0:0:0:0:
293,193,32789,1,0,0:0:0:0:
293,193,32881,5,6,0:0:0:0:
238,123,33064,2,0,P|186:128|151:143,1,85,2|0,0:0|0:0,0:0:0:0:
72,100,33429,2,0,P|93:43|90:0,1,85,2|0,0:0|0:0,0:0:0:0:
0,34,33795,1,2,0:0:0:0:
39,187,33978,1,8,0:0:0:0:
126,229,34161,1,2,0:0:0:0:
126,229,34253,1,0,0:0:0:0:
126,229,34344,6,0,L|114:280,1,42.5,2|8,0:0|0:0,0:0:0:0:
200,186,34527,2,0,L|217:236,1,42.5,0|0,0:0|0:0,0:0:0:0:
229,114,34710,2,0,L|264:137,1,42.5,2|8,0:0|0:0,0:0:0:0:
191,40,34893,2,0,L|245:37,1,42.5,0|0,0:0|0:0,0:0:0:0:
403,33,35076,1,8,0:0:0:0:
389,63,35167,1,8,0:0:0:0:
382,96,35259,1,0,0:0:0:0:
396,126,35350,1,0,0:0:0:0:
416,153,35442,1,8,0:0:0:0:
441,175,35533,1,8,0:0:0:0:
457,204,35625,1,2,0:0:0:0:
466,236,35716,1,0,0:0:0:0:
464,270,35807,6,0,P|387:348|264:232,1,297.5,6|0,0:0|2:0,0:0:0:0:
288,155,37271,6,0,L|229:166,1,42.5,8|0,0:0|0:0,0:0:0:0:
133,243,37454,2,0,L|174:235,1,42.5,8|0,0:0|0:0,0:0:0:0:
130,161,37637,1,2,0:0:0:0:
133,25,37820,2,0,L|145:65,1,42.5,8|8,0:0|0:0,0:0:0:0:
309,40,38003,2,0,L|319:-1,1,42.5,8|8,0:0|0:0,0:0:0:0:
220,39,38185,2,0,L|233:79,1,42.5,2|2,0:0|0:0,0:0:0:0:
390,54,38368,1,8,0:0:0:0:
387,75,38460,1,0,0:0:0:0:
385,96,38551,1,2,0:0:0:0:
383,117,38643,1,2,0:0:0:0:
380,137,38734,6,0,P|384:209|461:292,2,170,6|8|2,0:0|0:0|0:0,0:0:0:0:
283,277,39649,1,2,0:0:0:0:
199,245,39832,1,8,0:0:0:0:
159,165,40015,1,0,0:0:0:0:
297,84,40198,6,0,P|288:135|269:174,1,85,2|0,0:0|0:0,0:0:0:0:
159,165,40564,1,8,0:0:0:0:
159,165,40746,2,0,P|234:188|300:268,1,170,2|2,0:0|0:0,0:0:0:0:
279,337,41295,1,8,0:0:0:0:
109,246,41478,1,2,0:0:0:0:
109,246,41570,1,2,0:0:0:0:
109,246,41661,6,0,P|139:187|148:78,2,170,2|8|2,0:0|0:0|0:0,0:0:0:0:
64,48,42576,1,2,0:0:0:0:
148,84,42759,1,8,0:0:0:0:
74,135,42942,1,2,0:0:0:0:
219,32,43125,6,0,L|302:57,1,85,0|2,0:0|0:0,0:0:0:0:
350,124,43490,1,8,0:0:0:0:
456,43,43673,2,0,L|370:17,2,85,2|2|2,0:0|0:0|0:0,0:0:0:0:
422,170,44222,1,8,0:0:0:0:
428,199,44314,1,0,0:0:0:0:
434,227,44405,1,2,0:0:0:0:
440,255,44496,1,2,0:0:0:0:
446,284,44588,6,0,B|385:273|385:273|332:284|332:284|259:264,2,170,2|8|2,0:0|0:0|0:0,0:0:0:0:
427,365,45503,1,2,0:0:0:0:
280,269,45685,1,8,0:0:0:0:
304,182,45868,1,0,0:0:0:0:
250,354,46051,6,0,P|202:344|164:323,1,85,2|2,0:0|0:0,0:0:0:0:
115,260,46417,1,8,0:0:0:0:
251,121,46600,2,0,P|176:161|93:171,1,170,2|2,0:0|0:0,0:0:0:0:
208,15,47149,1,8,0:0:0:0:
227,37,47240,1,0,0:0:0:0:
239,64,47332,1,2,0:0:0:0:
247,92,47423,1,2,0:0:0:0:
251,121,47515,6,0,P|244:203|179:284,1,170,2|8,0:0|0:0,0:0:0:0:
110,291,48064,1,0,0:0:0:0:
169,163,48246,2,0,P|209:180|247:212,1,85,2|2,0:0|0:0,0:0:0:0:
373,347,48612,2,0,P|318:369|274:367,1,85,8|2,0:0|0:0,0:0:0:0:
204,325,48978,5,2,0:0:0:0:
315,213,49161,1,2,0:0:0:0:
169,163,49344,1,8,0:0:0:0:
204,325,49527,2,0,P|247:328|289:292,1,85,2|2,0:0|0:0,0:0:0:0:
411,257,49893,6,0,P|351:218|208:270,1,203.999993774414,12|2,0:0|0:0,0:0:0:0:
24,218,50442,6,0,B|124:208|124:208|184:152,2,170,6|8|2,0:0|0:0|0:0,0:0:0:0:
145,69,51356,1,2,0:0:0:0:
198,244,51539,1,8,0:0:0:0:
236,104,51722,1,0,0:0:0:0:
340,209,51905,6,0,L|256:182,1,85,2|0,0:0|0:0,0:0:0:0:
418,162,52271,1,8,0:0:0:0:
236,104,52454,2,0,B|185:84|185:84|130:84|130:84|71:111,1,170,2|2,0:0|0:0,0:0:0:0:
0,160,53003,1,8,0:0:0:0:
16,282,53185,1,2,0:0:0:0:
36,278,53277,1,2,0:0:0:0:
56,272,53368,6,0,B|108:259|108:259|177:274|177:274|224:265,2,170,2|8|2,0:0|0:0|0:0,0:0:0:0:
76,351,54283,1,2,0:0:0:0:
221,265,54466,1,8,0:0:0:0:
201,182,54649,1,2,0:0:0:0:
312,292,54832,6,0,P|354:306|400:308,1,85,0|0,0:0|0:0,0:0:0:0:
488,206,55198,1,8,0:0:0:0:
418,116,55381,2,0,P|385:155|374:200,1,85,2|2,0:0|0:0,0:0:0:0:
507,77,55746,1,0,0:0:0:0:
324,75,55929,1,8,0:0:0:0:
308,95,56020,1,8,0:0:0:0:
297,118,56112,1,2,0:0:0:0:
312,292,56295,6,0,P|216:263|136:277,1,170,6|8,0:0|0:0,0:0:0:0:
31,121,56844,1,0,0:0:0:0:
209,121,57027,2,0,P|171:138|129:143,1,85,2|2,0:0|0:0,0:0:0:0:
209,121,57393,1,8,0:0:0:0:
226,263,57576,1,0,0:0:0:0:
300,207,57759,6,0,P|336:185|378:181,1,85,2|2,0:0|0:0,0:0:0:0:
450,226,58125,1,8,0:0:0:0:
388,108,58307,2,0,L|367:276,1,170,2|2,0:0|0:0,0:0:0:0:
252,363,58856,1,8,0:0:0:0:
226,263,59039,1,2,0:0:0:0:
284,160,59222,6,0,P|276:92|204:20,1,170,2|8,0:0|0:0,0:0:0:0:
195,179,59771,1,0,0:0:0:0:
195,179,59862,1,0,0:0:0:0:
195,179,59954,2,0,L|112:197,1,85,2|2,0:0|0:0,0:0:0:0:
373,195,60320,2,0,P|422:195|462:167,1,85,12|2,0:0|0:0,0:0:0:0:
399,337,60685,5,8,0:0:0:0:
377,333,60777,1,8,0:0:0:0:
356,329,60868,1,2,0:0:0:0:
159,292,61051,1,2,0:0:0:0:
259,308,61234,1,8,0:0:0:0:
263,287,61326,1,8,0:0:0:0:
267,266,61417,2,0,L|277:213,1,42.5,0|0,0:0|0:0,0:0:0:0:
329,140,61600,1,0,0:0:0:0:
295,132,61692,1,0,0:0:0:0:
264,120,61783,1,8,0:0:0:0:
235,101,61875,1,8,0:0:0:0:
213,74,61966,1,0,0:0:0:0:
197,43,62057,1,0,0:0:0:0:
188,9,62149,6,0,B|194:76|180:143|180:143|148:95,1,170,6|2,0:0|0:0,0:0:0:0:
49,93,62698,2,0,P|56:139|49:187,1,85,0|2,0:0|0:0,0:0:0:0:
5,308,63064,1,0,0:0:0:0:
5,308,63155,1,2,0:0:0:0:
5,308,63246,1,8,0:0:0:0:
128,251,63429,1,0,0:0:0:0:
260,348,63612,6,0,P|255:292|267:242,1,85,2|0,0:0|0:0,0:0:0:0:
398,218,63978,2,0,P|399:175|408:134,1,85,2|0,0:0|0:0,0:0:0:0:
439,356,64344,1,2,0:0:0:0:
480,260,64527,1,0,0:0:0:0:
429,378,64710,1,8,0:0:0:0:
398,218,64893,1,0,0:0:0:0:
398,218,64984,1,2,0:0:0:0:
398,218,65076,5,6,0:0:0:0:
243,251,65259,1,0,0:0:0:0:
204,90,65442,1,2,0:0:0:0:
365,55,65625,1,0,0:0:0:0:
300,155,65807,2,0,B|252:172|252:172|190:171|190:171|111:196,1,170,2|2,0:0|0:0,0:0:0:0:
236,289,66356,1,0,0:0:0:0:
236,289,66448,1,0,0:0:0:0:
236,289,66539,6,0,L|173:298,1,42.5,2|8,0:0|0:0,0:0:0:0:
309,332,66722,2,0,L|263:376,1,42.5,0|8,0:0|0:0,0:0:0:0:
397,342,66905,2,0,L|392:405,1,42.5,2|8,0:0|0:0,0:0:0:0:
479,308,67088,2,0,L|500:354,1,42.5,8|8,0:0|0:0,0:0:0:0:
496,222,67271,2,0,L|476:184,1,42.5,2|8,0:0|0:0,0:0:0:0:
377,142,67454,2,0,L|370:184,1,42.5,8|8,0:0|0:0,0:0:0:0:
512,181,67637,2,0,L|492:143,1,42.5,2|8,0:0|0:0,0:0:0:0:
345,98,67820,2,0,L|338:140,1,42.5,2|2,0:0|0:0,0:0:0:0:
271,44,68003,6,0,P|207:86|106:92,1,170,6|2,0:0|0:0,0:0:0:0:
38,37,68551,1,0,0:0:0:0:
59,159,68734,2,0,P|56:201|41:241,1,85,2|0,0:0|0:0,0:0:0:0:
113,292,69100,1,8,0:0:0:0:
237,178,69283,1,0,0:0:0:0:
218,169,69375,1,0,0:0:0:0:
199,158,69466,6,0,B|180:150|166:140|166:140|217:214|194:277,1,170,2|2,0:0|0:0,0:0:0:0:
178,349,70015,1,0,0:0:0:0:
347,283,70198,2,0,P|304:292|252:319,1,85,2|0,0:0|0:0,0:0:0:0:
178,349,70564,1,8,0:0:0:0:
312,176,70746,1,0,0:0:0:0:
312,176,70838,1,2,0:0:0:0:
312,176,70929,6,0,B|378:169|439:212|439:212|434:163,1,170,6|2,0:0|0:0,0:0:0:0:
421,56,71478,2,0,B|354:63|284:32|284:32|269:59,1,170,0|0,0:0|0:0,0:0:0:0:
239,196,72027,1,2,0:0:0:0:
138,100,72210,1,0,0:0:0:0:
138,100,72301,1,2,0:0:0:0:
138,100,72393,6,0,L|150:46,1,42.5,2|2,0:0|0:0,0:0:0:0:
52,143,72576,2,0,L|43:83,1,42.5,2|8,0:0|0:0,0:0:0:0:
154,220,72759,2,0,L|166:168,1,42.5,2|8,0:0|0:0,0:0:0:0:
11,256,72942,2,0,L|-1:204,1,42.5,8|8,0:0|0:0,0:0:0:0:
100,303,73125,1,2,0:0:0:0:
133,303,73216,1,8,0:0:0:0:
163,318,73307,1,8,0:0:0:0:
190,338,73399,1,2,0:0:0:0:
204,370,73490,1,8,0:0:0:0:
207,348,73582,1,2,0:0:0:0:
210,327,73673,1,2,0:0:0:0:
213,305,73765,1,8,0:0:0:0:
215,282,73856,6,0,B|320:303|320:303|383:290,1,170,6|2,0:0|0:0,0:0:0:0:
483,171,74405,2,0,L|501:262,1,85,2|0,0:0|0:0,0:0:0:0:
512,67,74771,1,0,0:0:0:0:
512,67,74862,1,2,0:0:0:0:
512,67,74954,1,8,0:0:0:0:
405,142,75137,1,0,0:0:0:0:
405,142,75320,6,0,P|349:149|303:140,1,85,2|0,0:0|0:0,0:0:0:0:
212,33,75685,1,2,0:0:0:0:
194,123,75868,2,0,L|178:207,1,85,0|2,0:0|0:0,0:0:0:0:
124,56,76234,1,0,0:0:0:0:
264,172,76417,1,8,0:0:0:0:
178,207,76600,1,0,0:0:0:0:
178,207,76692,1,2,0:0:0:0:
178,207,76783,5,6,0:0:0:0:
385,267,76966,1,0,0:0:0:0:
296,296,77149,1,2,0:0:0:0:
361,59,77332,2,0,B|384:122|377:188|377:188|349:175|338:156,1,170,0|0,0:0|0:0,0:0:0:0:
178,207,77881,2,0,P|179:160|194:108,1,85,8|0,0:0|0:0,0:0:0:0:
251,304,78246,6,0,L|195:312,1,42.5,2|8,0:0|0:0,0:0:0:0:
397,215,78429,2,0,L|403:266,1,42.5,0|8,0:0|0:0,0:0:0:0:
312,182,78612,2,0,L|315:224,1,42.5,2|8,0:0|0:0,0:0:0:0:
245,384,78795,2,0,L|297:376,1,42.5,0|8,0:0|0:0,0:0:0:0:
132,355,78978,1,2,0:0:0:0:
133,333,79070,1,8,0:0:0:0:
134,311,79161,1,0,0:0:0:0:
135,289,79253,1,2,0:0:0:0:
135,266,79344,2,0,L|138:208,1,42.5,8|2,0:0|0:0,0:0:0:0:
96,115,79527,2,0,L|56:102,1,42.5,2|2,0:0|0:0,0:0:0:0:
140,8,79710,6,0,P|213:44|214:124,1,170,6|2,0:0|0:0,0:0:0:0:
316,65,80259,1,0,0:0:0:0:
425,105,80442,2,0,P|431:56|417:11,1,85,2|0,0:0|0:0,0:0:0:0:
316,65,80716,1,2,0:0:0:0:
316,65,80807,2,0,L|336:155,1,85,8|0,0:0|0:0,0:0:0:0:
276,322,81173,6,0,P|235:349|185:349,1,85,2|0,0:0|0:0,0:0:0:0:
26,272,81539,2,0,P|68:277|114:262,1,85,2|0,0:0|0:0,0:0:0:0:
176,113,81905,2,0,L|170:155,1,42.5,2|0,0:0|0:0,0:0:0:0:
258,177,82088,2,0,L|288:146,1,42.5,0|0,0:0|0:0,0:0:0:0:
385,214,82271,2,0,L|343:221,1,42.5,2|0,0:0|0:0,0:0:0:0:
280,286,82454,1,0,0:0:0:0:
280,286,82545,1,2,0:0:0:0:
280,286,82637,6,0,B|194:315|194:315|200:212,2,170,2|0|2,0:0|0:0|0:0,0:0:0:0:
369,265,83551,1,0,0:0:0:0:
324,83,83734,1,2,0:0:0:0:
397,153,83917,2,0,L|442:134,1,42.5,8|0,0:0|0:0,0:0:0:0:
299,190,84100,5,8,0:0:0:0:
280,199,84192,1,8,0:0:0:0:
260,206,84283,1,0,0:0:0:0:
239,199,84375,1,8,0:0:0:0:
218,192,84466,1,8,0:0:0:0:
118,73,84649,6,0,L|178:56,1,42.5,8|8,0:0|0:0,0:0:0:0:
199,184,84832,2,0,L|155:167,1,42.5,8|8,0:0|0:0,0:0:0:0:
13,144,85015,2,0,L|24:103,1,42.5,0|8,0:0|0:0,0:0:0:0:
79,217,85198,1,8,0:0:0:0:
85,250,85289,1,8,0:0:0:0:
92,283,85381,1,2,0:0:0:0:
99,316,85472,1,0,0:0:0:0:
106,349,85564,5,2,0:0:0:0:
211,127,91496,5,2,0:0:0:0:
192,217,91690,1,2,0:0:0:0:
296,199,91883,1,0,0:0:0:0:
334,307,92077,1,12,0:0:0:0:
176,292,92270,2,0,L|193:207,1,76.4999976654053,4|2,0:0|0:0,0:0:0:0:
341,192,92657,6,0,B|176:219,1,152.999995330811
104,135,93238,1,2,0:0:0:0:
104,135,93432,2,0,L|77:230,1,76.4999976654053,12|2,0:0|0:0,0:0:0:0:
226,70,93819,5,2,0:0:0:0:
129,28,94012,1,2,0:0:0:0:
201,173,94206,2,0,L|295:164,1,76.4999976654053,12|0,0:0|0:0,0:0:0:0:
302,61,94593,2,0,L|206:72,1,76.4999976654053,0|2,0:0|0:0,0:0:0:0:
375,155,94980,5,0,0:0:0:0:
444,40,95174,1,0,0:0:0:0:
489,162,95367,1,4,3:2:0:0:
490,177,95464,1,0,3:2:0:0:
491,192,95561,1,6,3:2:0:0:
491,207,95657,1,0,3:2:0:0:
489,222,95754,1,4,3:2:0:0:
485,236,95851,1,4,3:2:0:0:
480,250,95948,1,6,2:2:0:0:
473,263,96044,1,4,3:2:0:0:
465,276,96141,6,0,L|378:288,1,76.4999976654053,6|2,0:0|0:0,0:0:0:0:
282,221,96528,2,0,L|263:305,1,76.4999976654053,12|0,0:2|0:0,0:0:0:0:
377,178,96915,1,4,3:2:0:0:
377,178,97109,1,6,3:2:0:0:
247,131,97303,6,0,P|199:154|81:153,1,152.999995330811
160,251,97883,1,6,0:0:0:0:
100,158,98077,2,0,B|71:189|61:244,1,76.4999976654053
83,327,98464,5,2,0:0:0:0:
187,350,98657,1,2,0:0:0:0:
255,268,98851,2,0,P|263:225|255:178,1,76.4999976654053,0|12,3:0|3:2,0:0:0:0:
358,130,99238,2,0,P|369:168|367:229,1,76.4999976654053,0|2,0:0|0:0,0:0:0:0:
200,80,99625,6,0,B|233:40|302:21|302:21|317:39|327:59,1,152.999995330811
153,167,100206,1,2,0:0:0:0:
42,176,100399,2,0,P|45:136|72:93,1,76.4999976654053,0|2,0:0|0:0,0:0:0:0:
200,259,100786,6,0,L|123:267,1,76.4999976654053,2|2,0:0|0:0,0:0:0:0:
153,167,101173,1,12,0:0:0:0:
299,250,101367,1,0,0:0:0:0:
329,149,101561,2,0,L|220:162,1,76.4999976654053,4|2,3:2|3:2,0:0:0:0:
426,140,101948,6,0,B|421:89|372:57|372:57|316:65,1,152.999995330811
329,149,102528,1,6,0:0:0:0:
439,224,102722,1,0,0:0:0:0:
411,59,102915,1,6,0:0:0:0:
329,149,103109,6,0,L|340:234,1,76.4999976654053,2|2,0:0|0:0,0:0:0:0:
226,140,103496,2,0,L|237:55,1,76.4999976654053,0|12,3:0|3:2,0:0:0:0:
329,149,103883,1,0,0:0:0:0:
217,223,104077,1,6,0:0:0:0:
108,178,104270,6,0,L|93:102,1,76.4999976654053
153,32,104657,1,12,3:2:0:0:
108,178,104851,1,2,3:2:0:0:
102,200,104948,1,0,3:0:0:0:
95,221,105044,1,4,3:2:0:0:
208,221,105238,1,2,3:2:0:0:
213,243,105335,1,0,3:0:0:0:
218,265,105432,6,0,L|231:340,1,76.4999976654053,6|2,0:0|0:0,0:0:0:0:
375,340,105819,2,0,L|393:255,1,76.4999976654053,8|0,0:0|0:0,0:0:0:0:
306,180,106206,1,0,3:0:0:0:
306,180,106399,1,2,3:2:0:0:
414,175,106593,6,0,B|439:85|439:85|414:26,1,152.999995330811
244,69,107173,1,2,0:0:0:0:
244,69,107367,2,0,L|320:82,1,76.4999976654053,0|2,0:0|0:0,0:0:0:0:
135,205,107754,6,0,L|150:130,1,76.4999976654053,2|2,0:0|0:0,0:0:0:0:
242,229,108141,1,4,3:2:0:0:
261,319,108335,1,12,3:2:0:0:
108,367,108528,2,0,L|123:292,1,76.4999976654053
35,273,108915,5,2,0:0:0:0:
56,154,109109,1,2,0:0:0:0:
150,130,109303,2,0,L|135:205,1,76.4999976654053,0|2,0:0|0:0,0:0:0:0:
276,191,109690,2,0,L|247:120,1,76.4999976654053,4|6,0:0|0:0,0:0:0:0:
214,276,110077,5,2,0:0:0:0:
315,299,110270,1,2,0:0:0:0:
108,329,110464,2,0,L|122:224,1,76.4999976654053,12|0,0:0|0:0,0:0:0:0:
25,199,110851,2,0,L|7:302,1,76.4999976654053,4|6,3:2|3:2,0:0:0:0:
64,119,111238,6,0,P|149:109|212:65,1,152.999995330811,0|4,0:0|0:0,0:0:0:0:
299,117,111819,1,2,0:0:0:0:
287,25,112012,1,0,0:0:0:0:
224,161,112206,1,6,0:0:0:0:
394,141,112399,6,0,L|378:49,1,76.4999976654053,2|2,0:0|0:0,0:0:0:0:
476,90,112786,1,4,3:2:0:0:
410,228,112980,1,12,3:2:0:0:
319,196,113173,1,0,0:0:0:0:
486,178,113367,1,2,0:0:0:0:
501,267,113561,5,0,0:0:0:0:
317,347,113754,2,0,B|312:290|312:290|323:248|323:248|319:196,1,152.999995330811,8|2,0:0|0:0,0:0:0:0:
147,344,114335,1,4,3:2:0:0:
151,321,114432,1,0,3:0:0:0:
155,298,114528,1,6,3:2:0:0:
160,275,114625,1,4,3:2:0:0:
163,252,114722,6,0,L|179:158,1,76.4999976654053,2|2,0:0|0:0,0:0:0:0:
147,55,115109,1,12,0:0:0:0:
233,100,115303,2,0,B|287:109|287:109|328:97|328:97|389:108,1,152.999995330811,0|2,0:0|0:0,0:0:0:0:
474,148,115883,6,0,L|484:73,1,76.4999976654053,0|0,3:0|0:0,0:0:0:0:
362,204,116270,1,12,0:0:0:0:
461,228,116464,1,0,0:0:0:0:
335,196,116657,1,4,0:0:0:0:
303,67,116851,1,6,0:0:0:0:
401,30,117044,6,0,L|389:130,1,76.4999976654053,2|2,0:0|0:0,0:0:0:0:
303,67,117432,1,12,0:0:0:0:
335,196,117625,2,0,B|283:213|283:213|178:195,1,152.999995330811,0|2,0:0|0:0,0:0:0:0:
100,150,118206,6,0,L|85:249,1,76.4999976654053,0|0,3:0|3:0,0:0:0:0:
186,196,118593,1,4,0:0:0:0:
73,319,118786,1,8,0:0:0:0:
88,225,118980,1,4,0:0:0:0:
169,300,119173,1,2,0:0:0:0:
169,300,119270,1,0,0:0:0:0:
169,300,119367,6,0,P|209:313|259:311,1,76.4999976654053,2|2,0:0|0:0,0:0:0:0:
406,271,119754,1,12,0:0:0:0:
322,294,119948,2,0,L|309:197,1,76.4999976654053
274,81,120335,1,2,0:0:0:0:
274,81,120528,6,0,L|261:167,1,76.4999976654053
173,208,120915,1,12,0:0:0:0:
183,132,121109,1,2,0:0:0:0:
54,80,121303,1,4,0:0:0:0:
95,167,121496,1,2,0:0:0:0:
95,167,121593,1,0,0:0:0:0:
95,167,121690,6,0,L|82:253,1,76.4999976654053,2|2,0:0|0:0,0:0:0:0:
157,285,122077,1,0,0:0:0:0:
95,167,122270,1,12,0:0:0:0:
265,103,122464,1,0,0:0:0:0:
173,208,122657,1,6,0:0:0:0:
173,208,122754,1,4,0:0:0:0:
173,208,122851,6,0,L|184:132,1,76.4999976654053
344,53,123238,2,0,B|243:67|243:67|186:19,1,152.999995330811,12|0,0:0|0:0,3:0:0:0:
318,149,123819,1,8,3:2:0:0:
309,243,124012,6,0,L|384:232,1,76.4999976654053,2|2,0:0|0:0,0:0:0:0:
398,321,124399,1,0,0:0:0:0:
297,335,124593,1,12,0:0:0:0:
225,253,124786,1,0,0:0:0:0:
128,354,124980,1,6,0:0:0:0:
122,188,125173,6,0,L|139:272,1,76.4999976654053,0|0,3:0|0:0,0:0:0:0:
174,106,125561,1,12,3:2:0:0:
306,157,125754,2,0,P|253:111|160:110,1,152.999995330811,0|2,0:0|0:0,0:0:0:0:
382,53,126335,6,0,L|284:47,1,76.4999976654053,2|2,0:0|0:0,0:0:0:0:
306,157,126722,1,0,0:0:0:0:
409,132,126915,1,12,0:0:0:0:
379,235,127109,1,0,0:0:0:0:
505,107,127303,1,6,0:0:0:0:
488,213,127496,6,0,L|508:298,1,76.4999976654053
379,235,127883,1,12,0:0:0:0:
358,333,128077,2,0,L|262:357,1,76.4999976654053,2|0,0:0|0:0,0:0:0:0:
289,257,128464,1,2,0:0:0:0:
179,357,128657,5,2,0:0:0:0:
63,326,128851,1,2,0:0:0:0:
164,186,129044,1,12,0:0:0:0:
61,231,129238,2,0,B|40:180|40:180|65:72,1,152.999995330811,0|2,0:0|0:0,0:0:0:0:
241,269,129819,6,0,L|150:284,1,76.4999976654053
281,139,130206,2,0,L|367:158,1,76.4999976654053,12|2,0:0|0:0,0:0:0:0:
449,268,130593,1,0,0:0:0:0:
335,298,130786,1,6,0:0:0:0:
355,155,130980,5,2,0:0:0:0:
251,231,131173,2,0,L|93:256,1,152.999995330811,2|12,0:0|0:0,0:0:0:0:
24,131,131754,2,0,L|14:217,1,76.4999976654053,0|4,0:0|3:2,0:0:0:0:
99,171,132141,5,0,0:0:0:0:
26,91,132335,1,4,3:2:0:0:
4,281,132528,1,0,0:0:0:0:
180,203,132722,1,6,3:2:0:0:
115,78,132915,1,4,3:2:0:0:
110,102,133012,1,0,3:0:0:0:
106,126,133109,1,4,3:2:0:0:
102,150,133206,1,4,3:2:0:0:
99,171,133303,6,0,L|81:270,1,85,2|2,0:0|0:0,0:0:0:0:
186,233,133690,1,0,0:0:0:0:
302,76,133883,1,12,0:0:0:0:
318,182,134077,1,0,0:0:0:0:
192,70,134270,1,6,0:0:0:0:
410,83,134464,6,0,L|425:178,1,85
438,275,134851,1,12,0:0:0:0:
298,264,135044,1,2,0:0:0:0:
141,315,135238,2,0,L|156:222,1,85,0|8,0:0|0:0,0:0:0:0:
290,42,135625,5,2,0:0:0:0:
234,147,135819,1,2,0:0:0:0:
117,157,136012,2,0,P|54:137|79:30,1,170,12|0,0:0|0:0,0:0:0:0:
167,61,136593,1,2,0:0:0:0:
361,139,136786,6,0,P|337:84|307:58,1,85,0|0,0:0|0:0,0:0:0:0:
299,200,137173,1,12,0:0:0:0:
438,176,137367,1,2,0:0:0:0:
277,206,137561,1,12,0:0:0:0:
297,55,137754,1,6,0:0:0:0:
333,304,137948,6,0,L|245:287,1,85,2|2,0:0|0:0,0:0:0:0:
362,308,138335,1,0,0:0:0:0:
226,362,138528,1,12,0:0:0:0:
318,215,138722,1,0,0:0:0:0:
134,230,138915,1,2,0:0:0:0:
230,160,139109,6,0,P|260:102|210:-2,1,170,0|12,0:0|0:0,0:0:0:0:
73,166,139690,1,2,0:0:0:0:
158,85,139883,2,0,P|117:55|77:47,1,85,0|12,0:0|3:2,0:0:0:0:
57,49,140173,1,4,3:2:0:0:
57,49,140270,5,2,0:0:0:0:
73,166,140464,1,2,0:0:0:0:
238,239,140657,2,0,P|241:183|224:149,1,85,12|0,0:0|0:0,0:0:0:0:
142,255,141044,1,0,0:0:0:0:
158,85,141238,1,2,0:0:0:0:
339,245,141432,6,0,P|319:303|205:334,1,170,0|4,0:0|0:0,0:0:0:0:
237,239,142012,1,2,0:0:0:0:
106,315,142206,1,4,0:0:0:0:
159,130,142399,1,6,0:0:0:0:
321,230,142593,6,0,L|220:240,1,85,0|2,0:0|0:0,0:0:0:0:
133,231,142980,1,0,0:0:0:0:
92,345,143173,1,12,0:0:0:0:
126,248,143367,1,0,0:0:0:0:
290,333,143561,1,2,0:0:0:0:
250,154,143754,6,0,L|232:258,1,85,0|0,0:0|0:0,0:0:0:0:
396,153,144141,1,12,0:0:0:0:
326,49,144335,1,2,0:0:0:0:
250,154,144528,1,4,0:0:0:0:
91,192,144722,1,12,0:0:0:0:
183,55,144915,5,2,0:0:0:0:
250,154,145109,1,2,0:0:0:0:
245,264,145303,2,0,P|206:333|123:321,1,170,12|0,0:0|0:0,0:0:0:0:
160,240,145883,1,2,0:0:0:0:
228,98,146077,6,0,P|249:154|246:197,1,85,0|0,0:0|0:0,0:0:0:0:
160,240,146464,1,12,0:0:0:0:
228,98,146657,1,0,0:0:0:0:
342,158,146851,2,0,L|453:146,1,85,12|6,0:0|0:0,0:0:0:0:
510,209,147238,5,2,0:0:0:0:
448,147,147432,1,2,0:0:0:0:
509,220,147625,1,0,0:0:0:0:
336,251,147819,1,12,0:0:0:0:
403,71,148012,1,0,0:0:0:0:
423,238,148206,1,2,0:0:0:0:
245,270,148399,6,0,P|265:194|349:161,1,170,0|12,0:0|0:0,0:0:0:0:
336,251,148980,1,2,0:0:0:0:
254,360,149173,1,0,0:0:0:0:
43,261,149367,1,4,0:0:0:0:
252,92,149561,6,0,P|262:125|254:178,1,85,2|2,0:0|0:0,0:0:0:0:
58,148,149948,1,0,0:0:0:0:
212,241,150141,2,0,L|296:230,1,85,12|0,0:0|0:0,0:0:0:0:
152,137,150528,1,2,0:0:0:0:
114,256,150722,5,2,0:0:0:0:
351,305,150915,1,4,3:2:0:0:
236,52,151109,1,4,3:2:0:0:
277,142,151303,1,2,3:2:0:0:
296,126,151399,1,0,3:0:0:0:
320,118,151496,1,4,3:2:0:0:
345,119,151593,1,0,3:0:0:0:
368,129,151690,1,6,3:2:0:0:
391,138,151786,1,4,3:2:0:0:
416,139,151883,6,0,P|466:140|511:118,1,85,2|2,0:0|0:0,0:0:0:0:
470,234,152270,1,0,0:0:0:0:
416,139,152464,1,12,0:0:0:0:
319,234,152657,1,0,0:0:0:0:
259,78,152851,1,2,0:0:0:0:
159,161,153044,6,0,P|209:174|249:165,1,85,0|0,0:0|0:0,0:0:0:0:
146,71,153432,1,4,3:2:0:0:
67,198,153625,1,2,0:0:0:0:
170,245,153819,2,0,L|157:150,1,85,0|6,0:0|0:0,0:0:0:0:
88,312,154206,5,2,0:0:0:0:
88,312,154399,1,2,0:0:0:0:
186,337,154593,2,0,B|292:314|292:314|364:336,1,170,12|0,0:0|0:0,0:0:0:0:
463,184,155173,1,2,0:0:0:0:
463,184,155367,6,0,L|448:274,1,85,0|0,0:0|0:0,0:0:0:0:
293,120,155754,1,4,3:2:0:0:
363,220,155948,1,2,0:0:0:0:
387,55,156141,1,12,0:0:0:0:
262,145,156335,1,6,0:0:0:0:
363,220,156528,6,0,L|251:244,1,85,2|2,0:0|0:0,0:0:0:0:
189,209,156915,1,0,0:0:0:0:
75,264,157109,1,12,0:0:0:0:
146,120,157303,1,0,0:0:0:0:
201,228,157496,1,2,0:0:0:0:
46,134,157690,6,0,P|28:61|107:36,1,170,0|4,0:0|0:0,0:0:0:0:
146,120,158270,1,2,0:0:0:0:
75,264,158464,2,0,P|115:236|153:226,1,85,0|4,0:0|3:2,0:0:0:0:
184,221,158754,1,4,3:2:0:0:
184,221,158851,1,2,0:0:0:0:
310,327,159044,6,0,B|283:269|283:269|306:162,1,170,2|12,0:0|0:0,0:0:0:0:
263,96,159625,1,0,0:0:0:0:
146,120,159819,1,2,0:0:0:0:
286,14,160012,6,0,L|260:104,1,85,0|0,0:0|0:0,0:0:0:0:
294,233,160399,2,0,L|223:301,1,85,12|2,0:0|0:0,0:0:0:0:
337,332,160786,1,4,0:0:0:0:
148,262,160980,1,6,0:0:0:0:
294,233,161173,6,0,L|271:140,1,85,2|2,0:0|0:0,0:0:0:0:
386,85,161561,1,0,0:0:0:0:
294,233,161754,1,12,0:0:0:0:
417,204,161948,1,0,0:0:0:0:
260,115,162141,1,2,0:0:0:0:
294,233,162335,6,0,P|208:226|153:169,1,170,0|12,0:0|0:0,0:0:0:0:
260,115,162915,1,2,0:0:0:0:
61,114,163109,2,0,P|41:157|43:207,1,85,4|6,0:0|0:0,0:0:0:0:
232,321,163496,6,0,L|220:233,1,85,2|2,0:0|0:0,0:0:0:0:
152,168,163883,1,12,0:0:0:0:
232,321,164077,1,2,0:0:0:0:
101,334,164270,1,0,0:0:0:0:
152,168,164464,1,2,0:0:0:0:
257,110,164657,6,0,L|250:202,1,85,0|0,0:0|0:0,0:0:0:0:
368,169,165044,1,12,0:0:0:0:
370,276,165238,1,2,0:0:0:0:
479,193,165432,2,0,L|465:100,1,85,12|6,0:0|0:0,0:0:0:0:
354,61,165819,6,0,L|261:81,1,85,2|2,0:0|0:0,0:0:0:0:
112,172,166206,2,0,L|214:197,1,85,0|12,0:0|0:0,0:0:0:0:
266,309,166593,2,0,L|173:329,1,85,0|2,0:0|0:0,0:0:0:0:
266,309,166980,6,0,P|347:310|384:239,1,170,0|12,0:0|0:0,0:0:0:0:
270,192,167561,1,0,0:0:0:0:
153,204,167754,2,0,P|158:158|185:113,1,85,4|2,0:0|0:0,0:0:0:0:
409,113,168141,6,0,P|368:125|313:121,1,85,2|2,0:0|0:0,0:0:0:0:
174,123,168528,2,0,P|132:124|92:113,1,85,0|12,0:0|0:0,0:0:0:0:
256,54,168915,1,0,0:0:0:0:
256,196,169109,1,2,0:0:0:0:
145,283,169303,6,0,P|113:221|-4:210,1,170
229,337,169883,2,0,B|242:287|242:287|223:230|223:230|233:172,1,170,12|2,0:0|0:0,0:0:0:0:
393,104,170464,6,0,L|377:191,1,85,2|2,0:0|0:0,0:0:0:0:
245,77,170851,1,0,0:0:0:0:
232,173,171044,1,12,0:0:0:0:
333,23,171238,1,0,0:0:0:0:
146,120,171432,1,2,0:0:0:0:
298,258,171625,6,0,B|190:279|190:279|133:252,1,170,0|12,0:0|0:0,0:0:0:0:
267,148,172206,1,2,0:0:0:0:
163,165,172399,1,12,0:0:0:0:
256,58,172593,1,6,0:0:0:0:
365,199,172786,5,6,0:0:0:0:
225,153,179101,6,0,L|85:187,2,127.5,8|8|10,0:0|0:0|0:0,0:0:0:0:
282,293,179856,1,8,0:0:0:0:
304,281,179950,1,8,0:0:0:0:
323,264,180045,1,8,0:0:0:0:
331,240,180139,1,8,0:0:0:0:
337,215,180233,1,8,0:0:0:0:
340,189,180328,1,8,0:0:0:0:
343,163,180422,1,8,0:0:0:0:
346,137,180516,1,8,0:0:0:0:
349,111,180611,5,6,0:0:0:0:
68,275,180988,1,0,0:0:0:0:
139,114,181177,1,0,0:0:0:0:
139,114,181271,1,0,0:0:0:0:
139,114,181366,2,0,B|129:198|129:198|200:245,1,170,2|2,0:0|0:0,0:0:0:0:
256,157,181932,1,0,0:0:0:0:
312,245,182120,6,0,B|383:198|383:198|373:114,1,170,6|2,0:0|0:0,0:0:0:0:
460,70,182686,2,0,L|484:250,1,170,8|8,0:0|0:0,0:0:0:0:
312,245,183252,1,2,0:0:0:0:
301,348,183441,1,8,0:0:0:0:
248,160,183630,6,0,B|195:99|195:99|113:132,1,170,2|2,0:0|0:0,0:0:0:0:
216,325,184196,1,8,0:0:0:0:
223,292,184290,1,8,0:0:0:0:
231,259,184384,1,2,0:0:0:0:
337,170,184573,1,8,0:0:0:0:
405,290,184762,1,10,0:0:0:0:
397,107,184950,1,8,0:0:0:0:
397,107,185045,1,8,0:0:0:0:
397,107,185139,5,6,0:0:0:0:
248,160,185328,2,0,L|263:73,1,85,8|2,0:0|0:0,0:0:0:0:
113,132,185705,2,0,L|152:167,1,42.5,8|2,0:0|0:0,0:0:0:0:
27,265,185988,2,0,L|19:211,1,42.5,2|8,0:0|0:0,0:0:0:0:
161,314,186271,1,2,0:0:0:0:
161,314,186366,1,2,0:0:0:0:
161,314,186460,2,0,L|153:356,1,42.5,8|0,0:0|0:0,0:0:0:0:
237,270,186649,6,0,P|272:288|323:285,1,85,2|8,0:0|0:0,0:0:0:0:
415,127,187026,1,2,0:0:0:0:
412,244,187215,1,8,0:0:0:0:
412,244,187309,1,2,0:0:0:0:
286,161,187498,1,2,0:0:0:0:
286,161,187592,2,0,L|266:82,1,42.5,8|2,0:0|0:0,0:0:0:0:
185,77,187781,2,0,L|176:118,1,42.5,2|8,0:0|0:0,0:0:0:0:
98,46,187969,2,0,L|87:5,1,42.5,0|8,0:0|0:0,0:0:0:0:
90,129,188158,6,0,B|117:198|187:200|187:200|137:210,1,170,6|2,0:0|0:0,0:0:0:0:
287,118,188724,1,8,0:0:0:0:
287,118,188818,1,2,0:0:0:0:
433,210,189007,1,0,0:0:0:0:
433,210,189101,1,0,0:0:0:0:
399,95,189290,1,0,0:0:0:0:
279,224,189479,1,0,0:0:0:0:
333,8,189667,6,0,P|254:7|181:62,1,170,2|2,0:0|0:0,0:0:0:0:
51,199,190233,1,8,0:0:0:0:
69,181,190328,1,2,0:0:0:0:
87,163,190422,2,0,P|119:251|84:320,1,170,0|8,0:0|0:0,0:0:0:0:
220,344,190988,1,2,0:0:0:0:
253,135,191177,6,0,L|171:156,1,85,6|2,0:0|0:0,0:0:0:0:
368,244,191554,2,0,L|452:258,1,85,8|2,0:0|0:0,0:0:0:0:
268,324,191932,2,0,L|226:250,1,85,8|0,0:0|0:0,0:0:0:0:
354,65,192309,2,0,L|396:139,1,85,8|2,0:0|0:0,0:0:0:0:
452,258,192686,5,6,0:0:0:0:
169,99,193064,1,8,0:0:0:0:
255,147,193441,1,8,0:0:0:0:
341,195,193818,1,2,0:0:0:0:
183,250,194007,1,8,0:0:0:0:
158,258,194101,1,8,0:0:0:0:
134,268,194196,6,0,B|109:203|109:203|130:102,1,170,6|8,0:0|0:0,0:0:0:0:
353,165,194762,2,0,B|378:230|378:230|357:331,1,170,2|2,0:0|0:0,0:0:0:0:
134,268,195328,2,0,B|190:252|190:252|222:260,1,85,8|0,0:0|0:0,0:0:0:0:
80,192,195705,6,0,L|97:91,1,85,2|2,0:0|0:0,0:0:0:0:
250,8,196083,1,8,0:0:0:0:
271,123,196271,1,0,0:0:0:0:
305,119,196366,1,8,0:0:0:0:
337,108,196460,1,2,0:0:0:0:
367,93,196554,1,8,0:0:0:0:
393,71,196649,1,2,0:0:0:0:
290,229,196837,1,8,0:0:0:0:
404,285,197026,1,2,0:0:0:0:
465,187,197215,6,0,L|374:207,1,85,6|0,0:0|0:0,0:0:0:0:
133,223,197592,1,8,0:0:0:0:
163,240,197686,1,0,0:0:0:0:
184,267,197781,1,2,0:0:0:0:
199,298,197875,1,8,0:0:0:0:
203,332,197969,1,2,0:0:0:0:
260,157,198158,2,0,L|243:74,1,85,2|8,0:0|0:0,0:0:0:0:
184,267,198535,2,0,L|239:281,1,42.5,2|0,0:0|0:0,0:0:0:0:
302,347,198724,6,0,L|401:319,1,85,2|2,0:0|0:0,0:0:0:0:
376,138,199101,1,8,0:0:0:0:
348,158,199196,1,0,0:0:0:0:
328,185,199290,1,2,0:0:0:0:
314,215,199384,1,8,0:0:0:0:
303,247,199479,1,2,0:0:0:0:
484,166,199667,1,2,0:0:0:0:
263,90,199856,1,8,0:0:0:0:
280,72,199950,1,0,0:0:0:0:
300,56,200045,1,2,0:0:0:0:
323,46,200139,1,2,0:0:0:0:
347,41,200233,6,0,P|250:44|171:22,1,170,6|8,0:0|0:0,0:0:0:0:
32,31,200799,1,0,0:0:0:0:
98,137,200988,2,0,P|54:157|9:160,1,85,2|2,0:0|0:0,0:0:0:0:
219,173,201366,2,0,P|236:216|241:265,1,85,8|0,0:0|0:0,0:0:0:0:
376,196,201743,5,2,0:0:0:0:
353,85,201932,1,2,0:0:0:0:
322,274,202120,1,8,0:0:0:0:
512,202,202309,2,0,L|507:148,1,42.5,0|8,0:0|0:0,0:0:0:0:
443,269,202498,1,2,0:0:0:0:
439,302,202592,1,8,0:0:0:0:
436,335,202686,1,2,0:0:0:0:
239,209,202875,2,0,P|285:190|330:179,1,85,8|2,0:0|0:0,0:0:0:0:
305,308,203252,5,6,0:0:0:0:
163,265,203441,1,2,0:0:0:0:
208,350,203630,1,8,0:0:0:0:
78,210,203818,1,0,0:0:0:0:
37,320,204007,1,8,0:0:0:0:
118,131,204196,1,2,0:0:0:0:
3,156,204384,1,8,0:0:0:0:
238,64,204573,1,2,0:0:0:0:
127,39,204762,5,8,0:0:0:0:
240,168,204950,1,2,0:0:0:0:
238,64,205139,1,8,0:0:0:0:
138,233,205328,1,2,0:0:0:0:
333,233,205516,1,8,0:0:0:0:
333,233,205894,1,2,0:0:0:0:
312,212,205988,1,0,0:0:0:0:
287,194,206083,1,2,0:0:0:0:
263,176,206177,1,8,0:0:0:0:
236,163,206271,6,0,P|189:147|150:149,1,85,6|8,0:0|0:0,0:0:0:0:
256,288,206649,1,2,0:0:0:0:
132,325,206837,2,0,L|178:311,1,42.5,8|2,0:0|0:0,0:0:0:0:
55,282,207026,2,0,L|72:198,1,85,2|8,0:0|0:0,0:0:0:0:
221,79,207403,2,0,L|238:177,1,85,0|8,0:0|0:0,0:0:0:0:
456,232,207781,5,2,0:0:0:0:
379,184,207969,1,8,0:0:0:0:
347,196,208064,2,0,L|325:315,1,85,2|2,0:0|0:0,0:0:0:0:
260,307,208347,2,0,L|267:363,1,42.5,2|8,0:0|0:0,0:0:0:0:
243,231,208535,2,0,P|200:207|156:204,1,85,2|8,0:0|0:0,0:0:0:0:
163,334,208913,1,2,0:0:0:0:
39,187,209101,1,2,0:0:0:0:
39,187,209196,1,8,0:0:0:0:
39,187,209290,6,0,L|-8:232,2,50.9999984436036,2|2|8,0:0|0:0|0:0,0:0:0:0:
91,125,209573,2,0,L|214:105,1,101.999996887207,2|2,0:0|0:0,0:0:0:0:
213,105,209856,1,8,0:0:0:0:
367,273,210045,6,0,L|377:223,2,50.9999984436036,2|2|8,0:0|0:0|0:0,0:0:0:0:
294,325,210328,2,0,L|272:202,1,101.999996887207,2|2,0:0|0:0,0:0:0:0:
273,202,210611,1,8,0:0:0:0:
171,13,210799,6,0,B|240:58|240:58|265:147,2,152.999995330811,8|8|8,0:0|0:0|0:0,0:0:0:0:
45,78,211554,2,0,B|32:126|32:126|39:178,1,101.999996887207,2|8,0:0|0:0,0:0:0:0:
184,302,211932,1,2,0:0:0:0:
177,272,212026,1,8,0:0:0:0:
171,241,212120,1,8,0:0:0:0:
164,210,212215,1,8,0:0:0:0:
155,180,212309,6,0,L|138:84,1,85,0|8,0:0|0:0,0:0:0:0:
117,0,212686,1,2,0:0:0:0:
287,62,212875,2,0,L|275:128,1,42.5,8|0,0:0|0:0,0:0:0:0:
365,79,213064,2,0,B|417:80|461:63,1,85,2|8,0:0|0:0,0:0:0:0:
511,162,213441,2,0,P|512:204|505:246,1,85,0|8,0:0|0:0,0:0:0:0:
432,366,213818,5,2,0:0:0:0:
318,273,214007,1,8,0:0:0:0:
295,284,214101,2,0,L|271:163,1,85,2|2,0:0|0:0,0:0:0:0:
211,142,214384,2,0,L|193:203,1,42.5,8|2,0:0|0:0,0:0:0:0:
134,105,214573,2,0,P|104:66|96:8,1,85,2|8,0:0|0:0,0:0:0:0:
3,142,214950,1,2,0:0:0:0:
108,222,215139,1,2,0:0:0:0:
108,222,215233,1,8,0:0:0:0:
108,222,215328,6,0,L|96:289,2,50.9999984436036,2|2|8,0:0|0:0|0:0,0:0:0:0:
186,177,215611,2,0,L|205:288,1,101.999996887207,2|2,0:0|0:0,0:0:0:0:
206,296,215894,1,8,0:0:0:0:
394,315,216083,6,0,L|384:264,2,50.9999984436036,0|2|8,0:0|0:0|0:0,0:0:0:0:
320,357,216366,2,0,L|296:224,1,101.999996887207,2|2,0:0|0:0,0:0:0:0:
298,233,216649,1,8,0:0:0:0:
128,91,216837,5,8,0:0:0:0:
40,288,217120,1,8,0:0:0:0:
256,258,217403,1,8,0:0:0:0:
256,144,217592,1,6,0:0:0:0:
256,144,217969,1,2,0:0:0:0:
256,144,218347,5,6,0:0:0:0:
440,248,224443,6,0,B|368:228|328:248|328:248|288:184,1,170,4|8,0:0|0:0,0:0:0:0:
272,112,225024,1,0,0:0:0:0:
384,160,225217,1,2,0:0:0:0:
196,216,225411,1,0,0:0:0:0:
188,196,225508,1,0,0:0:0:0:
180,176,225605,1,8,0:0:0:0:
172,156,225701,1,0,0:0:0:0:
164,136,225798,1,0,0:0:0:0:
156,116,225895,1,0,0:0:0:0:
148,96,225992,6,0,P|100:92|60:96,1,85,4|0,0:0|0:0,0:0:0:0:
56,116,226282,1,0,0:0:0:0:
48,136,226379,2,0,P|32:192|32:240,1,85,8|0,0:0|0:0,0:0:0:0:
112,288,226766,2,0,L|180:264,1,42.5,2|0,0:0|0:0,0:0:0:0:
220,312,226959,2,0,L|260:326,1,42.5,0|0,0:0|0:0,0:0:0:0:
332,288,227153,2,0,L|400:264,1,42.5,8|0,0:0|0:0,0:0:0:0:
440,312,227347,2,0,L|480:326,1,42.5,0|0,0:0|0:0,0:0:0:0:
440,224,227540,6,0,P|424:176|416:124,1,85,4|0,0:0|0:0,0:0:0:0:
417,142,227830,1,0,0:0:0:0:
417,142,227927,1,8,0:0:0:0:
376,48,228217,1,0,0:0:0:0:
376,48,228314,2,0,L|304:48,1,42.5,2|0,0:0|0:0,0:0:0:0:
216,92,228508,2,0,L|288:92,1,42.5,0|0,0:0|0:0,0:0:0:0:
164,32,228701,2,0,L|92:32,1,42.5,8|0,0:0|0:0,0:0:0:0:
12,86,228895,2,0,L|84:86,1,42.5,0|0,0:0|0:0,0:0:0:0:
184,188,229088,6,0,P|152:144|100:128,1,85,4|0,0:0|0:0,0:0:0:0:
216,260,229379,1,0,0:0:0:0:
216,260,229476,2,0,P|168:244|104:244,1,85,8|0,0:0|0:0,0:0:0:0:
252,328,229766,1,0,0:0:0:0:
252,328,229863,2,0,P|180:336|116:356,1,127.5,4|0,0:0|0:0,0:0:0:0:
344,376,230250,1,8,0:0:0:0:
352,360,230347,1,0,0:0:0:0:
364,344,230443,1,0,0:0:0:0:
376,324,230540,1,0,0:0:0:0:
392,304,230637,6,0,B|432:224|432:224|456:264,1,101.999996887207,4|0,0:0|0:0,0:0:0:0:
400,156,230927,1,0,0:0:0:0:
400,156,231024,2,0,P|492:168|512:196,1,101.999996887207,8|0,0:0|0:0,0:0:0:0:
316,64,231411,2,0,P|224:52|204:24,1,101.999996887207,2|0,0:0|0:0,0:0:0:0:
396,56,231701,1,0,0:0:0:0:
396,56,231798,2,0,L|396:120,1,50.9999984436036,8|0,0:0|0:0,0:0:0:0:
320,216,231992,2,0,L|320:165,1,50.9999984436036,0|0,0:0|0:0,0:0:0:0:
248,112,232185,6,0,B|192:72|128:80|128:80|136:136,1,152.999995330811,4|0,0:0|0:0,0:0:0:0:
204,204,232572,1,8,0:0:0:0:
220,184,232669,1,0,0:0:0:0:
232,160,232766,1,0,0:0:0:0:
240,136,232863,1,0,0:0:0:0:
248,112,232959,2,0,P|268:24|264:-16,1,101.999996887207,2|0,0:0|0:0,0:0:0:0:
231,7,233250,1,0,0:0:0:0:
231,7,233347,2,0,P|180:4|130:11,1,101.999996887207,8|0,0:0|0:0,0:0:0:0:
228,360,233734,6,4,B|203:245|273:268|228:135,1,203.999993774414,4|12,0:0|0:0,0:0:0:0:
312,92,234314,1,0,0:0:0:0:
336,80,234411,1,0,0:0:0:0:
360,72,234508,1,2,0:0:0:0:
288,304,234701,1,0,0:0:0:0:
72,196,234895,2,0,P|152:200|200:204,1,101.999996887207,8|0,0:0|0:0,0:0:0:0:
288,304,235282,6,4,P|333:291|364:246,1,85,0|0,0:0|0:0,0:0:0:0:
274,122,235863,1,0,0:0:0:0:
274,122,235959,1,0,0:0:0:0:
274,122,236056,2,2,L|286:220,1,85,2|10,0:0|0:0,0:0:0:0:
224,8,236637,1,2,0:0:0:0:
48,92,236830,6,0,L|127:80,1,59.4999981842042,0|0,0:0|0:0,0:0:0:0:
221,156,237024,2,0,L|163:145,1,59.4999981842042,0|0,0:0|0:0,0:0:0:0:
37,204,237217,2,0,L|96:195,1,59.4999981842042,8|0,0:0|0:0,0:0:0:0:
226,247,237411,2,0,L|168:237,1,59.4999981842042,0|0,0:0|0:0,0:0:0:0:
215,365,237605,2,0,L|227:230,1,118.999996368408,0|0,0:0|0:0,0:0:0:0:
333,105,237992,2,0,L|348:231,1,118.999996368408,8|0,0:0|0:0,0:0:0:0:
312,304,238379,6,0,P|380:304|440:248,1,118.999996368408
347,223,238669,1,0,0:0:0:0:
347,223,238766,2,0,P|383:163|366:66,1,118.999996368408,8|0,0:0|0:0,0:0:0:0:
302,144,239056,1,0,0:0:0:0:
302,144,239153,2,0,P|282:60|246:20,1,118.999996368408
219,111,239443,1,0,0:0:0:0:
219,111,239540,2,0,P|151:63|101:58,1,118.999996368408,8|0,0:0|0:0,0:0:0:0:
60,224,239927,5,0,0:0:0:0:
92,224,240024,1,0,0:0:0:0:
124,224,240121,1,0,0:0:0:0:
156,224,240217,1,0,0:0:0:0:
188,224,240314,2,0,P|276:224|344:248,1,118.999996368408,8|0,0:0|0:0,0:0:0:0:
408,352,240701,1,0,0:0:0:0:
416,320,240798,1,0,0:0:0:0:
424,288,240895,1,0,0:0:0:0:
432,256,240992,1,0,0:0:0:0:
440,224,241088,2,0,L|468:88,1,118.999996368408,8|0,0:0|0:0,0:0:0:0:
332,48,241476,6,2,B|256:88|184:32|184:32|184:32|91:74|159:184,1,297.499990921021,0|0,0:0|0:0,0:0:0:0:
142,150,242056,1,0,0:0:0:0:
142,150,242153,1,0,0:0:0:0:
142,150,242250,2,0,P|207:175|184:335,1,237.999992736817,0|0,0:0|0:0,0:0:0:0:
204,322,242734,1,0,0:0:0:0:
204,322,242830,1,0,0:0:0:0:
80,319,243024,5,4,0:0:0:0:
111,318,243121,1,0,0:0:0:0:
142,318,243217,1,0,0:0:0:0:
173,320,243314,1,0,0:0:0:0:
204,322,243411,1,8,0:0:0:0:
235,322,243508,1,0,0:0:0:0:
266,322,243605,1,0,0:0:0:0:
297,323,243701,1,0,0:0:0:0:
328,323,243798,2,0,L|404:291,3,59.4999981842042,0|0|0|0,0:0|0:0|0:0|0:0,0:0:0:0:
453,255,244185,2,0,L|507:277,1,59.4999981842042,8|0,0:0|0:0,0:0:0:0:
394,194,244379,2,0,L|335:218,1,59.4999981842042,0|0,0:0|0:0,0:0:0:0:
278,96,244572,6,0,L|220:72,3,59.4999981842042,4|0|0|0,0:0|0:0|0:0|0:0,0:0:0:0:
176,140,244959,2,0,P|140:56|276:16,1,237.999992736817,8|0,0:0|0:0,0:0:0:0:
240,196,245443,2,0,L|148:228,1,59.4999981842042,0|0,0:0|0:0,0:0:0:0:
144,312,245637,1,0,0:0:0:0:
144,312,245734,2,0,L|204:344,3,59.4999981842042,8|0|0|0,0:0|0:0|0:0|0:0,0:0:0:0:
311,342,246121,6,0,L|368:312,3,59.4999981842042,4|0|0|0,0:0|0:0|0:0|0:0,0:0:0:0:
436,239,246508,2,0,L|436:176,3,59.4999981842042,8|0|0|0,0:0|0:0|0:0|0:0,0:0:0:0:
376,96,246895,2,0,L|304:44,3,59.4999981842042,0|0|0|0,0:0|0:0|0:0|0:0,0:0:0:0:
200,56,247282,2,0,L|116:88,3,59.4999981842042,8|0|0|0,0:0|0:0|0:0|0:0,0:0:0:0:
66,150,247669,6,4,P|38:242|74:314,2,158.666661824544,0|0|0,0:0|0:0|0:0,0:0:0:0:
200,56,248443,1,0,0:0:0:0:
200,56,248540,1,0,0:0:0:0:
200,56,248637,2,0,P|272:56|280:56,1,59.4999981842042,0|0,0:0|0:0,0:0:0:0:
460,120,248830,2,0,P|325:120|310:120,1,118.999996368408,8|0,0:0|0:0,0:0:0:0:
246,145,249121,6,2,P|208:231|256:297,2,178.499994552612,0|0|0,0:0|0:0|0:0,0:0:0:0:
376,256,249992,1,0,0:0:0:0:
376,256,250088,1,0,0:0:0:0:
376,256,250185,2,0,L|340:316,1,59.4999981842042,0|0,0:0|0:0,0:0:0:0:
120,376,250379,2,0,P|204:372|268:384,1,118.999996368408,8|0,0:0|0:0,0:0:0:0:
460,364,250669,6,2,B|444:272|492:272|453:163,2,178.499994552612,0|0|0,0:0|0:0|0:0,0:0:0:0:
396,88,251540,1,0,0:0:0:0:
396,88,251637,1,0,0:0:0:0:
396,88,251734,2,0,L|324:68,1,59.4999981842042,0|0,0:0|0:0,0:0:0:0:
92,120,251927,2,0,P|200:120|272:124,1,178.499994552612,8|0,0:0|0:0,0:0:0:0:
256,192,252314,12,0,256959,0:0:0:0:
99,170,262005,6,0,L|87:226,2,42.5,2|0|0,0:0|0:0|0:0,0:0:0:0:
172,95,262286,1,0,0:0:0:0:
151,79,262380,2,0,L|112:41,2,42.5,2|0|0,0:0|0:0|0:0,0:0:0:0:
253,167,262661,1,0,0:0:0:0:
276,159,262755,2,0,L|339:129,2,42.5,2|0|0,0:0|0:0|0:0,0:0:0:0:
203,257,263036,1,0,0:0:0:0:
210,279,263130,2,0,L|225:329,2,42.5,2|0|0,0:0|0:0|0:0,0:0:0:0:
253,167,263411,1,0,0:0:0:0:
256,141,263505,6,0,L|264:88,2,42.5,2|0|0,0:0|0:0|0:0,0:0:0:0:
336,237,263786,1,0,0:0:0:0:
344,262,263880,2,0,L|359:315,2,42.5,2|0|0,0:0|0:0|0:0,0:0:0:0:
371,141,264161,1,0,0:0:0:0:
397,145,264255,2,0,B|441:148|481:167|481:167|482:132|452:86,1,170,2|0,0:0|0:0,0:0:0:0:
437,69,264723,1,2,0:0:0:0:
413,58,264817,1,2,0:0:0:0:
389,47,264911,1,2,0:0:0:0:
365,37,265005,6,0,P|301:26|190:82,1,170,6|0,0:0|0:0,0:0:0:0:
133,235,265567,2,0,P|125:154|42:118,1,170,0|0,0:0|0:0,0:0:0:0:
28,288,266130,2,0,P|30:249|64:193,1,85,0|2,0:0|0:0,0:0:0:0:
184,339,266505,6,0,P|272:332|342:281,3,170,0|2|0|2,0:0|0:0|0:0|0:0,0:0:0:0:
221,198,267817,1,0,0:0:0:0:
202,74,268005,6,0,P|125:110|93:186,1,170,2|0,0:0|0:0,0:0:0:0:
308,151,268567,2,0,P|339:81|299:-6,1,170,0|0,0:0|0:0,0:0:0:0:
123,97,269130,2,0,P|164:75|215:76,1,85,0|2,0:0|0:0,0:0:0:0:
308,151,269505,6,0,B|409:156|409:156|459:94,2,170,0|2|2,0:0|0:0|0:0,0:0:0:0:
284,159,270348,1,0,0:0:0:0:
264,175,270442,1,2,0:0:0:0:
258,199,270536,1,0,0:0:0:0:
270,221,270630,1,2,0:0:0:0:
294,228,270723,1,2,0:0:0:0:
318,235,270817,1,2,0:0:0:0:
339,249,270911,1,2,0:0:0:0:
347,267,271005,6,0,B|340:281|340:281|317:291|284:277|284:277|249:296,1,102,6|0,0:0|0:0,0:0:0:0:
177,271,271380,6,0,L|165:323,1,42.5,0|0,0:0|0:0,0:0:0:0:
121,203,271567,2,0,B|137:168|118:137|118:137|138:106,1,102,6|0,0:0|0:0,0:0:0:0:
239,33,271942,6,0,L|231:86,1,42.5,0|0,0:0|0:0,0:0:0:0:
321,106,272130,2,0,B|330:144|319:160|319:160|324:183,1,68,2|0,0:0|0:0,0:0:0:0:
293,256,272505,5,2,0:0:0:0:
296,272,272598,1,2,0:0:0:0:
301,288,272692,1,2,0:0:0:0:
306,304,272786,1,2,0:0:0:0:
310,334,272880,5,2,0:0:0:0:
280,316,272973,1,2,0:0:0:0:
246,309,273067,1,2,0:0:0:0:
211,310,273161,1,2,0:0:0:0:
179,311,273255,6,0,P|132:315|80:333,1,85,2|0,0:0|0:0,0:0:0:0:
0,164,273630,2,0,P|47:162|109:149,1,85,2|0,0:0|0:0,0:0:0:0:
187,24,274005,6,0,L|199:114,1,85,2|0,0:0|0:0,0:0:0:0:
317,94,274380,2,0,L|305:184,1,85,2|0,0:0|0:0,0:0:0:0:
164,268,274755,2,0,L|153:184,1,85,2|0,0:0|0:0,0:0:0:0:
349,358,275130,2,0,L|361:274,1,85,2|0,0:0|0:0,0:0:0:0:
173,105,275505,6,0,P|247:65|332:62,1,170,2|0,0:0|0:0,0:0:0:0:
269,196,276067,1,2,0:0:0:0:
268,213,276161,1,2,0:0:0:0:
267,230,276255,2,0,P|217:231|163:247,1,85,2|2,0:0|0:0,0:0:0:0:
69,314,276630,1,2,0:0:0:0:
71,288,276723,1,2,0:0:0:0:
73,262,276817,1,2,0:0:0:0:
76,236,276911,1,2,0:0:0:0:
77,210,277005,6,0,L|87:113,1,85,6|0,0:0|0:0,0:0:0:0:
187,217,277380,1,2,0:0:0:0:
186,86,277567,1,0,0:0:0:0:
186,86,277661,1,0,0:0:0:0:
186,86,277755,2,0,L|258:142,1,85,2|0,0:0|0:0,0:0:0:0:
341,112,278130,2,0,L|362:20,1,85,2|0,0:0|0:0,0:0:0:0:
489,139,278505,6,0,L|389:168,1,85,2|0,0:0|0:0,0:0:0:0:
479,256,278880,1,2,0:0:0:0:
318,230,279067,1,0,0:0:0:0:
318,230,279161,1,0,0:0:0:0:
318,230,279255,2,0,L|297:145,1,85,2|0,0:0|0:0,0:0:0:0:
279,314,279630,2,0,L|174:326,1,85,2|0,0:0|0:0,0:0:0:0:
123,180,280005,6,0,L|123:279,1,85,2|0,0:0|0:0,0:0:0:0:
223,201,280380,1,2,0:0:0:0:
195,52,280567,1,0,0:0:0:0:
195,52,280661,1,0,0:0:0:0:
195,52,280755,2,0,L|311:81,1,85,2|0,0:0|0:0,0:0:0:0:
359,147,281130,2,0,L|473:119,1,85,2|0,0:0|0:0,0:0:0:0:
251,172,281505,5,2,0:0:0:0:
398,223,281692,1,2,0:0:0:0:
277,72,281880,1,2,0:0:0:0:
320,269,282067,1,2,0:0:0:0:
359,147,282255,1,2,0:0:0:0:
227,265,282442,1,2,0:0:0:0:
305,341,282630,1,2,0:0:0:0:
251,172,282817,1,2,0:0:0:0:
137,251,283005,5,2,0:0:0:0:
138,243,283098,1,0,0:0:0:0:
138,234,283192,1,2,0:0:0:0:
139,225,283286,1,0,0:0:0:0:
140,216,283380,1,2,0:0:0:0:
141,207,283473,1,0,0:0:0:0:
142,198,283567,1,2,0:0:0:0:
143,189,283661,1,0,0:0:0:0:
144,178,283755,2,0,L|149:123,3,42.5,2|0|0|0,0:0|0:0|0:0|0:0,0:0:0:0:
220,100,284130,2,0,L|253:46,3,42.5,2|0|2|2,0:0|0:0|0:0|0:0,0:0:0:0:
319,76,284505,6,0,L|367:65,1,42.5,2|0,0:0|0:0,0:0:0:0:
296,310,284786,2,0,L|239:297,1,42.5,2|0,0:0|0:0,0:0:0:0:
440,114,285067,2,0,L|460:167,1,42.5,2|0,0:0|0:0,0:0:0:0:
125,97,285348,2,0,L|138:46,1,42.5,2|0,0:0|0:0,0:0:0:0:
296,310,285630,2,0,B|272:321|272:321|238:319|238:319|205:338,1,85,2|2,0:0|0:0,0:0:0:0:
426,332,286005,1,0,0:0:0:0:
353,178,286192,5,2,0:0:0:0:
353,178,286286,1,0,0:0:0:0:
304,70,286473,1,2,0:0:0:0:
304,70,286567,1,0,0:0:0:0:
222,212,286755,1,2,0:0:0:0:
222,212,286848,1,0,0:0:0:0:
187,52,287036,1,2,0:0:0:0:
187,52,287130,1,0,0:0:0:0:
84,248,287317,1,2,0:0:0:0:
159,349,287505,6,0,P|200:346|243:323,1,85,2|0,0:0|0:0,0:0:0:0:
357,180,287880,2,0,P|376:232|377:269,1,85,2|0,0:0|0:0,0:0:0:0:
254,115,288255,2,0,P|280:81|334:51,1,85,2|0,0:0|0:0,0:0:0:0:
150,184,288630,2,0,P|109:175|64:133,1,85,2|0,0:0|0:0,0:0:0:0:
228,276,289005,5,2,0:0:0:0:
240,274,289098,1,0,0:0:0:0:
252,272,289192,1,2,0:0:0:0:
264,270,289286,1,0,0:0:0:0:
276,268,289380,1,2,0:0:0:0:
288,266,289473,1,0,0:0:0:0:
300,264,289567,1,2,0:0:0:0:
312,262,289661,1,0,0:0:0:0:
324,260,289755,2,0,L|394:247,3,42.5
428,312,290130,2,0,L|479:331,3,42.5,2|0|0|0,0:0|0:0|0:0|0:0,0:0:0:0:
450,228,290505,5,2,0:0:0:0:
446,215,290598,1,0,0:0:0:0:
443,202,290692,1,2,0:0:0:0:
439,189,290786,1,0,0:0:0:0:
435,176,290880,1,2,0:0:0:0:
432,163,290973,1,0,0:0:0:0:
429,150,291067,1,2,0:0:0:0:
426,137,291161,1,0,0:0:0:0:
422,124,291255,2,0,L|410:76,3,42.5
342,49,291630,2,0,L|351:5,3,42.5,2|0|0|0,0:0|0:0|0:0|0:0,0:0:0:0:
326,134,292005,5,2,0:0:0:0:
314,132,292098,1,0,0:0:0:0:
302,130,292192,1,2,0:0:0:0:
290,128,292286,1,0,0:0:0:0:
278,126,292380,1,2,0:0:0:0:
266,124,292473,1,0,0:0:0:0:
254,122,292567,1,2,0:0:0:0:
242,120,292661,1,0,0:0:0:0:
230,118,292755,2,0,L|160:105,3,42.5,0|0|0|0,0:0|0:0|0:0|0:0,0:0:0:0:
122,64,293130,2,0,L|71:83,3,42.5,2|0|0|0,0:0|0:0|0:0|0:0,0:0:0:0:
111,151,293505,5,2,0:0:0:0:
107,164,293598,1,0,0:0:0:0:
104,177,293692,1,2,0:0:0:0:
100,190,293786,1,0,0:0:0:0:
96,203,293880,1,2,0:0:0:0:
93,216,293973,1,0,0:0:0:0:
90,229,294067,1,2,0:0:0:0:
87,242,294161,1,0,0:0:0:0:
85,254,294255,2,0,L|73:302,3,42.5
143,350,294630,2,0,L|229:327,1,85,2|2,0:0|0:0,0:0:0:0:
344,211,295005,5,2,0:0:0:0:
330,314,295192,1,0,0:0:0:0:
347,188,295380,1,2,0:0:0:0:
453,256,295567,1,0,0:0:0:0:
397,114,295755,1,2,0:0:0:0:
265,199,295942,1,0,0:0:0:0:
417,101,296130,1,2,0:0:0:0:
263,23,296317,1,0,0:0:0:0:
167,145,296505,5,2,0:0:0:0:
164,136,296598,1,0,0:0:0:0:
161,127,296692,1,0,0:0:0:0:
158,118,296786,1,0,0:0:0:0:
148,95,296880,5,2,0:0:0:0:
128,132,296973,1,0,0:0:0:0:
124,174,297067,1,2,0:0:0:0:
133,215,297161,1,0,0:0:0:0:
148,254,297255,6,0,P|164:297|31:271,1,255,2|0,0:0|0:0,0:0:0:0:
46,182,298005,5,2,0:0:0:0:
26,308,298192,1,0,0:0:0:0:
51,147,298380,1,2,0:0:0:0:
148,254,298567,1,0,0:0:0:0:
180,151,298755,1,2,0:0:0:0:
271,258,298942,1,0,0:0:0:0:
186,129,299130,1,2,0:0:0:0:
350,164,299317,1,0,0:0:0:0:
368,322,299505,6,0,L|415:306,3,42.5,2|0|0|0,0:0|0:0|0:0|0:0,0:0:0:0:
490,315,299880,2,0,L|512:266,3,42.5,2|0|0|0,0:0|0:0|0:0|0:0,0:0:0:0:
462,209,300255,5,2,0:0:0:0:
464,188,300348,1,0,0:0:0:0:
468,167,300442,1,0,0:0:0:0:
472,146,300536,1,0,0:0:0:0:
491,123,300630,5,2,0:0:0:0:
494,81,300723,1,0,0:0:0:0:
470,45,300817,1,2,0:0:0:0:
427,38,300911,1,0,0:0:0:0:
395,66,301005,5,6,0:0:0:0:
280,171,301192,1,0,0:0:0:0:
294,70,301380,1,2,0:0:0:0:
370,242,301567,1,0,0:0:0:0:
262,272,301755,1,2,0:0:0:0:
383,138,301942,1,0,0:0:0:0:
294,70,302130,5,2,0:0:0:0:
166,211,302317,1,0,0:0:0:0:
178,109,302505,5,2,0:0:0:0:
262,272,302692,1,0,0:0:0:0:
189,131,302880,1,2,0:0:0:0:
158,227,303067,1,0,0:0:0:0:
217,35,303255,1,2,0:0:0:0:
303,145,303442,1,0,0:0:0:0:
157,131,303630,1,2,0:0:0:0:
234,5,303817,1,0,0:0:0:0:
390,94,304005,6,0,L|410:183,1,85,2|0,0:0|0:0,0:0:0:0:
285,305,304380,2,0,L|309:208,1,85,2|0,0:0|0:0,0:0:0:0:
174,93,304755,2,0,L|94:122,1,85,2|0,0:0|0:0,0:0:0:0:
303,145,305130,2,0,L|281:49,1,85,2|0,0:0|0:0,0:0:0:0:
201,173,305505,5,2,0:0:0:0:
195,188,305598,1,0,0:0:0:0:
191,204,305692,1,0,0:0:0:0:
188,220,305786,1,0,0:0:0:0:
187,237,305880,1,2,0:0:0:0:
188,253,305973,1,0,0:0:0:0:
189,269,306067,1,0,0:0:0:0:
192,285,306161,1,0,0:0:0:0:
196,301,306255,2,0,L|258:289,3,42.5,2|0|0|0,0:0|0:0|0:0|0:0,0:0:0:0:
307,336,306630,2,0,L|353:345,2,42.5,2|2|2,0:0|0:0|0:0,0:0:0:0:
450,286,307005,5,6,0:0:0:0:
424,137,307192,1,0,0:0:0:0:
336,244,307380,1,2,0:0:0:0:
260,132,307567,1,0,0:0:0:0:
228,289,307755,1,2,0:0:0:0:
77,271,307942,1,0,0:0:0:0:
163,348,308130,1,2,0:0:0:0:
195,199,308317,1,0,0:0:0:0:
60,174,308505,5,2,0:0:0:0:
222,105,308692,1,0,0:0:0:0:
195,199,308880,1,2,0:0:0:0:
201,12,309067,1,0,0:0:0:0:
314,128,309255,1,2,0:0:0:0:
222,105,309442,1,0,0:0:0:0:
362,45,309630,1,2,0:0:0:0:
419,209,309817,1,0,0:0:0:0:
316,320,310005,6,0,L|333:222,1,85,2|0,0:0|0:0,0:0:0:0:
295,91,310380,2,0,L|364:159,1,85,2|0,0:0|0:0,0:0:0:0:
254,15,310755,2,0,L|173:40,1,85,2|0,0:0|0:0,0:0:0:0:
39,90,311130,2,0,L|91:23,1,85,2|0,0:0|0:0,0:0:0:0:
126,175,311505,5,2,0:0:0:0:
246,206,311692,1,0,0:0:0:0:
246,206,311786,1,2,0:0:0:0:
246,206,311880,2,0,L|227:95,1,85,2|0,0:0|0:0,0:0:0:0:
394,39,312255,1,2,0:0:0:0:
379,30,312348,1,0,0:0:0:0:
362,26,312442,1,0,0:0:0:0:
345,24,312536,1,0,0:0:0:0:
327,24,312630,2,0,P|296:26|270:35,3,42.5,2|2|2|2,0:0|0:0|0:0|0:0,0:0:0:0:
213,47,313005,6,0,L|146:65,1,42.5,6|0,0:0|0:0,0:0:0:0:
381,153,313286,2,0,L|360:107,1,42.5,2|0,0:0|0:0,0:0:0:0:
110,169,313567,2,0,L|115:233,1,42.5,2|0,0:0|0:0,0:0:0:0:
137,286,313755,1,0,0:0:0:0:
144,300,313848,1,0,0:0:0:0:
153,314,313942,1,0,0:0:0:0:
164,326,314036,1,0,0:0:0:0:
177,336,314130,1,2,0:0:0:0:
191,344,314223,1,0,0:0:0:0:
206,350,314317,1,0,0:0:0:0:
222,354,314411,1,0,0:0:0:0:
239,354,314505,6,0,L|308:363,1,42.5,2|0,0:0|0:0,0:0:0:0:
497,292,314786,2,0,L|449:286,1,42.5,2|0,0:0|0:0,0:0:0:0:
219,180,315067,2,0,L|261:185,1,42.5,2|0,0:0|0:0,0:0:0:0:
346,199,315255,1,0,0:0:0:0:
362,197,315348,1,0,0:0:0:0:
377,189,315442,1,0,0:0:0:0:
388,176,315536,1,0,0:0:0:0:
396,161,315630,1,2,0:0:0:0:
398,144,315723,1,0,0:0:0:0:
400,127,315817,1,0,0:0:0:0:
399,109,315911,1,0,0:0:0:0:
396,92,316005,6,0,L|376:25,1,42.5,2|0,0:0|0:0,0:0:0:0:
202,117,316286,2,0,L|193:170,1,42.5,2|0,0:0|0:0,0:0:0:0:
24,218,316567,2,0,L|11:170,1,42.5,2|0,0:0|0:0,0:0:0:0:
81,280,316755,1,0,0:0:0:0:
97,278,316848,1,0,0:0:0:0:
113,275,316942,1,0,0:0:0:0:
129,273,317036,1,0,0:0:0:0:
146,272,317130,1,2,0:0:0:0:
162,273,317223,1,0,0:0:0:0:
178,274,317317,1,0,0:0:0:0:
194,276,317411,1,0,0:0:0:0:
210,280,317505,6,0,L|260:291,1,42.5,2|0,0:0|0:0,0:0:0:0:
251,29,317786,2,0,L|204:47,1,42.5,2|0,0:0|0:0,0:0:0:0:
438,157,318067,2,0,L|431:92,1,42.5,2|0,0:0|0:0,0:0:0:0:
346,71,318255,1,0,0:0:0:0:
341,82,318348,1,0,0:0:0:0:
337,94,318442,1,0,0:0:0:0:
334,106,318536,1,0,0:0:0:0:
331,118,318630,1,2,0:0:0:0:
329,130,318723,1,0,0:0:0:0:
329,142,318817,1,0,0:0:0:0:
329,154,318911,1,0,0:0:0:0:
328,166,319005,6,0,L|329:242,3,42.5,2|0|0|0,0:0|0:0|0:0|0:0,0:0:0:0:
389,248,319380,2,0,L|371:299,3,42.5,2|0|0|0,0:0|0:0|0:0|0:0,0:0:0:0:
385,360,319755,2,0,L|325:380,3,42.5,2|0|0|0,0:0|0:0|0:0|0:0,0:0:0:0:
266,366,320130,2,0,L|243:320,3,42.5,2|0|0|0,0:0|0:0|0:0|0:0,0:0:0:0:
166,325,320505,6,0,L|145:370,3,42.5,2|0|0|0,0:0|0:0|0:0|0:0,0:0:0:0:
111,265,320880,2,0,L|69:277,3,42.5,2|0|0|0,0:0|0:0|0:0|0:0,0:0:0:0:
136,186,321255,2,0,L|95:160,3,42.5,2|0|0|0,0:0|0:0|0:0|0:0,0:0:0:0:
208,151,321630,2,0,L|201:100,3,42.5,2|0|0|0,0:0|0:0|0:0|0:0,0:0:0:0:
281,85,322005,6,0,L|327:72,3,42.5,2|0|0|0,0:0|0:0|0:0|0:0,0:0:0:0:
380,15,322380,2,0,L|440:29,3,42.5,2|0|0|0,0:0|0:0|0:0|0:0,0:0:0:0:
438,103,322755,2,0,L|487:88,3,42.5,2|0|0|0,0:0|0:0|0:0|0:0,0:0:0:0:
387,167,323130,2,0,L|346:158,3,42.5,2|0|0|0,0:0|0:0|0:0|0:0,0:0:0:0:
454,230,323505,6,0,L|470:176,3,42.5,2|0|0|0,0:0|0:0|0:0|0:0,0:0:0:0:
455,313,323880,2,0,L|501:328,3,42.5,2|0|0|0,0:0|0:0|0:0|0:0,0:0:0:0:
372,290,324255,5,2,0:0:0:0:
359,286,324348,1,0,0:0:0:0:
342,283,324442,1,2,0:0:0:0:
320,279,324536,1,0,0:0:0:0:
294,275,324630,5,2,0:0:0:0:
264,271,324723,1,2,0:0:0:0:
229,269,324817,1,2,0:0:0:0:
190,266,324911,1,2,0:0:0:0:
147,268,325005,5,2,0:0:0:0:
247,64,331853,5,2,0:0:0:0:
241,100,332026,1,0,0:0:0:0:
234,135,332200,1,2,0:0:0:0:
317,183,332373,2,0,P|325:258|304:301,1,118.999996368408,2|0,0:0|0:0,0:0:0:0:
216,230,332894,2,0,L|158:221,1,59.4999981842042,2|0,0:0|0:0,0:0:0:0:
317,183,333240,5,0,0:0:0:0:
307,296,334107,1,0,0:0:0:0:
398,316,334281,1,2,0:0:0:0:
456,244,334454,1,0,0:0:0:0:
307,296,334628,6,0,L|252:316,1,59.4999981842042,2|0,0:0|0:0,0:0:0:0:
161,296,334974,1,2,0:0:0:0:
256,192,335061,12,0,336015,0:0:0:0:
286,132,336709,5,8,0:0:0:0:
264,125,336795,1,8,0:0:0:0:
246,116,336882,1,0,0:0:0:0:
231,103,336969,1,0,0:0:0:0:
205,73,337055,1,2,0:0:0:0:
189,104,337142,1,0,0:0:0:0:
183,138,337229,1,2,0:0:0:0:
185,172,337315,1,8,0:0:0:0:
198,204,337402,5,6,0:0:0:0:
366,79,337576,2,0,P|325:46|276:38,1,85,0|8,0:0|0:0,0:0:0:0:
436,172,337922,2,0,B|415:229|455:272|455:272|433:282|400:314,1,170,2|2,0:0|0:0,0:0:0:0:
263,239,338443,2,0,P|289:203|327:182,1,85,8|2,0:0|0:0,0:0:0:0:
290,337,338789,5,2,0:0:0:0:
405,308,338963,1,0,0:0:0:0:
263,239,339136,1,8,0:0:0:0:
174,368,339310,2,0,P|142:284|37:294,1,170,0|2,0:0|0:0,0:0:0:0:
174,368,339830,1,8,0:0:0:0:
7,335,340003,1,2,0:0:0:0:
138,190,340177,6,0,P|167:227|164:266,1,85,2|0,0:0|0:0,0:0:0:0:
94,96,340524,1,8,0:0:0:0:
94,96,340697,2,0,L|9:103,1,85,2|0,0:0|0:0,0:0:0:0:
212,84,341044,2,0,P|204:38|171:10,1,85,2|8,0:0|0:0,0:0:0:0:
321,69,341391,6,0,P|388:62|479:13,1,170,2|2,0:0|0:0,0:0:0:0:
512,122,341911,1,8,0:0:0:0:
491,281,342084,1,2,0:0:0:0:
512,122,342431,1,2,0:0:0:0:
491,281,342605,1,8,0:0:0:0:
433,195,342778,1,2,0:0:0:0:
411,353,342951,6,0,P|343:330|241:346,1,170,2|8,0:0|0:0,0:0:0:0:
68,321,343472,2,0,B|163:309|163:309|213:251,1,170,2|2,0:0|0:0,0:0:0:0:
247,343,343992,1,8,0:0:0:0:
170,98,344339,6,0,L|155:191,1,85,2|0,0:0|0:0,0:0:0:0:
73,80,344685,1,8,0:0:0:0:
180,12,344859,2,0,P|264:24|333:88,1,170,2|2,0:0|0:0,0:0:0:0:
440,192,345379,2,0,P|485:174|517:144,1,85,8|2,0:0|0:0,0:0:0:0:
340,168,345726,5,2,0:0:0:0:
365,262,345899,2,0,P|356:304|360:354,1,85,0|8,0:0|0:0,0:0:0:0:
260,242,346246,2,0,P|199:280|134:284,1,127.5,2|0,0:0|0:0,0:0:0:0:
126,284,346593,1,2,0:0:0:0:
28,251,346766,1,8,0:0:0:0:
127,158,346940,6,0,B|96:77|96:77|53:62,1,127.5,2|0,0:0|2:0,0:0:0:0:
40,76,347287,1,2,0:0:0:0:
14,210,347460,1,8,0:0:0:0:
127,158,347633,2,0,B|231:112|231:112|285:128,1,170,2|2,0:0|0:0,0:0:0:0:
490,160,348154,2,0,L|405:186,1,85,8|2,0:0|0:0,0:0:0:0:
311,217,348500,5,8,0:0:0:0:
375,104,348674,1,2,0:0:0:0:
446,276,348847,1,8,0:0:0:0:
311,217,349021,1,2,0:0:0:0:
331,366,349194,1,8,0:0:0:0:
202,271,349368,1,2,0:0:0:0:
82,327,349541,1,8,0:0:0:0:
133,125,349714,1,2,0:0:0:0:
311,217,349888,5,8,0:0:0:0:
201,270,350061,2,0,P|225:203|297:205,1,152.999995330811,2|0,0:0|0:0,0:0:0:0:
311,217,350408,6,0,B|333:228|333:228|333:117|333:117|311:127,1,159.375,8|0,0:0|0:0,0:0:0:0:
297,126,350755,6,0,P|254:103|260:48,1,106.25,8|8,0:0|0:0,0:0:0:0:
461,35,351102,1,0,0:0:0:0:
461,35,351188,1,0,0:0:0:0:
461,35,351275,6,0,P|477:111|406:177,1,170,6|8,0:0|0:0,0:0:0:0:
410,337,351795,2,0,P|402:294|423:252,1,85,0|2,0:0|0:0,0:0:0:0:
488,304,352142,1,2,0:0:0:0:
331,366,352315,1,8,0:0:0:0:
285,267,352489,1,2,0:0:0:0:
173,353,352662,6,0,B|134:359|134:359|89:350,2,85,2|0|8,0:0|0:0|0:0,0:0:0:0:
191,256,353183,2,0,B|137:203|137:203|63:187,1,127.5,2|0,0:0|2:0,0:0:0:0:
54,190,353529,1,2,0:0:0:0:
0,74,353703,2,0,P|46:67|95:43,1,85,8|0,0:0|0:0,0:0:0:0:
229,12,354050,6,0,B|273:37|309:42|309:42|285:86|303:131,1,170,2|8,0:0|0:0,0:0:0:0:
213,103,354570,1,0,0:0:0:0:
301,124,354743,1,2,0:0:0:0:
463,100,354917,2,0,P|423:84|381:87,2,85,2|8|2,0:0|0:0|0:0,0:0:0:0:
425,269,355437,6,0,P|408:225|408:184,1,85,2|0,0:0|0:0,0:0:0:0:
407,187,355784,1,8,0:0:0:0:
342,330,355957,2,0,P|261:324|188:253,1,170,2|2,0:0|0:0,0:0:0:0:
104,215,356477,2,0,P|66:234|24:236,1,85,8|2,0:0|0:0,0:0:0:0:
117,109,356824,6,0,B|210:130|210:130|244:124,1,127.5,6|0,0:0|2:0,0:0:0:0:
265,119,357171,2,0,L|251:212,1,85,8|0,0:0|0:0,0:0:0:0:
342,330,357518,1,2,0:0:0:0:
342,330,357691,2,0,L|356:243,2,85,2|8|2,0:0|0:0|0:0,0:0:0:0:
469,233,358211,6,0,B|447:150|447:150|420:116,1,127.5,2|0,0:0|2:0,0:0:0:0:
397,111,358558,2,0,L|410:25,1,85,8|2,0:0|0:0,0:0:0:0:
118,147,359079,1,2,0:0:0:0:
209,128,359252,1,8,0:0:0:0:
299,107,359425,1,2,0:0:0:0:
139,27,359599,5,2,0:0:0:0:
118,147,359772,2,0,L|134:252,1,85,2|8,0:0|0:0,0:0:0:0:
268,346,360119,5,2,0:0:0:0:
374,286,360292,2,0,L|386:193,1,85,0|2,0:0|0:0,0:0:0:0:
255,120,360639,5,8,0:0:0:0:
121,89,360813,2,0,L|38:70,1,85,2|2,0:0|0:0,0:0:0:0:
210,12,361159,5,8,0:0:0:0:
343,42,361333,2,0,L|425:60,1,85,8|2,0:0|0:0,0:0:0:0:
497,271,361680,5,8,0:0:0:0:
461,166,361853,1,0,0:0:0:0:
316,245,362026,2,0,B|293:257|257:253|257:253|230:240|182:245,1,127.5,8|0,0:0|2:0,0:0:0:0:
173,226,362373,6,0,B|228:224|259:235|259:235|276:194|310:152,1,170,6|8,0:0|0:0,0:0:0:0:
461,166,362894,2,0,P|451:124|435:85,1,85,0|2,0:0|0:0,0:0:0:0:
304,28,363240,2,0,P|256:38|201:40,2,85,2|8|2,0:0|0:0|0:0,0:0:0:0:
183,137,363761,6,0,P|137:136|89:129,1,85,2|0,0:0|0:0,0:0:0:0:
3,69,364107,1,8,0:0:0:0:
70,222,364281,2,0,P|93:257|19:359,1,170,2|2,0:0|0:0,0:0:0:0:
194,288,364801,2,0,P|222:321|240:359,1,85,8|0,0:0|0:0,0:0:0:0:
371,360,365148,6,0,P|389:314|485:225,1,170,2|8,0:0|0:0,0:0:0:0:
409,37,365668,1,0,0:0:0:0:
375,168,365842,1,2,0:0:0:0:
263,75,366015,2,0,P|210:65|156:66,1,85,0|8,0:0|0:0,0:0:0:0:
152,198,366362,1,2,0:0:0:0:
152,198,366535,6,0,P|104:186|57:184,2,85,0|2|8,0:0|0:0|0:0,0:0:0:0:
262,327,367055,2,0,P|315:323|449:276,1,170,2|2,0:0|0:0,0:0:0:0:
487,127,367576,2,0,L|509:225,1,85,8|2,0:0|0:0,0:0:0:0:
368,44,367922,6,0,P|346:130|340:176,1,127.5,6|0,0:0|2:0,0:0:0:0:
340,188,368269,2,0,P|314:142|295:90,1,85,8|0,0:0|0:0,0:0:0:0:
129,67,368616,1,2,0:0:0:0:
129,67,368789,2,0,P|176:67|215:54,1,85,2|8,0:0|0:0,0:0:0:0:
164,194,369136,6,0,P|100:204|7:193,1,127.5,2|0,0:0|2:0,0:0:0:0:
13,192,369483,2,0,P|35:151|39:98,1,85,2|8,0:0|0:0,0:0:0:0:
164,194,369830,2,0,P|184:235|189:277,2,85,2|8|2,0:0|0:0|0:0,0:0:0:0:
53,371,370350,2,0,L|143:362,1,85,8|2,0:0|0:0,0:0:0:0:
283,346,370697,5,0,0:0:0:0:
340,197,370870,1,8,0:0:0:0:
300,329,371217,5,8,0:0:0:0:
416,163,371391,1,8,0:0:0:0:
321,311,371737,5,8,0:0:0:0:
499,138,371911,1,8,0:0:0:0:
300,329,372258,6,0,P|283:289|278:238,2,85,2|8|2,0:0|0:0|0:0,0:0:0:0:
344,144,372778,1,0,0:0:0:0:
303,76,372951,1,0,0:0:0:0:
238,30,373125,1,0,0:0:0:0:
159,23,373298,1,0,0:0:0:0:
80,36,373472,6,0,P|59:65|39:162,1,136,2|2,0:0|0:0,0:0:0:0:
106,262,373992,2,0,L|123:173,1,68,2|8,0:0|0:0,0:0:0:0:
202,190,374339,1,2,0:0:0:0:
182,90,374512,1,0,0:0:0:0:
294,153,374685,6,0,L|280:269,1,102,2|0,0:0|2:0,0:0:0:0:
281,286,375032,2,0,L|391:271,1,102,2|0,0:0|2:0,0:0:0:0:
404,267,375379,2,0,L|395:346,1,68,2|8,0:0|0:0,0:0:0:0:
501,201,375726,1,2,0:0:0:0:
405,236,375899,1,0,0:0:0:0:
416,134,376073,1,2,0:0:0:0:
510,95,376246,6,0,P|442:93|375:64,1,136,2|2,0:0|0:0,0:0:0:0:
285,13,376766,1,2,0:0:0:0:
147,87,377113,2,0,P|153:49|168:15,1,68,2|0,0:0|0:0,0:0:0:0:
191,170,377460,6,0,P|151:187|42:189,1,152.999995330811,2|2,0:0|0:0,0:0:0:0:
3,289,377980,2,0,P|47:291|93:309,1,76.4999976654053,8|2,0:0|0:0,0:0:0:0:
171,342,378327,1,8,0:0:0:0:
329,306,378500,1,2,0:0:0:0:
329,306,378587,1,0,0:0:0:0:
329,306,378674,1,2,0:0:0:0:
291,201,378847,1,2,0:0:0:0:
425,268,379021,6,0,B|418:223|418:223|397:182,1,85,6|0,0:0|0:0,0:0:0:0:
282,120,379368,1,8,0:0:0:0:
354,54,379541,2,0,B|330:87|330:87|193:96,1,170,0|2,0:0|0:0,0:0:0:0:
38,21,380061,2,0,L|124:15,1,85,8|2,0:0|0:0,0:0:0:0:
81,109,380408,6,0,B|69:152|69:152|80:191,1,85,2|0,0:0|0:0,0:0:0:0:
176,204,380755,1,8,0:0:0:0:
116,279,380928,2,0,B|133:321|133:321|275:332,1,170,0|2,0:0|0:0,0:0:0:0:
386,226,381448,2,0,L|294:218,1,85,8|0,0:0|0:0,0:0:0:0:
176,204,381795,5,4,0:0:0:0:
176,204,382142,1,12,0:0:0:0:
176,204,382489,1,2,0:0:0:0:
279,158,382662,1,2,0:0:0:0:
176,204,382836,1,8,0:0:0:0:
186,106,383009,1,2,0:0:0:0:
164,284,383183,5,8,0:0:0:0:
342,306,383356,1,8,0:0:0:0:
364,128,383529,1,8,0:0:0:0:
186,106,383703,1,8,0:0:0:0:
186,106,384050,1,2,0:0:0:0:
364,128,384223,1,8,0:0:0:0:
305,19,384396,1,8,0:0:0:0:
279,158,384570,6,0,B|260:249|260:249|280:313,1,127.5,6|0,0:0|2:0,0:0:0:0:
279,303,384917,2,0,L|369:311,1,85,8|0,0:0|0:0,0:0:0:0:
473,171,385263,2,0,P|470:126|452:81,1,85,2|2,0:0|0:0,0:0:0:0:
384,11,385610,1,8,0:0:0:0:
261,84,385784,6,0,P|181:97|98:50,1,170,6|2,0:0|0:0,0:0:0:0:
21,141,386304,2,0,P|15:187|28:239,1,85,8|0,0:0|0:0,0:0:0:0:
93,349,386651,2,0,L|111:257,1,85,2|2,0:0|0:0,0:0:0:0:
207,176,386998,1,8,0:0:0:0:
236,315,387171,1,2,0:0:0:0:
362,225,387344,6,0,B|444:262|444:262|461:299,1,127.5,6|0,0:0|2:0,0:0:0:0:
466,308,387691,2,0,L|484:208,1,85,8|0,0:0|0:0,0:0:0:0:
380,132,388038,1,2,0:0:0:0:
380,132,388211,2,0,B|376:88|376:88|391:44,1,85,2|8,0:0|0:0,0:0:0:0:
239,109,388558,6,0,B|248:210|248:210|188:275,1,170,6|2,0:0|0:0,0:0:0:0:
8,252,389079,2,0,L|96:231,1,85,8|2,0:0|0:0,0:0:0:0:
126,121,389425,1,2,0:0:0:0:
8,252,389599,1,2,0:0:0:0:
69,323,389772,1,8,0:0:0:0:
161,343,389946,1,2,0:0:0:0:
293,283,390119,6,0,P|339:285|384:299,1,85,2|0,0:0|0:0,0:0:0:0:
494,347,390466,1,8,0:0:0:0:
452,239,390639,2,0,P|437:183|434:67,1,170,0|2,0:0|0:0,0:0:0:0:
333,145,391159,1,8,0:0:0:0:
250,99,391333,6,0,P|252:55|266:10,1,85,6|0,0:0|0:0,0:0:0:0:
157,200,391680,2,0,P|153:156|136:108,1,85,2|8,0:0|0:0,0:0:0:0:
265,294,392026,2,0,P|267:250|281:205,1,85,2|0,0:0|0:0,0:0:0:0:
97,349,392373,1,2,0:0:0:0:
97,349,392547,2,0,P|140:347|185:357,1,85,8|2,0:0|0:0,0:0:0:0:
336,384,392894,6,0,P|371:343|378:289,1,85,6|0,0:0|0:0,0:0:0:0:
278,210,393240,1,8,0:0:0:0:
384,210,393414,2,0,P|451:162|458:72,1,170,2|2,0:0|0:0,0:0:0:0:
361,109,393934,1,8,0:0:0:0:
310,30,394107,6,0,B|220:55|220:55|176:48,1,127.5,2|0,0:0|2:0,0:0:0:0:
163,46,394454,2,0,L|151:138,1,85,2|8,0:0|0:0,0:0:0:0:
64,282,394801,2,0,P|103:267|149:227,1,85,2|8,0:0|0:0,0:0:0:0:
193,330,395148,1,2,0:0:0:0:
247,162,395321,1,0,0:0:0:0:
352,197,395495,1,2,0:0:0:0:
493,352,395668,6,0,B|476:261|476:261|449:221,1,127.5,6|0,0:0|2:0,0:0:0:0:
450,236,396015,2,0,L|464:137,1,85,8|0,0:0|0:0,0:0:0:0:
274,77,396362,1,2,0:0:0:0:
274,77,396535,2,0,L|366:54,1,85,2|8,0:0|0:0,0:0:0:0:
161,22,396882,6,0,P|124:75|100:187,1,170,6|2,0:0|0:0,0:0:0:0:
203,310,397402,2,0,L|226:216,1,85,8|0,0:0|0:0,0:0:0:0:
203,310,397749,1,2,0:0:0:0:
242,142,397922,1,2,0:0:0:0:
374,130,398096,2,0,P|343:93|309:62,1,85,8|2,0:0|0:0,0:0:0:0:
454,174,398443,6,0,P|374:183|312:216,1,127.5,6|0,0:0|2:0,0:0:0:0:
309,212,398789,2,0,P|360:228|392:253,1,85,8|0,0:0|0:0,0:0:0:0:
286,378,399136,1,2,0:0:0:0:
443,326,399310,1,2,0:0:0:0:
309,212,399483,1,8,0:0:0:0:
201,282,399657,6,0,B|188:218|232:136|232:136|256:162,1,170,6|2,0:0|0:0,0:0:0:0:
202,295,400177,2,0,P|157:305|85:306,1,85,8|2,0:0|0:0,0:0:0:0:
128,123,400524,1,2,0:0:0:0:
24,276,400697,1,0,0:0:0:0:
27,195,400870,1,8,0:0:0:0:
42,116,401044,1,2,0:0:0:0:
63,35,401217,6,0,P|104:35|146:44,1,85,2|0,0:0|0:0,0:0:0:0:
282,136,401564,1,8,0:0:0:0:
407,93,401737,1,2,0:0:0:0:
229,59,401911,1,2,0:0:0:0:
294,168,402084,1,2,0:0:0:0:
247,325,402258,1,8,0:0:0:0:
403,270,402431,6,0,B|436:226|436:226|426:193|394:165|394:165|416:127|405:76,1,203.999993774414,12|2,0:0|0:0,0:0:0:0:
256,33,402951,1,8,0:0:0:0:
256,33,403298,1,0,0:0:0:0:
331,136,403472,1,2,0:0:0:0:
178,162,403645,1,8,0:0:0:0:
108,316,403818,1,8,0:0:0:0:
199,41,409938,6,0,L|185:99,1,50.9999984436036,0|0,0:0|0:0,0:0:0:0:
258,172,410271,1,4,0:0:0:0:
396,122,410604,6,0,L|338:108,1,50.9999984436036,0|0,0:0|0:0,0:0:0:0:
258,172,410938,1,4,0:0:0:0:
111,230,411271,6,0,L|169:244,1,50.9999984436036,0|0,0:0|0:0,0:0:0:0:
258,172,411604,1,4,0:0:0:0:
311,316,411938,6,0,L|325:258,1,50.9999984436036,0|0,0:0|0:0,0:0:0:0:
258,172,412271,1,4,0:0:0:0:
224,273,412438,1,4,0:0:0:0:
356,173,412604,6,0,L|347:109,1,50.9999984436036,0|0,0:0|0:0,0:0:0:0:
329,18,412938,1,4,0:0:0:0:
92,112,413271,6,0,L|176:141,1,50.9999984436036,0|0,0:0|0:0,0:0:0:0:
258,172,413604,1,4,0:0:0:0:
411,295,413938,5,2,0:0:0:0:
366,184,414104,1,2,0:0:0:0:
417,317,414271,1,2,0:0:0:0:
254,274,414438,1,2,0:0:0:0:
437,324,414604,1,2,0:0:0:0:
352,159,414771,1,2,0:0:0:0:
233,261,414938,1,2,0:0:0:0:
439,208,415104,1,2,0:0:0:0:
248,96,415271,6,0,L|168:120,1,59.4999981842042,0|0,0:0|0:0,0:0:0:0:
352,159,415604,1,2,0:0:0:0:
196,264,415938,6,0,L|264:280,1,59.4999981842042,0|0,0:0|0:0,0:0:0:0:
73,283,416271,1,2,0:0:0:0:
106,113,416604,6,0,L|122:187,1,59.4999981842042,0|0,0:0|0:0,0:0:0:0:
138,9,416938,1,2,0:0:0:0:
322,171,417271,6,0,L|338:111,1,59.4999981842042,0|0,0:0|0:0,0:0:0:0:
371,289,417604,1,2,0:0:0:0:
413,166,417771,1,2,0:0:0:0:
237,248,417938,6,0,L|315:271,1,59.4999981842042,0|0,0:0|0:0,0:0:0:0:
229,377,418271,1,2,0:0:0:0:
115,186,418604,6,0,L|95:264,1,59.4999981842042,0|0,0:0|0:0,0:0:0:0:
237,248,418938,1,2,0:0:0:0:
344,153,419271,5,0,0:0:0:0:
344,153,419354,1,0,0:0:0:0:
344,153,419438,1,0,0:0:0:0:
387,273,419604,1,0,0:0:0:0:
387,273,419688,1,0,0:0:0:0:
387,273,419771,1,0,0:0:0:0:
457,178,419938,1,0,0:0:0:0:
451,159,420021,1,0,0:0:0:0:
444,141,420104,1,0,0:0:0:0:
437,122,420188,1,0,0:0:0:0:
429,104,420271,1,0,0:0:0:0:
419,87,420354,1,0,0:0:0:0:
408,72,420438,6,0,P|369:43|245:34,1,170,4|0,0:0|0:0,0:0:0:0:
147,170,420938,1,8,0:0:0:0:
147,170,421271,2,0,L|161:260,1,68,0|0,0:0|0:0,0:0:0:0:
173,331,421604,1,8,0:0:0:0:
411,338,421771,6,0,B|346:386|320:295|233:357,1,170,4|0,0:0|0:0,0:0:0:0:
102,380,422271,1,8,0:0:0:0:
152,293,422438,2,0,B|180:252|180:252|182:211|159:169,1,136,0|0,0:0|0:0,0:0:0:0:
56,292,422938,1,8,0:0:0:0:
67,103,423104,6,0,P|118:130|228:118,1,170,4|0,0:0|0:0,0:0:0:0:
245,108,423521,1,0,0:0:0:0:
258,98,423604,1,8,0:0:0:0:
274,93,423688,1,0,0:0:0:0:
307,98,423771,1,0,0:0:0:0:
323,77,423854,1,0,0:0:0:0:
347,64,423938,1,8,0:0:0:0:
373,59,424021,1,0,0:0:0:0:
400,57,424104,5,0,0:0:0:0:
512,170,424271,1,8,0:0:0:0:
512,58,424438,1,0,0:0:0:0:
401,176,424604,6,0,B|400:219|400:219|374:264,1,85,12|0,0:0|0:0,0:0:0:0:
303,217,424854,1,0,0:0:0:0:
303,217,424938,2,0,B|258:230|258:230|218:263,1,85,8|0,0:0|0:0,0:0:0:0:
241,338,425188,1,0,0:0:0:0:
241,338,425271,2,0,L|134:323,1,85,8|0,0:0|0:0,0:0:0:0:
122,322,425521,1,0,0:0:0:0:
122,322,425604,1,8,0:0:0:0:
57,179,425771,6,4,B|170:195|170:195|233:156,1,170,0|0,0:0|0:0,0:0:0:0:
154,18,426271,1,8,0:0:0:0:
154,18,426604,1,0,0:0:0:0:
242,49,426771,1,0,0:0:0:0:
217,165,426938,1,8,0:0:0:0:
381,77,427104,6,0,B|440:97|511:66|511:66|493:126,1,170,4|0,0:0|0:0,0:0:0:0:
453,254,427604,1,8,0:0:0:0:
299,287,427771,2,0,P|329:229|410:191,1,136,0|0,0:0|0:0,0:0:0:0:
442,330,428271,1,8,0:0:0:0:
244,218,428438,6,0,B|271:251|271:251|254:342|254:342|220:321,1,170,4|0,0:0|0:0,0:0:0:0:
78,255,428938,2,0,L|92:171,1,85,8|0,0:0|0:0,0:0:0:0:
148,59,429271,1,8,0:0:0:0:
92,172,429438,1,0,0:0:0:0:
245,134,429604,1,8,0:0:0:0:
296,287,429771,1,0,0:0:0:0:
172,260,429938,6,0,B|204:229|204:229|256:214,1,85,12|0,0:0|0:0,0:0:0:0:
296,287,430188,1,0,0:0:0:0:
296,287,430271,2,0,B|343:286|343:286|390:249,1,85,8|0,0:0|0:0,0:0:0:0:
397,230,430521,1,0,0:0:0:0:
397,204,430604,1,0,0:0:0:0:
397,178,430688,1,8,0:0:0:0:
397,152,430771,1,0,0:0:0:0:
397,126,430854,1,0,0:0:0:0:
353,109,430938,2,0,L|356:193,1,85,8|0,0:0|0:0,0:0:0:0:
246,57,431271,6,0,L|205:67,1,42.5
140,28,431438,2,0,B|158:70|158:70|101:111,1,102,12|0,0:0|0:0,0:0:0:0:
42,178,431771,6,0,L|29:135,1,42.5
118,194,431938,2,0,B|158:220|158:220|137:274,1,102,12|0,0:0|0:0,0:0:0:0:
89,360,432271,6,0,L|151:351,1,42.5,0|0,0:0|0:0,0:0:0:0:
206,369,432438,2,0,B|252:343|252:343|244:270,1,102,12|0,0:0|0:0,0:0:0:0:
314,210,432771,6,0,L|309:266,1,42.5,0|0,0:0|0:0,0:0:0:0:
235,195,432938,2,0,B|223:104,1,85,8|0,0:0|0:0,0:0:0:0:
217,76,433188,1,0,0:0:0:0:
217,76,433271,1,12,0:0:0:0:
118,194,433438,5,0,0:0:0:0:
118,194,433521,1,0,0:0:0:0:
118,194,433604,2,0,L|22:181,1,85,8|0,0:0|0:0,0:0:0:0:
126,88,433938,5,0,0:0:0:0:
217,76,434104,2,0,L|351:58,1,127.5,12|0,0:0|0:0,0:0:0:0:
383,55,434438,1,0,0:0:0:0:
297,164,434604,2,0,L|431:146,1,127.5,12|0,0:0|0:0,0:0:0:0:
463,143,434938,1,0,0:0:0:0:
389,251,435104,2,0,L|477:238,1,85,0|12,0:0|0:0,0:0:0:0:
294,270,435438,5,0,0:0:0:0:
290,286,435521,1,0,0:0:0:0:
285,302,435604,1,8,0:0:0:0:
222,213,435771,1,0,0:0:0:0:
206,218,435854,1,0,0:0:0:0:
190,223,435938,1,8,0:0:0:0:
355,144,436104,1,0,0:0:0:0:
339,139,436188,1,0,0:0:0:0:
323,135,436271,2,0,L|270:120,3,42.5,8|8|8|8,0:0|0:0|0:0|0:0,0:0:0:0:
262,124,436604,6,0,L|181:137,1,68,4|0,0:0|0:0,0:0:0:0:
71,226,436938,1,0,0:0:0:0:
126,82,437104,2,0,L|101:145,1,68,8|0,0:0|0:0,0:0:0:0:
151,291,437438,1,0,0:0:0:0:
328,285,437604,2,0,L|317:205,1,68,8|0,0:0|0:0,0:0:0:0:
406,137,437938,6,0,L|414:55,1,68,12|0,0:0|0:0,0:0:0:0:
398,219,438271,1,0,0:0:0:0:
222,285,438438,2,0,L|233:217,1,68,8|0,0:0|0:0,0:0:0:0:
209,367,438771,1,0,0:0:0:0:
108,176,438937,2,0,L|188:153,1,68,8|0,0:0|0:0,0:0:0:0:
404,176,439271,6,0,L|324:153,1,68,12|0,0:0|0:0,0:0:0:0:
449,262,439604,1,0,0:0:0:0:
244,303,439771,2,0,L|255:235,1,68,8|0,0:0|0:0,0:0:0:0:
151,343,440104,1,0,0:0:0:0:
96,191,440271,2,0,L|86:266,1,68,8|0,0:0|0:0,0:0:0:0:
198,75,440604,6,0,L|113:100,1,68,12|0,0:0|0:0,0:0:0:0:
349,37,440937,1,0,0:0:0:0:
283,97,441104,2,0,P|271:140|261:174,1,68,8|0,0:0|0:0,0:0:0:0:
260,175,441354,1,8,0:0:0:0:
256,188,441437,1,8,0:0:0:0:
252,201,441521,1,8,0:0:0:0:
249,214,441604,1,0,0:0:0:0:
247,227,441687,1,0,0:0:0:0:
244,240,441771,1,0,0:0:0:0:
242,253,441854,1,0,0:0:0:0:
239,267,441937,6,0,P|304:237|397:239,1,152.999995330811,4|8,0:0|0:0,0:0:0:0:
482,283,442437,1,0,0:0:0:0:
438,147,442604,1,0,0:0:0:0:
408,137,442687,1,0,0:0:0:0:
377,133,442771,1,0,0:0:0:0:
347,138,442854,1,0,0:0:0:0:
320,152,442937,1,8,0:0:0:0:
375,326,443104,1,0,0:0:0:0:
384,235,443271,6,0,L|310:255,1,76.4999976654053,4|0,0:0|0:0,0:0:0:0:
178,324,443604,2,0,L|102:309,1,76.4999976654053,8|0,0:0|0:0,0:0:0:0:
85,157,443937,1,0,0:0:0:0:
81,172,444021,1,8,0:0:0:0:
78,187,444104,1,0,0:0:0:0:
75,202,444187,1,0,0:0:0:0:
73,217,444271,1,8,0:0:0:0:
201,210,444437,1,0,0:0:0:0:
178,324,444604,6,0,P|268:301|309:247,1,152.999995330811,4|8,0:0|0:0,0:0:0:0:
185,92,445104,1,0,0:0:0:0:
319,173,445271,2,0,L|356:168,2,38.2499988327027,0|0|0,0:0|0:0|0:0,0:0:0:0:
169,191,445604,1,8,0:0:0:0:
282,90,445771,1,0,0:0:0:0:
206,275,445937,5,8,0:0:0:0:
272,114,446104,1,0,0:0:0:0:
291,317,446271,1,8,0:0:0:0:
355,217,446437,1,0,0:0:0:0:
355,217,446521,1,0,0:0:0:0:
355,217,446604,6,0,L|342:165,1,50.9999984436036,12|0,0:0|0:0,0:0:0:0:
292,203,446771,6,0,L|279:151,1,50.9999984436036,12|0,0:0|0:0,0:0:0:0:
229,188,446937,6,0,L|216:136,1,50.9999984436036,12|0,0:0|0:0,0:0:0:0:
165,173,447104,6,0,L|152:121,1,50.9999984436036,12|0,0:0|0:0,0:0:0:0:
103,160,447271,6,0,L|91:227,2,68,12|0|0,0:0|0:0|0:0,0:0:0:0:
211,295,447771,2,0,L|222:362,2,68,8|0|0,0:0|0:0|0:0,0:0:0:0:
378,302,448271,2,0,L|309:319,1,68,8|0,0:0|0:0,0:0:0:0:
459,191,448604,6,0,P|452:157|427:121,1,68,12|0,0:0|0:0,0:0:0:0:
321,208,448937,1,0,0:0:0:0:
342,48,449104,2,0,P|305:24|270:20,1,68,8|0,0:0|0:0,0:0:0:0:
251,153,449437,1,0,0:0:0:0:
130,97,449604,2,0,P|149:65|177:42,1,68,8|0,0:0|0:0,0:0:0:0:
171,194,449937,6,0,L|89:209,1,68,12|0,0:0|0:0,0:0:0:0:
239,263,450271,1,0,0:0:0:0:
79,291,450437,2,0,L|145:278,1,68,8|0,0:0|0:0,0:0:0:0:
38,377,450771,1,0,0:0:0:0:
220,346,450937,2,0,L|153:358,1,68,8|0,0:0|0:0,0:0:0:0:
353,353,451271,6,0,P|346:304|321:266,1,68,12|0,0:0|0:0,0:0:0:0:
444,232,451604,1,0,0:0:0:0:
421,81,451771,2,0,P|431:117|435:159,1,68,8|0,0:0|0:0,0:0:0:0:
453,147,452021,1,8,0:0:0:0:
450,126,452104,1,8,0:0:0:0:
445,106,452187,1,8,0:0:0:0:
440,86,452271,1,0,0:0:0:0:
434,66,452354,1,0,0:0:0:0:
427,46,452437,1,0,0:0:0:0:
417,27,452521,1,0,0:0:0:0:
402,12,452604,6,0,L|347:26,3,34,0|0|0|0,0:0|0:0|0:0|0:0,0:0:0:0:
322,86,452937,2,0,L|269:78,3,34,8|0|0|0,0:0|0:0|0:0|0:0,0:0:0:0:
234,21,453271,2,0,L|200:28,3,34,0|0|0|0,0:0|0:0|0:0|0:0,0:0:0:0:
146,84,453604,2,0,L|89:69,3,34,8|0|0|0,0:0|0:0|0:0|0:0,0:0:0:0:
219,112,453937,5,12,0:0:0:0:
155,163,454271,1,0,0:0:0:0:
142,243,454604,1,8,0:0:0:0:
192,307,454937,1,0,0:0:0:0:
398,308,455271,6,0,P|361:291|312:285,1,85,6|0,0:0|0:0,0:0:0:0:
192,307,455604,1,8,0:0:0:0:
238,221,455771,2,0,B|263:162|311:135|311:135|331:162|368:168,1,170,0|2,0:0|0:0,0:0:0:0:
501,174,456271,1,8,0:0:0:0:
426,97,456437,6,0,B|393:92|387:64|387:64|368:37|320:39,1,127.5,6|0,0:0|0:0,0:0:0:0:
275,46,456771,6,0,L|227:53,1,42.5,2|0,0:0|0:0,0:0:0:0:
188,109,456937,6,0,L|234:102,1,44.1999997302246,8|0,0:0|0:0,0:0:0:0:
293,141,457104,6,0,L|239:148,1,45.9000011206055
192,201,457271,6,0,L|243:194,1,47.6000005810547
320,222,457437,6,0,L|270:230,1,49.3000015045166,2|0,0:0|0:0,0:0:0:0:
206,290,457604,6,0,L|261:280,1,50.9999984436036,8|0,0:0|0:0,0:0:0:0:
304,340,457771,6,0,L|136:361,1,170,6|2,0:0|0:0,0:0:0:0:
66,219,458271,2,0,P|100:247|117:305,1,85,8|0,0:0|0:0,0:0:0:0:
236,161,458604,2,0,L|136:155,1,85,0|0,0:0|0:0,0:0:0:0:
200,252,458937,1,8,0:0:0:0:
200,77,459104,6,0,B|232:58|257:62|257:62|288:95|321:94,1,127.5,6|0,0:0|0:0,0:0:0:0:
358,63,459437,6,0,L|364:105,1,42.5,2|0,0:0|0:0,0:0:0:0:
423,104,459604,6,0,L|427:154,1,44.1999997302246,8|0,0:0|0:0,0:0:0:0:
486,141,459771,6,0,L|494:188,1,45.9000011206055
430,238,459937,6,0,B|437:285|437:285|489:299,1,95.2000011621094,2|2,0:0|0:0,0:0:0:0:
356,343,460271,2,0,L|345:238,1,95.2000011621094,8|2,0:0|0:0,0:0:0:0:
291,173,460604,6,0,P|310:253|243:316,1,170,6|8,0:0|0:0,0:0:0:0:
78,225,461104,2,0,P|151:261|228:230,1,170,0|2,0:0|0:0,0:0:0:0:
224,114,461604,1,8,0:0:0:0:
154,169,461771,6,0,B|137:132|137:132|145:101|145:101|96:56,1,127.5,2|0,0:0|0:0,0:0:0:0:
34,54,462104,6,0,L|78:43,1,42.5,2|0,0:0|0:0,0:0:0:0:
104,63,462271,6,0,L|153:50,1,44.1999997302246,8|0,0:0|0:0,0:0:0:0:
185,64,462437,6,0,L|232:52,1,45.9000011206055
267,66,462604,6,0,L|315:55,1,47.6000005810547,2|0,0:0|0:0,0:0:0:0:
348,70,462771,6,0,L|397:58,1,49.3000015045166,2|0,0:0|0:0,0:0:0:0:
425,80,462937,6,0,L|478:66,1,50.9999984436036,8|0,0:0|0:0,0:0:0:0:
449,157,463104,6,0,B|471:222|458:265|458:265|390:290,1,170,6|2,0:0|0:0,0:0:0:0:
217,276,463604,2,0,L|313:253,1,85,8|0,0:0|0:0,0:0:0:0:
217,276,463937,1,0,0:0:0:0:
234,176,464104,1,2,0:0:0:0:
324,246,464271,1,8,0:0:0:0:
288,107,464437,1,2,0:0:0:0:
145,177,464604,5,8,0:0:0:0:
388,209,464771,1,8,0:0:0:0:
388,209,465104,1,8,0:0:0:0:
117,300,465271,1,8,0:0:0:0:
400,347,465604,2,0,L|248:321,1,152.999995330811,8|0,0:0|2:0,0:0:0:0:
208,313,465937,6,0,P|224:268|224:221,1,76.4999976654053,0|0,0:0|0:0,0:0:0:0:
106,145,466271,2,0,P|122:179|153:202,1,76.4999976654053,8|0,0:0|0:0,0:0:0:0:
319,157,466604,1,0,0:0:0:0:
225,161,466771,1,0,0:0:0:0:
249,321,466937,1,8,0:0:0:0:
377,231,467104,1,0,0:0:0:0:
152,201,467271,6,0,L|143:278,1,76.4999976654053,0|0,0:0|0:0,0:0:0:0:
272,96,467604,2,0,L|260:19,1,76.4999976654053,8|0,0:0|0:0,0:0:0:0:
413,203,467937,1,12,0:0:0:0:
399,200,468021,1,0,0:0:0:0:
385,197,468104,1,0,0:0:0:0:
371,194,468187,1,0,0:0:0:0:
357,191,468271,1,0,0:0:0:0:
343,189,468354,1,0,0:0:0:0:
329,188,468437,1,0,0:0:0:0:
315,187,468521,1,0,0:0:0:0:
299,186,468604,6,0,P|259:181|217:182,1,76.4999976654053,0|0,0:0|0:0,0:0:0:0:
84,187,468937,1,8,0:0:0:0:
122,62,469104,2,0,P|145:93|159:135,1,76.4999976654053,0|0,0:0|0:0,0:0:0:0:
122,298,469437,2,0,P|145:267|159:220,1,76.4999976654053,0|0,0:0|0:0,0:0:0:0:
222,181,469687,1,0,0:0:0:0:
222,181,469771,6,0,P|298:218|376:209,1,152.999995330811,4|0,0:0|0:0,0:0:0:0:
472,159,470271,1,8,0:0:0:0:
408,41,470437,1,8,0:0:0:0:
403,62,470521,1,0,0:0:0:0:
398,82,470604,1,0,0:0:0:0:
364,213,470771,1,8,0:0:0:0:
287,50,470937,1,8,0:0:0:0:
195,111,471104,1,8,0:0:0:0:
274,251,471271,6,0,L|294:165,1,76.4999976654053,4|0,0:0|0:0,0:0:0:0:
130,295,471604,2,0,P|161:307|208:310,1,76.4999976654053,8|0,0:0|0:0,0:0:0:0:
103,141,471937,2,0,L|84:218,2,76.4999976654053,0|0|8,0:0|0:0|0:0,0:0:0:0:
184,65,472437,1,0,0:0:0:0:
164,59,472521,1,0,0:0:0:0:
144,52,472604,6,0,L|245:33,1,76.4999976654053,0|0,0:0|0:0,0:0:0:0:
281,130,472937,2,0,L|358:113,1,76.4999976654053,8|0,0:0|0:0,0:0:0:0:
424,202,473271,2,0,L|524:183,1,76.4999976654053,0|8,0:0|0:0,0:0:0:0:
404,314,473521,1,8,0:0:0:0:
404,314,473604,2,0,L|327:330,1,76.4999976654053,8|8,0:0|0:0,0:0:0:0:
342,178,473937,5,4,0:0:0:0:
358,62,474104,1,8,0:0:0:0:
361,45,474187,1,8,0:0:0:0:
364,28,474271,1,0,0:0:0:0:
223,137,474437,2,0,B|147:168|147:168|108:255,1,170,4|0,0:0|0:0,0:0:0:0:
276,294,474937,1,0,0:0:0:0:
436,244,475104,6,0,B|401:164|401:164|325:133,1,170,4|8,0:0|0:0,0:0:0:0:
325,133,475521,1,0,0:0:0:0:
325,133,475604,1,0,0:0:0:0:
207,344,475771,2,0,B|224:371|224:371|329:371|329:371|351:338,1,170,4|0,0:0|0:0,0:0:0:0:
308,215,476271,1,8,0:0:0:0:
291,215,476354,1,8,0:0:0:0:
273,215,476437,1,8,0:0:0:0:
256,216,476521,1,8,0:0:0:0:
238,216,476604,6,0,L|161:216,1,76.4999976654053,4|0,0:0|0:0,0:0:0:0:
0,106,476937,2,0,P|39:107|85:125,1,76.4999976654053,8|0,0:0|0:0,0:0:0:0:
161,216,477271,1,0,0:0:0:0:
18,217,477437,1,0,0:0:0:0:
62,294,477604,1,8,0:0:0:0:
167,128,477771,1,0,0:0:0:0:
84,43,477937,6,0,L|73:128,1,76.4999976654053,0|0,0:0|0:0,0:0:0:0:
259,10,478271,2,0,P|215:9|173:26,1,76.4999976654053,8|0,0:0|0:0,0:0:0:0:
328,98,478604,1,8,0:0:0:0:
341,97,478687,1,8,0:0:0:0:
354,97,478771,1,0,0:0:0:0:
367,96,478854,1,0,0:0:0:0:
380,95,478937,1,0,0:0:0:0:
393,93,479021,1,0,0:0:0:0:
406,90,479104,1,0,0:0:0:0:
418,85,479187,1,0,0:0:0:0:
429,78,479271,6,0,L|442:176,2,76.4999976654053,0|0|8,0:0|0:0|0:0,0:0:0:0:
364,244,479771,2,0,L|347:327,1,76.4999976654053,0|0,0:0|0:0,0:0:0:0:
168,283,480104,2,0,L|261:260,1,76.4999976654053,8|0,0:0|0:0,0:0:0:0:
289,187,480354,1,0,0:0:0:0:
289,187,480437,6,0,B|317:119|317:119|234:78,1,152.999995330811,4|0,0:0|0:0,0:0:0:0:
91,25,480937,1,8,0:0:0:0:
59,175,481104,2,0,B|133:153|133:153|165:67,1,152.999995330811,8|8,0:0|0:0,0:0:0:0:
59,175,481604,2,0,L|45:272,1,76.4999976654053,8|8,0:0|0:0,0:0:0:0:
197,313,481937,5,4,0:0:0:0:
207,223,482104,1,0,0:0:0:0:
46,275,482271,1,8,0:0:0:0:
207,223,482437,2,0,B|269:221|321:262|321:262|313:220,1,152.999995330811,0|0,0:0|0:0,0:0:0:0:
296,103,482937,1,8,0:0:0:0:
315,232,483104,6,0,B|342:296|326:361|326:361|300:318,1,161.499995687485,0|0,0:0|0:0,0:0:0:0:
224,138,483604,2,0,P|267:112|314:99,1,80.7499978437424,8|0,0:0|0:0,0:0:0:0:
386,155,483937,1,0,0:0:0:0:
315,232,484104,1,8,0:0:0:0:
295,102,484271,1,8,0:0:0:0:
315,232,484437,6,0,B|226:253|226:253|150:225,1,170,4|0,0:0|0:0,0:0:0:0:
80,150,484937,2,0,L|96:65,1,85,8|0,0:0|0:0,0:0:0:0:
152,225,485271,2,0,L|165:321,1,85,0|0,0:0|0:0,0:0:0:0:
45,246,485604,1,8,0:0:0:0:
188,135,485771,6,0,B|264:111|264:111|370:140,1,178.499994552612,0|0,0:0|0:0,0:0:0:0:
412,233,486271,2,0,L|315:260,1,89.2499972763062,8|0,0:0|0:0,0:0:0:0:
159,229,486604,1,0,0:0:0:0:
112,373,486771,1,8,0:0:0:0:
112,373,486854,1,8,0:0:0:0:
112,373,486937,1,8,0:0:0:0:
64,215,487104,6,0,P|78:126|158:56,1,187.000005706787,4|0,0:0|0:0,0:0:0:0:
335,55,487604,2,0,P|315:98|268:123,1,93.5000028533936,8|0,0:0|0:0,0:0:0:0:
242,32,487937,1,0,0:0:0:0:
358,188,488104,1,0,0:0:0:0:
182,157,488271,1,8,0:0:0:0:
436,112,488437,6,0,P|471:188|419:283,1,195.500003728867,4|0,0:0|0:0,0:0:0:0:
273,228,488937,2,0,P|319:219|362:182,1,97.7500018644333,8|0,0:0|0:0,0:0:0:0:
197,56,489271,2,0,L|181:159,1,101.999996887207,0|8,0:0|0:0,0:0:0:0:
179,197,489521,1,8,0:0:0:0:
179,197,489604,1,8,0:0:0:0:
97,95,489771,1,0,0:0:0:0:
357,187,489937,5,12,0:0:0:0:
354,198,497906,6,0,P|297:193|212:115,1,170,4|8,0:0|0:0,0:0:0:0:
234,14,498393,1,2,0:0:0:0:
97,104,498555,2,0,L|107:197,1,85,0|2,0:0|0:0,0:0:0:0:
121,358,498879,2,0,P|107:315|63:279,1,85,8|2,0:0|0:0,0:0:0:0:
207,222,499203,6,0,B|303:257|303:257|387:236,1,170,6|8,0:0|0:0,0:0:0:0:
455,127,499690,1,2,0:0:0:0:
455,127,499771,1,2,0:0:0:0:
455,127,499852,2,0,L|474:235,1,85,2|2,0:0|0:0,0:0:0:0:
357,324,500176,2,0,L|369:231,1,85,8|2,0:0|0:0,0:0:0:0:
332,113,500501,5,2,0:0:0:0:
210,186,500663,1,0,0:0:0:0:
257,68,500825,1,8,0:0:0:0:
299,199,500987,1,2,0:0:0:0:
137,129,501149,2,0,P|146:86|177:51,1,85,0|2,0:0|0:0,0:0:0:0:
210,186,501474,2,0,P|201:229|170:264,1,85,8|2,0:0|0:0,0:0:0:0:
86,317,501798,6,0,P|134:297|261:295,1,170,6|8,0:0|0:0,0:0:0:0:
422,350,502284,2,0,P|482:287|484:199,1,170,2|2,0:0|0:0,0:0:0:0:
383,88,502771,1,8,0:0:0:0:
361,189,502933,1,2,0:0:0:0:
244,113,503095,6,0,L|226:29,1,85,6|0,0:0|0:0,0:0:0:0:
166,164,503420,1,8,0:0:0:0:
258,248,503582,2,0,P|179:246|96:288,1,170,6|2,0:0|0:0,0:0:0:0:
354,332,504068,2,0,P|377:298|381:254,1,85,8|2,0:0|0:0,0:0:0:0:
336,108,504393,6,0,L|325:201,1,85,6|0,0:0|0:0,0:0:0:0:
466,259,504717,1,8,0:0:0:0:
466,259,504879,2,0,L|457:167,1,85,2|0,0:0|0:0,0:0:0:0:
305,279,505203,1,2,0:0:0:0:
224,211,505366,2,0,L|141:229,1,85,8|2,0:0|0:0,0:0:0:0:
52,186,505690,6,0,P|50:143|69:106,1,85,6|0,0:0|0:0,0:0:0:0:
224,211,506014,1,8,0:0:0:0:
224,211,506176,2,0,P|225:254|200:292,1,85,2|0,0:0|0:0,0:0:0:0:
52,186,506501,1,2,0:0:0:0:
165,119,506663,1,8,0:0:0:0:
203,288,506825,1,2,0:0:0:0:
230,189,506987,6,0,P|305:153|399:170,1,170,6|8,0:0|0:0,0:0:0:0:
448,238,507474,2,0,B|429:167|429:167|454:61,1,170,2|8,0:0|0:0,0:0:0:0:
345,0,507960,2,0,L|325:95,1,85,8|2,0:0|0:0,0:0:0:0:
225,38,508284,6,0,P|178:60|105:158,1,170,6|8,0:0|0:0,0:0:0:0:
248,320,508771,2,0,L|232:224,1,85,2|0,0:0|0:0,0:0:0:0:
107,151,509095,2,0,L|92:242,1,85,2|8,0:0|0:0,0:0:0:0:
224,149,509420,1,2,0:0:0:0:
234,237,509582,6,0,P|303:186|297:100,1,170,6|8,0:0|0:0,0:0:0:0:
177,79,510068,1,2,0:0:0:0:
177,79,510230,2,0,P|209:117|229:169,1,85,0|2,0:0|0:0,0:0:0:0:
187,306,510555,2,0,P|219:268|239:216,1,85,8|2,0:0|0:0,0:0:0:0:
340,190,510879,6,0,B|428:180|428:180|476:109,2,170,6|8|0,0:0|0:0|0:0,0:0:0:0:
151,207,511690,1,2,0:0:0:0:
149,112,511852,2,0,P|189:123|229:155,1,85,8|2,0:0|0:0,0:0:0:0:
312,301,512176,6,0,L|488:274,1,170,6|8,0:0|0:0,0:0:0:0:
401,167,512663,1,2,0:0:0:0:
401,167,512825,2,0,L|385:264,1,85,0|2,0:0|0:0,0:0:0:0:
225,259,513149,1,8,0:0:0:0:
314,209,513312,1,2,0:0:0:0:
218,94,513474,6,0,B|201:195|201:195|225:259,1,170,6|8,0:0|0:0,0:0:0:0:
92,328,513960,1,2,0:0:0:0:
92,328,514122,2,0,L|109:237,1,85,0|2,0:0|0:0,0:0:0:0:
90,79,514447,2,0,P|92:133|66:177,1,85,8|2,0:0|0:0,0:0:0:0:
218,94,514771,6,0,P|261:78|308:79,1,85,6|0,0:0|0:0,0:0:0:0:
444,190,515095,2,0,P|410:156|398:119,1,85,8|2,0:0|0:0,0:0:0:0:
364,308,515420,1,0,0:0:0:0:
508,261,515582,1,2,0:0:0:0:
398,121,515744,1,8,0:0:0:0:
395,137,515825,1,8,0:0:0:0:
392,153,515906,1,2,0:0:0:0:
389,169,515987,1,8,0:0:0:0:
387,185,516068,5,6,0:0:0:0:
237,222,516393,1,8,0:0:0:0:
387,185,516555,1,2,0:0:0:0:
198,43,516879,1,2,0:0:0:0:
242,221,517041,1,8,0:0:0:0:
27,191,517366,5,0,0:0:0:0:
198,43,517528,1,8,0:0:0:0:
245,124,517690,2,0,P|250:157|241:198,1,68,8|8,0:0|0:0,0:0:0:0:
242,221,517933,1,8,0:0:0:0:
242,221,518014,1,8,0:0:0:0:
115,316,518176,2,0,B|146:283|182:285|182:285|227:325|292:296,1,170,8|2,0:0|0:0,0:0:0:0:
442,344,518663,6,0,L|427:246,1,85,6|0,0:0|0:0,0:0:0:0:
342,157,518987,1,8,0:0:0:0:
445,34,519149,2,0,P|443:83|418:141,1,85,2|0,0:0|0:0,0:0:0:0:
250,117,519474,2,0,P|204:111|142:130,1,85,2|8,0:0|0:0,0:0:0:0:
63,228,519798,1,2,0:0:0:0:
71,102,519960,6,0,P|151:142|183:224,1,170,6|8,0:0|0:0,0:0:0:0:
63,228,520447,1,2,0:0:0:0:
166,118,520609,1,0,0:0:0:0:
193,299,520771,1,2,0:0:0:0:
324,220,520933,2,0,L|311:131,1,85,8|2,0:0|0:0,0:0:0:0:
450,26,521257,6,0,B|462:125|462:125|407:170,1,170,6|8,0:0|0:0,0:0:0:0:
210,75,521744,2,0,L|293:57,1,85,2|0,0:0|0:0,0:0:0:0:
39,158,522068,2,0,L|130:177,1,85,2|8,0:0|0:0,0:0:0:0:
190,299,522393,1,2,0:0:0:0:
285,203,522555,6,0,P|357:239|405:329,1,170,6|8,0:0|0:0,0:0:0:0:
285,203,523041,2,0,B|327:209|360:181|360:181|406:142|454:177,1,170,6|2,0:0|0:0,0:0:0:0:
282,287,523528,2,0,B|278:253|278:253|287:187,1,85,8|2,0:0|0:0,0:0:0:0:
379,52,523852,6,0,P|299:11|215:41,1,170,6|8,0:0|0:0,0:0:0:0:
212,127,524339,1,2,0:0:0:0:
212,127,524501,2,0,L|294:106,1,85,0|2,0:0|0:0,0:0:0:0:
133,56,524825,1,8,0:0:0:0:
112,156,524987,1,2,0:0:0:0:
32,323,525149,6,0,P|26:274|38:242,1,85,6|0,0:0|0:0,0:0:0:0:
213,286,525474,2,0,P|171:296|129:291,1,85,8|2,0:0|0:0,0:0:0:0:
35,126,525798,2,0,P|74:131|113:157,1,85,0|2,0:0|0:0,0:0:0:0:
256,216,526122,1,8,0:0:0:0:
295,200,526203,1,8,0:0:0:0:
337,204,526284,1,2,0:0:0:0:
370,230,526366,1,8,0:0:0:0:
395,259,526447,6,0,P|467:218|474:135,1,170,6|8,0:0|0:0,0:0:0:0:
242,107,526933,1,2,0:0:0:0:
242,107,527095,2,0,P|285:41|383:40,1,170,4|8,0:0|0:0,0:0:0:0:
254,243,527582,1,2,0:0:0:0:
254,243,527744,6,0,P|210:264|159:260,1,85,2|2,0:0|0:0,0:0:0:0:
83,174,528068,1,8,0:0:0:0:
283,336,528230,1,2,0:0:0:0:
283,336,528555,1,2,0:0:0:0:
174,264,528717,1,8,0:0:0:0:
298,170,528879,1,2,0:0:0:0:
416,238,529041,6,0,B|428:171|428:171|398:139|398:139|390:74,1,170,6|8,0:0|0:0,0:0:0:0:
252,17,529528,2,0,L|235:116,1,85,2|0,0:0|0:0,0:0:0:0:
146,178,529852,2,0,L|164:281,1,85,2|8,0:0|0:0,0:0:0:0:
122,371,530176,1,2,0:0:0:0:
293,285,530339,6,0,B|366:251|360:342|457:307,1,170,6|8,0:0|0:0,0:0:0:0:
423,222,530825,2,0,L|442:140,1,85,2|0,0:0|0:0,0:0:0:0:
359,92,531149,1,2,0:0:0:0:
344,175,531312,1,8,0:0:0:0:
240,17,531474,1,2,0:0:0:0:
109,126,531636,6,0,P|175:141|274:102,1,170,6|8,0:0|0:0,0:0:0:0:
48,50,532122,2,0,P|17:92|10:137,1,85,2|0,0:0|0:0,0:0:0:0:
10,261,532447,1,2,0:0:0:0:
135,228,532609,1,8,0:0:0:0:
58,355,532771,6,0,B|126:354|163:324|163:324|188:351|214:359,1,170,2|0,0:0|0:0,0:0:0:0:
355,366,533257,1,8,0:0:0:0:
360,224,533420,1,2,0:0:0:0:
423,303,533582,1,0,0:0:0:0:
243,204,533744,1,2,0:0:0:0:
276,295,533906,1,8,0:0:0:0:
197,89,534068,1,2,0:0:0:0:
389,12,534230,6,0,P|397:75|309:132,1,170,6|8,0:0|0:0,0:0:0:0:
264,29,534717,2,0,P|191:-3|114:49,1,170,2|2,0:0|0:0,0:0:0:0:
121,197,535203,1,8,0:0:0:0:
194,126,535366,1,2,0:0:0:0:
218,268,535528,5,2,0:0:0:0:
98,176,535690,1,0,0:0:0:0:
71,344,535852,1,8,0:0:0:0:
243,252,536014,2,0,P|327:266|407:328,1,170,2|2,0:0|0:0,0:0:0:0:
467,176,536501,2,0,P|429:144|386:127,1,85,8|2,0:0|0:0,0:0:0:0:
469,73,536825,6,0,L|287:101,1,170,6|8,0:0|0:0,0:0:0:0:
113,128,537312,1,2,0:0:0:0:
180,34,537474,2,0,P|204:80|207:122,1,85,0|2,0:0|0:0,0:0:0:0:
85,268,537798,1,8,0:0:0:0:
113,128,537960,1,2,0:0:0:0:
243,249,538122,6,0,L|273:303,3,42.5,2|0|8|8,0:0|0:0|0:0|0:0,0:0:0:0:
337,321,538447,2,0,L|396:336,3,42.5,8|8|8|8,0:0|0:0|0:0|0:0,0:0:0:0:
443,295,538771,5,4,0:3:0:0:
435,270,538852,1,4,0:3:0:0:
415,253,538933,1,4,0:3:0:0:
392,241,539014,1,4,0:3:0:0:
352,226,539095,5,2,0:0:0:0:
360,184,539176,1,2,0:0:0:0:
389,153,539257,1,2,0:0:0:0:
429,139,539339,1,2,0:0:0:0:
472,137,539420,6,0,L|291:111,1,170,6|8,0:0|0:0,0:0:0:0:
119,76,539906,2,0,L|28:103,1,85,2|0,0:0|0:0,0:0:0:0:
185,233,540230,2,0,L|200:149,1,85,2|8,0:0|0:0,0:0:0:0:
116,307,540555,6,0,L|22:331,1,85,2|2,0:0|0:0,0:0:0:0:
231,326,540879,2,0,L|311:362,1,85,0|8,0:0|0:0,0:0:0:0:
433,189,541203,2,0,B|446:287|446:287|407:363,1,170,2|2,0:0|0:0,0:0:0:0:
291,211,541690,2,0,L|308:118,1,85,8|2,0:0|0:0,0:0:0:0:
354,281,542014,5,6,0:0:0:0:
203,275,542176,1,0,0:0:0:0:
227,122,542339,1,8,0:0:0:0:
261,350,542501,2,0,B|195:367|195:367|75:336,1,170,2|2,0:0|0:0,0:0:0:0:
26,234,542987,2,0,L|47:151,1,85,8|2,0:0|0:0,0:0:0:0:
158,53,543312,6,0,P|221:89|264:194,1,170,6|8,0:0|0:0,0:0:0:0:
354,281,543798,2,0,P|444:280|511:222,1,170,2|2,0:0|0:0,0:0:0:0:
387,62,544284,2,0,L|375:153,1,85,8|2,0:0|0:0,0:0:0:0:
238,205,544609,5,2,0:0:0:0:
249,118,544771,1,0,0:0:0:0:
302,280,544933,1,8,0:0:0:0:
151,307,545095,1,2,0:0:0:0:
166,143,545257,1,0,0:0:0:0:
60,200,545420,1,2,0:0:0:0:
253,288,545582,2,0,L|235:193,1,85,8|2,0:0|0:0,0:0:0:0:
340,79,545906,5,2,0:0:0:0:
328,170,546068,1,0,0:0:0:0:
496,298,546230,1,8,0:0:0:0:
459,142,546393,1,2,0:0:0:0:
376,253,546555,1,0,0:0:0:0:
376,253,546717,2,0,P|299:264|235:201,1,170,2|2,0:0|0:0,0:0:0:0:
181,44,547203,6,0,P|160:86|153:132,1,85,6|0,0:0|0:0,0:0:0:0:
80,291,547528,2,0,P|101:249|108:203,1,85,8|2,0:0|0:0,0:0:0:0:
69,72,547852,1,0,0:0:0:0:
245,152,548014,2,0,L|234:236,1,85,2|8,0:0|0:0,0:0:0:0:
372,164,548339,6,0,P|447:184|485:280,1,170,2|0,0:0|0:0,0:0:0:0:
373,348,548825,2,0,L|385:247,1,85,8|2,0:0|0:0,0:0:0:0:
192,216,549149,1,0,0:0:0:0:
192,216,549312,2,0,L|277:188,1,85,2|8,0:0|0:0,0:0:0:0:
132,67,549636,1,2,0:0:0:0:
61,154,549798,6,0,P|40:233|89:314,1,170,6|8,0:0|0:0,0:0:0:0:
131,66,550284,2,0,P|173:73|210:95,1,85,2|0,0:0|0:0,0:0:0:0:
361,156,550609,2,0,P|358:109|336:67,1,85,2|8,0:0|0:0,0:0:0:0:
339,252,550933,6,0,P|301:231|260:221,1,85,2|2,0:0|0:0,0:0:0:0:
478,147,551257,2,0,P|476:105|459:67,1,85,0|8,0:0|0:0,0:0:0:0:
469,285,551582,2,0,P|422:355|344:384,1,170,2|2,0:0|0:0,0:0:0:0:
260,221,552068,2,0,L|236:325,1,85,8|2,0:0|0:0,0:0:0:0:
107,215,552393,5,2,0:0:0:0:
6,250,552555,1,0,0:0:0:0:
38,63,552717,1,8,0:0:0:0:
260,221,552879,2,0,P|174:250|105:212,1,170,2|2,0:0|0:0,0:0:0:0:
38,63,553366,2,0,P|28:110|21:162,1,85,8|2,0:0|0:0,0:0:0:0:
139,48,553690,6,0,P|121:127|107:224,1,170,2|8,0:0|0:0,0:0:0:0:
215,133,554176,2,0,P|296:134|352:63,1,170,2|2,0:0|0:0,0:0:0:0:
332,165,554663,2,0,P|377:182|418:180,1,85,8|2,0:0|0:0,0:0:0:0:
469,90,554987,5,6,0:0:0:0:
391,267,555149,1,0,0:0:0:0:
489,305,555311,1,8,0:0:0:0:
413,180,555474,1,2,0:0:0:0:
313,337,555636,1,0,0:0:0:0:
510,284,555798,1,2,0:0:0:0:
361,256,555960,2,0,L|268:243,1,85,8|2,0:0|0:0,0:0:0:0:
123,279,556284,5,6,0:0:0:0:
233,368,556447,1,0,0:0:0:0:
192,226,556609,1,8,0:0:0:0:
101,366,556771,1,2,0:0:0:0:
313,337,556933,1,0,0:0:0:0:
274,138,557095,2,0,P|287:219|382:252,1,170,2|2,0:0|0:0,0:0:0:0:
404,94,557582,6,0,P|387:134|355:171,1,85,6|0,0:0|0:0,0:0:0:0:
203,294,557906,2,0,P|230:261|265:237,1,85,8|2,0:0|0:0,0:0:0:0:
258,364,558230,1,0,0:0:0:0:
105,347,558393,2,0,L|92:247,1,85,2|8,0:0|0:0,0:0:0:0:
184,57,558717,6,0,B|150:142|150:142|75:176,1,170,2|0,0:0|0:0,0:0:0:0:
0,200,559203,1,8,0:0:0:0:
188,141,559366,2,0,P|278:130|351:168,1,170,2|2,0:0|0:0,0:0:0:0:
430,70,559852,1,8,0:0:0:0:
282,94,560014,1,2,0:0:0:0:
434,298,560176,6,0,B|423:231|423:231|346:163,1,170,6|8,0:0|0:0,0:0:0:0:
362,370,560663,2,0,B|295:359|295:359|227:282,1,170,2|2,0:0|0:0,0:0:0:0:
252,143,561149,2,0,B|219:167|219:167|185:217,1,85,8|2,0:0|0:0,0:0:0:0:
42,328,561474,6,0,P|68:237|111:162,1,170,2|8,0:0|0:0,0:0:0:0:
246,44,561960,2,0,P|230:129|179:223,1,170,2|2,0:0|0:0,0:0:0:0:
302,356,562447,2,0,P|293:306|270:260,1,85,8|2,0:0|0:0,0:0:0:0:
371,205,562771,6,0,P|453:188|514:129,1,170,6|8,0:0|0:0,0:0:0:0:
263,154,563257,2,0,P|314:87|327:-14,1,170,2|2,0:0|0:0,0:0:0:0:
124,60,563744,2,0,P|140:99|136:141,1,85,8|2,0:0|0:0,0:0:0:0:
79,285,564068,6,0,L|168:266,2,85,2|0|8,0:0|0:0|0:0,0:0:0:0:
270,85,564717,2,0,L|362:109,1,85,2|0,0:0|0:0,0:0:0:0:
503,199,565041,1,2,0:0:0:0:
477,80,565203,1,0,0:0:0:0:
380,226,565366,6,0,P|301:228|215:181,1,170,6|8,0:0|0:0,0:0:0:0:
140,75,565852,1,0,0:0:0:0:
114,197,566014,2,0,L|94:285,2,85,2|2|8,0:0|0:0|0:0,0:0:0:0:
247,56,566501,6,0,L|344:34,1,85,2|2,0:0|0:0,0:0:0:0:
342,146,566825,2,0,L|439:124,1,85,2|8,0:0|0:0,0:0:0:0:
429,237,567149,2,0,L|526:215,1,85,2|2,0:0|0:0,0:0:0:0:
499,328,567474,1,2,0:0:0:0:
370,298,567636,2,0,L|286:278,1,85,8|2,0:0|0:0,0:0:0:0:
150,322,567960,5,2,0:0:0:0:
150,322,568122,1,2,0:0:0:0:
38,224,568284,2,0,P|86:220|135:237,1,85,8|2,0:0|0:0,0:0:0:0:
288,279,568609,2,0,L|305:191,1,85,2|2,0:0|0:0,0:0:0:0:
251,69,568933,1,8,0:0:0:0:
344,104,569095,6,0,L|426:80,1,85,2|2,0:0|0:0,0:0:0:0:
211,158,569420,2,0,L|103:124,1,85,2|8,0:0|0:0,0:0:0:0:
240,262,569744,1,2,0:0:0:0:
362,206,569906,2,0,L|350:155,2,42.5,2|0|2,0:0|0:0|0:0,0:0:0:0:
434,332,570230,2,0,L|451:268,2,42.5,8|0|2,0:0|0:0|0:0,0:0:0:0:
341,365,570555,6,0,P|296:363|257:347,1,85,2|2,0:0|0:0,0:0:0:0:
108,206,570879,2,0,P|153:208|192:224,1,85,8|2,0:0|0:0,0:0:0:0:
131,296,571203,1,2,0:0:0:0:
23,224,571366,1,2,0:0:0:0:
149,115,571528,1,8,0:0:0:0:
282,150,571690,6,0,L|264:58,1,85,2|2,0:0|0:0,0:0:0:0:
374,215,572014,2,0,L|392:126,1,85,2|8,0:0|0:0,0:0:0:0:
257,332,572339,2,0,L|239:240,1,85,2|2,0:0|0:0,0:0:0:0:
472,256,572663,1,2,0:0:0:0:
472,256,572825,2,0,L|456:340,1,85,8|0,0:0|0:0,0:0:0:0:
393,155,573149,6,0,L|503:135,1,85,2|2,0:0|0:0,0:0:0:0:
369,50,573474,2,0,L|268:25,1,85,8|2,0:0|0:0,0:0:0:0:
86,121,573798,1,2,0:0:0:0:
208,67,573960,1,2,0:0:0:0:
124,19,574122,1,8,0:0:0:0:
208,67,574284,6,0,L|195:160,1,85,2|2,0:0|0:0,0:0:0:0:
66,237,574609,2,0,L|83:323,1,85,2|8,0:0|0:0,0:0:0:0:
241,285,574933,2,0,L|283:276,1,42.5,8|8,0:0|0:0,0:0:0:0:
153,219,575095,2,0,L|168:277,1,42.5,8|8,0:0|0:0,0:0:0:0:
182,344,575257,1,0,0:0:0:0:
382,262,575420,2,0,P|373:293|373:315,1,42.5,8|0,0:0|0:0,0:0:0:0:
473,277,575582,1,2,0:0:0:0:
473,277,575663,1,2,0:0:0:0:
473,277,575744,6,0,P|489:238|481:185,1,93.5000028533936,6|2,0:0|0:0,0:0:0:0:
395,40,576068,1,8,0:0:0:0:
270,176,576230,2,0,B|315:147|315:147|392:147|392:147|438:112,1,187.000005706787,2|2,0:0|0:0,0:0:0:0:
266,67,576717,1,8,0:0:0:0:
170,258,576879,6,0,B|139:234|139:234|139:124|139:124|170:103,1,187.000005706787,2|2,0:0|0:0,0:0:0:0:
343,224,577366,1,8,0:0:0:0:
240,352,577528,2,0,B|240:310|240:310|282:273,1,93.5000028533936,2|2,0:0|0:0,0:0:0:0:
413,168,577852,1,10,0:0:0:0:
292,24,578014,2,0,P|302:69|330:106,1,93.5000028533936,8|8,0:0|0:0,0:0:0:0:
217,137,578339,5,8,0:0:0:0:
343,224,578501,1,2,0:0:0:0:
330,106,578663,1,8,0:0:0:0:
418,293,578825,1,2,0:0:0:0:
413,168,578987,1,8,0:0:0:0:
322,329,579149,1,2,0:0:0:0:
241,175,579311,1,8,0:0:0:0:
82,278,579474,1,2,0:0:0:0:
159,139,579636,6,0,B|146:226|212:253|212:253|168:293,1,187.000005706787,12|8,0:0|0:0,0:0:0:0:
116,381,580122,1,2,0:0:0:0:
134,373,580203,1,8,0:0:0:0:
161,365,580284,5,8,0:0:0:0:
191,362,580366,1,8,0:0:0:0:
222,367,580447,1,2,0:0:0:0:
258,374,580528,1,2,0:0:0:0:
292,359,580609,5,2,0:0:0:0:
329,346,580690,1,2,0:0:0:0:
347,312,580771,1,2,0:0:0:0:
346,271,580852,1,2,0:0:0:0:
309,250,580933,5,6,0:0:0:0:
256,192,586881,12,0,591289,0:0:0:0:
200,168,592584,5,2,0:0:0:0:
319,201,592908,1,2,0:0:0:0:
255,86,593232,1,8,0:0:0:0:
219,270,593394,1,2,0:0:0:0:
219,270,593475,1,2,0:0:0:0:
219,270,593556,1,8,0:0:0:0:
235,178,593881,6,0,L|328:178,1,85,2|0,0:0|0:0,0:0:0:0:
371,274,594205,1,0,0:0:0:0:
127,279,594367,2,0,P|149:211|259:185,1,170,0|2,0:0|0:0,0:0:0:0:
359,126,594853,1,8,0:0:0:0:
342,121,594935,1,8,0:0:0:0:
325,116,595016,1,8,0:0:0:0:
308,112,595097,1,8,0:0:0:0:
291,107,595178,6,0,B|403:84|403:84|482:119,1,170,6|8,0:0|0:0,0:0:0:0:
421,289,595664,2,0,B|434:215|434:215|511:159,1,170,2|2,0:0|0:0,0:0:0:0:
398,212,596151,2,0,L|293:196,1,85,8|8,0:0|0:0,0:0:0:0:
137,178,596475,5,4,0:0:0:0:
252,267,596637,1,0,0:0:0:0:
70,245,596799,1,0,0:0:0:0:
237,147,596962,2,0,L|222:244,1,85,0|0,0:0|0:0,0:0:0:0:
338,342,597286,1,2,0:0:0:0:
338,342,597367,1,2,0:0:0:0:
338,342,597448,1,8,0:0:0:0:
224,231,597610,1,0,0:0:0:0:
142,317,597772,6,0,L|37:299,1,85,0|0,0:0|0:0,0:0:0:0:
124,90,598097,1,8,0:0:0:0:
139,120,598178,1,8,0:0:0:0:
147,152,598259,1,2,0:0:0:0:
151,185,598340,1,2,0:0:0:0:
144,218,598421,1,2,0:0:0:0:
124,90,598583,1,2,0:0:0:0:
100,65,598664,1,2,0:0:0:0:
71,46,598745,1,8,0:0:0:0:
43,206,598908,1,2,0:0:0:0:
245,231,599070,6,0,L|237:187,4,42.5,8|2|2|8|8,0:0|0:0|0:0|0:0|0:0,0:0:0:0:
265,118,599556,2,0,L|296:286,1,170,6|8,0:0|0:0,0:0:0:0:
406,193,600043,1,8,0:0:0:0:
434,71,600205,1,8,0:0:0:0:
265,118,600367,6,0,L|330:137,4,42.5,8|2|2|8|8,0:0|0:0|0:0|0:0|0:0,0:0:0:0:
169,177,600853,2,0,B|214:140|214:140|242:32,1,170,6|2,0:0|0:0,0:0:0:0:
242,31,601259,1,2,0:0:0:0:
242,31,601340,1,8,0:0:0:0:
240,314,601664,6,0,L|149:334,1,85,2|8,0:0|0:0,0:0:0:0:
353,269,601989,2,0,L|441:294,1,85,2|8,0:0|0:0,0:0:0:0:
207,195,602313,2,0,L|111:216,1,85,2|8,0:0|0:0,0:0:0:0:
374,143,602637,2,0,L|477:179,1,85,2|8,0:0|0:0,0:0:0:0:
285,98,602962,6,0,L|306:16,1,85,2|8,0:0|0:0,0:0:0:0:
207,195,603286,2,0,L|228:277,1,85,2|8,0:0|0:0,0:0:0:0:
410,308,603610,2,0,L|295:341,1,85,2|8,0:0|0:0,0:0:0:0:
461,165,603935,1,2,0:0:0:0:
501,291,604097,1,8,0:0:0:0:
377,225,604259,5,8,0:0:0:0:
365,202,604340,1,8,0:0:0:0:
353,179,604421,1,2,0:0:0:0:
341,156,604502,1,2,0:0:0:0:
329,133,604583,5,2,0:0:0:0:
326,90,604664,1,2,0:0:0:0:
304,53,604745,1,8,0:0:0:0:
262,43,604826,1,8,0:0:0:0:
221,56,604908,6,0,P|199:74|181:98,3,42.5,8|8|2|2,0:0|0:0|0:0|0:0,0:0:0:0:
142,155,605232,2,0,P|118:152|90:143,3,42.5,2|8|8|0,0:0|0:0|0:0|0:0,0:0:0:0:
107,239,605556,6,0,P|198:258|280:261,2,172.125000656605,6|2|2,0:0|0:0|0:0,0:0:0:0:
350,64,606367,1,8,0:0:0:0:
358,87,606448,1,8,0:0:0:0:
366,111,606529,1,8,0:0:0:0:
373,135,606610,1,8,0:0:0:0:
379,159,606691,1,8,0:0:0:0:
384,183,606772,1,8,0:0:0:0:
385,208,606853,5,2,0:0:0:0:
253,342,607016,2,0,P|263:296|279:255,1,85,8|2,0:0|0:0,0:0:0:0:
162,57,607340,2,0,P|179:136|183:227,1,170,8|8,0:0|0:0,0:0:0:0:
66,173,607826,1,0,0:0:0:0:
22,322,607989,1,0,0:0:0:0:
47,318,608070,1,0,0:0:0:0:
72,315,608151,6,0,L|164:303,1,85,2|8,0:0|0:0,0:0:0:0:
362,274,608475,2,0,P|295:274|256:298,1,85,2|8,0:0|0:0,0:0:0:0:
405,135,608799,2,0,P|432:169|448:220,1,85,2|8,0:0|0:0,0:0:0:0:
310,177,609124,1,2,0:0:0:0:
331,53,609286,1,8,0:0:0:0:
306,62,609367,1,0,0:0:0:0:
281,67,609448,6,0,P|233:77|181:74,1,85,2|8,0:0|0:0,0:0:0:0:
91,39,609772,1,2,0:0:0:0:
62,148,609935,1,8,0:0:0:0:
167,96,610097,1,2,0:0:0:0:
206,220,610259,1,8,0:0:0:0:
80,157,610421,1,2,0:0:0:0:
278,132,610583,1,8,0:0:0:0:
290,154,610664,1,0,0:0:0:0:
301,176,610745,6,0,P|318:225|321:282,1,85,2|8,0:0|0:0,0:0:0:0:
171,325,611070,2,0,P|176:282|191:243,1,85,2|8,0:0|0:0,0:0:0:0:
419,246,611394,2,0,P|433:285|439:327,1,85,2|8,0:0|0:0,0:0:0:0:
375,178,611718,1,2,0:0:0:0:
439,63,611881,1,8,0:0:0:0:
328,8,612043,6,0,L|359:122,1,85,2|8,0:0|0:0,0:0:0:0:
278,209,612367,1,2,0:0:0:0:
120,40,612529,2,0,P|204:59|266:140,1,170,8|8,0:0|0:0,0:0:0:0:
59,157,613016,1,2,0:0:0:0:
120,40,613178,1,8,0:0:0:0:
186,231,613340,6,0,P|158:254|112:268,1,85,2|8,0:0|0:0,0:0:0:0:
59,157,613664,1,2,0:0:0:0:
278,209,613826,2,0,B|312:240|303:332|303:332|293:306|276:284,1,170,8|8,0:0|0:0,0:0:0:0:
380,222,614313,2,0,P|408:245|454:259,1,85,2|8,0:0|0:0,0:0:0:0:
334,158,614637,5,2,0:0:0:0:
334,158,614799,1,8,0:0:0:0:
241,74,614962,1,2,0:0:0:0:
241,74,615124,1,8,0:0:0:0:
283,265,615286,1,2,0:0:0:0:
283,265,615448,1,8,0:0:0:0:
182,188,615610,1,2,0:0:0:0:
135,290,615772,1,8,0:0:0:0:
366,250,615935,6,0,L|272:266,1,85,2|8,0:0|0:0,0:0:0:0:
182,188,616259,1,2,0:0:0:0:
52,308,616421,1,8,0:0:0:0:
66,178,616583,1,2,0:0:0:0:
78,155,616664,1,8,0:0:0:0:
94,135,616745,1,10,0:0:0:0:
111,116,616826,1,8,0:0:0:0:
133,102,616908,1,8,0:0:0:0:
154,88,616989,1,8,0:0:0:0:
177,77,617070,1,8,0:0:0:0:
201,69,617151,1,8,0:0:0:0:
225,63,617232,6,0,P|267:53|328:48,2,85,6|8|2,0:0|0:0|0:0,0:0:0:0:
400,218,617718,2,0,P|445:180|491:70,1,170,8|8,0:0|0:0,0:0:0:0:
247,164,618205,2,0,P|269:202|306:239,1,85,2|8,0:0|0:0,0:0:0:0:
379,300,618448,1,0,0:0:0:0:
379,300,618529,6,0,P|323:305|270:323,1,85,2|8,0:0|0:0,0:0:0:0:
174,254,618853,2,0,P|152:294|135:344,1,85,2|8,0:0|0:0,0:0:0:0:
295,165,619178,2,0,P|250:153|185:155,1,85,2|8,0:0|0:0,0:0:0:0:
65,213,619502,1,2,0:0:0:0:
137,104,619664,1,8,0:0:0:0:
137,104,619745,1,0,0:0:0:0:
137,104,619826,6,0,L|32:87,1,85,2|8,0:0|0:0,0:0:0:0:
207,34,620151,1,2,0:0:0:0:
172,181,620313,1,8,0:0:0:0:
327,113,620475,1,2,0:0:0:0:
201,62,620637,1,8,0:0:0:0:
382,31,620799,1,2,0:0:0:0:
353,175,620962,1,8,0:0:0:0:
355,158,621043,1,0,0:0:0:0:
358,141,621124,6,0,L|381:250,1,85,2|8,0:0|0:0,0:0:0:0:
247,322,621448,2,0,L|265:227,1,85,2|8,0:0|0:0,0:0:0:0:
125,111,621772,2,0,L|140:201,1,85,2|8,0:0|0:0,0:0:0:0:
6,320,622097,1,2,0:0:0:0:
12,288,622178,1,2,0:0:0:0:
20,256,622259,1,8,0:0:0:0:
137,358,622421,6,0,P|189:360|249:347,1,85,2|8,0:0|0:0,0:0:0:0:
389,237,622745,2,0,P|340:238|279:253,1,85,2|8,0:0|0:0,0:0:0:0:
181,266,623070,1,2,0:0:0:0:
320,152,623232,1,8,0:0:0:0:
394,333,623394,1,2,0:0:0:0:
295,266,623556,1,8,0:0:0:0:
320,152,623718,6,0,L|403:169,1,85,2|8,0:0|0:0,0:0:0:0:
275,60,624043,2,0,L|191:42,1,85,2|8,0:0|0:0,0:0:0:0:
159,207,624367,2,0,L|242:224,1,85,2|8,0:0|0:0,0:0:0:0:
366,330,624691,2,0,L|262:313,1,85,2|8,0:0|0:0,0:0:0:0:
342,246,625016,5,2,0:0:0:0:
184,302,625178,1,2,0:0:0:0:
222,135,625340,1,8,0:0:0:0:
222,135,625664,1,2,0:0:0:0:
401,135,625826,1,2,0:0:0:0:
259,326,625989,1,8,0:0:0:0:
297,190,626151,6,0,P|368:241|398:328,1,170,2|2,0:0|0:0,0:0:0:0:
259,326,626637,1,8,0:0:0:0:
297,190,626799,1,2,0:0:0:0:
297,190,626881,1,2,0:0:0:0:
297,190,626962,2,0,P|237:198|196:194,1,85,8|2,0:0|0:0,0:0:0:0:
69,82,627286,2,0,P|100:112|126:154,1,85,2|2,0:0|0:0,0:0:0:0:
250,69,627610,6,0,P|340:81|443:53,1,170,6|2,0:0|0:0,0:0:0:0:
397,239,628097,2,0,L|410:151,1,85,8|2,0:0|0:0,0:0:0:0:
286,354,628421,2,0,L|265:248,1,85,8|2,0:0|0:0,0:0:0:0:
242,105,628745,1,8,0:0:0:0:
166,238,628908,6,0,P|111:261|6:210,1,170,2|2,0:0|0:0,0:0:0:0:
158,89,629394,1,8,0:0:0:0:
158,89,629556,2,0,L|260:108,1,85,2|8,0:0|0:0,0:0:0:0:
378,147,629881,2,0,L|462:136,1,85,2|0,0:0|0:0,0:0:0:0:
414,249,630205,6,0,B|402:313|402:313|420:371|420:371|352:381,1,170,2|2,0:0|0:0,0:0:0:0:
148,341,630691,2,0,B|196:331|196:331|238:340,1,85,8|2,0:0|0:0,0:0:0:0:
414,249,631016,2,0,B|378:241|378:241|330:251,1,85,8|2,0:0|0:0,0:0:0:0:
148,341,631340,1,8,0:0:0:0:
143,150,631502,6,0,B|198:150|198:150|240:194|240:194|240:248,1,170,2|2,0:0|0:0,0:0:0:0:
70,248,631989,1,8,0:0:0:0:
70,65,632151,2,0,L|167:65,1,85,2|8,0:0|0:0,0:0:0:0:
288,72,632475,1,2,0:0:0:0:
288,72,632556,1,2,0:0:0:0:
288,72,632637,1,8,0:0:0:0:
169,164,632799,6,0,L|252:179,1,85,2|0,0:0|0:0,0:0:0:0:
432,164,633124,1,8,0:0:0:0:
385,326,633286,2,0,B|333:276|333:276|344:179,1,170
361,36,633772,1,8,0:0:0:0:
231,130,633935,1,8,0:0:0:0:
231,130,634016,1,8,0:0:0:0:
231,130,634097,6,0,L|216:221,1,85,2|0,0:0|0:0,0:0:0:0:
193,378,634421,1,8,0:0:0:0:
47,329,634583,2,0,B|134:284|134:284|218:299,1,170
350,338,635070,1,8,0:0:0:0:
451,245,635232,1,8,0:0:0:0:
446,219,635313,1,8,0:0:0:0:
441,193,635394,5,2,0:0:0:0:
364,258,635556,1,0,0:0:0:0:
429,143,635718,1,8,0:0:0:0:
461,290,635881,1,0,0:0:0:0:
418,101,636043,1,2,0:0:0:0:
418,101,636205,1,2,0:0:0:0:
278,189,636367,1,0,0:0:0:0:
325,28,636529,1,8,0:0:0:0:
272,210,636691,6,0,L|247:303,1,85,0|2,0:0|0:0,0:0:0:0:
95,141,637016,2,0,L|186:121,1,85,8|8,0:0|0:0,0:0:0:0:
163,229,637340,1,2,0:0:0:0:
1,184,637502,1,8,0:0:0:0:
1,157,637583,1,8,0:0:0:0:
2,131,637664,1,8,0:0:0:0:
5,105,637745,1,8,0:0:0:0:
10,80,637826,1,8,0:0:0:0:
15,54,637908,1,8,0:0:0:0:
24,30,637989,6,0,L|126:52,1,85,6|8,0:0|0:0,0:0:0:0:
211,137,638313,1,2,0:0:0:0:
397,29,638475,2,0,L|295:51,1,85,8|2,0:0|0:0,0:0:0:0:
319,220,638799,2,0,L|421:242,1,85,8|2,0:0|0:0,0:0:0:0:
449,141,639124,1,8,0:0:0:0:
502,256,639286,5,2,0:0:0:0:
502,256,639448,1,8,0:0:0:0:
404,340,639610,2,0,L|306:361,1,85,2|8,0:0|0:0,0:0:0:0:
130,325,639935,1,2,0:0:0:0:
160,237,640097,1,8,0:0:0:0:
257,294,640259,1,2,0:0:0:0:
286,124,640421,1,8,0:0:0:0:
107,120,640583,6,0,P|149:139|192:143,2,85,2|8|2,0:0|0:0|0:0,0:0:0:0:
269,40,641070,2,0,L|290:146,1,85,8|2,0:0|0:0,0:0:0:0:
449,233,641394,2,0,L|471:140,1,85,8|2,0:0|0:0,0:0:0:0:
384,62,641718,1,8,0:0:0:0:
356,203,641881,5,2,0:0:0:0:
356,203,642043,1,8,0:0:0:0:
285,123,642205,2,0,P|236:109|193:109,1,85,2|8,0:0|0:0,0:0:0:0:
53,249,642529,2,0,P|79:208|89:147,1,85,2|8,0:0|0:0,0:0:0:0:
100,356,642853,2,0,P|147:368|193:369,1,85,2|8,0:0|0:0,0:0:0:0:
258,250,643178,5,2,0:0:0:0:
274,251,643259,1,0,0:0:0:0:
290,249,643340,1,0,0:0:0:0:
306,249,643421,1,0,0:0:0:0:
322,245,643502,1,8,0:0:0:0:
338,242,643583,1,0,0:0:0:0:
353,236,643664,1,0,0:0:0:0:
368,228,643745,1,0,0:0:0:0:
383,221,643826,2,0,L|424:199,3,42.5,2|0|0|0,0:0|0:0|0:0|0:0,0:0:0:0:
489,166,644151,2,0,L|500:116,3,42.5,8|0|8|8,0:0|0:0|0:0|0:0,0:0:0:0:
434,74,644475,5,2,0:0:0:0:
421,85,644556,1,0,0:0:0:0:
406,94,644637,1,0,0:0:0:0:
391,102,644718,1,0,0:0:0:0:
375,109,644799,1,8,0:0:0:0:
358,114,644881,1,0,0:0:0:0:
341,119,644962,1,0,0:0:0:0:
324,122,645043,1,0,0:0:0:0:
307,124,645124,2,0,L|253:125,3,42.5,2|0|0|0,0:0|0:0|0:0|0:0,0:0:0:0:
186,124,645448,2,0,L|136:109,3,42.5,8|0|8|8,0:0|0:0|0:0|0:0,0:0:0:0:
66,83,645772,5,0,0:0:0:0:
65,108,645853,1,0,0:0:0:0:
64,133,645935,1,0,0:0:0:0:
64,158,646016,1,0,0:0:0:0:
64,183,646097,1,0,0:0:0:0:
25,305,646259,1,2,0:0:0:0:
25,305,646340,1,2,0:0:0:0:
25,305,646421,2,0,L|120:305,1,85,2|2,0:0|0:0,0:0:0:0:
456,295,646908,6,0,L|456:210,1,85,12|0,0:0|0:0,0:0:0:0:
277,213,647232,1,2,0:0:0:0:
277,213,647313,1,2,0:0:0:0:
277,213,647394,2,0,L|277:298,1,85,8|8,0:0|0:0,0:0:0:0:
456,210,647718,1,2,0:0:0:0:
452,116,647881,1,8,0:0:0:0:
275,119,648043,1,8,0:0:0:0:
277,213,648205,1,8,0:0:0:0:
101,214,648367,6,0,L|101:42,1,170,6|8,0:0|0:0,0:0:0:0:
422,322,649016,1,2,0:0:0:0:
328,323,649178,1,0,0:0:0:0:
259,240,649340,1,8,0:0:0:0:
165,240,649502,1,8,0:0:0:0:
323,161,649664,6,0,L|506:161,1,170,6|8,0:0|0:0,0:0:0:0:
53,53,650313,1,2,0:0:0:0:
51,146,650475,1,0,0:0:0:0:
203,243,650637,1,8,0:0:0:0:
203,149,650799,1,8,0:0:0:0:
203,149,650881,1,8,0:0:0:0:
203,149,650962,6,0,L|203:64,1,85,6|2,0:0|0:0,0:0:0:0:
350,64,651286,1,8,0:0:0:0:
468,149,651448,2,0,L|468:234,1,85,2|2,0:0|0:0,0:0:0:0:
472,280,651691,1,8,0:0:0:0:
472,280,651772,1,2,0:0:0:0:
396,358,651935,2,0,L|311:358,1,85,8|8,0:0|0:0,0:0:0:0:
354,242,652259,5,2,0:0:0:0:
354,242,652421,1,2,0:0:0:0:
249,276,652583,2,0,L|249:191,1,85,8|2,0:0|0:0,0:0:0:0:
155,98,652908,1,2,0:0:0:0:
155,191,653070,1,8,0:0:0:0:
63,8,653232,1,2,0:0:0:0:
155,8,653394,1,8,0:0:0:0:
249,191,653556,6,0,L|248:15,1,170,6|8,0:0|0:0,0:0:0:0:
15,195,654205,1,2,0:0:0:0:
108,194,654367,1,0,0:0:0:0:
13,383,654529,1,8,0:0:0:0:
16,289,654691,1,8,0:0:0:0:
186,289,654853,6,0,L|4:289,1,170,6|8,0:0|0:0,0:0:0:0:
486,360,655502,1,2,0:0:0:0:
486,266,655664,1,0,0:0:0:0:
304,266,655826,1,8,0:0:0:0:
311,359,655989,1,8,0:0:0:0:
311,359,656070,1,8,0:0:0:0:
311,359,656151,6,0,L|408:359,1,85,6|2,0:0|0:0,0:0:0:0:
397,180,656475,2,0,L|397:269,1,85,8|2,0:0|0:0,0:0:0:0:
492,180,656799,1,2,0:0:0:0:
492,180,656880,1,8,0:0:0:0:
492,180,656962,1,2,0:0:0:0:
397,85,657124,1,8,0:0:0:0:
397,180,657286,1,8,0:0:0:0:
217,180,657448,6,0,L|308:180,1,85,2|2,0:0|0:0,0:0:0:0:
258,83,657772,1,8,0:0:0:0:
133,180,657935,1,0,0:0:0:0:
128,196,658016,1,0,0:0:0:0:
124,212,658097,1,2,0:0:0:0:
120,228,658178,1,8,0:0:0:0:
116,244,658259,1,8,0:0:0:0:
112,260,658340,1,8,0:0:0:0:
109,276,658421,1,2,0:0:0:0:
106,292,658502,1,8,0:0:0:0:
104,308,658583,1,8,0:0:0:0:
102,324,658664,1,8,0:0:0:0:
103,340,658745,6,0,L|196:327,1,85,12|2,0:0|0:0,0:0:0:0:
385,286,659070,2,0,L|303:265,1,85,8|2,0:0|0:0,0:0:0:0:
164,151,659394,2,0,L|185:252,1,85,8|2,0:0|0:0,0:0:0:0:
302,45,659718,2,0,L|288:146,1,85,8|2,0:0|0:0,0:0:0:0:
384,285,660043,6,0,L|370:202,1,85,8|2,0:0|0:0,0:0:0:0:
229,294,660367,2,0,L|213:378,1,85,8|2,0:0|0:0,0:0:0:0:
144,205,660691,2,0,L|49:230,1,85,8|2,0:0|0:0,0:0:0:0:
207,112,661016,2,0,L|301:132,1,85,8|8,0:0|0:0,0:0:0:0:
370,202,661259,1,8,0:0:0:0:
370,202,661340,6,0,L|467:181,2,85,8|2|8,0:0|0:0|0:0,0:0:0:0:
267,219,661826,6,0,B|297:102|297:102|358:62,1,170,6|8,0:0|0:0,0:0:0:0:
417,34,662313,1,2,0:0:0:0:
260,109,662475,6,0,B|161:74|161:74|75:94,1,170,6|8,0:0|0:0,0:0:0:0:
10,109,662962,1,8,0:0:0:0:
105,249,663124,6,0,B|128:158|128:158|96:86,1,170,6|8,0:0|0:0,0:0:0:0:
1,223,663610,2,0,L|12:317,1,85,2|8,0:0|0:0,0:0:0:0:
156,369,663935,5,2,0:0:0:0:
181,371,664016,1,0,0:0:0:0:
206,371,664097,1,8,0:0:0:0:
231,367,664178,1,8,0:0:0:0:
255,359,664259,1,2,0:0:0:0:
275,344,664340,1,8,0:0:0:0:
289,323,664421,1,8,0:0:0:0:
293,297,664502,1,8,0:0:0:0:
293,271,664583,2,0,L|283:205,3,42.5,8|8|8|8,0:0|0:0|0:0|0:0,0:0:0:0:
299,155,664908,2,0,L|278:100,3,42.5,8|8|8|8,0:0|0:0|0:0|0:0,0:0:0:0:
253,43,665232,5,2,0:0:0:0:
262,158,666043,1,2,0:0:0:0:
262,158,666124,1,2,0:0:0:0:
262,158,666205,1,8,0:0:0:0:
262,158,666529,5,6,0:0:0:0:
128,129,672523,6,0,B|111:216|111:216|127:276,1,136,6|0,0:0|0:0,0:0:0:0:
337,328,673144,2,0,B|303:306|303:306|270:217,1,136,8|0,0:0|0:0,0:0:0:0:
419,114,673766,5,2,0:0:0:0:
410,258,674077,1,2,0:0:0:0:
419,114,674388,1,8,0:0:0:0:
280,68,674699,2,0,L|274:144,1,68
156,206,675010,6,0,B|127:178|127:178|136:80,1,136,2|0,0:0|0:0,0:0:0:0:
84,266,675631,2,0,B|46:257|46:257|5:170,1,136,8|0,0:0|0:0,0:0:0:0:
183,293,676221,6,0,B|265:268|265:268|324:281,2,136,2|2|8,0:0|0:0|0:0,0:0:0:0:
410,297,677130,2,0,L|421:217,1,68,0|0,0:0|0:0,0:0:0:0:
346,179,677414,6,0,L|362:31,1,136,2|0,0:0|0:0,0:0:0:0:
155,43,678029,2,0,L|140:178,1,136,8|0,0:0|0:0,0:0:0:0:
252,158,678644,5,2,0:0:0:0:
237,317,678952,1,2,0:0:0:0:
400,355,679260,1,8,0:0:0:0:
421,194,679543,2,0,L|332:216,1,85,2|2,0:0|0:0,0:0:0:0:
227,246,679834,5,8,0:0:0:0:
132,275,680295,1,8,0:0:0:0:
240,144,680603,1,2,0:0:0:0:
147,173,680757,6,0,P|94:176|0:112,1,170,8|2,0:0|0:0,0:0:0:0:
173,76,681211,1,8,0:0:0:0:
264,227,681363,1,8,0:0:0:0:
269,133,681514,1,2,0:0:0:0:
191,86,681666,1,8,0:0:0:0:
113,163,682319,6,0,L|218:144,1,85,6|0,0:0|0:0,0:0:0:0:
384,150,682619,2,0,L|300:165,1,85,8|0,0:0|0:0,0:0:0:0:
158,284,682919,1,2,0:0:0:0:
240,217,683069,1,2,0:0:0:0:
346,332,683219,1,8,0:0:0:0:
500,221,683369,6,0,P|427:169|337:157,1,170,2|2,0:0|0:0,0:0:0:0:
156,203,683819,2,0,L|256:219,1,85,0|0,0:0|0:0,0:0:0:0:
173,368,684119,1,2,0:0:0:0:
68,317,684269,1,2,0:0:0:0:
156,203,684419,1,8,0:0:0:0:
269,219,684569,2,0,L|276:176,1,42.5,0|8,0:0|0:0,0:0:0:0:
269,219,684756,6,0,B|298:238|341:230|341:230|373:190|428:198,1,152.999995330811,6|8,0:0|0:0,0:0:0:0:
404,60,685210,2,0,B|452:91|449:138|449:138|410:154|407:206,1,170,6|2,0:0|0:0,0:0:0:0:
304,113,685664,2,0,B|264:100|264:100|233:125|233:125|166:125,1,127.5,8|0,0:0|2:0,0:0:0:0:
162,119,685968,6,0,L|179:32,1,85,2|2,0:0|0:0,0:0:0:0:
95,190,686271,2,0,L|105:280,1,85,8|0,0:0|0:0,0:0:0:0:
262,333,686574,1,2,0:0:0:0:
154,349,686725,1,2,0:0:0:0:
276,249,686877,1,8,0:0:0:0:
379,311,687021,6,0,P|406:281|361:170,1,170,6|2,0:0|0:0,0:0:0:0:
235,79,687477,2,0,P|259:113|308:130,1,85,8|0,0:0|0:0,0:0:0:0:
133,112,687782,2,0,P|90:97|44:100,1,85,2|2,0:0|0:0,0:0:0:0:
76,337,688086,2,0,P|106:300|125:220,1,127.5,8|0,0:0|2:0,0:0:0:0:
127,197,688391,5,2,0:0:0:0:
297,237,688543,1,2,0:0:0:0:
318,112,688695,2,0,L|234:128,1,85,8|0,0:0|0:0,0:0:0:0:
121,65,689000,1,2,0:0:0:0:
77,206,689152,1,2,0:0:0:0:
77,206,689228,1,2,0:0:0:0:
77,206,689304,1,8,0:0:0:0:
203,179,689457,6,0,L|395:146,1,170,6|2,0:0|0:0,0:0:0:0:
500,294,689914,2,0,P|457:273|371:263,1,127.5,8|0,0:0|2:0,0:0:0:0:
359,266,690218,2,0,L|367:178,1,85,2|2,0:0|0:0,0:0:0:0:
266,301,690523,2,0,P|195:319|120:306,1,127.5,8|0,0:0|2:0,0:0:0:0:
128,311,690827,5,2,0:0:0:0:
43,278,690980,1,2,0:0:0:0:
47,191,691132,2,0,P|81:152|154:111,1,127.5,8|0,0:0|2:0,0:0:0:0:
145,113,691436,1,2,0:0:0:0:
126,24,691589,1,2,0:0:0:0:
261,68,691741,2,0,P|285:131|287:205,1,127.5,8|0,0:0|2:0,0:0:0:0:
285,216,692046,5,2,0:0:0:0:
150,305,692194,1,8,0:0:0:0:
164,188,692343,1,8,0:0:0:0:
323,327,692491,1,2,0:0:0:0:
150,305,692640,1,8,0:0:0:0:
280,239,692788,1,8,0:0:0:0:
166,160,692937,1,8,0:0:0:0:
293,174,693085,1,2,0:0:0:0:
293,174,693159,1,2,0:0:0:0:
293,174,693234,6,0,L|285:215,3,42.5,2|2|2|2,0:0|0:0|0:0|0:0,0:0:0:0:
372,171,693531,2,0,L|382:114,4,42.5,0|0|0|0|8,0:0|0:0|0:0|0:0|0:0,0:0:0:0:
450,290,694501,6,0,B|431:285|408:266|408:266|381:286|350:292|350:292|319:280|273:284,1,170,6|8,0:0|0:0,0:0:0:0:
150,311,694955,1,0,0:0:0:0:
213,227,695107,2,0,B|202:178|202:178|212:138,1,85,2|2,0:0|0:0,0:0:0:0:
393,68,695410,2,0,B|405:113|405:113|397:157,1,85,8|2,0:0|0:0,0:0:0:0:
304,27,695713,6,0,L|217:43,1,85,2|0,0:0|0:0,0:0:0:0:
69,128,696016,2,0,B|121:120|121:120|196:154,1,127.5,8|0,0:0|2:0,0:0:0:0:
205,162,696319,2,0,L|297:145,1,85,2|2,0:0|0:0,0:0:0:0:
393,68,696622,1,8,0:0:0:0:
445,176,696773,1,0,0:0:0:0:
383,310,696925,6,0,B|348:244|348:244|365:149,1,170,6|8,0:0|0:0,0:0:0:0:
300,238,697379,1,0,0:0:0:0:
309,51,697531,2,0,L|395:68,1,85,2|2,0:0|0:0,0:0:0:0:
205,93,697834,2,0,P|163:99|114:88,1,85,8|0,0:0|0:0,0:0:0:0:
17,141,698137,5,2,0:0:0:0:
60,11,698288,1,2,0:0:0:0:
100,197,698440,2,0,P|93:248|39:314,1,127.5,8|0,0:0|2:0,0:0:0:0:
48,307,698743,1,2,0:0:0:0:
159,341,698894,1,2,0:0:0:0:
257,171,699046,1,8,0:0:0:0:
208,268,699197,1,0,0:0:0:0:
208,268,699273,1,0,0:0:0:0:
208,268,699349,6,0,B|227:263|254:248|254:248|277:264|308:270|308:270|339:258|385:262,1,170,6|8,0:0|0:0,0:0:0:0:
483,287,699804,1,0,0:0:0:0:
421,168,699955,2,0,B|407:128|407:128|410:82,1,85,2|2,0:0|0:0,0:0:0:0:
256,75,700258,2,0,B|210:66|210:66|162:71,1,85,8|0,0:0|0:0,0:0:0:0:
62,188,700561,6,0,L|84:85,1,85,2|0,0:0|0:0,0:0:0:0:
153,253,700864,2,0,B|104:312|104:312|45:338,1,127.5,8|0,0:0|2:0,0:0:0:0:
141,349,701167,2,0,L|236:368,1,85,2|2,0:0|0:0,0:0:0:0:
316,363,701470,1,8,0:0:0:0:
433,252,701622,1,0,0:0:0:0:
315,122,701773,6,0,P|287:191|338:276,2,170,6|8|2,0:0|0:0|0:0,0:0:0:0:
494,90,702531,1,2,0:0:0:0:
446,166,702682,2,0,P|404:170|357:206,1,85,8|0,0:0|0:0,0:0:0:0:
187,237,703004,6,0,L|283:221,2,76.4999976654053,2|2|8,0:0|0:0|0:0,0:0:0:0:
170,28,703588,2,0,P|244:58|292:120,1,127.5,2|0,0:0|2:0,0:0:0:0:
276,91,703876,2,0,L|265:156,4,42.5,8|0|8|8|8,0:0|0:0|0:0|0:0|0:0,0:0:0:0:
287,57,704237,6,0,B|387:23|387:23|457:41,1,170,6|8,0:0|0:0,0:0:0:0:
512,132,704693,1,0,0:0:0:0:
512,132,704846,2,0,L|504:217,1,85,2|2,0:0|0:0,0:0:0:0:
420,369,705150,2,0,P|408:326|410:272,1,85,8|0,0:0|0:0,0:0:0:0:
313,177,705455,6,0,P|264:222|164:251,1,170,2|8,0:0|0:0,0:0:0:0:
18,137,705912,2,0,L|112:146,1,85,0|2,0:0|0:0,0:0:0:0:
238,37,706216,1,2,0:0:0:0:
351,25,706368,2,0,P|402:44|441:75,1,85,8|0,0:0|0:0,0:0:0:0:
504,201,706673,5,2,0:0:0:0:
504,201,706978,1,8,0:0:0:0:
319,305,707282,2,0,B|344:240|404:232|404:232|376:172,1,170,2|8,0:0|0:0,0:0:0:0:
413,325,707739,1,0,0:0:0:0:
413,325,707891,6,0,L|498:338,1,85,2|2,0:0|0:0,0:0:0:0:
239,254,708196,2,0,P|186:282|140:346,1,127.5,8|0,0:0|2:0,0:0:0:0:
144,334,708500,2,0,L|116:238,1,85,2|2,0:0|0:0,0:0:0:0:
177,100,708805,1,8,0:0:0:0:
56,51,708957,1,0,0:0:0:0:
56,51,709033,1,0,0:0:0:0:
56,51,709110,6,0,B|45:85|45:85|62:108|65:128|65:128|39:171|54:219,1,170,6|8,0:0|0:0,0:0:0:0:
65,375,709566,1,0,0:0:0:0:
151,267,709719,2,0,P|151:212|142:171,1,85,2|2,0:0|0:0,0:0:0:0:
252,40,710023,2,0,P|249:87|255:130,1,85,8|0,0:0|0:0,0:0:0:0:
448,32,710328,6,0,L|362:54,1,85,2|0,0:0|0:0,0:0:0:0:
448,32,710632,2,0,L|441:175,1,127.5,8|0,0:0|0:0,0:0:0:0:
440,188,710937,1,2,0:0:0:0:
332,140,711089,1,2,0:0:0:0:
344,276,711242,2,0,P|385:269|432:277,1,85,8|0,0:0|0:0,0:0:0:0:
228,232,711546,6,0,B|155:228|101:255|101:255|147:257,2,170,6|8|2,0:0|0:0|0:0,0:0:0:0:
117,140,712308,1,2,0:0:0:0:
117,140,712460,2,0,L|29:151,1,85,8|0,0:0|0:0,0:0:0:0:
156,56,712764,5,2,0:0:0:0:
288,122,712917,1,8,0:0:0:0:
425,62,713069,2,0,P|373:60|284:105,1,127.5,2|8,0:0|0:0,0:0:0:0:
288,122,713374,2,0,L|181:114,1,85,2|2,0:0|0:0,0:0:0:0:
93,232,713678,1,2,0:0:0:0:
107,251,713754,2,0,L|197:233,1,85,2|2,0:0|0:0,0:0:0:0:
201,213,713983,6,0,P|291:254|362:221,1,170,6|8,0:0|0:0,0:0:0:0:
436,93,714438,2,0,L|424:183,1,85,0|2,0:0|0:0,0:0:0:0:
424,177,714742,1,2,0:0:0:0:
352,54,714894,1,8,0:0:0:0:
288,122,715046,6,0,B|239:111|239:111|188:78|188:78|122:96,1,170,2|2,0:0|0:0,0:0:0:0:
45,227,715501,2,0,B|102:203|102:203|149:210,1,85,8|0,0:0|0:0,0:0:0:0:
188,293,715805,1,2,0:0:0:0:
337,335,715957,1,2,0:0:0:0:
270,272,716109,2,0,L|173:296,1,85,8|0,0:0|0:0,0:0:0:0:
288,122,716413,6,0,P|314:165|320:207,1,85,6|2,0:0|0:0,0:0:0:0:
146,154,716717,2,0,P|125:94|56:49,1,127.5,8|0,0:0|2:0,0:0:0:0:
52,59,717020,1,2,0:0:0:0:
208,27,717172,1,2,0:0:0:0:
52,59,717324,1,8,0:0:0:0:
230,135,717476,6,0,B|334:107|334:107|343:34,1,170,2|2,0:0|0:0,0:0:0:0:
469,180,717932,2,0,L|371:203,1,85,8|0,0:0|0:0,0:0:0:0:
283,263,718236,1,2,0:0:0:0:
434,307,718388,1,2,0:0:0:0:
275,347,718539,2,0,L|285:229,1,85,8|0,0:0|0:0,0:0:0:0:
241,96,718843,5,2,0:0:0:0:
241,96,719147,2,0,P|179:56|65:76,1,170,8|2,0:0|0:0,0:0:0:0:
20,191,719603,2,0,L|7:85,1,85,2|8,0:0|0:0,0:0:0:0:
143,198,719907,6,0,B|119:322|119:322|61:309,1,170,2|2,0:0|0:0,0:0:0:0:
234,304,720362,2,0,L|325:318,1,85,8|0,0:0|0:0,0:0:0:0:
479,213,720666,2,0,P|421:207|375:227,1,85,2|2,0:0|0:0,0:0:0:0:
281,133,720970,2,0,P|220:116|169:79,1,127.5,8|0,0:0|2:0,0:0:0:0:
169,80,721274,5,2,0:0:0:0:
170,81,721426,1,2,0:0:0:0:
285,225,721577,2,0,P|201:264|102:250,1,170,8|2,0:0|0:0,0:0:0:0:
40,228,722033,1,2,0:0:0:0:
72,90,722185,1,8,0:0:0:0:
282,134,722337,6,0,B|242:14|242:14|216:54,1,170,6|2,0:0|0:0,0:0:0:0:
169,161,722793,1,8,0:0:0:0:
370,109,722945,1,0,0:0:0:0:
169,161,723096,1,8,0:0:0:0:
127,244,723248,1,6,0:0:0:0:
127,244,723552,6,0,B|182:129|182:129|210:177,1,170,6|2,0:0|0:0,0:0:0:0:
199,339,724008,2,0,L|307:328,1,85,8|0,0:0|0:0,0:0:0:0:
436,278,724312,1,2,0:0:0:0:
282,246,724464,2,0,P|277:296|291:352,1,85,2|8,0:0|0:0,0:0:0:0:
462,145,724767,6,0,B|432:163|432:163|394:146|370:146|370:146|346:164|296:168,1,170,6|2,0:0|0:0,0:0:0:0:
177,247,725223,2,0,P|128:224|99:194,1,85,8|0,0:0|0:0,0:0:0:0:
172,47,725527,1,2,0:0:0:0:
33,96,725679,1,2,0:0:0:0:
172,47,725831,2,0,L|272:64,1,85,8|0,0:0|0:0,0:0:0:0:
256,244,726134,5,6,0:0:0:0:
256,244,726462,2,0,L|256:146,1,85,8|0,0:0|0:0,0:0:0:0:
412,213,726742,1,2,0:0:0:0:
412,121,726894,1,2,0:0:0:0:
341,293,727046,1,8,0:0:0:0:
256,159,727198,6,0,P|182:139|124:146,1,127.5,6|0,0:0|2:0,0:0:0:0:
77,206,727502,2,0,P|125:222|176:213,1,85,2|8,0:0|0:0,0:0:0:0:
256,244,727806,2,0,P|321:256|422:204,1,170,2|2,0:0|0:0,0:0:0:0:
448,49,728263,1,8,0:0:0:0:
349,107,728415,1,2,0:0:0:0:
345,123,728491,1,2,0:0:0:0:
342,140,728565,6,0,L|248:125,1,85,12|0,0:0|0:0,0:0:0:0:
80,207,728869,2,0,L|190:185,1,85,8|0,0:0|0:0,0:0:0:0:
356,307,729174,1,8,0:0:0:0:
256,284,729326,1,2,0:0:0:0:
258,126,729478,1,8,0:0:0:0:
152,39,729630,6,0,B|162:91|162:91|144:133|144:133|157:187,1,127.5,6|0,0:0|2:0,0:0:0:0:
163,190,729935,1,2,0:0:0:0:
256,284,730087,2,0,B|212:280|212:280|151:295,1,85,8|0,0:0|0:0,0:0:0:0:
82,320,730392,1,8,0:0:0:0:
82,320,730544,1,2,0:0:0:0:
256,197,730696,2,0,L|262:107,1,85,8|2,0:0|0:0,0:0:0:0:
423,28,731001,6,0,L|411:205,1,170,12|8,0:0|0:0,0:0:0:0:
296,329,731469,1,2,0:0:0:0:
296,329,731547,1,2,0:0:0:0:
296,329,731626,2,0,L|373:315,2,56.6666666666667,8|8|2,0:0|0:0|0:0,0:0:0:0:
213,258,731938,1,2,0:0:0:0:
213,258,732042,2,0,L|183:332,1,56.6666666666667,2|2,0:0|0:0,0:0:0:0:
70,208,732251,6,0,L|89:252,3,42.5,2|2|8|8,0:0|0:0|0:0|0:0,0:0:0:0:
165,191,732558,2,0,L|177:147,3,42.5,2|2|2|2,0:0|0:0|0:0|0:0,0:0:0:0:
255,93,732866,1,8,0:0:0:0:
255,93,732943,1,2,0:0:0:0:
255,93,733020,1,2,0:0:0:0:
255,93,733097,1,2,0:0:0:0:
255,93,733174,1,2,0:0:0:0:
255,93,733251,1,2,0:0:0:0:
255,93,733327,1,2,0:0:0:0:
255,93,733404,1,8,0:0:0:0:
255,93,733481,5,12,0:0:0:0:
256,192,738758,12,2,741356,0:0:0:0:
256,192,741498,5,12,0:0:0:0:
288,112,741784,5,6,0:0:0:0:
288,112,741926,1,0,0:0:0:0:
158,192,742069,2,0,L|137:91,1,85
182,285,742926,5,6,0:0:0:0:
182,285,743069,1,0,0:0:0:0:
337,225,743212,2,0,L|427:247,1,85,0|0,0:0|0:0,0:0:0:0:
337,225,743641,1,0,0:0:0:0:
371,68,743784,1,0,0:0:0:0:
461,8,743926,1,0,0:0:0:0:
432,144,744069,6,0,P|359:102|272:118,1,170,2|8,0:0|0:0,0:0:0:0:
216,191,744498,1,0,0:0:0:0:
86,114,744641,2,0,P|96:71|124:37,1,85,2|2,0:0|0:0,0:0:0:0:
95,200,744926,2,0,P|47:208|-4:240,1,85,8|0,0:0|0:0,0:0:0:0:
216,191,745212,6,0,B|242:282|242:282|203:272,1,127.5,8|8,0:0|0:0,0:0:0:0:
188,287,745498,2,0,L|293:311,1,85,8|8,0:0|0:0,0:0:0:0:
438,276,745784,1,8,0:0:0:0:
381,350,745926,1,8,0:0:0:0:
359,217,746069,2,0,L|343:127,1,85,2|2,0:0|0:0,0:0:0:0:
167,82,746355,6,0,P|242:79|324:22,2,170,6|8|2,0:0|0:0|0:0,0:0:0:0:
28,45,747069,1,2,0:0:0:0:
9,131,747212,2,0,P|4:178|15:220,1,85,8|0,0:0|0:0,0:0:0:0:
186,226,747498,6,0,P|166:266|86:274,1,127.5,2|0,0:0|0:0,0:0:0:0:
90,276,747784,2,0,P|114:331|114:374,1,85,8|2,0:0|0:0,0:0:0:0:
95,175,748069,2,0,P|128:137|167:124,1,85,2|2,0:0|0:0,0:0:0:0:
325,175,748355,1,8,0:0:0:0:
366,62,748498,1,0,0:0:0:0:
417,139,748641,6,0,B|440:244|440:244|422:332,2,170,2|8|2,0:0|0:0|0:0,0:0:0:0:
472,225,749355,1,2,0:0:0:0:
350,246,749498,1,8,0:0:0:0:
328,121,749641,6,0,L|346:25,1,85,0|2,0:0|0:0,0:0:0:0:
180,205,749926,1,0,0:0:0:0:
180,205,750069,2,0,L|273:187,1,85,8|2,0:0|0:0,0:0:0:0:
100,145,750355,2,0,P|49:155|9:184,1,85,2|2,0:0|0:0,0:0:0:0:
144,295,750641,1,8,0:0:0:0:
24,278,750784,1,0,0:0:0:0:
180,205,750926,6,0,B|252:180|310:197|310:197|279:223,1,170,2|8,0:0|0:0,0:0:0:0:
92,230,751355,1,0,0:0:0:0:
100,145,751498,2,0,P|113:95|136:60,2,85,2|2|8,0:0|0:0|0:0,0:0:0:0:
223,49,751926,1,0,0:0:0:0:
286,121,752069,6,0,P|341:110|398:61,1,127.5,2|0,0:0|0:0,0:0:0:0:
404,60,752355,2,0,B|416:50|416:50|407:136,1,85,8|2,0:0|0:0,0:0:0:0:
313,218,752641,1,2,0:0:0:0:
286,121,752784,1,2,0:0:0:0:
430,221,752926,2,0,P|443:262|439:304,1,85,8|0,0:0|0:0,0:0:0:0:
317,304,753212,6,0,P|273:326|151:255,1,170,2|8,0:0|0:0,0:0:0:0:
61,195,753641,1,0,0:0:0:0:
61,195,753784,2,0,P|106:184|149:151,1,85,2|2,0:0|0:0,0:0:0:0:
250,18,754069,2,0,P|257:67|268:109,1,85,8|0,0:0|0:0,0:0:0:0:
428,93,754355,6,0,P|417:141|401:179,1,85,2|0,0:0|0:0,0:0:0:0:
398,202,754569,1,8,0:0:0:0:
398,202,754641,1,8,0:0:0:0:
270,264,754784,2,0,P|281:223|299:184,1,85,8|2,0:0|0:0,0:0:0:0:
364,303,755069,1,8,0:0:0:0:
288,354,755212,2,0,P|224:343|178:325,1,85,4|0,0:0|0:0,0:0:0:0:
105,251,755498,6,0,B|69:295|-15:310|-15:310|5:300|17:280,1,170,6|8,0:0|0:0,0:0:0:0:
227,135,756069,2,0,P|204:175|167:204,1,85,2|2,0:0|0:0,0:0:0:0:
124,113,756355,2,0,P|136:76|123:21,1,85,8|0,0:0|0:0,0:0:0:0:
231,45,756641,6,0,P|318:79|404:67,1,170,6|8,0:0|0:0,0:0:0:0:
477,24,757069,1,2,0:0:0:0:
461,171,757212,2,0,P|463:221|477:269,1,85,2|2,0:0|0:0,0:0:0:0:
332,283,757498,2,0,B|335:211|354:146,1,127.5,8|0,0:0|0:0,0:0:0:0:
350,157,757784,6,0,P|308:170|248:177,1,85,6|0,0:0|0:0,0:0:0:0:
176,128,758069,2,0,P|171:86|157:46,1,85,8|0,0:0|0:0,0:0:0:0:
23,156,758355,2,0,P|57:180|97:197,1,85,2|2,0:0|0:0,0:0:0:0:
137,287,758641,2,0,P|123:328|101:364,1,85,8|0,0:0|0:0,0:0:0:0:
236,272,758926,6,0,B|252:323|288:380|288:380|317:377|343:339,1,170,2|8,0:0|0:0,0:0:0:0:
356,215,759355,1,2,0:0:0:0:
473,272,759498,2,0,P|461:315|442:355,2,85,2|2|8,0:0|0:0|0:0,0:0:0:0:
265,115,760069,6,0,B|300:131|300:131|321:120|346:113|346:113|383:139|441:139,1,170,6|8,0:0|0:0,0:0:0:0:
49,141,760641,1,2,0:0:0:0:
49,141,760784,1,2,0:0:0:0:
133,85,760926,2,0,P|122:40|90:4,1,85,8|0,0:0|0:0,0:0:0:0:
49,141,761212,6,0,P|26:224|68:307,1,170,6|8,0:0|0:0,0:0:0:0:
224,264,761641,1,2,0:0:0:0:
224,264,761784,2,0,P|174:251|124:263,1,85,2|2,0:0|0:0,0:0:0:0:
278,334,762069,2,0,P|306:299|315:250,1,85,8|0,0:0|0:0,0:0:0:0:
275,167,762355,6,0,P|370:165|433:114,1,170,6|8,0:0|0:0,0:0:0:0:
212,24,762926,2,0,P|197:64|168:94,1,85,2|2,0:0|0:0,0:0:0:0:
8,108,763212,2,0,P|51:112|101:131,1,85,8|0,0:0|0:0,0:0:0:0:
166,267,763498,5,6,0:0:0:0:
27,217,763641,1,8,0:0:0:0:
167,179,763784,1,8,0:0:0:0:
164,285,763926,1,2,0:0:0:0:
327,238,764069,1,8,0:0:0:0:
168,157,764212,1,8,0:0:0:0:
346,115,764355,2,0,L|340:161,3,42.5,8|0|0|0,0:0|0:0|0:0|0:0,0:0:0:0:
420,162,764641,6,0,B|410:235|327:240|327:240|364:256,2,170,6|8|2,0:0|0:0|0:0,0:0:0:0:
423,71,765355,2,0,P|388:39|337:25,2,85,2|8|0,0:0|0:0|0:0,0:0:0:0:
279,85,765784,6,0,B|208:96|161:53|161:53|144:100,1,170,2|8,0:0|0:0,0:0:0:0:
45,220,766212,1,0,0:0:0:0:
45,220,766355,2,0,L|59:130,1,85,2|2,0:0|0:0,0:0:0:0:
152,325,766641,1,8,0:0:0:0:
22,309,766784,1,0,0:0:0:0:
164,240,766926,6,0,B|197:228|197:228|221:246|243:251|243:251|276:224|342:238,2,170,2|8|2,0:0|0:0|0:0,0:0:0:0:
298,323,767641,2,0,P|348:318|396:284,1,85,2|8,0:0|0:0,0:0:0:0:
438,204,767926,1,0,0:0:0:0:
313,146,768069,6,0,P|368:142|445:53,1,170,2|8,0:0|0:0,0:0:0:0:
332,36,768498,1,2,0:0:0:0:
226,82,768641,2,0,P|215:39|224:-5,1,85,2|2,0:0|0:0,0:0:0:0:
115,184,768926,2,0,L|203:167,1,85,8|0,0:0|0:0,0:0:0:0:
56,114,769212,6,0,B|79:179|79:179|47:293,2,170,6|8|2,0:0|0:0|0:0,0:0:0:0:
198,167,769926,1,2,0:0:0:0:
164,43,770069,1,8,0:0:0:0:
56,114,770212,1,0,0:0:0:0:
198,167,770355,6,0,P|270:164|350:98,1,170,2|8,0:0|0:0,0:0:0:0:
410,16,770784,1,2,0:0:0:0:
462,118,770926,2,0,L|474:218,2,85,2|2|8,0:0|0:0|0:0,0:0:0:0:
397,289,771498,6,0,B|418:340|488:360|488:360|457:351|430:354,1,170,2|8,0:0|0:0,0:0:0:0:
305,324,771926,1,0,0:0:0:0:
211,285,772069,2,0,P|190:321|155:345,1,85,2|2,0:0|0:0,0:0:0:0:
34,325,772355,1,8,0:0:0:0:
133,211,772498,1,0,0:0:0:0:
133,211,772569,1,0,0:0:0:0:
133,211,772641,6,0,P|203:187|258:88,1,170,2|8,0:0|0:0,0:0:0:0:
125,11,773069,2,0,P|122:53|139:92,1,85,2|2,0:0|0:0,0:0:0:0:
336,91,773355,2,0,P|286:95|245:116,2,85,2|8|0,0:0|0:0|0:0,0:0:0:0:
415,175,773784,6,0,B|472:149|472:149|527:36,2,170,6|8|2,0:0|0:0|0:0,0:0:0:0:
317,205,774498,1,2,0:0:0:0:
399,345,774641,2,0,P|409:301|392:258,1,85,8|0,0:0|0:0,0:0:0:0:
276,294,774926,6,0,P|228:278|121:335,1,170,2|8,0:0|0:0,0:0:0:0:
14,298,775355,1,2,0:0:0:0:
102,206,775498,2,0,L|89:113,1,85,2|2,0:0|0:0,0:0:0:0:
224,31,775784,1,8,0:0:0:0:
217,157,775926,1,0,0:0:0:0:
419,64,776069,6,0,B|377:80|377:80|348:151|348:151|295:174,2,170,2|8|2,0:0|0:0|0:0,0:0:0:0:
275,96,776784,1,2,0:0:0:0:
396,220,776926,2,0,P|439:228|501:249,1,85,8|0,0:0|0:0,0:0:0:0:
374,337,777212,6,0,P|288:321|187:319,1,170,2|8,0:0|0:0,0:0:0:0:
77,322,777641,1,2,0:0:0:0:
148,216,777784,2,0,P|194:208|240:210,1,85,2|2,0:0|0:0,0:0:0:0:
96,104,778069,1,8,0:0:0:0:
49,235,778212,1,2,0:0:0:0:
203,115,778355,6,0,P|200:37|122:-1,2,170,6|8|2,0:0|0:0|0:0,0:0:0:0:
96,104,779069,1,2,0:0:0:0:
244,32,779212,2,0,P|286:28|338:60,1,85,8|0,0:0|0:0,0:0:0:0:
440,196,779498,6,0,B|455:132|389:95|389:95|404:119|397:145,1,170,2|8,0:0|0:0,0:0:0:0:
318,307,779926,1,2,0:0:0:0:
293,195,780069,1,2,0:0:0:0:
166,232,780212,1,2,0:0:0:0:
272,113,780355,1,8,0:0:0:0:
110,299,780641,6,0,B|166:232|166:232|127:205|119:162,1,170,6|8,0:0|0:0,0:0:0:0:
386,215,781212,2,0,L|402:299,2,85,2|2|8,0:0|0:0|0:0,0:0:0:0:
439,89,781641,2,0,L|449:131,1,42.5,2|0,0:0|0:0,0:0:0:0:
363,130,781784,5,6,0:0:0:0:
448,11,781926,1,8,0:0:0:0:
386,215,782069,2,0,P|334:212|297:190,1,85,8|2,0:0|0:0,0:0:0:0:
298,56,782355,1,8,0:0:0:0:
148,101,782498,1,8,0:0:0:0:
203,245,782641,2,0,L|229:150,1,85,8|0,0:0|0:0,0:0:0:0:
85,245,782926,6,0,L|111:336,2,85,6|0|8,0:0|0:0|0:0,0:0:0:0:
148,101,783355,2,0,P|106:119|51:122,1,85,0|2,0:0|0:0,0:0:0:0:
209,29,783641,1,2,0:0:0:0:
209,29,783784,2,0,L|298:49,1,85,8|0,0:0|0:0,0:0:0:0:
384,187,784069,5,2,0:0:0:0:
499,167,784212,1,0,0:0:0:0:
312,128,784355,1,8,0:0:0:0:
293,222,784498,1,2,0:0:0:0:
483,265,784641,1,2,0:0:0:0:
384,187,784784,1,2,0:0:0:0:
348,307,784926,1,8,0:0:0:0:
348,307,785212,6,0,P|305:321|255:316,1,85,6|0,0:0|0:0,0:0:0:0:
119,218,785498,2,0,P|162:204|212:209,1,85,8|0,0:0|0:0,0:0:0:0:
53,291,785784,2,0,P|29:256|22:200,1,85,2|2,0:0|0:0,0:0:0:0:
167,40,786069,2,0,P|191:75|198:131,1,85,8|0,0:0|0:0,0:0:0:0:
85,123,786355,5,2,0:0:0:0:
85,123,786498,1,0,0:0:0:0:
167,40,786641,2,0,L|272:23,1,85,8|2,0:0|0:0,0:0:0:0:
473,52,786926,1,2,0:0:0:0:
473,52,787069,1,2,0:0:0:0:
381,132,787212,2,0,L|297:118,1,85,8|0,0:0|0:0,0:0:0:0:
168,237,787498,6,0,B|255:195|255:195|331:207,2,170,6|8|2,0:0|0:0|0:0,0:0:0:0:
56,186,788212,1,2,0:0:0:0:
0,305,788355,2,0,L|97:319,1,85,8|0,0:0|0:0,0:0:0:0:
278,336,788641,6,0,P|233:327|173:342,1,85,2|0,0:0|0:0,0:0:0:0:
388,298,788926,2,0,P|412:263|421:213,1,85,8|2,0:0|0:0,0:0:0:0:
417,56,789212,1,2,0:0:0:0:
476,135,789355,1,2,0:0:0:0:
302,171,789498,1,8,0:0:0:0:
302,171,789784,6,0,L|213:192,1,85,6|0,0:0|0:0,0:0:0:0:
131,117,790069,2,0,L|42:96,1,85,8|0,0:0|0:0,0:0:0:0:
0,278,790355,2,0,L|22:194,1,85,2|2,0:0|0:0,0:0:0:0:
106,284,790641,2,0,L|128:368,1,85,8|0,0:0|0:0,0:0:0:0:
312,329,790926,6,0,L|223:308,1,85,2|0,0:0|0:0,0:0:0:0:
393,249,791212,2,0,L|414:338,1,85,8|0,0:0|0:0,0:0:0:0:
451,165,791498,1,2,0:0:0:0:
298,194,791641,1,8,0:0:0:0:
323,77,791784,1,8,0:0:0:0:
301,180,791926,1,8,0:0:0:0:
185,17,792069,6,0,P|189:84|254:80,1,136,6|8,0:0|0:0,0:0:0:0:
323,77,792498,6,0,B|286:102|245:87|245:87|210:124|165:115,1,170,6|2,0:0|0:0,0:0:0:0:
36,69,792926,2,0,P|28:118|39:160,1,85,8|0,0:0|0:0,0:0:0:0:
128,269,793212,6,0,P|79:273|37:288,1,85,2|0,0:0|0:0,0:0:0:0:
236,271,793498,2,0,P|229:231|198:192,1,85,8|0,0:0|0:0,0:0:0:0:
180,356,793784,1,2,0:0:0:0:
326,337,793926,1,2,0:0:0:0:
180,356,794069,1,8,0:0:0:0:
486,312,794355,6,0,P|476:255|447:211,1,85,2|0,0:0|0:0,0:0:0:0:
296,199,794641,2,0,P|346:197|389:176,1,85,8|0,0:0|0:0,0:0:0:0:
465,47,794926,2,0,P|465:98|446:148,1,85,2|2,0:0|0:0,0:0:0:0:
310,66,795212,2,0,P|335:27|367:-2,1,85,8|0,0:0|0:0,0:0:0:0:
238,124,795498,6,0,L|139:112,1,85,2|0,0:0|0:0,0:0:0:0:
108,25,795784,1,8,0:0:0:0:
3,120,795926,1,2,0:0:0:0:
153,113,796069,1,2,0:0:0:0:
24,111,796212,1,2,0:0:0:0:
108,212,796355,2,0,L|192:201,1,85,8|0,0:0|0:0,0:0:0:0:
164,318,796641,6,0,B|63:297|63:297|-27:328,2,170,6|8|2,0:0|0:0|0:0,0:0:0:0:
311,369,797355,1,2,0:0:0:0:
311,369,797498,2,0,L|293:273,1,85,8|0,0:0|0:0,0:0:0:0:
400,155,797784,6,0,P|400:206|384:253,1,85,2|0,0:0|0:0,0:0:0:0:
272,62,798069,2,0,P|318:69|367:95,1,85,8|2,0:0|0:0,0:0:0:0:
390,238,798355,1,2,0:0:0:0:
286,180,798498,1,2,0:0:0:0:
444,79,798641,1,8,0:0:0:0:
212,125,798926,6,0,P|162:118|116:94,1,85,6|0,0:0|0:0,0:0:0:0:
23,164,799212,2,0,P|16:214|-8:260,1,85,8|0,0:0|0:0,0:0:0:0:
149,311,799498,2,0,L|134:225,1,85,2|2,0:0|0:0,0:0:0:0:
272,290,799784,2,0,L|257:391,1,85,8|0,0:0|0:0,0:0:0:0:
402,322,800069,5,2,0:0:0:0:
292,168,800212,1,8,0:0:0:0:
417,238,800355,2,0,L|400:330,1,85,8|2,0:0|0:0,0:0:0:0:
480,168,800641,5,8,0:0:0:0:
292,168,800784,1,8,0:0:0:0:
394,63,800926,2,2,L|476:83,1,85,4|10,0:0|0:0,0:0:0:0:
295,38,801212,6,0,P|240:67|133:71,1,170,6|8,0:0|0:0,0:0:0:0:
40,22,801641,1,0,0:0:0:0:
23,115,801784,2,0,L|8:201,1,85,2|2,0:0|0:0,0:0:0:0:
140,262,802069,2,0,L|125:176,1,85,8|0,0:0|0:0,0:0:0:0:
260,250,802355,6,0,B|225:350|225:350|165:378,1,170,2|8,0:0|0:0,0:0:0:0:
140,262,802784,1,2,0:0:0:0:
283,165,802926,1,2,0:0:0:0:
393,266,803069,1,2,0:0:0:0:
365,100,803212,1,8,0:0:0:0:
393,266,803498,6,0,B|337:237|337:237|225:259,1,170,6|8,0:0|0:0,0:0:0:0:
48,286,803926,1,0,0:0:0:0:
125,188,804069,2,0,L|141:272,1,85,2|2,0:0|0:0,0:0:0:0:
41,104,804355,2,0,L|25:188,1,85,8|0,0:0|0:0,0:0:0:0:
141,58,804641,6,0,B|217:102|234:32|313:88,1,170,2|8,0:0|0:0,0:0:0:0:
475,152,805069,1,2,0:0:0:0:
424,42,805212,2,0,P|394:97|392:142,1,85,2|2,0:0|0:0,0:0:0:0:
441,266,805498,1,8,0:0:0:0:
204,334,805784,6,0,B|272:283|292:359|373:322,1,170,6|8,0:0|0:0,0:0:0:0:
110,274,806355,2,0,P|151:242|193:230,1,85,2|2,0:0|0:0,0:0:0:0:
330,247,806641,2,0,P|373:221|402:175,1,85,8|0,0:0|0:0,0:0:0:0:
308,81,806926,6,0,B|266:132|264:189|264:189|287:165|316:161,1,170,2|8,0:0|0:0,0:0:0:0:
482,130,807355,1,2,0:0:0:0:
482,130,807498,2,0,P|427:116|389:91,1,85,2|2,0:0|0:0,0:0:0:0:
250,11,807784,2,0,P|215:55|193:101,1,85,8|0,0:0|0:0,0:0:0:0:
57,172,808069,6,0,P|81:90|128:6,1,170,2|8,0:0|0:0,0:0:0:0:
260,290,808641,1,2,0:0:0:0:
232,168,808784,1,2,0:0:0:0:
164,269,808926,1,8,0:0:0:0:
357,311,809069,1,0,0:0:0:0:
317,107,809212,6,0,L|335:191,1,85,2|0,0:0|0:0,0:0:0:0:
146,352,809498,2,0,L|163:269,1,85,8|2,0:0|0:0,0:0:0:0:
428,269,809784,2,0,P|394:298|347:312,1,85,2|2,0:0|0:0,0:0:0:0:
68,210,810069,2,0,P|94:180|143:159,1,85,8|0,0:0|0:0,0:0:0:0:
317,107,810355,6,0,B|218:89|218:89|160:19,2,170,6|8|2,0:0|0:0|0:0,0:0:0:0:
475,48,811069,1,2,0:0:0:0:
475,48,811212,2,0,P|445:46|390:74,1,85,8|0,0:0|0:0,0:0:0:0:
481,203,811498,6,0,B|530:175|536:142|536:142|504:122|448:126,1,170,2|8,0:0|0:0,0:0:0:0:
337,300,811926,1,2,0:0:0:0:
389,187,812069,1,2,0:0:0:0:
509,323,812212,1,2,0:0:0:0:
453,125,812355,1,8,0:0:0:0:
237,323,812641,6,0,P|217:241|138:166,1,170,6|8,0:0|0:0,0:0:0:0:
20,208,813069,1,0,0:0:0:0:
17,90,813212,2,0,P|60:99|105:126,1,85,2|2,0:0|0:0,0:0:0:0:
247,134,813498,2,0,P|292:127|343:103,1,85,8|0,0:0|0:0,0:0:0:0:
435,54,813784,5,2,0:0:0:0:
486,167,813926,1,8,0:0:0:0:
355,260,814069,2,0,P|364:216|397:172,1,85,8|2,0:0|0:0,0:0:0:0:
431,329,814355,1,8,0:0:0:0:
259,285,814498,1,8,0:0:0:0:
430,329,814641,2,0,P|393:356|349:363,1,85,2|8,0:0|0:0,0:0:0:0:
166,301,814926,6,0,L|278:281,2,93.5000028533936,6|0|8,0:0|0:0|0:0,0:0:0:0:
91,234,815355,2,0,B|65:361|65:361|34:307,1,187.000005706787,6|2,0:0|0:0,0:0:0:0:
40,151,815784,1,8,0:0:0:0:
40,151,815926,1,0,0:0:0:0:
188,193,816069,6,0,B|148:171|148:171|157:72|157:72|197:93,1,187.000005706787,6|8,0:0|0:0,0:0:0:0:
337,255,816498,1,6,0:0:0:0:
337,255,816784,1,2,0:0:0:0:
344,171,816926,1,8,0:0:0:0:
349,86,817069,1,8,0:0:0:0:
344,171,817212,6,0,B|419:194|419:194|489:169|489:169|446:155,1,187.000005706787,6|8,0:0|0:0,0:0:0:0:
246,218,817641,2,0,B|269:293|269:293|244:363|244:363|230:320,1,187.000005706787,6|2,0:0|0:0,0:0:0:0:
65,215,818069,2,0,L|49:313,1,93.5000028533936,8|8,0:0|0:0,0:0:0:0:
155,143,818355,6,0,B|165:96|165:96|155:51,2,93.5000028533936,6|8|8,0:0|0:0|0:0,0:0:0:0:
5,98,818784,1,6,0:0:0:0:
5,98,819069,1,8,0:0:0:0:
155,143,819212,1,8,0:0:0:0:
155,51,819355,1,8,0:0:0:0:
65,215,819498,6,0,B|109:235|109:235|159:235,2,93.5000028533936,6|0|8,0:0|0:0|0:0,0:0:0:0:
283,193,819926,2,0,B|321:263|286:335|286:335|261:286,1,187.000005706787,6|2,0:0|0:0,0:0:0:0:
245,102,820355,2,0,P|255:62|297:18,1,93.5000028533936,8|8,0:0|0:0,0:0:0:0:
369,194,820641,5,6,0:0:0:0:
428,47,820784,1,8,0:0:0:0:
507,128,820926,1,8,0:0:0:0:
430,282,821069,2,0,B|357:318|293:268|293:268|256:315,1,187.000005706787,6|2,0:0|0:0,0:0:0:0:
131,297,821498,2,0,P|97:274|28:268,1,93.5000028533936,8|8,0:0|0:0,0:0:0:0:
164,117,821784,5,12,0:0:0:0:
182,230,821926,1,0,0:0:0:0:
363,202,822069,1,0,0:0:0:0:
363,100,822212,2,0,B|353:145|355:167|417:195,1,93.5000028533936,4|2,0:0|0:0,0:0:0:0:
363,100,822498,2,0,P|392:142|451:150,1,106.25,0|8,0:0|0:0,0:0:0:0:
363,100,822784,2,0,P|414:119|468:94,1,114.750000437737,2|2,0:0|0:0,0:0:0:0:
363,100,823069,2,0,P|412:71|380:24,1,123.250003761292,12|2,0:0|0:0,0:0:0:0:
363,100,823355,5,2,0:0:0:0:
264,160,823498,1,8,0:0:0:0:
164,117,823641,2,0,B|143:101|143:101|117:110|102:128|102:128|67:91|0:101,1,187.000005706787,2|0,0:0|0:0,0:0:0:0:
205,18,824069,6,0,P|263:77|264:160,1,170,6|8,0:0|0:0,0:0:0:0:
186,325,824641,2,0,P|228:304|275:304,1,85,0|2,0:0|0:0,0:0:0:0:
104,262,824926,2,0,P|87:301|83:343,1,85,0|0,0:0|0:0,0:0:0:0:
192,227,825212,5,6,0:0:0:0:
171,94,825355,1,8,0:0:0:0:
121,174,825498,2,0,B|186:194|186:194|299:156,1,170,8|0,0:0|0:0,0:0:0:0:
171,94,825926,1,8,0:0:0:0:
352,47,826069,2,0,L|373:139,1,85,12|0,0:0|0:0,0:0:0:0:
356,258,826355,6,0,B|417:239|417:239|460:255,2,93.5000028533936,6|0|8,0:0|0:0|0:0,0:0:0:0:
240,322,826784,1,2,0:0:0:0:
240,322,826855,1,0,0:0:0:0:
240,322,826926,2,0,L|125:302,1,93.5000028533936,8|8,0:0|0:0,0:0:0:0:
75,248,827212,1,8,0:0:0:0:
256,192,827355,1,6,0:0:0:0:
256,192,827426,12,0,829212,2:0:0:0:
