osu file format v14

[General]
AudioFilename: audio.mp3
AudioLeadIn: 0
PreviewTime: 58673
Countdown: 0
SampleSet: Soft
StackLeniency: 0.7
Mode: 2
LetterboxInBreaks: 0
WidescreenStoryboard: 1

[Editor]
DistanceSpacing: 1
BeatDivisor: 4
GridSize: 32
TimelineZoom: 4.099998

[Metadata]
Title:Unfathomed Force
TitleUnicode:Unfathomed Force
Artist:Falcom Sound Team jdk
ArtistUnicode:Falcom Sound Team jdk
Creator:zerokt
Version:Grand Cross
Source:英雄伝説 碧の軌跡 Evolution
Tags:legend of heroes eiyuu densetsu ao no kiseki trails to azure jrpg video game instrumental rock metal boss theme masaru teramae j.d.k. yukihiro jindo 神藤 由東大 saki momiyama 籾山 紗希 akiko nagano 長野 昭子KIKO arianrhod lianne sandlot steel videogame vgm impurepug resona
BeatmapID:3737908
BeatmapSetID:1821680

[Difficulty]
HPDrainRate:5
CircleSize:4
OverallDifficulty:9
ApproachRate:9
SliderMultiplier:1.37
SliderTickRate:1

[Events]
//Background and Video events
0,0,"yupp.jpg",0,0
//Break Periods
//Storyboard Layer 0 (Background)
//Storyboard Layer 1 (Fail)
//Storyboard Layer 2 (Pass)
//Storyboard Layer 3 (Foreground)
//Storyboard Layer 4 (Overlay)
//Storyboard Sound Samples

[TimingPoints]
168,272.727272727273,4,2,1,45,1,0
168,-100,4,2,1,45,0,0
8895,-100,4,2,3,45,0,0
16258,-100,4,2,1,60,0,0
17622,272.727272727273,7,2,1,70,1,0
17622,-100,7,2,1,70,0,0
18031,-100,7,2,2,70,0,0
18303,-100,7,2,1,70,0,0
25258,-100,7,2,1,75,0,0
25667,-100,7,2,2,75,0,0
25940,-100,7,2,1,75,0,0
30985,-100,7,2,2,75,0,0
31122,-100,7,2,1,80,0,0
32895,272.727272727273,4,2,1,60,1,0
32895,-100,4,2,1,60,0,0
42713,-100,4,2,2,60,0,0
42985,-100,4,2,1,60,0,0
44895,-100,4,2,2,60,0,0
45167,-100,4,2,1,60,0,0
54985,-100,4,2,2,60,0,0
55258,-100,4,2,1,60,0,0
55531,-100,4,2,2,60,0,0
55667,-100,4,2,1,60,0,0
56076,-100,4,2,2,60,0,0
56213,-100,4,2,1,60,0,0
56622,-100,4,2,2,60,0,0
56758,-100,4,2,1,60,0,0
57985,-100,4,2,2,60,0,0
58258,-100,4,2,1,60,0,0
59076,-100,4,2,1,65,0,0
68895,-100,4,2,2,65,0,0
69167,-100,4,2,1,65,0,0
71076,-100,4,2,2,65,0,0
71348,-100,4,2,1,65,0,0
76531,-100,4,2,2,70,0,0
78713,-100,4,2,1,70,0,0
79122,-100,4,2,2,70,0,0
80622,-100,4,2,1,70,0,0
81304,-100,4,2,2,70,0,0
82804,-100,4,2,1,70,0,0
84167,-100,4,2,2,70,0,0
84440,-100,4,2,1,70,0,0
89622,-100,4,2,1,45,0,0
102713,-100,4,2,3,50,0,0
120985,-100,4,2,1,65,0,0
139804,-100,4,2,1,75,0,0
151804,-100,4,2,2,80,0,0
151940,-100,4,2,1,80,0,0
152895,-100,4,2,1,75,0,0
153985,-100,4,2,2,75,0,0
154122,-100,4,2,1,75,0,0
155077,-100,4,2,1,60,0,0
159440,-100,4,2,2,60,0,0
159713,-100,4,2,1,60,0,0
178531,-100,4,2,2,60,0,0
178804,-100,4,2,1,60,0,0
192167,-100,4,2,1,70,0,0
192985,-100,4,2,2,70,0,0
193122,-100,4,2,1,70,0,0
194349,-100,4,2,1,75,0,0
209622,-100,4,2,2,75,0,0
209758,-100,4,2,1,75,0,0
210781,-100,4,2,3,70,0,0
210849,-100,4,2,1,71,0,0
210917,-100,4,2,3,72,0,0
210985,-100,4,2,1,73,0,0
211054,-100,4,2,3,74,0,0
211122,-100,4,2,1,75,0,0
211190,-100,4,2,3,76,0,0
211258,-100,4,2,1,77,0,0
211326,-100,4,2,3,78,0,0
211394,-100,4,2,1,79,0,0
211463,-100,4,2,3,80,0,0
211531,-100,4,2,1,81,0,0
211599,-100,4,2,3,82,0,0
211667,-100,4,2,1,83,0,0
211735,-100,4,2,3,84,0,0
211804,-100,4,2,1,85,0,0
219713,-100,4,2,2,85,0,0
219849,-100,4,2,1,85,0,0
220258,-100,4,2,2,85,0,0
220394,-100,4,2,1,85,0,0
222713,-100,4,2,2,85,0,0
222985,-100,4,2,1,85,0,0
223122,-100,4,2,2,85,0,0
223394,-100,4,2,1,85,0,0
223804,-100,4,2,1,90,0,0
224895,-100,4,2,1,80,0,0
227076,-100,4,2,1,65,0,0
231440,-100,4,2,2,65,0,0
231713,-100,4,2,1,65,0,0
233758,-100,4,2,2,65,0,0
233895,-100,4,2,1,65,0,0
234167,-100,4,2,2,65,0,0
234304,-100,4,2,1,65,0,0
235804,272.727272727273,7,2,1,70,1,0
235804,-100,7,2,1,70,0,0
236213,-100,7,2,2,70,0,0
236485,-100,7,2,1,70,0,0
243439,-100,7,2,1,75,0,0
243849,-100,7,2,2,75,0,0
244122,-100,7,2,1,75,0,0
249167,-100,7,2,2,75,0,0
249304,-100,7,2,1,80,0,0
254076,-100,7,2,2,80,0,0
254213,-100,7,2,1,80,0,0
256122,-100,7,2,2,80,0,0
256804,-100,7,2,1,90,0,0

[Colours]
Combo1 : 255,255,128
Combo2 : 255,0,0

[HitObjects]
256,192,168,12,0,8486,0:0:0:0:
327,41,8895,6,0,P|235:28|120:40,2,205.5,8|8|8,0:0|0:3|0:1,0:0:0:0:
210,122,9986,6,0,P|119:172|27:236,1,205.5,2|2,0:0|0:1,0:0:0:0:
103,256,10531,2,0,P|158:267|284:246,1,137,8|0,0:0|0:0,0:0:0:0:
415,340,11077,5,8,0:0:0:0:
348,326,11213,1,0,0:0:0:0:
295,283,11349,1,2,0:3:0:0:
267,222,11486,1,2,0:1:0:0:
270,154,11622,1,0,0:0:0:0:
303,95,11758,1,0,0:0:0:0:
359,57,11895,1,8,0:1:0:0:
427,49,12031,1,0,0:0:0:0:
288,50,12168,6,0,P|186:29|74:19,1,205.5,8|8,0:0|0:1,0:0:0:0:
24,56,12713,2,0,P|73:81|201:94,1,137,0|8,0:0|0:1,0:0:0:0:
326,325,13258,6,0,L|121:287,1,205.5,8|8,0:3|0:0,0:0:0:0:
71,242,13804,1,2,0:3:0:0:
44,181,13940,1,0,0:0:0:0:
67,118,14076,1,2,0:0:0:0:
128,90,14213,1,0,0:0:0:0:
266,80,14349,6,0,P|368:77|470:88,2,205.5,2|8|8,0:1|0:0|0:1,0:0:0:0:
73,346,15440,5,4,0:0:0:0:
137,325,15576,1,0,0:0:0:0:
174,270,15712,1,0,0:3:0:0:
169,203,15849,1,8,0:3:0:0:
124,153,15985,1,8,0:0:0:0:
57,143,16121,1,0,0:0:0:0:
197,144,16258,1,8,0:0:0:0:
57,128,16394,1,8,1:2:0:0:
256,201,16531,6,0,L|255:342,1,137,2|0,3:3|3:0,0:0:0:0:
114,296,16940,2,0,L|10:288,1,68.5,0|8,1:0|0:3,0:0:0:0:
115,283,17213,1,4,0:3:0:0:
254,344,17349,2,0,L|386:341,1,68.5,4|0,1:2|0:0,0:0:0:0:
117,71,17622,6,0,P|61:113|3:178,1,137,4|8,3:1|1:2,0:0:0:0:
160,166,18031,2,0,P|255:171|337:177,1,137,4|0,3:2|3:0,0:0:0:0:
441,212,18440,2,0,L|477:309,1,68.5,8|0,1:2|3:0,0:0:0:0:
398,290,18712,1,0,3:0:0:0:
260,28,18849,2,0,P|199:26|112:34,1,137,0|0,1:0|0:0,0:0:0:0:
259,38,19258,2,0,L|258:129,1,68.5,8|0,1:2|0:0,0:0:0:0:
120,122,19531,6,0,L|116:218,1,68.5,0|0,3:0|3:0,0:0:0:0:
185,194,19803,1,0,1:0:0:0:
324,197,19940,2,0,P|382:178|412:100,1,137,0|0,3:0|3:0,0:0:0:0:
274,112,20349,2,0,L|172:118,1,68.5,8|0,1:2|3:0,0:0:0:0:
345,268,20622,2,0,L|413:263,1,68.5,0|0,1:0|3:0,0:0:0:0:
275,239,20894,2,0,L|270:170,1,68.5,0|0,3:0|3:0,0:0:0:0:
408,140,21167,2,0,L|403:71,1,68.5,8|0,1:2|0:0,0:0:0:0:
201,87,21440,6,0,P|164:148|147:214,1,137,4|8,3:2|1:2,0:0:0:0:
286,253,21849,2,0,P|347:284|411:305,1,137,0|0,3:0|3:0,0:0:0:0:
275,92,22258,2,0,L|283:186,1,68.5,8|0,1:2|3:0,0:0:0:0:
349,159,22531,1,0,3:0:0:0:
485,82,22667,2,0,L|485:-22,1,68.5,0|0,1:0|3:0,0:0:0:0:
416,14,22940,1,0,0:0:0:0:
276,12,23076,2,0,L|160:15,1,68.5,8|0,1:2|0:0,0:0:0:0:
346,177,23349,6,0,L|346:73,1,68.5,0|0,3:0|3:0,0:0:0:0:
277,109,23622,1,8,1:2:0:0:
128,192,23758,2,0,L|291:188,1,137,0|0,3:0|3:0,0:0:0:0:
129,183,24167,2,0,L|118:281,1,68.5,8|0,1:2|3:0,0:0:0:0:
258,56,24440,1,0,1:0:0:0:
316,85,24576,1,0,3:0:0:0:
311,149,24712,1,0,3:0:0:0:
249,169,24849,1,0,3:0:0:0:
110,286,24985,1,8,1:2:0:0:
41,283,25122,1,0,3:0:0:0:
241,92,25258,6,0,L|388:170,1,137,4|8,3:1|1:2,0:0:0:0:
223,262,25667,2,0,L|80:273,1,137,4|0,3:2|3:0,0:0:0:0:
227,242,26076,2,0,L|230:114,1,68.5,8|0,1:2|3:0,0:0:0:0:
162,154,26349,1,0,3:0:0:0:
25,148,26485,2,0,L|23:65,1,68.5,0|0,1:0|3:0,0:0:0:0:
90,66,26758,1,0,0:0:0:0:
233,54,26894,2,0,L|363:50,1,68.5,8|0,1:2|0:0,0:0:0:0:
162,137,27167,6,0,L|150:227,1,68.5,0|0,3:0|3:0,0:0:0:0:
220,219,27440,1,0,1:0:0:0:
359,226,27576,2,0,P|294:215|193:210,1,137,0|0,3:0|3:0,0:0:0:0:
359,226,27985,2,0,L|392:124,1,68.5,8|0,1:2|3:0,0:0:0:0:
242,109,28258,1,0,3:0:0:0:
257,43,28394,1,0,3:0:0:0:
308,0,28530,1,0,3:0:0:0:
375,0,28667,1,0,3:0:0:0:
242,119,28803,2,0,L|154:119,1,68.5,8|0,1:2|0:0,0:0:0:0:
377,177,29076,6,0,P|308:177|220:202,1,137,4|8,3:2|1:2,0:0:0:0:
104,269,29485,2,0,P|170:284|238:284,1,137,0|0,3:0|3:0,0:0:0:0:
104,269,29894,2,0,L|106:155,1,68.5,8|0,1:2|3:0,0:0:0:0:
173,188,30167,1,0,3:0:0:0:
310,137,30303,2,0,P|237:129|144:126,1,137,0|0,1:0|3:0,0:0:0:0:
37,81,30712,2,0,L|32:0,1,68.5,8|0,1:2|0:0,0:0:0:0:
232,18,30985,6,0,L|235:90,1,68.5,8|0,3:1|3:0,0:0:0:0:
166,95,31258,1,8,1:2:0:0:
305,137,31394,2,0,L|308:209,1,68.5,4|0,3:2|0:0,0:0:0:0:
239,214,31667,1,0,3:0:0:0:
379,276,31803,6,0,L|382:348,1,68.5,0|0,1:0|3:0,0:0:0:0:
243,53,32076,1,8,1:2:0:0:
174,54,32212,1,0,3:0:0:0:
310,158,32349,1,8,1:2:0:0:
379,160,32485,1,0,3:0:0:0:
241,256,32622,1,8,1:2:0:0:
172,258,32758,1,8,0:0:0:0:
380,44,32894,6,0,P|318:39|201:44,2,137,4|0|0,3:1|1:0|3:0,0:0:0:0:
311,50,33576,1,0,3:0:0:0:
176,102,33713,2,0,L|87:158,1,68.5,0|0,1:1|3:0,0:0:0:0:
251,177,33985,6,0,L|384:217,1,137,2|0,0:0|1:0,0:0:0:0:
238,266,34395,2,0,L|239:343,1,68.5,2|0,0:0|3:0,0:0:0:0:
307,335,34667,1,0,3:0:0:0:
443,335,34804,2,0,L|445:407,1,68.5,0|0,1:0|3:0,0:0:0:0:
237,262,35076,6,0,P|166:244|170:168,1,137,2|0,3:2|1:0,0:0:0:0:
334,164,35622,2,0,L|443:160,1,68.5,2|0,3:2|3:0,0:0:0:0:
335,146,35895,1,0,1:0:0:0:
266,147,36031,6,0,L|442:144,1,137,0|0,3:0|3:0,0:0:0:0:
342,178,36440,2,0,L|273:233,1,68.5,0|0,1:0|0:0,0:0:0:0:
298,288,36713,1,0,3:0:0:0:
365,298,36849,1,0,3:0:0:0:
228,100,36985,2,0,L|115:106,1,68.5,2|2,1:2|0:0,0:0:0:0:
370,74,37258,6,0,L|415:222,1,137,4|0,3:2|1:0,0:0:0:0:
342,218,37667,1,2,0:0:0:0:
330,285,37804,1,0,3:0:0:0:
397,295,37940,1,0,3:0:0:0:
254,137,38076,1,2,1:2:0:0:
186,121,38213,6,0,L|344:109,1,137,0|0,3:0|3:0,0:0:0:0:
390,121,38622,1,0,1:0:0:0:
441,164,38758,1,0,0:0:0:0:
461,229,38894,1,0,3:0:0:0:
443,294,39031,1,0,3:0:0:0:
305,344,39167,1,2,1:2:0:0:
373,341,39303,1,0,3:2:0:0:
166,293,39440,6,0,P|127:230|105:166,1,137,2|0,3:2|1:0,0:0:0:0:
245,178,39849,2,0,P|284:115|306:51,1,137,2|0,0:0|3:0,0:0:0:0:
163,42,40258,1,2,1:2:0:0:
94,36,40395,6,0,P|166:28|257:30,1,137,0|0,3:0|3:0,0:0:0:0:
369,118,40804,2,0,L|367:204,1,68.5,2|0,1:2|0:0,0:0:0:0:
232,204,41076,2,0,L|230:290,1,68.5,0|0,3:2|3:0,0:0:0:0:
93,270,41349,2,0,L|91:356,1,68.5,2|0,1:2|3:0,0:0:0:0:
299,44,41622,6,0,P|370:37|459:40,1,137,4|0,3:1|1:0,0:0:0:0:
367,49,42031,1,0,0:0:0:0:
323,99,42167,1,0,3:0:0:0:
320,167,42303,1,0,3:0:0:0:
360,221,42440,1,0,1:0:0:0:
425,238,42576,1,2,0:0:0:0:
288,295,42713,6,0,L|99:304,1,137,4|2,3:2|1:2,0:0:0:0:
94,262,43122,1,0,3:0:0:0:
68,198,43258,2,0,L|96:108,1,68.5,0|0,0:0|3:0,0:0:0:0:
231,158,43531,2,0,L|259:68,1,68.5,0|2,1:2|0:0,0:0:0:0:
112,11,43804,6,0,P|83:69|80:168,1,137,2|0,3:3|1:0,0:0:0:0:
148,162,44213,2,0,L|233:186,1,68.5,0|0,0:0|3:0,0:0:0:0:
350,191,44485,1,0,3:0:0:0:
432,192,44622,1,0,1:0:0:0:
351,178,44758,1,0,3:0:0:0:
211,292,44895,6,0,L|57:291,1,137,4|0,3:2|1:0,0:0:0:0:
215,286,45304,2,0,L|314:280,1,68.5,2|0,3:2|0:0,0:0:0:0:
216,266,45576,1,0,3:0:0:0:
78,224,45713,2,0,L|66:106,1,68.5,0|2,1:0|3:2,0:0:0:0:
274,61,45985,6,0,P|350:60|438:83,1,137,4|0,3:1|1:0,0:0:0:0:
272,143,46395,1,2,3:2:0:0:
326,179,46531,1,0,0:0:0:0:
320,244,46667,1,0,3:0:0:0:
261,271,46804,1,0,1:0:0:0:
200,282,46940,6,0,L|64:291,1,137,0|0,3:0|3:0,0:0:0:0:
130,274,47349,1,0,1:0:0:0:
265,165,47485,1,2,0:0:0:0:
333,158,47622,1,0,3:0:0:0:
264,153,47758,1,0,3:0:0:0:
126,189,47895,1,0,1:0:0:0:
130,163,48031,1,0,3:0:0:0:
333,308,48167,6,0,P|356:243|370:176,1,137,4|0,3:2|1:0,0:0:0:0:
305,152,48576,1,0,0:0:0:0:
165,27,48713,1,2,3:2:0:0:
222,56,48849,1,0,3:0:0:0:
220,120,48985,1,0,1:0:0:0:
160,145,49122,1,0,3:0:0:0:
25,151,49258,6,0,L|32:302,1,137,2|0,0:0|1:0,0:0:0:0:
96,310,49667,1,0,3:0:0:0:
34,278,49804,1,0,3:0:0:0:
102,284,49940,1,0,3:0:0:0:
241,190,50076,1,2,1:2:0:0:
310,185,50213,1,0,3:0:0:0:
88,76,50349,6,0,L|268:72,2,137,4|0|0,3:1|1:0|3:0,0:0:0:0:
156,77,51031,1,0,3:0:0:0:
297,123,51167,2,0,L|352:204,1,68.5,2|0,1:2|3:0,0:0:0:0:
193,209,51440,6,0,P|145:288|149:361,1,137,4|0,3:2|1:0,0:0:0:0:
278,337,51849,2,0,L|411:304,1,137,2|0,3:0|3:0,0:0:0:0:
271,221,52258,2,0,L|195:222,1,68.5,0|0,1:0|3:0,0:0:0:0:
406,132,52531,6,0,L|405:61,1,68.5,4|0,3:1|0:0,0:0:0:0:
339,43,52804,2,0,L|201:38,1,137,0|0,1:0|3:0,0:0:0:0:
341,166,53213,1,2,3:2:0:0:
409,167,53349,1,0,1:0:0:0:
341,160,53485,1,2,3:2:0:0:
205,243,53622,6,0,L|351:249,1,137,4|0,3:2|1:0,0:0:0:0:
201,102,54031,2,0,L|186:290,1,137,0|0,3:0|3:0,0:0:0:0:
328,314,54440,2,0,L|404:315,1,68.5,0|0,1:2|0:0,0:0:0:0:
195,146,54713,5,0,3:0:0:0:
126,139,54849,1,0,3:0:0:0:
265,19,54985,2,0,P|204:25|123:28,1,137,4|0,1:2|3:0,0:0:0:0:
206,26,55395,1,0,3:0:0:0:
130,223,55531,2,0,L|227:218,1,68.5,4|0,1:2|3:0,0:0:0:0:
336,296,55804,6,0,L|442:206,1,137,0|4,3:0|1:2,0:0:0:0:
302,198,56213,2,0,L|285:74,1,68.5,0|0,3:2|3:0,0:0:0:0:
360,120,56485,1,0,3:0:0:0:
220,354,56622,2,0,L|145:353,1,68.5,4|0,1:2|3:0,0:0:0:0:
353,264,56895,5,8,1:2:0:0:
443,261,57076,1,8,0:3:0:0:
352,250,57258,1,0,3:0:0:0:
109,143,57440,1,4,0:3:0:0:
19,140,57621,1,0,3:0:0:0:
110,129,57803,1,0,3:0:0:0:
366,109,57985,6,0,L|213:117,1,137,4|0,3:2|3:0,0:0:0:0:
368,189,58395,1,10,0:0:0:0:
402,188,58463,1,0,1:2:0:0:
368,183,58531,1,4,3:2:0:0:
166,183,58667,1,8,1:2:0:0:
97,179,58803,1,8,3:3:0:0:
97,168,58939,1,4,3:3:0:0:
308,269,59076,6,0,L|380:268,1,68.5,4|0,3:1|0:0,0:0:0:0:
244,257,59349,2,0,P|261:211|338:143,1,137,8|0,0:1|3:0,0:0:0:0:
391,149,59758,1,0,3:0:0:0:
264,98,59895,2,0,L|146:100,1,68.5,8|0,0:1|0:0,0:0:0:0:
337,175,60167,6,0,L|361:338,1,137,2|8,3:2|0:1,0:0:0:0:
213,328,60576,2,0,L|211:233,1,68.5,2|0,3:2|3:0,0:0:0:0:
279,250,60849,1,0,3:0:0:0:
415,208,60985,2,0,L|413:113,1,68.5,8|0,0:1|3:0,0:0:0:0:
276,73,61258,6,0,L|121:75,1,137,2|8,3:2|0:1,0:0:0:0:
277,340,61667,2,0,L|279:245,1,68.5,2|0,0:0|3:1,0:0:0:0:
211,262,61940,1,0,3:0:0:0:
75,220,62076,2,0,L|77:125,1,68.5,8|0,0:1|0:0,0:0:0:0:
217,137,62349,5,2,3:2:0:0:
285,135,62485,1,0,3:0:0:0:
353,134,62622,1,8,0:1:0:0:
215,227,62758,2,0,P|181:280|239:327,1,137,0|0,3:0|3:0,0:0:0:0:
360,329,63167,2,0,L|431:323,1,68.5,8|2,0:1|3:2,0:0:0:0:
221,255,63440,6,0,L|223:160,1,68.5,4|0,3:2|0:0,0:0:0:0:
289,173,63713,1,8,0:1:0:0:
153,117,63849,2,0,L|155:22,1,68.5,2|0,0:0|3:0,0:0:0:0:
223,43,64122,1,2,3:2:0:0:
366,45,64258,2,0,L|489:46,1,68.5,8|0,0:1|0:0,0:0:0:0:
292,152,64531,5,0,3:0:0:0:
223,151,64667,1,0,0:0:0:0:
292,152,64804,1,8,0:1:0:0:
360,155,64940,2,0,L|206:154,1,137,2|2,3:2|3:2,0:0:0:0:
85,186,65349,1,8,0:1:0:0:
76,118,65485,1,2,3:2:0:0:
286,64,65622,6,0,L|448:67,1,137,0|8,3:0|0:1,0:0:0:0:
286,139,66031,2,0,L|293:236,1,68.5,2|0,0:0|3:0,0:0:0:0:
359,204,66304,1,0,3:0:0:0:
222,253,66440,1,8,0:1:0:0:
165,285,66576,1,0,3:0:0:0:
169,349,66712,5,2,3:2:0:0:
229,375,66849,1,0,3:0:0:0:
363,340,66985,2,0,L|275:334,1,68.5,8|0,0:1|3:0,0:0:0:0:
363,331,67258,2,0,L|440:334,1,68.5,0|0,3:0|3:0,0:0:0:0:
290,214,67531,2,0,L|183:215,1,68.5,8|2,0:1|3:2,0:0:0:0:
436,185,67804,6,0,L|441:39,1,137,4|8,3:1|0:1,0:0:0:0:
305,37,68213,2,0,L|212:42,1,68.5,0|0,0:0|3:0,0:0:0:0:
304,34,68485,1,0,3:0:0:0:
443,244,68622,2,0,L|450:341,1,68.5,8|2,0:1|3:2,0:0:0:0:
312,211,68895,6,0,L|152:177,1,137,4|8,3:2|0:1,0:0:0:0:
240,154,69304,1,0,3:0:0:0:
304,139,69440,1,0,0:0:0:0:
332,79,69576,1,0,3:0:0:0:
191,76,69713,1,8,0:1:0:0:
125,64,69849,1,2,3:2:0:0:
261,289,69985,6,0,L|97:286,2,137,2|8|0,3:3|0:1|3:0,0:0:0:0:
193,277,70667,1,0,3:0:0:0:
335,229,70804,2,0,L|337:107,1,68.5,8|2,0:1|0:0,0:0:0:0:
136,145,71076,6,0,L|10:65,1,137,4|8,3:2|0:1,0:0:0:0:
162,57,71485,2,0,L|148:160,1,68.5,0|0,3:0|0:0,0:0:0:0:
292,131,71758,1,2,3:2:0:0:
223,132,71895,1,8,0:1:0:0:
154,132,72031,1,0,3:0:0:0:
354,240,72167,6,0,L|491:234,1,137,4|8,3:1|0:1,0:0:0:0:
287,92,72576,2,0,L|150:86,1,137,4|0,3:2|3:0,0:0:0:0:
291,87,72985,2,0,L|286:185,1,68.5,8|0,0:1|0:0,0:0:0:0:
147,167,73258,6,0,L|141:304,1,137,2|8,3:2|0:1,0:0:0:0:
282,318,73667,1,2,3:2:0:0:
347,313,73803,1,0,0:0:0:0:
376,255,73939,1,0,0:0:0:0:
341,199,74076,1,8,0:1:0:0:
276,201,74212,1,2,0:0:0:0:
72,100,74349,6,0,L|33:253,1,137,4|8,3:2|0:1,0:0:0:0:
105,245,74758,1,0,0:0:0:0:
244,200,74895,1,2,3:2:0:0:
193,157,75031,1,0,3:0:0:0:
200,92,75167,1,8,0:1:0:0:
259,62,75304,1,0,0:0:0:0:
400,62,75440,6,0,L|220:69,1,137,4|8,3:2|0:1,0:0:0:0:
201,97,75849,1,0,3:0:0:0:
147,139,75985,1,0,3:0:0:0:
286,186,76122,1,0,3:0:0:0:
286,186,76258,1,8,0:1:0:0:
217,188,76395,1,2,3:2:0:0:
427,125,76531,6,0,L|467:309,1,137,4|0,3:1|0:0,0:0:0:0:
388,270,76940,1,0,3:0:0:0:
249,272,77076,2,0,L|274:377,1,68.5,4|0,1:2|0:0,0:0:0:0:
331,355,77349,1,4,0:3:0:0:
397,340,77485,1,8,0:3:0:0:
259,271,77622,6,0,L|122:264,1,137,2|0,0:0|3:0,0:0:0:0:
187,242,78031,1,4,0:3:0:0:
326,229,78167,2,0,L|332:74,1,137,4|0,1:2|3:0,0:0:0:0:
269,61,78576,1,0,3:0:0:0:
61,52,78713,6,0,P|34:133|101:233,1,205.5,4|0,3:2|3:0,0:0:0:0:
232,238,79258,1,4,1:2:0:0:
231,229,79395,1,4,0:3:0:0:
163,217,79531,1,2,0:0:0:0:
95,203,79667,1,8,0:3:0:0:
236,78,79804,6,0,L|396:78,1,137,0|0,3:0|0:0,0:0:0:0:
304,68,80213,1,0,3:0:0:0:
166,52,80349,2,0,L|61:70,1,68.5,4|0,1:2|0:0,0:0:0:0:
167,67,80622,1,8,0:1:0:0:
234,76,80758,1,0,1:0:0:0:
31,148,80895,6,0,P|40:261|114:331,1,205.5,4|0,3:1|3:0,0:0:0:0:
239,277,81440,2,0,L|343:244,1,68.5,4|0,1:2|0:0,0:0:0:0:
236,265,81713,1,0,3:0:0:0:
171,286,81849,1,0,3:0:0:0:
305,175,81985,6,0,L|301:24,1,137,4|8,0:3|0:3,0:0:0:0:
164,37,82395,1,4,0:3:0:0:
245,29,82531,1,4,1:2:0:0:
166,18,82667,1,0,3:0:0:0:
28,87,82804,2,0,L|24:206,1,68.5,6|0,0:3|3:0,0:0:0:0:
232,240,83076,5,8,1:2:0:0:
350,238,83258,1,8,3:3:0:0:
468,235,83440,1,0,3:0:0:0:
167,69,83622,1,4,3:3:0:0:
285,67,83804,1,0,3:0:0:0:
165,81,83986,1,0,3:0:0:0:
433,174,84167,6,0,L|479:314,1,137,4|0,3:2|3:0,0:0:0:0:
347,312,84576,1,8,0:0:0:0:
303,308,84645,1,8,0:1:0:0:
260,298,84713,1,0,1:0:0:0:
399,85,84849,1,8,1:2:0:0:
261,133,84985,1,8,1:1:0:0:
397,93,85122,1,8,1:2:0:0:
125,178,85258,5,4,3:1:0:0:
256,192,85395,12,0,89349,0:0:0:0:
103,79,89622,6,0,P|204:90|305:74,2,205.5,2|0|0,0:0|0:0|0:0,0:0:0:0:
267,228,90713,6,0,P|368:239|469:223,2,205.5,2|0|0,0:0|0:0|0:0,0:0:0:0:
101,171,91804,6,0,P|217:200|320:171,2,205.5,2|0|0,0:0|0:0|0:0,0:0:0:0:
234,325,92895,2,0,L|340:204,1,137,2|0,0:0|0:0,0:0:0:0:
187,215,93440,2,0,P|132:144|151:26,1,205.5,2|0,0:0|0:0,0:0:0:0:
284,33,93985,6,0,P|388:11|499:38,2,205.5,2|0|0,0:0|0:0|0:0,0:0:0:0:
386,82,95076,2,0,P|284:83|189:45,2,205.5,2|0|0,0:0|0:0|0:0,0:0:0:0:
143,220,96167,6,0,P|72:145|37:49,2,205.5,2|0|0,0:0|0:0|0:0,0:0:0:0:
307,143,97258,2,0,P|221:86|120:69,2,205.5,2|0|0,0:0|0:0|0:0,0:0:0:0:
70,339,98349,6,0,P|169:309|247:243,2,205.5,2|0|0,0:0|0:0|0:0,0:0:0:0:
182,49,99440,2,0,P|265:108|366:129,2,205.5,2|0|0,0:0|0:0|0:0,0:0:0:0:
416,316,100531,6,0,P|276:306|130:248,1,274,2|0,0:0|0:0,0:0:0:0:
271,230,101349,1,0,0:0:0:0:
399,29,101622,2,0,P|330:108|214:117,2,205.5,2|0|0,0:0|0:0|0:0,0:0:0:0:
38,95,102713,6,0,L|36:240,1,137,4|2,0:3|0:3,0:0:0:0:
125,241,103122,1,8,0:0:0:0:
189,254,103258,1,0,0:0:0:0:
211,316,103394,1,0,0:1:0:0:
171,367,103531,1,2,0:0:0:0:
106,361,103667,1,0,0:0:0:0:
252,44,103804,6,0,P|328:38|430:51,1,137,8|2,0:3|0:3,0:0:0:0:
319,49,104213,1,8,0:0:0:0:
181,101,104349,2,0,P|106:182|99:282,1,205.5,2|0,0:1|0:0,0:0:0:0:
236,48,104895,6,0,L|377:162,1,137,8|2,0:3|0:0,0:0:0:0:
269,172,105304,1,8,0:0:0:0:
205,185,105440,1,0,0:1:0:0:
183,247,105576,1,0,0:0:0:0:
223,298,105713,1,2,0:1:0:0:
288,292,105849,1,0,0:0:0:0:
427,45,105985,6,0,P|342:35|199:45,2,205.5,4|2|8,0:2|0:3|0:0,0:0:0:0:
249,97,107076,5,8,0:3:0:0:
186,122,107212,1,0,0:0:0:0:
153,180,107348,1,0,0:0:0:0:
216,207,107485,1,8,0:0:0:0:
270,245,107621,1,0,0:0:0:0:
282,311,107757,1,0,0:0:0:0:
245,366,107894,1,8,0:1:0:0:
179,379,108030,1,0,0:0:0:0:
383,228,108167,6,0,P|413:148|422:72,1,137,4|8,0:0|0:0,0:0:0:0:
353,84,108576,2,0,P|289:58|222:46,1,137,8|4,0:1|0:0,0:0:0:0:
153,51,108985,1,8,0:1:0:0:
87,71,109122,1,0,0:0:0:0:
224,141,109258,5,8,0:3:0:0:
155,146,109395,2,0,L|155:222,1,68.5,0|8,0:0|0:0,0:0:0:0:
291,263,109667,1,2,0:0:0:0:
222,268,109804,2,0,L|222:344,1,68.5,0|2,0:0|0:0,0:0:0:0:
360,99,110076,2,0,L|428:99,1,68.5,8|0,0:1|0:0,0:0:0:0:
286,38,110349,6,0,P|208:82|168:128,1,137,8|2,0:3|0:0,0:0:0:0:
242,135,110758,1,0,0:0:0:0:
379,159,110895,2,0,P|422:222|426:296,1,137,2|0,0:1|0:0,0:0:0:0:
360,289,111304,1,0,0:0:0:0:
217,284,111440,6,0,L|221:190,1,68.5,2|0,0:0|0:0,0:0:0:0:
288,211,111713,1,0,0:0:0:0:
150,183,111849,2,0,L|154:89,1,68.5,2|0,0:3|0:0,0:0:0:0:
221,110,112122,1,0,0:0:0:0:
79,104,112258,2,0,L|83:10,1,68.5,2|0,0:1|0:0,0:0:0:0:
222,83,112531,6,0,L|218:177,1,68.5,8|0,0:0|0:0,0:0:0:0:
151,156,112804,1,8,0:1:0:0:
289,184,112940,2,0,L|285:278,1,68.5,2|2,0:0|0:3,0:0:0:0:
218,257,113213,1,0,0:0:0:0:
360,263,113349,2,0,L|356:357,1,68.5,8|0,0:1|0:0,0:0:0:0:
217,335,113622,6,0,L|217:260,1,68.5,2|0,0:0|0:0,0:0:0:0:
284,253,113895,1,0,0:0:0:0:
415,121,114031,1,2,0:3:0:0:
346,120,114167,1,0,0:0:0:0:
277,117,114304,1,0,0:0:0:0:
416,193,114440,1,2,0:1:0:0:
416,197,114576,1,0,0:0:0:0:
271,330,114713,5,8,0:0:0:0:
202,328,114849,1,0,0:0:0:0:
269,317,114985,1,8,0:1:0:0:
417,294,115122,1,2,0:3:0:0:
486,292,115258,1,0,0:0:0:0:
419,281,115394,1,2,0:0:0:0:
273,230,115531,1,8,0:1:0:0:
341,225,115667,1,0,0:0:0:0:
189,109,115804,5,4,0:0:0:0:
120,107,115940,1,2,0:0:0:0:
187,96,116076,1,0,0:1:0:0:
337,170,116213,1,2,0:3:0:0:
268,168,116349,1,2,0:0:0:0:
199,168,116485,1,0,0:0:0:0:
349,301,116622,1,2,0:1:0:0:
418,297,116758,1,0,0:0:0:0:
267,249,116895,5,4,0:0:0:0:
267,249,117031,1,2,0:0:0:0:
334,240,117167,1,0,0:3:0:0:
485,191,117304,1,2,0:3:0:0:
485,191,117440,1,2,0:0:0:0:
418,182,117576,1,0,0:0:0:0:
265,171,117713,1,2,0:1:0:0:
196,171,117849,1,0,0:0:0:0:
352,56,117985,6,0,L|260:52,2,68.5,4|2|2,0:0|0:0|0:0,0:0:0:0:
194,294,118395,2,0,L|262:296,2,68.5,2|2|2,0:3|0:0|0:0,0:0:0:0:
350,210,118804,2,0,L|358:137,1,68.5,2|2,0:1|0:0,0:0:0:0:
200,99,119076,6,0,L|292:95,2,68.5,8|2|2,0:1|0:0|0:0,0:0:0:0:
361,337,119486,2,0,L|293:339,2,68.5,2|2|2,0:3|0:0|0:0,0:0:0:0:
204,212,119895,2,0,L|209:290,1,68.5,2|2,0:1|0:0,0:0:0:0:
366,132,120167,5,4,0:0:0:0:
297,134,120303,1,2,0:0:0:0:
364,122,120439,1,2,0:0:0:0:
207,316,120576,1,2,0:3:0:0:
276,318,120712,1,2,0:0:0:0:
209,306,120848,1,2,0:0:0:0:
365,78,120985,1,0,3:0:0:0:
433,71,121122,1,0,3:0:0:0:
193,59,121258,6,0,L|185:140,1,68.5,2|0,1:3|3:0,0:0:0:0:
254,137,121531,1,0,3:0:0:0:
402,160,121667,2,0,L|410:241,1,68.5,2|0,1:3|3:0,0:0:0:0:
341,238,121940,1,0,3:0:0:0:
139,280,122076,2,0,L|73:361,1,68.5,4|0,1:2|0:0,0:0:0:0:
296,90,122349,6,0,L|458:168,1,137,4|8,3:1|0:1,0:0:0:0:
350,152,122758,1,0,0:0:0:0:
307,197,122894,1,0,3:0:0:0:
350,243,123030,1,0,0:0:0:0:
488,251,123167,2,0,L|488:331,1,68.5,8|0,0:1|0:0,0:0:0:0:
349,347,123440,6,0,P|278:350|168:346,1,137,2|8,3:2|0:1,0:0:0:0:
352,276,123849,2,0,L|353:187,1,68.5,2|0,0:2|3:0,0:0:0:0:
287,186,124122,1,0,3:0:0:0:
421,151,124258,2,0,L|426:50,1,68.5,8|0,0:1|0:0,0:0:0:0:
282,58,124531,6,0,L|122:67,1,137,2|8,3:2|0:1,0:0:0:0:
281,116,124940,2,0,P|332:182|339:246,1,137,2|0,0:2|3:0,0:0:0:0:
199,241,125349,2,0,L|104:242,1,68.5,8|0,0:1|3:0,0:0:0:0:
271,38,125622,5,2,3:2:0:0:
205,25,125758,1,0,0:0:0:0:
153,66,125894,1,8,0:1:0:0:
151,132,126031,1,0,3:0:0:0:
200,177,126167,1,0,3:2:0:0:
266,168,126303,1,0,0:0:0:0:
122,262,126440,1,8,0:1:0:0:
105,328,126576,1,2,3:2:0:0:
312,46,126713,6,0,L|450:173,1,137,4|8,3:2|0:1,0:0:0:0:
272,189,127122,2,0,L|134:316,1,137,2|0,0:0|3:1,0:0:0:0:
309,292,127531,2,0,L|416:296,1,68.5,8|2,0:1|3:2,0:0:0:0:
240,33,127804,5,2,3:3:0:0:
306,20,127940,1,0,0:0:0:0:
358,61,128076,1,8,0:1:0:0:
360,127,128213,1,0,0:0:0:0:
311,172,128349,1,0,3:0:0:0:
245,163,128485,1,0,3:0:0:0:
389,257,128622,1,8,0:1:0:0:
406,323,128758,1,2,0:0:0:0:
200,321,128895,6,0,L|133:197,1,137,4|8,3:2|0:1,0:0:0:0:
275,240,129304,2,0,L|431:184,1,137,2|0,0:2|3:0,0:0:0:0:
266,142,129713,2,0,L|141:142,1,68.5,8|2,0:1|3:2,0:0:0:0:
334,48,129985,6,0,L|490:87,1,137,2|8,3:3|0:1,0:0:0:0:
421,133,130395,1,0,3:0:0:0:
212,206,130531,1,4,3:2:0:0:
146,188,130667,1,0,3:1:0:0:
104,136,130803,1,8,0:1:0:0:
99,69,130940,1,0,3:2:0:0:
129,53,131008,1,2,3:2:0:0:
285,47,131076,6,0,P|365:43|475:44,2,137,4|8|0,3:1|0:1|3:0,0:0:0:0:
216,54,131758,1,0,3:0:0:0:
359,120,131895,2,0,L|383:251,1,68.5,8|0,0:1|0:0,0:0:0:0:
234,217,132167,6,0,L|397:204,1,137,2|8,3:2|0:1,0:0:0:0:
229,228,132576,2,0,L|218:91,1,137,2|0,0:0|3:0,0:0:0:0:
356,71,132985,1,8,0:1:0:0:
424,61,133122,1,0,0:0:0:0:
286,166,133258,6,0,L|119:233,1,137,2|8,3:2|0:1,0:0:0:0:
303,253,133667,2,0,L|305:326,1,68.5,2|0,0:0|3:0,0:0:0:0:
236,322,133940,1,0,3:0:0:0:
375,167,134076,2,0,L|373:98,1,68.5,8|0,0:1|3:0,0:0:0:0:
232,93,134349,6,0,P|172:132|106:199,1,137,2|8,3:2|0:1,0:0:0:0:
192,187,134758,1,0,3:0:0:0:
218,244,134894,1,0,3:0:0:0:
166,280,135030,1,0,0:0:0:0:
28,293,135167,1,8,0:1:0:0:
31,293,135304,1,2,3:2:0:0:
233,51,135440,6,0,P|313:52|411:68,1,137,4|8,3:2|0:1,0:0:0:0:
237,72,135849,2,0,P|229:139|228:208,1,137,2|0,0:2|3:0,0:0:0:0:
367,224,136258,2,0,L|452:226,1,68.5,8|0,0:1|3:0,0:0:0:0:
295,342,136531,6,0,L|438:327,1,137,2|8,3:2|0:1,0:0:0:0:
295,342,136940,2,0,L|290:266,1,68.5,2|0,0:0|3:0,0:0:0:0:
359,269,137213,1,0,3:0:0:0:
492,235,137349,2,0,L|485:129,1,68.5,8|0,0:1|0:0,0:0:0:0:
279,108,137622,6,0,P|221:118|114:161,1,137,4|8,3:1|0:1,0:0:0:0:
289,188,138031,1,2,3:2:0:0:
344,224,138167,1,2,0:0:0:0:
358,290,138303,1,0,0:0:0:0:
322,346,138440,1,8,0:1:0:0:
257,360,138576,1,0,3:0:0:0:
119,336,138713,5,4,3:0:0:0:
186,325,138849,1,0,3:0:0:0:
254,314,138985,1,8,0:1:0:0:
321,303,139122,1,0,3:0:0:0:
176,215,139258,1,0,1:2:0:0:
283,206,139395,1,8,0:3:0:0:
183,314,139531,1,8,1:2:0:0:
178,224,139667,1,4,0:3:0:0:
388,201,139804,6,0,P|418:137|364:85,1,137,4|8,3:1|1:1,0:0:0:0:
316,67,140213,2,0,L|199:53,1,68.5,0|0,0:0|3:0,0:0:0:0:
385,292,140485,1,0,3:0:0:0:
453,292,140622,1,8,1:1:0:0:
385,280,140758,1,2,0:0:0:0:
242,267,140895,6,0,P|253:178|319:149,1,137,0|8,3:0|1:1,0:0:0:0:
422,148,141304,2,0,L|423:38,1,68.5,2|0,3:2|0:0,0:0:0:0:
357,59,141576,1,0,3:0:0:0:
496,324,141713,2,0,L|497:214,1,68.5,8|0,1:0|3:0,0:0:0:0:
361,333,141985,6,0,L|221:329,1,137,2|8,3:2|1:0,0:0:0:0:
86,265,142395,1,0,0:0:0:0:
154,253,142531,1,0,3:2:0:0:
222,255,142667,1,2,3:2:0:0:
83,275,142804,2,0,L|77:145,1,68.5,8|0,1:0|0:0,0:0:0:0:
218,230,143076,5,2,3:2:0:0:
272,190,143212,1,0,0:0:0:0:
293,126,143348,1,8,0:0:0:0:
273,62,143485,1,0,3:0:0:0:
219,22,143621,1,0,0:0:0:0:
151,21,143757,1,0,0:0:0:0:
18,31,143895,1,8,1:0:0:0:
24,32,144031,1,2,3:2:0:0:
232,146,144167,6,0,L|230:216,1,68.5,4|0,3:2|0:0,0:0:0:0:
161,224,144440,1,8,1:0:0:0:
26,327,144576,2,0,L|187:328,1,137,2|0,0:0|3:0,0:0:0:0:
27,314,144985,2,0,L|32:196,1,68.5,8|0,1:0|0:0,0:0:0:0:
172,75,145258,5,2,3:3:0:0:
247,63,145394,1,0,0:0:0:0:
315,110,145530,1,8,1:0:0:0:
239,162,145667,1,0,3:0:0:0:
164,150,145803,1,2,0:0:0:0:
108,197,145939,1,0,3:0:0:0:
250,284,146076,1,8,1:0:0:0:
318,289,146213,1,2,0:0:0:0:
181,236,146349,6,0,L|345:227,1,137,4|8,3:2|1:0,0:0:0:0:
181,203,146758,2,0,L|171:84,1,68.5,2|0,0:0|3:0,0:0:0:0:
240,111,147031,1,0,3:0:0:0:
105,336,147167,2,0,L|99:244,1,68.5,8|0,1:0|0:0,0:0:0:0:
240,238,147440,5,2,3:0:0:0:
183,204,147576,1,0,3:0:0:0:
182,138,147712,1,8,1:0:0:0:
237,102,147849,1,0,3:0:0:0:
374,188,147985,1,6,3:2:0:0:
430,154,148121,1,0,3:0:0:0:
431,88,148257,1,8,1:0:0:0:
376,52,148394,1,2,3:2:0:0:
172,31,148531,5,4,3:1:0:0:
109,55,148667,1,0,0:0:0:0:
72,112,148803,1,8,1:0:0:0:
74,179,148940,1,0,0:0:0:0:
115,233,149076,1,0,0:0:0:0:
179,253,149212,1,0,3:0:0:0:
324,246,149349,1,8,1:0:0:0:
391,235,149485,1,0,0:0:0:0:
253,164,149622,6,0,L|252:80,1,68.5,2|0,3:2|0:0,0:0:0:0:
320,93,149895,1,8,1:0:0:0:
183,179,150031,2,0,P|148:252|192:317,1,137,2|0,3:2|3:0,0:0:0:0:
309,277,150440,2,0,L|312:345,1,68.5,8|2,1:0|3:2,0:0:0:0:
170,291,150713,6,0,L|343:260,1,137,4|8,3:2|1:0,0:0:0:0:
448,185,151122,2,0,L|275:154,1,137,2|0,0:0|0:0,0:0:0:0:
448,185,151531,2,0,L|448:253,1,68.5,8|0,1:0|0:0,0:0:0:0:
244,316,151804,5,4,3:2:0:0:
177,274,151940,1,0,3:0:0:0:
108,296,152076,1,8,1:0:0:0:
174,207,152213,1,0,3:0:0:0:
241,165,152349,1,2,0:0:0:0:
310,188,152485,1,0,3:0:0:0:
168,71,152622,1,8,1:0:0:0:
99,69,152758,1,2,3:2:0:0:
305,59,152895,6,0,P|375:95|432:144,1,137,4|8,3:1|1:1,0:0:0:0:
285,165,153304,2,0,L|285:241,1,68.5,2|0,0:0|3:0,0:0:0:0:
352,243,153576,1,0,3:0:0:0:
489,264,153713,2,0,L|490:337,1,68.5,8|0,1:0|3:0,0:0:0:0:
278,349,153985,5,8,3:1:0:0:
204,330,154122,1,8,0:0:0:0:
279,328,154258,1,0,1:2:0:0:
416,203,154395,1,2,3:2:0:0:
490,184,154532,1,8,3:0:0:0:
415,182,154668,1,8,0:1:0:0:
278,173,154804,1,10,1:2:0:0:
416,162,154940,1,8,1:1:0:0:
178,54,155076,6,0,P|121:98|125:195,1,137,4|2,3:1|0:0,0:0:0:0:
183,190,155485,1,0,3:0:0:0:
336,232,155622,2,0,L|437:367,1,137,12|8,1:2|3:2,0:0:0:0:
283,346,156031,1,8,3:0:0:0:
223,317,156167,5,0,0:0:0:0:
203,253,156303,1,4,3:0:0:0:
237,196,156440,1,0,0:0:0:0:
302,181,156576,1,0,3:0:0:0:
442,180,156713,2,0,L|473:31,1,137,0|8,1:0|1:0,0:0:0:0:
396,26,157122,1,0,0:0:0:0:
254,22,157258,6,0,L|91:71,1,137,2|2,3:3|0:0,0:0:0:0:
190,96,157667,1,0,3:0:0:0:
327,118,157804,2,0,L|331:209,1,68.5,8|0,0:0|0:0,0:0:0:0:
195,232,158076,2,0,L|193:346,1,68.5,0|8,3:0|0:3,0:0:0:0:
395,303,158349,5,4,0:3:0:0:
470,298,158485,2,0,L|319:293,1,137,0|0,1:0|3:0,0:0:0:0:
193,281,158895,2,0,L|193:172,1,68.5,8|0,1:2|0:0,0:0:0:0:
337,164,159167,2,0,L|342:46,1,68.5,2|4,0:0|0:3,0:0:0:0:
133,62,159440,6,0,P|61:122|61:175,1,137,4|2,3:2|0:0,0:0:0:0:
131,174,159849,1,0,3:0:0:0:
266,195,159985,2,0,L|395:191,1,68.5,0|0,1:0|0:0,0:0:0:0:
408,177,160258,6,0,L|230:175,2,137,0|2|0,3:0|0:0|0:0,0:0:0:0:
345,134,160940,1,0,3:0:0:0:
210,93,161076,2,0,L|164:233,1,137,0|0,1:0|0:0,0:0:0:0:
239,245,161485,1,0,3:0:0:0:
374,260,161622,6,0,L|328:399,1,137,4|2,3:0|0:0,0:0:0:0:
256,376,162031,1,0,3:0:0:0:
181,369,162167,2,0,L|351:373,1,137,0|0,1:0|3:0,0:0:0:0:
105,306,162713,5,0,1:0:0:0:
35,278,162849,2,0,L|57:186,1,68.5,2|0,3:2|0:0,0:0:0:0:
123,190,163122,1,0,3:0:0:0:
261,158,163258,2,0,L|258:62,1,68.5,0|8,1:0|0:0,0:0:0:0:
123,164,163531,2,0,L|55:171,1,68.5,8|8,1:2|1:2,0:0:0:0:
255,261,163804,6,0,P|337:229|377:182,1,137,4|0,3:2|3:0,0:0:0:0:
306,152,164213,1,0,3:0:0:0:
173,133,164349,2,0,L|179:51,1,68.5,0|0,1:0|0:0,0:0:0:0:
249,41,164622,1,0,3:0:0:0:
385,37,164758,6,0,L|199:31,1,137,0|8,3:0|3:3,0:0:0:0:
321,49,165167,1,0,3:0:0:0:
393,72,165304,1,4,3:0:0:0:
258,138,165440,2,0,L|265:224,1,68.5,0|0,1:0|0:0,0:0:0:0:
402,213,165713,2,0,L|409:299,1,68.5,8|0,1:0|3:0,0:0:0:0:
266,323,165985,6,0,L|93:304,1,137,0|0,3:0|3:0,0:0:0:0:
205,300,166395,1,0,3:0:0:0:
341,63,166531,2,0,L|334:149,1,68.5,0|0,1:0|0:0,0:0:0:0:
197,138,166804,2,0,L|190:224,1,68.5,2|0,1:2|3:0,0:0:0:0:
328,247,167076,5,0,3:0:0:0:
403,251,167213,2,0,L|234:246,1,137,8|4,3:3|3:0,0:0:0:0:
399,239,167622,1,8,0:0:0:0:
457,210,167758,1,0,3:0:0:0:
456,145,167894,1,2,0:0:0:0:
397,119,168031,1,0,3:0:0:0:
185,95,168167,6,0,L|141:240,1,137,4|0,3:2|3:0,0:0:0:0:
220,237,168576,1,0,3:0:0:0:
359,251,168713,2,0,L|349:346,1,68.5,8|0,0:0|3:0,0:0:0:0:
217,249,168985,2,0,L|207:344,1,68.5,0|0,0:0|3:0,0:0:0:0:
352,92,169258,5,2,0:0:0:0:
427,91,169395,2,0,L|225:67,1,137,8|0,1:1|3:0,0:0:0:0:
155,64,169804,1,8,1:2:0:0:
107,109,169940,1,0,3:0:0:0:
114,175,170076,1,0,0:0:0:0:
171,208,170213,1,2,0:0:0:0:
377,317,170349,6,0,P|470:256|488:119,1,205.5,4|0,3:2|3:0,0:0:0:0:
356,166,170895,2,0,L|350:55,1,68.5,0|0,1:0|3:0,0:0:0:0:
426,84,171167,1,2,0:0:0:0:
289,268,171304,6,0,L|283:157,1,68.5,0|2,1:0|0:3,0:0:0:0:
148,367,171576,2,0,L|142:256,1,68.5,8|0,1:1|0:0,0:0:0:0:
217,277,171849,1,0,3:0:0:0:
355,239,171985,2,0,L|455:230,1,68.5,0|8,1:0|1:2,0:0:0:0:
279,165,172258,2,0,L|150:180,1,68.5,8|0,1:1|1:0,0:0:0:0:
426,30,172531,6,0,P|472:90|393:132,1,137,4|0,3:1|3:0,0:0:0:0:
367,143,172940,1,0,3:0:0:0:
232,162,173076,2,0,L|239:252,1,68.5,0|0,1:0|0:0,0:0:0:0:
378,239,173349,2,0,L|385:329,1,68.5,2|0,0:0|3:0,0:0:0:0:
314,315,173622,5,0,3:0:0:0:
177,316,173758,2,0,L|328:302,1,137,2|0,0:0|3:0,0:0:0:0:
451,273,174167,1,8,3:3:0:0:
382,271,174304,2,0,L|383:183,1,68.5,4|0,3:3|0:0,0:0:0:0:
447,179,174576,1,0,3:0:0:0:
309,97,174713,6,0,P|230:97|154:103,1,137,4|2,3:2|0:0,0:0:0:0:
384,196,175258,2,0,L|386:295,1,68.5,8|0,1:0|3:0,0:0:0:0:
249,279,175531,2,0,L|251:378,1,68.5,0|0,0:0|3:0,0:0:0:0:
387,343,175804,5,4,3:0:0:0:
455,337,175940,2,0,L|295:331,1,137,2|0,3:2|3:0,0:0:0:0:
184,293,176349,2,0,L|181:170,1,68.5,0|0,1:0|3:0,0:0:0:0:
326,165,176622,2,0,L|337:55,1,68.5,8|0,0:0|3:0,0:0:0:0:
127,77,176895,6,0,L|43:223,1,137,4|2,3:2|0:0,0:0:0:0:
124,216,177304,1,0,3:0:0:0:
260,236,177440,2,0,L|259:320,1,68.5,0|8,1:0|0:3,0:0:0:0:
190,299,177713,1,0,3:0:0:0:
327,90,177849,6,0,L|429:88,1,68.5,4|0,3:0|3:0,0:0:0:0:
258,204,178122,1,0,3:0:0:0:
189,205,178258,1,8,0:0:0:0:
187,136,178395,1,0,3:0:0:0:
395,188,178531,2,0,L|466:328,1,137,4|4,3:2|3:3,0:0:0:0:
64,308,179076,6,0,L|51:151,1,137,4|2,3:1|0:0,0:0:0:0:
117,148,179485,1,0,3:0:0:0:
256,130,179622,2,0,L|245:59,1,68.5,0|0,1:0|0:0,0:0:0:0:
113,142,179895,2,0,L|102:71,1,68.5,0|0,3:0|0:0,0:0:0:0:
170,64,180167,5,8,3:0:0:0:
310,61,180304,2,0,L|155:55,1,137,4|0,3:0|3:0,0:0:0:0:
313,86,180713,2,0,L|225:85,1,68.5,0|0,1:0|0:0,0:0:0:0:
104,149,180985,2,0,L|115:222,1,68.5,2|8,0:0|1:1,0:0:0:0:
317,256,181258,6,0,L|425:142,1,137,4|0,3:1|3:0,0:0:0:0:
343,143,181667,1,0,0:0:0:0:
193,133,181804,2,0,L|201:8,1,68.5,0|0,1:0|0:0,0:0:0:0:
335,56,182076,2,0,L|330:124,1,68.5,2|8,0:0|0:0,0:0:0:0:
261,122,182349,5,8,3:0:0:0:
122,180,182485,2,0,L|117:248,1,68.5,4|0,3:0|0:0,0:0:0:0:
185,248,182758,1,0,3:0:0:0:
324,253,182895,2,0,L|392:258,1,68.5,4|0,1:2|3:0,0:0:0:0:
255,166,183167,2,0,L|323:161,1,68.5,0|8,0:0|3:3,0:0:0:0:
255,159,183440,5,4,3:0:0:0:
390,124,183576,2,0,L|410:21,1,68.5,2|0,1:3|0:0,0:0:0:0:
338,33,183849,1,0,3:0:0:0:
200,36,183985,1,0,1:0:0:0:
132,32,184121,1,0,0:0:0:0:
275,55,184257,1,8,0:0:0:0:
209,44,184394,1,0,3:0:0:0:
76,180,184531,5,0,1:0:0:0:
10,187,184667,2,0,L|148:179,1,137,4|0,3:2|3:0,0:0:0:0:
296,207,185076,2,0,L|305:100,1,68.5,8|0,1:1|3:0,0:0:0:0:
437,150,185349,2,0,L|455:30,1,68.5,4|0,3:3|3:0,0:0:0:0:
241,44,185622,6,0,L|99:119,1,137,4|0,3:1|3:0,0:0:0:0:
144,172,186031,1,0,3:0:0:0:
284,188,186167,2,0,L|357:186,1,68.5,0|0,1:0|3:0,0:0:0:0:
212,249,186440,2,0,L|290:259,1,68.5,2|0,0:0|3:0,0:0:0:0:
423,283,186713,5,8,0:0:0:0:
490,273,186849,2,0,L|342:211,1,137,8|4,3:0|3:0,0:0:0:0:
224,167,187258,1,0,1:0:0:0:
155,163,187395,1,0,3:0:0:0:
223,161,187531,1,0,0:0:0:0:
292,157,187668,1,0,3:0:0:0:
158,94,187804,5,0,1:0:0:0:
89,90,187941,1,0,3:0:0:0:
227,302,188076,1,2,0:0:0:0:
296,298,188213,1,0,3:0:0:0:
91,290,188349,2,0,P|87:220|109:151,1,137,8|0,1:1|0:0,0:0:0:0:
173,144,188758,1,0,3:0:0:0:
310,129,188895,6,0,L|308:55,1,68.5,0|8,3:0|3:0,0:0:0:0:
168,136,189167,2,0,L|166:62,1,68.5,0|4,0:0|3:0,0:0:0:0:
316,131,189440,1,0,1:0:0:0:
360,180,189576,1,0,0:0:0:0:
342,243,189712,1,10,3:3:0:0:
279,263,189849,1,0,0:0:0:0:
82,354,189985,6,0,L|266:345,2,137,4|0|0,3:2|3:0|1:0,0:0:0:0:
17,328,190667,1,0,0:0:0:0:
154,290,190804,2,0,L|283:286,1,68.5,8|0,0:0|1:0,0:0:0:0:
364,251,191076,5,0,3:0:0:0:
432,241,191213,2,0,L|265:225,1,137,4|0,3:0|3:0,0:0:0:0:
162,184,191622,2,0,L|164:97,1,68.5,0|0,1:0|3:0,0:0:0:0:
297,84,191895,2,0,L|306:-32,1,68.5,2|0,0:0|3:0,0:0:0:0:
441,269,192167,6,0,L|450:153,1,68.5,8|0,1:2|0:0,0:0:0:0:
239,323,192440,2,0,L|170:330,1,68.5,4|0,1:2|0:0,0:0:0:0:
295,248,192713,2,0,L|227:256,1,68.5,8|2,1:2|0:0,0:0:0:0:
441,191,192985,2,0,L|446:92,1,68.5,4|0,1:2|3:0,0:0:0:0:
298,130,193258,5,2,3:0:0:0:
229,130,193395,1,0,3:0:0:0:
362,131,193531,2,0,L|371:198,1,68.5,0|0,1:0|3:2,0:0:0:0:
229,319,193804,2,0,L|317:314,1,68.5,10|0,1:2|0:0,0:0:0:0:
157,261,194076,1,8,0:0:0:0:
126,249,194144,1,8,0:1:0:0:
125,217,194212,1,0,1:0:0:0:
154,203,194280,1,0,1:0:0:0:
320,181,194349,6,0,L|470:172,2,137,4|8|0,3:1|1:0|3:0,0:0:0:0:
184,188,195031,1,0,3:0:0:0:
252,184,195167,1,8,1:0:0:0:
320,181,195304,1,2,3:2:0:0:
183,58,195440,6,0,L|171:217,1,137,0|8,3:0|1:0,0:0:0:0:
309,214,195849,2,0,L|393:218,1,68.5,2|0,0:0|3:0,0:0:0:0:
310,200,196122,1,0,3:0:0:0:
174,179,196258,2,0,L|188:77,1,68.5,8|0,1:0|0:0,0:0:0:0:
321,69,196531,6,0,L|127:46,1,137,2|8,3:2|1:0,0:0:0:0:
48,37,196940,2,0,L|24:125,1,68.5,2|0,0:0|3:0,0:0:0:0:
94,126,197213,1,0,3:0:0:0:
237,140,197349,2,0,L|371:142,1,68.5,8|0,1:0|3:0,0:0:0:0:
104,203,197622,6,0,L|89:298,1,68.5,2|0,3:2|0:0,0:0:0:0:
233,241,197895,1,8,1:0:0:0:
286,277,198031,1,0,0:0:0:0:
274,340,198167,1,0,3:2:0:0:
211,355,198304,1,0,3:0:0:0:
74,347,198440,1,8,1:0:0:0:
213,341,198576,1,2,0:2:0:0:
17,303,198713,6,0,L|31:139,1,137,4|8,3:2|1:0,0:0:0:0:
169,172,199122,2,0,L|293:140,1,68.5,2|0,0:0|3:0,0:0:0:0:
185,107,199395,1,0,3:0:0:0:
48,112,199531,2,0,L|14:33,1,68.5,8|0,1:0|3:0,0:0:0:0:
221,25,199804,6,0,L|365:22,1,137,2|8,3:3|1:0,0:0:0:0:
289,20,200213,1,2,0:0:0:0:
153,121,200349,2,0,L|146:221,1,68.5,0|0,3:0|3:0,0:0:0:0:
292,192,200622,2,0,L|288:281,1,68.5,8|2,1:0|0:0,0:0:0:0:
146,353,200895,6,0,P|205:328|284:329,1,137,4|8,3:2|1:0,0:0:0:0:
415,242,201304,2,0,P|356:217|277:218,1,137,2|0,0:0|3:0,0:0:0:0:
419,229,201713,2,0,P|423:193|411:153,1,68.5,8|0,1:0|3:0,0:0:0:0:
212,65,201985,5,2,3:0:0:0:
122,60,202122,1,0,3:0:0:0:
210,50,202258,1,8,1:0:0:0:
338,324,202395,1,0,3:0:0:0:
303,323,202463,1,0,1:0:0:0:
268,323,202531,1,6,0:0:0:0:
415,161,202667,1,0,3:0:0:0:
505,156,202804,1,8,1:0:0:0:
417,146,202940,1,0,3:0:0:0:
210,157,203076,6,0,L|148:242,1,68.5,4|0,3:1|0:0,0:0:0:0:
304,285,203349,2,0,P|391:287|451:273,1,137,8|0,1:0|3:0,0:0:0:0:
398,221,203758,1,2,3:2:0:0:
263,157,203895,2,0,L|252:49,1,68.5,8|0,1:0|3:0,0:0:0:0:
397,34,204167,6,0,P|312:39|245:37,1,137,2|8,3:2|1:0,0:0:0:0:
119,261,204576,2,0,P|203:266|271:264,1,137,2|0,0:0|3:0,0:0:0:0:
117,247,204985,2,0,L|113:148,1,68.5,8|0,1:0|0:0,0:0:0:0:
317,163,205258,6,0,P|352:90|336:23,1,137,2|8,3:2|1:0,0:0:0:0:
274,37,205667,1,0,0:0:0:0:
139,42,205804,2,0,L|141:131,1,68.5,2|0,3:2|3:0,0:0:0:0:
275,139,206076,2,0,L|388:130,1,68.5,8|0,1:0|3:0,0:0:0:0:
146,188,206349,6,0,P|112:261|172:284,1,137,2|8,3:2|1:0,0:0:0:0:
214,290,206758,1,2,0:0:0:0:
251,339,206894,1,0,3:0:0:0:
202,378,207030,1,0,3:0:0:0:
66,365,207167,1,8,1:0:0:0:
199,364,207304,1,2,0:2:0:0:
404,268,207440,6,0,L|426:76,1,137,4|8,3:2|1:0,0:0:0:0:
288,128,207849,2,0,L|288:36,1,68.5,2|0,0:0|3:0,0:0:0:0:
355,48,208122,1,0,3:0:0:0:
492,89,208258,2,0,L|477:195,1,68.5,8|0,1:0|3:0,0:0:0:0:
347,276,208531,6,0,L|155:275,1,137,2|8,3:0|1:0,0:0:0:0:
351,249,208940,2,0,L|360:148,1,68.5,2|0,0:0|3:0,0:0:0:0:
290,163,209213,1,0,3:0:0:0:
152,153,209349,2,0,L|173:48,1,68.5,8|0,1:0|0:0,0:0:0:0:
370,60,209622,6,0,L|492:54,1,68.5,4|0,3:2|0:0,0:0:0:0:
302,97,209895,2,0,L|208:120,1,68.5,10|0,1:0|0:0,0:0:0:0:
295,81,210167,2,0,L|422:41,1,68.5,0|0,3:0|3:0,0:0:0:0:
495,152,210440,2,0,L|493:230,1,68.5,10|0,1:0|3:0,0:0:0:0:
262,204,210713,5,4,3:2:0:0:
228,203,210781,1,0,3:0:0:0:
197,217,210849,1,0,3:0:0:0:
176,244,210917,1,0,3:0:0:0:
170,278,210985,1,10,1:0:0:0:
180,310,211053,1,0,1:0:0:0:
204,334,211122,1,0,3:0:0:0:
403,351,211258,5,0,3:0:0:0:
436,347,211326,1,0,3:0:0:0:
464,328,211394,1,0,3:0:0:0:
479,297,211462,1,0,3:0:0:0:
477,263,211530,1,10,1:0:0:0:
459,235,211598,1,2,3:2:0:0:
430,218,211667,1,2,3:2:0:0:
396,218,211735,1,2,3:2:0:0:
249,78,211804,6,0,L|102:88,1,137,4|8,3:1|1:0,0:0:0:0:
247,98,212213,2,0,L|296:186,1,68.5,2|0,0:0|3:0,0:0:0:0:
221,193,212485,1,0,3:0:0:0:
82,204,212622,2,0,L|68:281,1,68.5,10|0,1:1|3:0,0:0:0:0:
211,304,212895,6,0,L|74:303,1,137,0|10,3:0|1:0,0:0:0:0:
210,288,213304,2,0,L|224:186,1,68.5,2|0,3:1|3:0,0:0:0:0:
157,191,213576,1,0,3:0:0:0:
26,167,213713,2,0,L|30:66,1,68.5,10|0,1:0|3:0,0:0:0:0:
170,49,213985,6,0,L|353:55,1,137,0|10,3:0|1:0,0:0:0:0:
449,130,214395,2,0,L|312:125,1,137,2|0,0:1|3:0,0:0:0:0:
171,135,214804,2,0,L|150:217,1,68.5,8|0,1:0|3:0,0:0:0:0:
290,216,215076,5,2,3:1:0:0:
230,244,215212,1,0,0:0:0:0:
211,308,215348,1,8,1:0:0:0:
247,364,215485,1,2,3:2:0:0:
313,374,215621,1,0,0:0:0:0:
450,353,215758,1,0,3:0:0:0:
310,349,215895,2,0,L|221:350,1,68.5,10|2,1:0|3:2,0:0:0:0:
451,249,216167,6,0,L|463:150,1,68.5,4|0,3:2|0:0,0:0:0:0:
392,163,216440,1,8,1:0:0:0:
258,127,216576,2,0,L|122:148,1,137,0|0,0:0|3:0,0:0:0:0:
258,127,216985,2,0,L|258:195,1,68.5,10|0,1:0|0:0,0:0:0:0:
119,230,217258,6,0,L|119:298,1,68.5,2|0,3:3|3:0,0:0:0:0:
255,289,217531,1,8,1:0:0:0:
291,234,217667,1,0,3:0:0:0:
261,176,217803,1,2,0:0:0:0:
196,174,217940,1,0,3:0:0:0:
64,194,218076,2,0,L|51:119,1,68.5,10|2,1:0|3:2,0:0:0:0:
261,64,218349,6,0,L|424:46,1,137,4|10,3:2|1:0,0:0:0:0:
252,143,218758,2,0,L|115:158,1,137,2|0,3:1|3:0,0:0:0:0:
256,226,219167,2,0,L|371:200,1,68.5,10|0,1:1|3:0,0:0:0:0:
181,189,219440,5,2,3:2:0:0:
113,199,219576,1,0,3:0:0:0:
255,255,219713,2,0,L|278:335,1,68.5,12|0,1:2|0:0,0:0:0:0:
135,47,219985,1,2,3:1:0:0:
67,57,220121,1,0,0:0:0:0:
209,113,220258,2,0,L|232:193,1,68.5,12|0,1:2|3:0,0:0:0:0:
25,184,220531,5,6,3:1:0:0:
91,183,220667,1,0,0:0:0:0:
139,230,220803,1,8,1:0:0:0:
139,297,220940,1,0,0:0:0:0:
93,344,221076,1,0,3:0:0:0:
26,345,221212,1,2,3:2:0:0:
173,68,221349,2,0,L|299:57,1,68.5,10|0,1:0|0:0,0:0:0:0:
448,109,221622,6,0,P|484:192|461:238,1,137,4|8,3:2|1:0,0:0:0:0:
325,245,222031,2,0,L|321:339,1,68.5,2|0,0:1|3:0,0:0:0:0:
390,314,222304,1,2,3:2:0:0:
249,115,222440,2,0,L|244:202,1,68.5,10|0,1:1|0:0,0:0:0:0:
381,64,222713,6,0,L|237:55,1,137,8|0,3:1|3:0,0:0:0:0:
467,143,223122,2,0,L|323:134,1,137,6|0,3:1|3:0,0:0:0:0:
471,149,223531,2,0,L|472:224,1,68.5,4|0,0:3|0:0,0:0:0:0:
270,217,223804,6,0,L|253:358,1,137,4|10,3:1|1:0,0:0:0:0:
322,352,224213,1,0,3:0:0:0:
459,344,224349,1,8,1:2:0:0:
469,203,224485,1,8,1:1:0:0:
329,213,224622,1,10,1:0:0:0:
476,204,224758,1,10,1:0:0:0:
267,130,224895,6,0,L|269:46,1,68.5,4|0,3:1|0:0,0:0:0:0:
335,46,225167,1,8,1:0:0:0:
197,240,225304,2,0,L|199:156,1,68.5,2|0,0:1|3:0,0:0:0:0:
266,165,225576,1,0,3:0:0:0:
127,358,225713,2,0,L|129:274,1,68.5,10|0,1:0|0:0,0:0:0:0:
333,253,225985,5,6,3:2:0:0:
400,241,226122,2,0,L|249:218,1,137,8|0,1:0|3:0,0:0:0:0:
403,168,226531,1,10,1:2:0:0:
403,168,226667,1,0,1:0:0:0:
271,158,226804,1,8,1:1:0:0:
403,154,226940,1,10,1:1:0:0:
192,71,227076,6,0,P|160:131|129:212,1,137,4|2,3:1|3:1,0:0:0:0:
202,206,227485,1,2,3:1:0:0:
337,231,227622,2,0,L|342:326,1,68.5,12|0,1:2|0:0,0:0:0:0:
210,310,227895,2,0,L|106:308,1,68.5,8|4,3:3|3:0,0:0:0:0:
283,206,228167,6,0,L|485:191,1,137,4|2,1:2|0:0,0:0:0:0:
360,160,228576,1,0,3:0:0:0:
294,137,228713,2,0,L|472:134,1,137,8|8,1:2|0:3,0:0:0:0:
89,236,229258,5,0,1:0:0:0:
31,209,229394,1,0,3:0:0:0:
39,146,229530,1,2,0:0:0:0:
102,135,229667,1,0,3:0:0:0:
237,135,229804,2,0,L|252:44,1,68.5,12|0,1:2|0:0,0:0:0:0:
106,124,230076,2,0,L|30:126,1,68.5,2|8,3:2|0:3,0:0:0:0:
180,238,230349,5,4,0:3:0:0:
247,230,230485,2,0,L|423:206,1,137,0|0,1:0|0:0,0:0:0:0:
242,75,230895,2,0,L|170:77,1,68.5,12|8,1:2|0:0,0:0:0:0:
310,377,231167,2,0,L|305:288,1,68.5,0|4,3:0|3:0,0:0:0:0:
106,257,231440,6,0,P|96:173|141:144,1,137,4|0,3:1|3:0,0:0:0:0:
197,127,231849,1,0,3:0:0:0:
340,117,231985,1,12,1:2:0:0:
289,159,232121,1,0,0:0:0:0:
301,223,232257,1,2,0:0:0:0:
362,245,232394,1,0,3:0:0:0:
223,324,232531,6,0,L|74:323,1,137,0|2,1:0|0:0,0:0:0:0:
150,300,232940,1,4,3:0:0:0:
295,258,233076,2,0,L|301:173,1,68.5,8|0,1:2|0:0,0:0:0:0:
166,169,233349,2,0,L|176:47,1,68.5,8|0,0:0|3:0,0:0:0:0:
309,61,233622,6,0,L|416:74,1,68.5,0|4,1:0|3:2,0:0:0:0:
309,57,233895,2,0,L|241:48,1,68.5,2|0,0:0|3:0,0:0:0:0:
377,194,234167,2,0,L|270:207,1,68.5,8|0,1:1|3:0,0:0:0:0:
377,190,234440,2,0,L|444:181,1,68.5,2|0,0:3|3:0,0:0:0:0:
224,140,234713,6,0,L|137:141,1,68.5,4|0,1:2|3:0,0:0:0:0:
294,224,234985,2,0,L|316:300,1,68.5,4|0,0:1|3:0,0:0:0:0:
176,297,235258,1,8,1:2:0:0:
109,292,235394,1,8,0:0:0:0:
247,67,235530,1,8,0:0:0:0:
311,49,235667,1,2,0:0:0:0:
345,53,235735,1,2,0:0:0:0:
195,203,235804,6,0,L|46:180,1,137,4|8,3:1|1:2,0:0:0:0:
199,151,236213,2,0,L|356:167,1,137,4|0,3:2|3:0,0:0:0:0:
192,182,236622,2,0,L|195:300,1,68.5,8|0,1:2|3:0,0:0:0:0:
262,251,236894,1,2,3:2:0:0:
401,269,237031,2,0,L|216:268,1,137,0|0,1:0|0:0,0:0:0:0:
405,252,237440,2,0,L|410:133,1,68.5,8|0,1:2|0:0,0:0:0:0:
274,155,237713,6,0,L|281:55,1,68.5,2|0,3:2|3:0,0:0:0:0:
347,84,237985,1,0,1:0:0:0:
482,82,238122,2,0,L|336:74,1,137,0|0,3:0|3:0,0:0:0:0:
483,156,238531,1,8,1:2:0:0:
417,168,238667,1,0,3:0:0:0:
376,222,238803,1,2,1:2:0:0:
382,288,238940,1,0,3:0:0:0:
430,334,239076,1,0,3:0:0:0:
497,337,239212,1,0,0:0:0:0:
358,84,239349,2,0,L|270:92,1,68.5,8|0,1:2|0:0,0:0:0:0:
86,82,239622,6,0,P|41:145|29:221,1,137,4|8,3:2|1:2,0:0:0:0:
172,212,240031,2,0,P|238:220|314:234,1,137,2|0,3:2|3:0,0:0:0:0:
171,221,240440,2,0,L|157:314,1,68.5,8|0,1:2|3:0,0:0:0:0:
229,296,240713,1,0,3:0:0:0:
370,293,240849,2,0,L|221:280,1,137,2|0,1:2|0:0,0:0:0:0:
377,268,241258,2,0,L|388:164,1,68.5,8|0,1:2|0:0,0:0:0:0:
178,100,241531,6,0,P|123:163|101:229,1,137,0|8,3:0|1:2,0:0:0:0:
239,228,241940,2,0,L|337:229,1,68.5,2|0,3:2|0:0,0:0:0:0:
239,221,242213,1,0,3:0:0:0:
103,199,242349,2,0,L|107:78,1,68.5,10|0,1:2|3:0,0:0:0:0:
243,75,242622,1,0,1:0:0:0:
174,73,242758,1,0,3:0:0:0:
106,72,242894,1,2,3:2:0:0:
37,71,243031,1,0,3:0:0:0:
169,270,243167,2,0,L|252:269,1,68.5,8|0,1:2|3:0,0:0:0:0:
439,221,243440,6,0,L|266:181,1,137,4|8,3:1|1:2,0:0:0:0:
165,119,243849,2,0,L|338:79,1,137,4|0,3:2|3:0,0:0:0:0:
434,78,244258,2,0,L|444:148,1,68.5,8|0,1:2|3:0,0:0:0:0:
376,159,244531,1,2,3:2:0:0:
239,178,244667,2,0,L|228:264,1,68.5,0|0,1:0|3:0,0:0:0:0:
298,251,244940,1,2,0:0:0:0:
438,253,245076,2,0,L|449:339,1,68.5,8|0,1:2|0:0,0:0:0:0:
305,80,245349,6,0,L|130:82,1,137,2|0,3:0|1:0,0:0:0:0:
311,86,245758,2,0,P|336:158|284:189,1,137,2|0,3:2|3:0,0:0:0:0:
161,83,246167,2,0,L|161:168,1,68.5,8|0,1:2|3:0,0:0:0:0:
298,176,246440,2,0,L|298:261,1,68.5,2|0,3:2|3:0,0:0:0:0:
161,194,246713,2,0,L|161:279,1,68.5,0|0,3:0|3:0,0:0:0:0:
298,287,246986,2,0,L|412:289,1,68.5,8|0,1:2|0:0,0:0:0:0:
167,77,247258,6,0,L|30:87,1,137,4|8,3:2|1:2,0:0:0:0:
173,156,247667,2,0,L|310:146,1,137,2|0,3:2|3:0,0:0:0:0:
170,109,248076,1,8,1:2:0:0:
103,90,248213,2,0,L|110:12,1,68.5,2|0,3:2|3:0,0:0:0:0:
244,25,248485,2,0,L|392:35,1,137,0|0,1:0|3:0,0:0:0:0:
242,38,248894,2,0,L|161:33,1,68.5,10|0,1:2|0:0,0:0:0:0:
392,37,249167,6,0,P|412:97|443:220,1,137,8|8,3:1|1:2,0:0:0:0:
287,192,249576,2,0,P|242:237|160:334,1,137,4|0,3:2|3:0,0:0:0:0:
329,320,249985,2,0,L|432:315,1,68.5,0|0,1:0|3:0,0:0:0:0:
187,145,250258,1,8,1:2:0:0:
96,130,250394,1,0,3:0:0:0:
188,121,250531,1,8,1:2:0:0:
278,108,250667,1,0,3:0:0:0:
369,93,250803,1,10,1:2:0:0:
277,84,250940,1,8,0:0:0:0:
74,48,251076,6,0,L|71:126,1,68.5,4|0,3:2|3:0,0:0:0:0:
139,122,251349,1,0,3:0:0:0:
274,146,251485,2,0,L|276:214,1,68.5,8|0,1:2|3:0,0:0:0:0:
208,221,251758,1,0,3:0:0:0:
344,226,251894,2,0,P|385:282|339:322,1,137,0|0,1:0|3:0,0:0:0:0:
138,323,252304,2,0,P|227:315|304:315,1,137,12|0,1:2|0:0,0:0:0:0:
132,306,252713,2,0,L|98:198,1,68.5,2|0,1:3|0:0,0:0:0:0:
317,200,252985,6,0,L|311:114,1,68.5,4|0,3:1|3:0,0:0:0:0:
245,113,253258,1,8,1:2:0:0:
107,80,253394,2,0,P|72:148|72:217,1,137,0|0,3:0|3:0,0:0:0:0:
205,192,253804,1,0,1:0:0:0:
69,192,253940,1,0,3:0:0:0:
278,43,254076,1,4,3:2:0:0:
219,72,254212,1,0,0:0:0:0:
220,136,254348,1,0,3:0:0:0:
279,164,254485,1,0,3:0:0:0:
416,202,254622,2,0,L|434:275,1,68.5,4|0,1:2|0:0,0:0:0:0:
226,302,254894,6,0,L|221:228,1,68.5,4|0,3:1|3:0,0:0:0:0:
286,212,255167,1,8,1:2:0:0:
150,178,255304,2,0,L|145:104,1,68.5,8|0,0:3|3:0,0:0:0:0:
210,88,255577,1,0,3:0:0:0:
345,76,255713,2,0,L|459:73,2,68.5,0|0|0,1:2|3:0|3:0,0:0:0:0:
143,54,256122,2,0,P|86:84|28:151,1,137,8|0,1:0|3:0,0:0:0:0:
176,176,256531,2,0,L|269:184,1,68.5,4|0,1:2|0:0,0:0:0:0:
36,269,256804,5,12,1:2:0:0:
152,265,256940,1,8,1:1:0:0:
267,258,257076,1,8,1:1:0:0:
36,269,257213,1,12,1:1:0:0:
