osu file format v14

[General]
AudioFilename: audio.mp3
AudioLeadIn: 0
PreviewTime: 66744
Countdown: 0
SampleSet: Normal
StackLeniency: 0.3
Mode: 0
LetterboxInBreaks: 0
WidescreenStoryboard: 0

[Editor]
DistanceSpacing: 0.8
BeatDivisor: 4
GridSize: 4
TimelineZoom: 2.599999

[Metadata]
Title:The Azure Arbitrator
TitleUnicode:The Azure Arbitrator
Artist:Falcom Sound Team jdk
ArtistUnicode:Falcom Sound Team jdk
Creator:jonathanlfj
Version:Chrono Collapse
Source:英雄伝説 碧の軌跡 Evolution
Tags:J.D.K. legend of heroes ao no kiseki trails of blue rpg game final boss theme Stained Demiurge Kea kiko Toshiaki Kishi Shun Kobayashi Toshiharu Okajima Atsushi Enomoto Toshinori Hiramatsu Daisuke Miyazaki Masaru Teramae Demetori 寺前 甲 宮崎 大輔 平松 俊紀 榎本 敦 岡島 俊治 岸 俊昭 小林 俊
BeatmapID:922172
BeatmapSetID:427166

[Difficulty]
HPDrainRate:5
CircleSize:4
OverallDifficulty:9.3
ApproachRate:10
SliderMultiplier:1.6
SliderTickRate:1

[Events]
//Background and Video events
0,0,"boss.jpg",0,0
//Break Periods
2,156329,165335
2,364801,372905
//Storyboard Layer 0 (Background)
//Storyboard Layer 1 (Fail)
//Storyboard Layer 2 (Pass)
//Storyboard Layer 3 (Foreground)
//Storyboard Sound Samples

[TimingPoints]
230,218.978102189781,4,2,1,50,1,0
230,-200,4,2,1,50,0,0
667,-200,4,2,1,30,0,0
2857,-400,4,2,1,30,0,0
3733,-200,4,2,1,30,0,0
7237,-400,4,2,1,30,0,0
8003,-400,4,2,1,5,0,0
8113,-400,4,2,1,30,0,0
8879,-400,4,2,1,5,0,0
8989,-400,4,2,1,30,0,0
9755,-400,4,2,1,5,0,0
9865,-400,4,2,1,30,0,0
10740,-200,4,2,1,30,0,0
15996,-200,4,2,1,35,0,0
21251,-192.307692307692,4,2,1,40,0,0
24755,-185.185185185185,4,2,1,45,0,0
26507,-178.571428571429,4,2,1,50,0,0
28259,-172.413793103448,4,2,1,55,0,0
30011,-166.666666666667,4,2,1,60,0,0
30448,-166.666666666667,4,2,1,70,0,0
30886,-166.666666666667,4,2,1,80,0,0
31324,-166.666666666667,4,2,1,90,0,0
31762,-166.666666666667,4,2,1,100,0,0
31817,-200,4,2,1,20,0,0
35266,-300,4,2,1,50,0,0
36032,-300,4,2,1,5,0,0
36142,-400,4,2,1,40,0,0
36908,-400,4,2,1,5,0,0
37018,-500,4,2,1,30,0,0
37784,-500,4,2,1,5,0,0
37894,-500,4,2,1,20,0,0
38113,-125,4,2,1,20,0,0
38770,-125,4,3,1,60,0,0
52784,-111.111111111111,4,3,1,70,0,0
65923,-100,4,3,1,70,0,0
66809,218.978102189781,4,3,1,80,1,0
66809,-83.3333333333333,4,3,1,80,0,0
68561,218.181818181818,4,1,1,70,1,0
79047,218.978102189781,4,1,1,70,1,0
82566,218.978102189781,4,1,1,70,1,0
89572,-100,4,1,1,60,0,0
90339,-95.2380952380952,4,1,1,65,0,0
91215,-90.9090909090909,4,1,1,70,0,0
92091,-86.9565217391304,4,1,1,75,0,0
94828,-83.3333333333333,4,3,1,80,0,0
96580,-100,4,1,1,70,0,0
107085,219.378427787934,4,1,1,70,1,0
110595,218.978102189781,4,1,1,70,1,0
117602,-100,4,1,1,60,0,0
118368,-95.2380952380952,4,1,1,65,0,0
119244,-90.9090909090909,4,1,1,70,0,0
120120,-86.9565217391304,4,1,1,75,0,0
122857,-83.3333333333333,4,3,1,80,0,0
124609,-90.9090909090909,4,1,1,70,0,0
131611,219.78021978022,4,1,1,70,1,0
131611,-90.9090909090909,4,1,1,70,0,0
133259,218.818380743983,4,1,1,70,1,0
133259,-90.9090909090909,4,1,1,70,0,0
133368,218.818380743983,4,1,1,70,1,0
133368,-90.9090909090909,4,1,1,70,0,0
138619,218.818380743983,4,1,1,70,1,0
138619,-90.9090909090909,4,1,1,70,0,0
143761,218.579234972678,4,1,1,70,1,0
143761,-90.9090909090909,4,1,1,70,0,0
145618,218.978102189781,4,1,1,70,1,0
145618,-90.9090909090909,4,1,1,70,0,0
150872,-90.9090909090909,4,1,1,60,0,0
151310,-90.9090909090909,4,1,1,70,0,0
151748,-90.9090909090909,4,1,1,80,0,0
152624,-90.9090909090909,4,1,1,70,0,0
156128,-90.9090909090909,4,1,1,40,0,0
165785,218.579234972678,4,1,1,70,1,0
165785,-90.9090909090909,4,1,1,70,0,0
170156,218.181818181818,4,1,1,70,1,0
170156,-90.9090909090909,4,1,1,70,0,0
173659,218.778486782133,4,1,1,70,1,0
173659,-90.9090909090909,4,1,1,70,0,0
178034,220.588235294118,4,1,1,70,1,0
178916,221.81146025878,4,3,1,80,1,0
178916,-83.3333333333333,4,3,1,80,0,0
180654,218.778486782133,4,1,1,85,1,1
180654,-80,4,1,1,85,0,1
191164,218.978102189781,4,1,1,85,1,1
191164,-80,4,1,1,85,0,1
194673,218.978102189781,4,1,1,85,1,1
194673,-80,4,1,1,85,0,1
205183,220.183486238532,4,1,1,85,1,1
205183,-80,4,1,1,85,0,1
208705,218.778486782133,4,1,1,90,1,1
208705,-80,4,1,1,90,0,1
215705,218.978102189781,4,1,1,70,1,0
215705,-100,4,1,1,70,0,0
229719,-90.9090909090909,4,1,1,75,0,0
238479,219.78021978022,4,1,1,75,1,0
238479,-90.9090909090909,4,1,1,75,0,0
241995,219.178082191781,4,1,1,75,1,0
241995,-90.9090909090909,4,1,1,75,0,0
243729,218.978102189781,4,1,1,75,1,0
243729,-86.9565217391304,4,1,1,75,0,0
257744,-83.3333333333333,4,1,1,80,0,0
271758,-80,4,1,1,85,0,1
285773,215.827338129496,4,1,1,75,1,0
287499,220.588235294118,4,3,1,80,1,0
287499,-80,4,3,1,80,0,0
289273,218.978102189781,4,3,1,70,1,0
289273,-111.111111111111,4,3,1,70,0,0
303287,-80,4,3,1,80,0,0
305039,218.978102189781,4,1,1,70,1,0
305039,-90.9090909090909,4,1,1,70,0,0
326060,-90.9090909090909,4,1,1,60,0,0
326827,-86.9565217391304,4,1,1,65,0,0
327703,-83.3333333333333,4,1,1,70,0,0
328579,-80,4,1,1,75,0,0
331316,-80,4,3,1,80,0,0
333068,-90.9090909090909,4,1,1,70,0,0
346206,-83.3333333333333,4,1,1,80,0,0
347082,-90.9090909090909,4,1,1,70,0,0
359345,-83.3333333333333,4,1,1,80,0,0
360221,-83.3333333333333,4,1,1,70,0,0
364601,-90.9090909090909,4,2,1,20,0,0
373355,225.563909774436,4,1,1,50,1,0
373355,-90.9090909090909,4,1,1,50,0,0
374257,223.048327137546,4,1,1,50,1,0
374257,-90.9090909090909,4,1,1,50,0,0
375146,217.391304347826,4,1,1,70,1,0
375146,-86.9565217391304,4,1,1,70,0,0
378624,218.49963583394,4,1,1,70,1,0
378624,-86.9565217391304,4,1,1,70,0,0
382119,219.619326500732,4,1,1,70,1,0
382119,-86.9565217391304,4,1,1,70,0,0
386511,218.978102189781,4,1,1,70,1,0
387386,-80,4,3,1,80,0,0
389146,218.938149972633,4,1,1,90,1,1
389146,-76.9230769230769,4,1,1,90,0,1
417170,-76.9230769230769,4,1,1,95,0,1
424181,218.978102189781,4,2,1,40,1,0
424181,-133.333333333333,4,2,1,40,0,0
425056,-166.666666666667,4,2,1,40,0,0
425932,-200,4,2,1,40,0,0
434691,-400,4,2,1,40,0,0
438195,-200,4,2,1,40,0,0
448706,-400,4,2,1,40,0,0
452210,-500,4,2,1,40,0,0
455275,-500,4,2,1,10,0,0
455713,-500,4,2,1,40,0,0
458998,-500,4,2,1,5,0,0
459217,218.978102189781,4,2,1,50,1,0
459217,-200,4,2,1,50,0,0
459654,-200,4,2,1,30,0,0
461844,-400,4,2,1,30,0,0
462720,-200,4,2,1,30,0,0
466224,-400,4,2,1,30,0,0
466990,-400,4,2,1,5,0,0
467100,-400,4,2,1,30,0,0
467866,-400,4,2,1,5,0,0
467976,-400,4,2,1,30,0,0
468742,-400,4,2,1,5,0,0
468852,-400,4,2,1,30,0,0
469727,-200,4,2,1,30,0,0
474983,-200,4,2,1,35,0,0
480238,-192.307692307692,4,2,1,40,0,0
483742,-185.185185185185,4,2,1,45,0,0
485494,-178.571428571429,4,2,1,50,0,0
487246,-172.413793103448,4,2,1,55,0,0
488998,-166.666666666667,4,2,1,60,0,0
489435,-166.666666666667,4,2,1,70,0,0
489873,-166.666666666667,4,2,1,80,0,0
490311,-166.666666666667,4,2,1,90,0,0
490749,-166.666666666667,4,2,1,100,0,0
490804,-200,4,2,1,20,0,0
494253,-300,4,2,1,50,0,0
495019,-300,4,2,1,5,0,0
495129,-400,4,2,1,40,0,0
495895,-400,4,2,1,5,0,0
496005,-500,4,2,1,30,0,0
496771,-500,4,2,1,5,0,0
496881,-600,4,2,1,20,0,0
497647,-600,4,2,1,5,0,0
497757,-700,4,2,1,40,0,0
504983,-700,4,2,1,5,0,0

[Colours]
Combo1 : 121,121,121
Combo2 : 37,176,222
Combo3 : 33,101,184
Combo4 : 80,228,214
Combo5 : 255,23,23
Combo6 : 255,63,6
Combo7 : 193,193,193

[HitObjects]
160,88,230,85,10,0:3:0:0:
328,160,667,1,0,0:0:0:0:
112,272,1105,1,0,0:0:0:0:
388,320,1543,2,0,P|387:279|380:236,1,80
256,64,1981,2,0,B|264:96|252:132|252:132|260:152|260:152|248:184|256:220,1,160
256,220,2857,6,0,B|248:184|260:152|260:152|252:132|252:132|264:96|256:64,1,160,2|2,0:0|0:0,0:0:0:0:
256,64,4171,1,0,0:0:0:0:
388,156,4609,1,0,0:0:0:0:
160,216,5047,2,0,L|240:220,1,80
432,304,5485,2,0,L|272:316,1,160
272,316,6799,1,0,0:0:0:0:
168,196,7237,86,0,P|160:120|172:48,1,140,2|0,0:3|0:0,0:0:0:0:
240,20,8113,2,0,P|309:51|366:97,1,140,2|0,0:0|0:0,0:0:0:0:
356,172,8989,2,0,P|294:216|226:242,1,140,2|0,0:0|0:0,0:0:0:0:
168,196,9865,5,2,0:0:0:0:
240,20,10302,2,0,P|261:30|280:40,1,40
356,172,10740,86,0,L|364:220,3,40,2|0|0|0,0:0|0:0|0:0|0:0,0:0:0:0:
304,268,11178,2,0,L|296:320,3,40
216,236,11616,2,0,L|224:284,3,40
164,332,12054,2,0,L|156:384,3,40
108,272,12492,6,0,L|100:228,1,40,2|0,0:0|0:0,0:0:0:0:
156,108,12711,2,0,L|148:156,1,40
216,264,12930,2,0,L|208:220,1,40
264,100,13149,2,0,L|256:148,1,40
312,220,13368,2,0,L|320:260,3,40
361,135,13806,2,0,L|368:96,3,40
408,220,14244,86,0,P|429:224|448:224,1,40,2|0,0:0|0:0,0:0:0:0:
319,259,14463,2,0,P|303:253|275:247,1,40
180,184,14682,2,0,P|204:180|220:176,1,40
112,252,14901,2,0,P|98:243|72:232,1,40
160,336,15120,2,0,P|204:320|248:320,1,80
352,48,15558,2,0,P|308:64|264:64,1,80
48,156,15996,6,0,P|68:152|92:152,1,40,10|0,0:3|0:0,0:0:0:0:
172,208,16215,2,0,P|180:232|184:256,1,40
60,300,16434,2,0,P|68:276|80:256,1,40
244,312,16653,2,0,P|257:332|268:360,1,40
148,368,16872,2,0,P|152:344|160:320,3,40,2|0|0|0,0:3|0:0|0:0|0:0,0:0:0:0:
132,236,17310,2,0,P|131:219|128:192,3,40
80,116,17748,86,0,P|124:116|164:104,1,80,2|0,0:3|0:0,0:0:0:0:
392,40,18186,2,0,P|370:78|360:118,1,80
320,364,18624,2,0,P|316:340|304:308,1,40,2|0,0:3|0:0,0:0:0:0:
232,236,18843,2,0,P|212:228|184:224,1,40
148,348,19062,2,0,P|180:344|200:336,1,40
308,248,19281,2,0,P|312:224|308:192,1,40
148,144,19500,6,0,P|156:184|176:228,1,80,2|0,0:3|0:0,0:0:0:0:
392,328,19938,2,0,P|399:288|415:252,1,80,2|0,0:3|0:0,0:0:0:0:
340,60,20375,2,0,P|332:100|312:144,1,80,2|0,0:3|0:0,0:0:0:0:
136,356,20813,2,0,P|128:316|112:280,1,80,2|0,0:3|0:0,0:0:0:0:
84,48,21251,86,0,P|106:53|132:56,1,41.5999997460938,2|0,0:3|0:0,0:0:0:0:
200,112,21470,2,0,P|224:104|244:100,1,41.5999997460938
304,32,21689,2,0,P|326:37|352:40,1,41.5999997460938,2|0,0:3|0:0,0:0:0:0:
420,96,21908,2,0,P|444:88|464:84,1,41.5999997460938
364,172,22127,2,0,L|352:264,1,83.1999994921875,2|0,0:3|0:0,0:0:0:0:
152,112,22565,2,0,L|164:20,1,83.1999994921875,2|0,0:3|0:0,0:0:0:0:
208,252,23003,2,0,P|152:264|104:264,1,83.1999994921875,2|0,0:3|0:0,0:0:0:0:
304,48,23441,2,0,P|360:36|408:36,1,83.1999994921875,2|0,0:3|0:0,0:0:0:0:
152,148,23879,6,0,L|92:136,1,41.5999997460938,2|0,0:3|0:0,0:0:0:0:
204,60,24098,2,0,L|172:24,1,41.5999997460938
308,60,24317,2,0,L|340:24,1,41.5999997460938,2|0,0:3|0:0,0:0:0:0:
360,148,24536,2,0,L|420:136,1,41.5999997460938
308,236,24755,2,0,B|312:280|312:280|328:328,1,86.4000021093751,2|0,0:3|0:0,0:0:0:0:
448,60,25193,2,0,B|404:52|404:52|348:52,1,86.4000021093751,2|0,0:3|0:0,0:0:0:0:
204,236,25631,2,0,B|200:280|200:280|186:320,1,86.4000021093751,2|0,0:3|0:0,0:0:0:0:
64,60,26069,2,0,B|108:52|108:52|164:52,1,86.4000021093751,2|0,0:3|0:0,0:0:0:0:
396,164,26507,86,0,L|352:172,1,44.800000546875,2|0,0:3|0:0,0:0:0:0:
264,224,26726,2,0,L|216:216,1,44.800000546875
260,76,26945,2,0,L|268:132,1,44.800000546875,2|0,0:3|0:0,0:0:0:0:
352,276,27164,2,0,L|344:336,1,44.800000546875
432,216,27383,2,0,L|424:172,3,44.800000546875,2|0|0|0,0:3|0:0|0:0|0:0,0:0:0:0:
360,96,27821,2,0,L|368:44,3,44.800000546875,2|0|0|0,0:3|0:0|0:0|0:0,0:0:0:0:
316,184,28259,5,2,0:3:0:0:
112,140,28697,1,2,0:3:0:0:
316,184,29135,2,0,B|292:188|292:188|264:188,1,46.4000014160157,2|0,0:3|0:0,0:0:0:0:
112,140,29354,2,0,B|136:136|136:136|164:136,1,46.4000014160157
196,260,29573,2,0,B|192:236|192:236|192:208,1,46.4000014160157,2|0,0:3|0:0,0:0:0:0:
240,56,29792,2,0,B|244:80|244:80|244:108,1,46.4000014160157
108,244,30011,85,2,0:3:0:0:
404,192,30448,1,2,0:3:0:0:
80,136,30886,1,2,0:3:0:0:
440,88,31324,1,2,0:3:0:0:
56,28,31762,69,6,0:3:0:0:
256,192,31817,12,0,34828,0:0:0:0:
156,332,35266,22,0,B|140:348|136:372|136:372|216:360|243:290,1,186.666666666667,2|0,0:0|0:0,0:0:0:0:
336,301,36142,2,0,B|342:328|342:328|284:308|261:255,1,140,2|0,0:0|0:0,0:0:0:0:
168,276,37018,2,0,P|221:261|254:217,1,112,2|0,0:0|0:0,0:0:0:0:
256,136,37894,69,2,0:0:0:0:
136,112,38113,2,2,B|152:116|152:116|164:104|164:104|180:104|180:104|200:60|247:38|296:52|324:89|324:89|352:128|404:134,1,320,2|0,0:1|0:0,0:1:0:0:
508,116,38770,54,0,P|500:178|459:226,1,128,6|0,0:0|0:0,0:0:0:0:
455,343,39098,2,0,P|397:317|333:317,1,128,0|8,0:0|0:0,0:0:0:0:
220,348,39427,2,0,P|236:308|240:272,1,64,8|0,0:1|0:0,0:0:0:0:
124,176,39646,1,0,0:0:0:0:
124,176,39755,2,0,P|108:216|144:300,1,128,8|0,0:0|0:0,0:0:0:0:
224,160,40084,1,0,0:0:0:0:
164,80,40193,1,0,0:0:0:0:
64,92,40302,2,2,L|-8:100,1,64,2|0,0:1|0:0,0:1:0:0:
164,80,40521,6,0,P|220:100|304:84,1,128,8|0,0:0|0:0,0:0:0:0:
372,20,40850,2,0,P|368:60|380:156,1,128,0|8,0:0|0:0,0:0:0:0:
468,192,41178,2,0,P|476:156|476:120,1,64,8|0,0:1|0:0,0:0:0:0:
380,248,41397,1,0,0:0:0:0:
380,248,41507,2,0,P|304:232|240:236,1,128,8|0,0:0|0:0,0:0:0:0:
152,312,41835,1,0,0:0:0:0:
224,240,41945,1,0,0:0:0:0:
148,176,42054,2,2,P|112:168|76:172,1,64,2|0,0:1|0:0,0:1:0:0:
224,112,42273,6,0,P|264:128|352:112,1,128,8|0,0:0|0:0,0:0:0:0:
288,32,42602,2,0,L|300:168,1,128,0|8,0:0|0:0,0:0:0:0:
384,212,42930,2,0,B|396:180|396:180|396:144,1,64,8|0,0:1|0:0,0:0:0:0:
296,260,43149,1,0,0:0:0:0:
296,260,43259,2,0,P|356:240|440:264,1,128,8|0,0:0|0:0,0:0:0:0:
320,356,43587,1,0,0:0:0:0:
224,328,43697,1,0,0:0:0:0:
200,232,43806,2,2,P|216:204|252:172,1,64,2|0,0:1|0:0,0:1:0:0:
392,172,44025,70,0,P|324:192|264:164,1,128,8|0,0:0|0:0,0:0:0:0:
168,52,44354,2,0,P|180:120|172:188,1,128,0|8,0:0|0:0,0:0:0:0:
84,296,44682,2,0,P|84:264|92:228,1,64,12|0,0:1|0:0,0:0:0:0:
174,178,44901,1,0,0:0:0:0:
204,208,44974,1,8,0:0:0:0:
240,228,45047,1,0,0:0:0:0:
284,232,45120,1,0,0:0:0:0:
324,220,45193,1,0,0:0:0:0:
356,192,45266,1,0,0:0:0:0:
376,152,45339,2,0,L|364:80,1,64,8|0,0:0|0:0,0:0:0:0:
464,192,45558,2,2,B|460:224|460:224|444:264,1,64,2|0,0:1|0:0,0:1:0:0:
360,308,45777,6,0,P|428:292|492:320,1,128,12|0,0:0|0:0,0:0:0:0:
375,196,46105,2,0,P|362:167|359:136,1,64
388,40,46324,1,0,0:0:0:0:
388,40,46379,1,0,0:0:0:0:
388,40,46434,2,0,L|464:44,1,64,8|0,2:1|0:0,0:0:0:0:
360,136,46653,1,0,0:0:0:0:
292,64,46762,2,0,P|232:52|160:84,1,128,8|0,0:0|0:0,0:0:0:0:
236,212,47091,2,0,B|244:176|244:176|240:140,1,64,8|0,2:1|0:0,0:0:0:0:
80,36,47310,2,2,B|72:68|72:68|76:116,1,64,2|0,0:1|0:0,0:1:0:0:
144,172,47529,5,12,0:0:0:0:
144,172,47638,2,0,L|228:164,1,64
296,120,47857,2,0,L|368:132,1,64
432,200,48076,1,0,0:0:0:0:
432,200,48131,1,0,0:0:0:0:
432,200,48186,2,0,P|428:240|432:280,1,64,8|0,2:1|0:0,0:0:0:0:
356,332,48405,1,0,0:0:0:0:
276,272,48514,2,0,P|208:264|136:280,1,128,8|0,0:0|0:0,0:0:0:0:
76,344,48843,1,8,2:1:0:0:
76,344,48952,1,0,0:0:0:0:
52,248,49062,2,2,L|60:176,1,64,2|0,0:1|0:0,0:1:0:0:
140,52,49281,70,0,L|160:184,1,128,12|0,0:0|0:0,0:0:0:0:
296,120,49609,2,0,B|264:112|264:112|216:112,1,64
252,208,49828,1,0,0:0:0:0:
252,208,49883,1,0,0:0:0:0:
252,208,49938,2,0,B|284:216|284:216|332:216,1,64,8|0,2:1|0:0,0:0:0:0:
400,164,50157,1,0,0:0:0:0:
452,248,50266,2,0,B|460:276|460:276|456:376,1,128,8|0,0:0|0:0,0:0:0:0:
360,348,50594,2,0,L|364:272,1,64,8|0,2:1|0:0,0:0:0:0:
400,164,50813,2,2,L|404:88,1,64,2|0,0:1|0:0,0:1:0:0:
288,60,51032,5,12,0:1:0:0:
288,60,51142,2,0,L|296:136,1,64
248,244,51361,2,0,L|256:320,1,64,8|0,0:1|0:0,0:0:0:0:
148,228,51580,1,0,0:0:0:0:
148,228,51635,1,0,0:0:0:0:
148,228,51689,2,0,P|164:188|180:168,1,64,12|0,0:1|0:0,0:0:0:0:
276,152,51908,1,0,0:0:0:0:
344,224,52018,6,0,P|372:184|360:96,1,128,8|8,0:1|0:1,0:0:0:0:
208,76,52346,1,10,0:1:0:0:
276,152,52456,1,8,0:1:0:0:
176,171,52565,1,10,0:1:0:0:
308,56,52675,1,10,0:1:0:0:
120,24,52784,70,0,L|108:112,1,71.9999978027344,12|0,0:0|0:0,0:0:0:0:
188,241,53003,2,0,L|172:153,1,71.9999978027344,8|0,0:0|0:0,0:0:0:0:
4,180,53222,2,0,L|84:192,1,71.9999978027344
260,116,53441,1,10,0:1:0:0:
260,116,53551,2,0,P|208:76|124:84,1,143.999995605469,2|0,0:1|0:0,0:0:0:0:
163,240,53879,2,0,P|173:205|174:169,1,71.9999978027344,8|0,0:0|0:0,0:0:0:0:
110,95,54098,1,0,0:0:0:0:
75,190,54208,1,0,0:0:0:0:
264,216,54317,2,2,L|336:212,1,71.9999978027344,10|0,0:1|0:0,0:1:0:0:
396,128,54536,6,0,B|364:112|364:112|312:108,1,71.9999978027344
200,128,54755,2,0,B|208:92|208:92|212:48,1,71.9999978027344,8|0,0:0|0:0,0:0:0:0:
264,216,54974,2,0,B|256:252|256:252|252:296,1,71.9999978027344
352,264,55193,1,10,0:1:0:0:
308,128,55302,2,0,P|240:120|176:172,1,143.999995605469,2|0,0:1|0:0,0:0:0:0:
352,264,55631,2,0,P|360:232|360:184,1,71.9999978027344,8|0,0:0|0:0,0:0:0:0:
264,216,55850,1,0,0:0:0:0:
264,316,55959,1,0,0:0:0:0:
352,364,56069,2,2,P|400:368|436:364,1,71.9999978027344,10|0,0:1|0:0,0:1:0:0:
264,316,56288,6,0,P|216:312|176:320,1,71.9999978027344
352,264,56507,2,0,P|396:256|432:236,1,71.9999978027344,8|0,0:0|0:0,0:0:0:0:
264,216,56726,2,0,P|228:180|212:140,1,71.9999978027344
316,128,56945,1,10,0:1:0:0:
264,316,57054,2,0,L|112:332,1,143.999995605469,2|0,0:1|0:0,0:0:0:0:
12,232,57383,2,0,L|104:240,1,71.9999978027344,8|0,0:0|0:0,0:0:0:0:
176,196,57602,1,0,0:0:0:0:
168,96,57711,1,0,0:0:0:0:
72,60,57821,2,2,P|68:112|76:144,1,71.9999978027344,10|0,0:1|0:0,0:1:0:0:
176,196,58040,70,0,L|256:188,1,71.9999978027344
340,80,58259,2,0,L|260:88,1,71.9999978027344,8|0,0:0|0:0,0:0:0:0:
412,148,58478,2,0,B|432:116|432:116|440:76,1,71.9999978027344
316,176,58697,1,10,0:1:0:0:
316,176,58806,2,0,B|300:220|300:220|312:332,1,143.999995605469,2|0,0:1|0:0,0:0:0:0:
412,324,59135,2,0,L|404:248,1,71.9999978027344,8|0,0:0|0:0,0:0:0:0:
328,168,59354,5,2,0:1:0:0:
424,96,59463,1,10,0:1:0:0:
312,164,59573,1,8,0:1:0:0:
424,240,59682,1,10,0:1:0:0:
296,160,59792,6,0,P|256:156|212:160,1,71.9999978027344,4|0,0:0|0:0,0:0:0:0:
88,240,60011,2,0,P|140:236|176:224,1,71.9999978027344,8|0,0:0|0:0,0:0:0:0:
256,252,60229,2,0,P|248:304|248:336,1,71.9999978027344
224,158,60448,1,10,0:1:0:0:
300,92,60558,2,0,P|224:60|148:88,1,143.999995605469,2|0,0:1|0:0,0:0:0:0:
320,192,60886,2,0,P|352:180|392:144,1,71.9999978027344,8|0,0:0|0:0,0:0:0:0:
224,158,61105,1,0,0:0:0:0:
244,256,61215,1,0,0:0:0:0:
340,292,61324,2,2,P|384:288|428:276,1,71.9999978027344,10|0,0:1|0:0,0:1:0:0:
244,256,61543,70,0,P|200:248|172:248,1,71.9999978027344
320,192,61762,2,0,P|320:152|324:112,1,71.9999978027344,8|0,0:0|0:0,0:0:0:0:
200,152,61981,2,0,P|152:152|120:160,1,71.9999978027344
240,60,62200,1,10,0:1:0:0:
240,60,62310,2,0,P|292:80|376:56,1,143.999995605469,2|0,0:1|0:0,0:0:0:0:
496,160,62638,2,0,P|460:148|412:144,1,71.9999978027344,8|0,0:0|0:0,0:0:0:0:
340,256,62857,1,0,0:0:0:0:
440,244,62967,1,0,0:0:0:0:
328,156,63076,2,2,P|332:120|348:76,1,71.9999978027344,10|0,0:1|0:0,0:1:0:0:
248,216,63295,6,0,P|264:268|272:308,1,71.9999978027344
180,144,63514,2,0,P|216:120|244:88,1,71.9999978027344,8|0,0:0|0:0,0:0:0:0:
80,228,63733,2,0,P|124:232|156:244,1,71.9999978027344
8,160,63952,1,10,0:1:0:0:
8,160,64062,2,0,P|72:124|104:56,1,143.999995605469,2|0,0:1|0:0,0:0:0:0:
80,228,64390,2,0,P|92:272|96:320,1,71.9999978027344,8|0,0:0|0:0,0:0:0:0:
152,156,64609,1,0,0:0:0:0:
252,144,64719,1,0,0:0:0:0:
336,200,64828,2,2,P|344:240|348:280,1,71.9999978027344,10|0,0:1|0:0,0:1:0:0:
236,328,65047,6,0,L|244:252,1,71.9999978027344
432,144,65266,2,0,L|444:224,1,71.9999978027344,8|0,0:0|0:0,0:0:0:0:
252,144,65485,2,0,L|344:136,1,71.9999978027344
160,196,65704,1,10,0:1:0:0:
128,100,65813,1,2,0:1:0:0:
96,4,65923,70,8,B|136:4|136:4|180:12,1,80,8|8,0:1|0:1,0:1:0:0:
416,120,66142,2,8,B|376:132|376:132|328:132,1,80,8|8,0:1|0:1,0:1:0:0:
120,204,66361,2,8,B|160:204|160:204|204:212,1,80
396,312,66580,2,8,B|356:324|356:324|304:324,1,80
152,312,66809,37,4,0:0:0:0:
344,216,66918,1,2,0:1:0:0:
120,204,67027,1,10,0:1:0:0:
300,320,67137,5,10,0:1:0:0:
40,288,67246,1,8,0:1:0:0:
236,228,67356,1,2,0:1:0:0:
92,96,67465,85,8,0:0:0:0:
152,312,67575,1,2,0:1:0:0:
256,116,67684,5,0,0:0:0:0:
120,204,67794,1,2,0:1:0:0:
236,228,67903,1,2,0:1:0:0:
140,92,68013,1,2,0:1:0:0:
344,188,68122,85,8,0:0:0:0:
152,312,68232,1,2,0:1:0:0:
240,144,68341,1,8,0:0:0:0:
268,304,68451,1,2,0:1:0:0:
140,128,68561,54,2,L|320:100,1,160,6|8,0:0|0:0,0:0:0:0:
400,116,68888,1,0,0:0:0:0:
340,200,68997,2,0,L|256:216,2,80,0|0|8,0:0|0:0|0:0,0:0:0:0:
432,252,69324,2,2,P|424:300|336:360,1,160,2|0,0:0|0:0,0:0:0:0:
176,260,69651,2,2,P|248:244|344:264,1,160,10|0,0:0|0:0,0:0:0:0:
260,144,69979,2,2,P|244:96|240:48,1,80,2|8,0:0|0:0,0:0:0:0:
344,80,70197,1,0,0:0:0:0:
192,224,70306,6,2,P|76:208|48:160,1,160,2|8,0:0|0:0,0:0:0:0:
148,132,70633,1,0,0:0:0:0:
288,180,70742,2,0,P|292:224|288:268,1,80
192,224,70961,1,8,0:0:0:0:
244,84,71070,2,2,B|300:76|300:76|352:88|352:88|404:80,1,160,2|0,0:0|0:0,0:0:0:0:
288,180,71397,2,2,P|316:268|380:296,1,160,10|0,0:0|0:0,0:0:0:0:
392,192,71724,1,2,0:0:0:0:
224,308,71833,2,0,P|176:308|144:296,1,80,8|0,0:0|0:0,0:0:0:0:
64,160,72051,6,2,P|141:155|204:208,1,160,2|8,0:0|0:0,0:0:0:0:
108,252,72379,1,0,0:0:0:0:
140,108,72488,2,0,P|160:64|188:28,2,80,0|0|8,0:0|0:0|0:0,0:0:0:0:
244,120,72815,2,2,P|312:112|368:36,1,160,2|0,0:0|0:0,0:0:0:0:
332,212,73142,2,2,P|392:240|488:208,1,160,10|0,0:0|0:0,0:0:0:0:
276,344,73470,2,2,P|254:310|244:272,1,80,2|8,0:0|0:0,0:0:0:0:
236,168,73688,1,0,0:0:0:0:
369,114,73797,70,2,P|333:158|225:162,1,160,2|8,0:0|0:0,0:0:0:0:
276,72,74124,1,0,0:0:0:0:
416,204,74233,2,0,L|512:208,1,80
369,114,74451,1,8,0:0:0:0:
296,188,74561,2,2,B|272:220|272:220|280:352,1,160,2|0,0:0|0:0,0:0:0:0:
176,180,74888,2,2,B|200:148|200:148|192:16,1,160,10|0,0:0|0:0,0:0:0:0:
72,176,75215,2,2,B|76:216|76:216|100:252,2,80,2|8|0,0:0|0:0|0:0,0:0:0:0:
176,180,75542,6,2,P|212:200|320:160,1,160,6|8,0:0|0:0,0:0:0:0:
328,60,75870,1,0,0:0:0:0:
228,24,75979,2,0,L|128:32,1,80
328,60,76197,1,8,0:0:0:0:
420,12,76306,2,2,P|440:72|424:176,1,160,2|0,0:0|0:0,0:0:0:0:
340,252,76633,2,2,P|400:220|492:224,1,160,10|0,0:0|0:0,0:0:0:0:
264,176,76961,2,2,P|224:188|176:192,1,80,2|8,0:0|0:0,0:0:0:0:
324,92,77179,1,0,0:0:0:0:
340,252,77288,6,2,P|268:288|184:288,1,160,2|8,0:0|0:0,0:0:0:0:
104,228,77615,1,0,0:0:0:0:
24,296,77724,2,0,L|28:380,2,80,0|0|8,0:0|0:0|0:0,0:0:0:0:
8,192,78051,2,2,P|56:140|148:136,1,160,2|0,0:0|0:0,0:0:0:0:
236,224,78379,2,2,P|284:236|380:184,1,160,10|0,0:0|0:0,0:0:0:0:
304,56,78706,2,2,P|293:94|288:134,1,80,2|8,0:0|0:0,0:0:0:0:
352,324,78924,1,0,0:0:0:0:
432,260,79047,70,2,P|388:232|276:252,1,160,6|8,0:0|0:0,0:0:0:0:
224,332,79375,1,0,0:0:0:0:
152,256,79484,2,0,L|144:172,1,80
52,228,79703,1,8,0:0:0:0:
108,348,79813,2,2,B|160:356|160:356|272:316,1,160,2|0,0:0|0:0,0:0:0:0:
444,292,80141,2,2,B|364:280|364:280|300:216,1,160,10|0,0:0|0:0,0:0:0:0:
404,116,80470,2,2,B|416:156|416:156|412:200,1,80,2|8,0:0|0:0,0:0:0:0:
304,108,80689,1,0,0:0:0:0:
264,12,80798,6,2,B|308:0|348:16|348:16|384:28|428:16,1,160,2|8,0:0|0:0,0:0:0:0:
304,108,81127,1,0,0:0:0:0:
200,96,81236,2,0,P|168:52|156:12,1,80
264,12,81455,1,8,0:0:0:0:
244,188,81565,2,2,P|188:196|100:128,1,160,2|0,0:0|0:0,0:0:0:0:
304,108,81893,2,2,P|340:164|320:256,1,160,10|0,0:0|0:0,0:0:0:0:
176,264,82222,1,10,0:0:0:0:
244,188,82331,1,8,0:0:0:0:
228,348,82441,1,8,0:0:0:0:
72,270,82566,6,2,P|101:197|172:164,1,160,6|8,0:0|0:0,0:0:0:0:
480,228,83004,2,0,P|451:301|380:334,1,160,0|8,0:0|0:0,0:0:0:0:
72,270,83442,1,0,0:0:0:0:
136,188,83552,1,2,0:0:0:0:
240,200,83661,1,8,0:0:0:0:
284,292,83770,1,2,0:0:0:0:
136,188,83880,69,0,0:0:0:0:
304,120,83989,1,2,0:0:0:0:
176,280,84099,1,10,0:0:0:0:
104,92,84208,6,8,B|176:100|176:100|264:72,1,160,6|0,0:0|0:0,0:0:0:0:
354,116,84537,2,0,P|413:168|492:172,1,160,8|0,0:0|0:0,0:0:0:0:
448,76,84865,1,0,0:0:0:0:
412,220,84975,2,0,P|420:272|440:308,1,80,8|0,0:0|0:0,0:0:0:0:
504,372,85194,5,2,0:0:0:0:
328,292,85303,1,2,0:0:0:0:
431,296,85413,1,8,0:0:0:0:
260,368,85522,1,2,0:0:0:0:
312,184,85632,69,2,0:0:0:0:
424,332,85741,1,2,0:0:0:0:
228,248,85851,1,8,0:0:0:0:
412,180,85960,6,2,P|376:112|288:88,1,160,6|0,0:0|0:0,0:0:0:0:
216,148,86289,2,0,P|200:64|244:0,1,160,8|0,0:0|0:0,0:0:0:0:
312,184,86617,1,0,0:0:0:0:
232,248,86727,2,0,P|184:264|136:264,1,80,8|0,0:0|0:0,0:0:0:0:
60,148,86946,5,2,0:0:0:0:
154,265,87055,1,0,0:0:0:0:
164,160,87165,1,10,0:0:0:0:
50,253,87274,1,2,0:0:0:0:
220,324,87383,69,2,0:0:0:0:
164,160,87493,1,0,0:0:0:0:
48,288,87603,1,10,0:0:0:0:
248,224,87712,6,2,B|300:228|300:228|348:252|348:252|404:256,1,160,6|0,0:0|0:0,0:0:0:0:
268,324,88041,2,2,P|200:312|144:240,1,160,10|0,0:0|0:0,0:0:0:0:
200,120,88369,2,2,L|296:128,2,80,2|8|0,0:0|0:0|0:0,0:0:0:0:
301,29,88697,6,2,P|365:74|376:152,1,160,2|8,0:0|0:0,0:0:0:0:
236,292,89026,2,2,P|220:232|220:196,1,80,2|0,0:0|0:0,0:0:0:0:
320,232,89245,1,8,0:0:0:0:
136,296,89354,1,10,0:0:0:0:
304,368,89464,1,8,0:0:0:0:
224,184,89573,70,2,B|232:144|232:144|224:108|224:108|240:64|232:24,1,160,6|8,0:0|0:0,0:0:0:0:
232,27,90011,1,2,0:0:0:0:
128,140,90121,1,0,0:0:0:0:
120,31,90230,1,10,0:0:0:0:
240,136,90340,6,2,B|280:140|280:140|316:128|316:128|360:144|404:136,1,167.999994873047,6|0,0:0|0:0,0:0:0:0:
344,225,90668,2,0,B|355:266|355:266|380:302,1,83.9999974365235,8|0,0:0|0:0,0:0:0:0:
404,135,90887,1,2,0:0:0:0:
296,48,90997,1,0,0:0:0:0:
424,0,91106,1,10,0:0:0:0:
272,176,91216,6,2,B|232:184|232:184|196:168|196:168|152:184|100:176,1,176.000005371094,6|0,0:0|0:0,0:0:0:0:
182,259,91544,2,0,P|180:305|168:345,1,88.000002685547,8|0,0:0|0:0,0:0:0:0:
101,176,91763,1,2,0:0:0:0:
296,256,91873,1,0,0:0:0:0:
72,285,91982,1,10,0:0:0:0:
236,76,92092,70,2,B|284:64|328:84|328:84|372:100|420:92,1,184.000003509522,6|0,0:0|0:0,0:0:0:0:
272,176,92420,2,2,P|248:232|308:340,1,184.000003509522,10|0,0:0|0:0,0:0:0:0:
444,244,92749,2,2,P|384:236|352:244,1,92.0000017547608,2|8,0:0|0:0,0:0:0:0:
176,344,92968,6,2,P|80:312|48:236,1,184.000003509522,6|0,0:0|0:0,0:0:0:0:
168,104,93296,2,0,B|304:116|304:116|260:144,1,184.000003509522,8|0,0:0|0:0,0:0:0:0:
144,200,93624,1,0,0:0:0:0:
72,128,93734,2,0,L|64:32,1,92.0000017547608,8|0,0:0|0:0,0:0:0:0:
263,141,93953,2,0,L|271:237,1,92.0000017547608
126,290,94172,2,0,L|146:186,1,92.0000017547608,8|0,0:0|0:0,0:0:0:0:
336,312,94391,2,0,B|296:332|296:332|236:332,1,92.0000017547608
372,212,94610,2,0,B|419:212|419:212|459:232,1,92.0000017547608,8|0,0:0|0:0,0:0:0:0:
336,312,94829,21,12,0:0:0:0:
404,112,94938,1,10,0:1:0:0:
196,152,95048,1,10,0:1:0:0:
336,192,95157,5,10,0:1:0:0:
200,56,95267,1,8,0:0:0:0:
148,240,95376,1,2,0:1:0:0:
280,112,95486,85,8,0:0:0:0:
48,176,95595,1,2,0:1:0:0:
184,328,95705,1,0,0:0:0:0:
164,144,95814,5,2,0:1:0:0:
408,196,95924,1,2,0:1:0:0:
240,252,96033,1,2,0:1:0:0:
320,140,96142,85,8,0:0:0:0:
328,312,96252,1,2,0:1:0:0:
483,267,96362,1,8,0:0:0:0:
324,224,96471,1,2,0:1:0:0:
480,120,96580,54,2,P|504:164|480:272,1,160,6|8,0:0|0:0,0:0:0:0:
408,196,96909,1,0,0:0:0:0:
376,96,97019,2,0,P|404:48|432:24,1,80
408,196,97238,1,8,0:0:0:0:
272,120,97347,2,2,P|216:104|112:128,1,160,2|0,0:0|0:0,0:0:0:0:
44,260,97676,2,2,P|100:276|204:252,1,160,10|0,0:0|0:0,0:0:0:0:
324,260,98004,2,2,P|348:320|352:352,1,80,2|8,0:0|0:0,0:0:0:0:
220,236,98223,1,0,0:0:0:0:
292,160,98333,6,2,P|356:144|464:176,1,160,2|8,0:0|0:0,0:0:0:0:
324,260,98661,1,0,0:0:0:0:
220,236,98770,2,0,P|192:192|184:152,2,80,0|0|8,0:0|0:0|0:0,0:0:0:0:
240,76,99099,2,2,B|196:52|196:52|136:44|96:92,1,160,2|0,0:0|0:0,0:0:0:0:
292,160,99427,2,2,B|336:136|336:136|396:128|436:176,1,160,10|0,0:0|0:0,0:0:0:0:
220,236,99756,2,2,B|180:228|180:228|128:236,1,80,2|8,0:0|0:0,0:0:0:0:
276,320,99975,1,0,0:0:0:0:
348,244,100084,6,2,P|360:120|348:80,1,160,2|8,0:0|0:0,0:0:0:0:
272,20,100413,1,0,0:0:0:0:
188,80,100522,2,0,P|145:84|100:80,1,80
240,172,100741,1,8,0:0:0:0:
324,108,100851,2,2,P|372:96|488:140,1,160,2|0,0:0|0:0,0:0:0:0:
336,212,101179,2,2,P|272:200|216:120,1,160,10|0,0:0|0:0,0:0:0:0:
208,280,101508,2,2,P|216:328|216:372,2,80,2|8|0,0:0|0:0|0:0,0:0:0:0:
52,220,101836,70,2,P|52:296|124:336,1,160,2|8,0:0|0:0,0:0:0:0:
156,192,102165,1,0,0:0:0:0:
84,120,102274,2,0,P|36:120|4:128,1,80
52,220,102493,1,8,0:0:0:0:
188,92,102603,2,2,P|244:140|248:232,1,160,2|0,0:0|0:0,0:0:0:0:
172,344,102931,2,2,P|248:324|344:364,1,160,10|0,0:0|0:0,0:0:0:0:
476,304,103260,1,2,0:0:0:0:
380,264,103369,2,0,P|368:220|364:176,1,80,8|0,0:0|0:0,0:0:0:0:
480,88,103588,6,2,B|428:96|428:96|376:80|376:80|320:88,1,160,6|8,0:0|0:0,0:0:0:0:
260,168,103916,1,0,0:0:0:0:
364,185,104026,2,0,L|444:177,1,80
324,88,104245,1,8,0:0:0:0:
220,72,104354,2,2,L|52:88,1,160,2|0,0:0|0:0,0:0:0:0:
260,168,104683,2,2,B|308:140|308:140|340:24,1,160,10|0,0:0|0:0,0:0:0:0:
160,156,105011,2,2,B|164:196|164:196|184:240,1,80,2|8,0:0|0:0,0:0:0:0:
280,264,105230,1,0,0:0:0:0:
310,166,105340,6,2,P|232:173|180:232,1,160,2|8,0:0|0:0,0:0:0:0:
380,240,105668,1,0,0:0:0:0:
448,160,105778,2,0,P|444:116|432:80,1,80
344,140,105997,1,8,0:0:0:0:
480,256,106106,2,2,P|432:328|364:340,1,160,2|0,0:0|0:0,0:0:0:0:
168,256,106435,2,2,B|204:232|204:232|320:248,1,160,10|0,0:0|0:0,0:0:0:0:
232,336,106763,1,2,0:0:0:0:
132,352,106873,2,0,L|44:340,1,80,8|0,0:0|0:0,0:0:0:0:
168,256,107085,70,2,P|172:184|128:96,1,160,6|8,0:0|0:0,0:0:0:0:
36,76,107414,1,0,0:0:0:0:
216,172,107523,2,0,P|264:168|304:156,1,80
136,104,107743,1,8,0:0:0:0:
80,192,107852,2,2,P|72:268|116:348,1,160,2|0,0:0|0:0,0:0:0:0:
224,268,108181,2,2,P|296:252|380:280,1,160,10|0,0:0|0:0,0:0:0:0:
484,356,108510,2,2,P|472:308|472:260,1,80,2|8,0:0|0:0,0:0:0:0:
508,180,108730,1,0,0:0:0:0:
420,124,108840,6,2,P|368:152|260:136,1,160,2|8,0:0|0:0,0:0:0:0:
360,40,109169,1,0,0:0:0:0:
468,28,109278,2,0,L|448:112,1,80
404,280,109498,1,8,0:0:0:0:
348,192,109607,2,2,P|420:180|496:232,1,160,2|0,0:0|0:0,0:0:0:0:
300,284,109936,2,2,B|260:288|224:268|224:268|188:248|144:252,1,160,10|0,0:0|0:0,0:0:0:0:
168,352,110265,1,8,0:0:0:0:
316,280,110375,1,8,0:0:0:0:
132,256,110485,1,8,0:0:0:0:
284,184,110595,6,2,P|304:112|296:16,1,160,6|8,0:0|0:0,0:0:0:0:
8,192,111033,2,0,P|2:271|23:348,1,160,0|8,0:0|0:0,0:0:0:0:
284,184,111471,1,0,0:0:0:0:
269,79,111581,1,2,0:0:0:0:
175,38,111690,1,8,0:0:0:0:
91,101,111799,1,2,0:0:0:0:
284,184,111909,69,0,0:0:0:0:
175,38,112018,1,2,0:0:0:0:
168,176,112128,1,10,0:0:0:0:
296,48,112238,6,2,B|376:32|376:32|463:61,1,160,6|0,0:0|0:0,0:0:0:0:
270,152,112566,2,0,B|222:136|222:136|170:28,1,160,8|0,0:0|0:0,0:0:0:0:
296,48,112895,1,2,0:0:0:0:
372,120,113004,1,8,0:0:0:0:
270,152,113114,1,2,0:0:0:0:
396,20,113223,6,2,B|436:16|436:16|488:32,1,80,0|2,0:0|0:0,0:0:0:0:
504,216,113442,2,2,B|464:220|464:220|412:204,1,80,8|0,0:0|0:0,0:0:0:0:
296,48,113661,1,0,0:0:0:0:
472,120,113770,1,2,0:0:0:0:
320,236,113880,1,10,0:0:0:0:
364,136,113989,70,2,P|412:184|420:288,1,160,6|0,0:0|0:0,0:0:0:0:
256,148,114318,2,0,P|196:188|104:188,1,160,8|0,0:0|0:0,0:0:0:0:
192,64,114646,1,0,0:0:0:0:
296,48,114756,2,0,L|388:68,1,80,8|0,0:0|0:0,0:0:0:0:
256,148,114975,5,0,0:0:0:0:
92,100,115084,1,2,0:0:0:0:
192,64,115193,1,8,0:0:0:0:
100,204,115303,1,2,0:0:0:0:
256,148,115413,5,0,0:0:0:0:
92,100,115522,1,2,0:0:0:0:
200,232,115632,1,10,0:0:0:0:
192,64,115741,70,2,L|24:32,1,160,6|0,0:0|0:0,0:0:0:0:
100,204,116070,2,0,P|144:240|256:224,1,160,8|0,0:0|0:0,0:0:0:0:
188,144,116398,1,0,0:0:0:0:
92,100,116508,2,0,P|52:112|16:136,1,80,8|0,0:0|0:0,0:0:0:0:
188,144,116726,5,2,0:0:0:0:
272,80,116836,1,0,0:0:0:0:
176,36,116946,1,12,0:0:0:0:
176,36,117164,5,8,0:0:0:0:
284,188,117274,1,8,0:0:0:0:
100,204,117383,1,8,0:0:0:0:
272,80,117493,1,8,0:0:0:0:
196,252,117602,70,2,B|176:314|209:377|209:377|234:349,1,160,6|8,0:0|0:0,0:0:0:0:
229,355,118040,1,2,0:0:0:0:
284,188,118149,1,0,0:0:0:0:
196,252,118259,1,10,0:0:0:0:
316,292,118369,6,2,B|380:324|452:300|452:300|412:280,1,167.999994873047,6|0,0:0|0:0,0:0:0:0:
210,274,118697,2,0,P|214:315|229:355,1,83.9999974365235,8|0,0:0|0:0,0:0:0:0:
426,287,118916,1,2,0:0:0:0:
284,188,119025,1,0,0:0:0:0:
428,88,119135,1,10,0:0:0:0:
316,292,119244,6,2,B|252:324|181:296|181:296|212:273,1,176.000005371094,6|0,0:0|0:0,0:0:0:0:
417,258,119573,2,0,P|419:304|408:344,1,88.000002685547,8|0,0:0|0:0,0:0:0:0:
210,274,119792,1,2,0:0:0:0:
360,172,119901,1,0,0:0:0:0:
273,364,120011,1,10,0:0:0:0:
280,104,120120,70,2,P|356:68|448:116,1,184.000003509522,6|0,0:0|0:0,0:0:0:0:
264,204,120449,2,2,P|184:140|192:52,1,184.000003509522,10|0,0:0|0:0,0:0:0:0:
360,172,120777,2,2,P|360:224|344:268,1,92.0000017547608,2|8,0:0|0:0,0:0:0:0:
164,340,120996,6,2,B|124:324|124:324|88:264|112:188,1,184.000003509522,6|0,0:0|0:0,0:0:0:0:
280,104,121325,2,0,P|340:140|444:108,1,184.000003509522,8|0,0:0|0:0,0:0:0:0:
364,40,121654,1,0,0:0:0:0:
264,208,121763,2,0,B|260:252|260:252|272:304,1,92.0000017547608,8|0,0:0|0:0,0:0:0:0:
436,372,121982,6,2,P|440:284|356:248,1,184.000003509522,2|8,0:0|0:0,0:0:0:0:
270,298,122311,1,0,0:0:0:0:
172,256,122420,2,0,P|160:204|168:160,1,92.0000017547608
364,16,122639,2,0,P|376:68|368:112,1,92.0000017547608,12|0,0:0|0:0,0:0:0:0:
264,208,122858,5,8,1:0:0:0:
240,164,122931,1,0,0:0:0:0:
240,112,123004,1,0,0:0:0:0:
264,68,123077,1,0,0:0:0:0:
228,32,123150,1,0,0:0:0:0:
176,24,123223,1,0,0:0:0:0:
128,44,123296,1,8,0:1:0:0:
96,84,123369,1,0,0:0:0:0:
96,136,123442,1,0,0:0:0:0:
120,180,123515,1,8,0:0:0:0:
124,232,123588,1,0,0:0:0:0:
100,276,123661,1,0,0:0:0:0:
56,304,123734,5,0,0:2:0:0:
112,290,123807,1,0,0:0:0:0:
167,306,123880,1,8,0:1:0:0:
205,348,123953,1,0,0:0:0:0:
255,321,124026,1,0,0:0:0:0:
312,323,124099,1,0,0:0:0:0:
360,354,124172,1,8,0:0:0:0:
402,314,124245,1,8,0:0:0:0:
415,258,124318,1,0,0:0:0:0:
400,202,124391,1,8,0:0:0:0:
360,160,124464,1,0,0:0:0:0:
303,148,124537,1,0,0:0:0:0:
248,164,124610,38,2,P|184:144|148:36,1,176.000005371094,6|8,0:0|0:0,0:0:0:0:
252,60,124938,1,0,0:0:0:0:
104,188,125047,2,2,P|104:236|116:284,1,88.000002685547,2|0,0:0|0:0,0:0:0:0:
288,276,125266,1,8,0:0:0:0:
356,196,125376,2,2,P|284:172|200:220,1,176.000005371094,2|0,0:0|0:0,0:0:0:0:
400,296,125704,2,0,B|436:272|436:272|456:228,1,88.000002685547,8|0,0:0|0:0,0:0:0:0:
376,60,125923,1,2,0:0:0:0:
356,196,126033,1,0,0:0:0:0:
472,100,126142,1,8,0:0:0:0:
340,44,126252,6,2,L|160:40,1,176.000005371094,2|0,0:0|0:0,0:0:0:0:
20,132,126580,2,0,L|120:120,1,88.000002685547,8|0,0:0|0:0,0:0:0:0:
252,168,126799,1,2,0:0:0:0:
164,40,126909,1,0,0:0:0:0:
124,216,127018,1,8,0:0:0:0:
260,128,127128,2,2,P|339:111|432:148,1,176.000005371094,2|0,0:0|0:0,0:0:0:0:
232,228,127456,1,8,0:0:0:0:
156,104,127566,2,2,P|164:56|184:16,1,88.000002685547,2|0,0:0|0:0,0:0:0:0:
356,68,127784,2,2,P|368:116|365:165,1,88.000002685547,2|8,0:0|0:0,0:0:0:0:
312,300,128003,1,0,0:0:0:0:
312,300,128113,6,2,B|262:276|262:276|140:292,1,176.000005371094,2|8,0:0|0:0,0:0:0:0:
212,372,128441,1,0,0:0:0:0:
178,192,128551,2,2,B|80:204,1,88.000002685547,2|0,0:0|0:0,0:0:0:0:
239,279,128770,1,8,0:0:0:0:
332,228,128879,2,2,P|352:144|328:48,1,176.000005371094,2|0,0:0|0:0,0:0:0:0:
212,180,129208,2,0,P|192:128|192:84,1,88.000002685547,8|0,0:0|0:0,0:0:0:0:
296,120,129427,1,2,0:0:0:0:
272,264,129536,1,0,0:0:0:0:
360,204,129646,1,8,0:0:0:0:
212,180,129755,70,2,P|132:196|92:280,1,176.000005371094,2|0,0:0|0:0,0:0:0:0:
272,264,130084,2,0,P|344:280|428:208,1,176.000005371094,8|0,0:0|0:0,0:0:0:0:
328,180,130412,1,2,0:0:0:0:
388,320,130522,1,8,0:0:0:0:
248,248,130631,1,2,0:0:0:0:
432,204,130741,2,2,B|456:152|444:92|444:92|420:64|380:60,1,176.000005371094,2|8,0:0|0:0,0:0:0:0:
244,108,131069,2,2,P|220:172|220:212,1,88.000002685547,2|0,0:0|0:0,0:0:0:0:
348,312,131289,2,2,P|332:248|312:216,1,88.000002685547,2|8,0:0|0:0,0:0:0:0:
116,172,131507,1,2,0:0:0:0:
87,273,131611,6,2,P|147:273|219:177,1,176.000005371094,6|8,0:0|0:0,0:0:0:0:
184,88,131940,1,0,0:0:0:0:
30,163,132050,2,2,P|86:175|130:167,1,88.000002685547,2|0,0:0|0:0,0:0:0:0:
288,112,132270,1,8,0:0:0:0:
184,16,132380,2,2,L|217:190,1,176.000005371094,2|0,0:0|0:0,0:0:0:0:
128,352,132709,2,0,L|152:264,1,88.000002685547,8|0,0:0|0:0,0:0:0:0:
328,288,132929,1,2,0:0:0:0:
216,188,133039,1,0,0:0:0:0:
240,344,133149,1,8,0:0:0:0:
364,268,133259,6,2,B|500:256|500:256|464:284,1,176.000005371094,2|0,0:0|0:0,0:0:0:0:
368,164,133586,2,0,L|352:68,1,88.000002685547,8|0,0:0|0:0,0:0:0:0:
496,12,133805,2,0,L|488:116,1,88.000002685547
372,192,134024,1,8,0:0:0:0:
348,48,134133,1,2,0:0:0:0:
476,204,134243,2,2,P|456:256|344:292,1,176.000005371094,2|8,0:0|0:0,0:0:0:0:
196,199,134571,2,2,L|376:191,1,176.000005371094,0|2,0:0|0:0,0:0:0:0:
272,64,134899,2,0,B|260:108|260:108|272:156,1,88.000002685547,8|0,0:0|0:0,0:0:0:0:
228,296,135118,70,2,P|168:240|60:256,1,176.000005371094,6|8,0:0|0:0,0:0:0:0:
128,336,135446,2,0,B|150:306|150:306|172:168,1,176.000005371094
60,32,135775,2,0,B|64:76|64:76|84:124,1,88.000002685547,8|0,0:0|0:0,0:0:0:0:
237,91,135993,2,2,P|153:72|79:116,1,176.000005371094,2|8,0:0|0:0,0:0:0:0:
276,188,136322,1,0,0:0:0:0:
344,104,136431,2,0,L|448:92,1,88.000002685547
312,288,136650,2,0,L|224:277,1,88.000002685547,8|0,0:0|0:0,0:0:0:0:
384,204,136869,5,2,0:0:0:0:
420,308,136978,1,0,0:0:0:0:
276,188,137087,1,12,0:0:0:0:
344,104,137197,1,0,0:0:0:0:
312,288,137306,5,0,0:0:0:0:
236,180,137416,1,0,0:0:0:0:
424,212,137525,2,0,P|440:260|444:308,1,88.000002685547,12|0,0:0|0:0,0:0:0:0:
338,148,137744,69,10,0:0:0:0:
512,153,137853,1,8,0:0:0:0:
373,18,137963,1,8,0:0:0:0:
424,212,138072,2,2,P|372:248|336:256,1,88.000002685547,10|0,0:0|0:0,0:0:0:0:
282,81,138291,2,0,P|316:108|337:147,1,88.000002685547,2|8,0:0|0:3,0:0:0:0:
264,316,138510,1,0,0:0:0:0:
164,276,138619,6,2,B|144:216|168:164|168:164|152:140|148:104,1,176.000005371094,6|8,0:0|0:0,0:0:0:0:
64,176,138947,1,0,0:0:0:0:
252,100,139056,2,2,P|264:40|260:4,1,88.000002685547,2|0,0:0|0:0,0:0:0:0:
148,108,139275,1,8,0:0:0:0:
256,200,139384,2,2,P|328:208|424:144,1,176.000005371094,2|0,0:0|0:0,0:0:0:0:
176,276,139713,2,0,P|152:224|148:180,1,88.000002685547,8|0,0:0|0:0,0:0:0:0:
264,64,139931,1,2,0:0:0:0:
124,100,140041,1,0,0:0:0:0:
256,200,140150,1,8,0:0:0:0:
88,108,140260,6,2,P|44:180|68:264,1,176.000005371094,2|0,0:0|0:0,0:0:0:0:
264,286,140588,2,0,P|264:242|255:199,1,88.000002685547,8|0,0:0|0:0,0:0:0:0:
96,360,140807,2,0,L|200:356,1,88.000002685547
372,280,141026,1,8,0:0:0:0:
372,280,141135,1,2,0:0:0:0:
280,224,141244,2,2,P|264:288|328:376,1,176.000005371094,2|8,0:0|0:0,0:0:0:0:
468,316,141573,2,2,B|472:272|472:272|460:220,1,88.000002685547,2|0,0:0|0:0,0:0:0:0:
360,92,141791,2,2,B|356:136|356:136|368:188,1,88.000002685547,2|8,0:0|0:0,0:0:0:0:
460,128,142010,1,2,0:0:0:0:
269,52,142120,70,2,B|256:140|256:140|280:224,1,176.000005371094,2|8,0:0|0:0,0:0:0:0:
176,212,142448,1,0,0:0:0:0:
156,112,142557,2,2,L|172:16,1,88.000002685547,2|0,0:0|0:0,0:0:0:0:
76,180,142776,1,8,0:0:0:0:
256,140,142885,2,2,L|436:100,1,176.000005371094,2|0,0:0|0:0,0:0:0:0:
368,252,143214,2,0,B|360:296|360:296|368:348,1,88.000002685547,8|0,0:0|0:0,0:0:0:0:
456,200,143433,1,2,0:0:0:0:
272,260,143542,1,0,0:0:0:0:
460,300,143651,1,8,0:0:0:0:
312,164,143761,6,2,P|296:96|352:12,1,176.000005371094,2|0,0:0|0:0,0:0:0:0:
368,252,144088,2,0,B|332:264|332:264|180:256,1,176.000005371094,8|0,0:0|0:0,0:0:0:0:
260,24,144416,1,2,0:0:0:0:
323,187,144526,1,8,0:0:0:0:
172,104,144635,1,2,0:0:0:0:
392,92,144744,2,2,P|433:150|416:268,1,176.000005371094,2|8,0:0|0:0,0:0:0:0:
236,194,145072,2,2,L|344:186,1,88.000002685547,2|0,0:0|0:0,0:0:0:0:
140,240,145291,2,2,L|32:232,1,88.000002685547,2|8,0:0|0:0,0:0:0:0:
148,136,145509,1,2,0:0:0:0:
228,296,145618,6,2,B|292:292|292:292|348:312|348:312|408:308,1,176.000005371094,6|8,0:0|0:0,0:0:0:0:
364,208,145946,1,0,0:0:0:0:
256,196,146055,2,2,L|160:204,1,88.000002685547,2|0,0:0|0:0,0:0:0:0:
320,112,146274,1,8,0:0:0:0:
364,208,146384,2,2,P|368:280|304:360,1,176.000005371094,2|0,0:0|0:0,0:0:0:0:
468,216,146712,2,0,P|456:164|432:124,1,88.000002685547,8|0,0:0|0:0,0:0:0:0:
292,56,146931,1,2,0:0:0:0:
364,208,147041,1,0,0:0:0:0:
392,40,147150,1,8,0:0:0:0:
272,152,147260,70,2,B|208:176|134:152|134:152|150:141|168:136,1,176.000005371094,2|0,0:0|0:0,0:0:0:0:
368,104,147588,2,0,P|376:168|304:252,1,176.000005371094,8|0,0:0|0:0,0:0:0:0:
272,152,147917,1,0,0:0:0:0:
312,16,148026,2,2,P|368:4|408:4,1,88.000002685547,8|2,0:0|0:0,0:0:0:0:
216,64,148245,2,2,P|148:44|40:64,1,176.000005371094,2|8,0:0|0:0,0:0:0:0:
272,152,148574,2,2,P|340:144|436:80,1,176.000005371094,0|2,0:0|0:0,0:0:0:0:
168,156,148902,2,0,P|152:200|144:252,1,88.000002685547,8|0,0:0|0:0,0:0:0:0:
268,376,149121,6,2,B|300:344|300:344|304:272|252:224,1,176.000005371094,6|8,0:0|0:0,0:0:0:0:
72,300,149450,2,0,B|52:324|52:324|196:316,1,176.000005371094
356,244,149778,2,0,L|368:152,1,88.000002685547,8|0,0:0|0:0,0:0:0:0:
436,316,149997,2,2,B|400:340|400:340|344:356,1,88.000002685547,2|0,0:0|0:0,0:0:0:0:
176,208,150216,2,0,B|220:212|220:212|268:232,1,88.000002685547,8|0,0:0|0:0,0:0:0:0:
488,184,150435,2,0,B|444:184|444:184|400:172,1,88.000002685547
272,12,150654,1,8,0:0:0:0:
272,12,150873,5,2,0:0:0:0:
208,96,150982,1,0,0:0:0:0:
312,108,151092,2,0,B|348:84|348:84|376:36,1,88.000002685547,12|0,0:0|0:0,0:0:0:0:
272,12,151311,69,0,0:0:0:0:
196,116,151420,1,0,0:0:0:0:
320,152,151530,2,0,B|360:132|360:132|392:96,1,88.000002685547,12|0,0:0|0:0,0:0:0:0:
272,12,151749,37,10,0:0:0:0:
184,136,151858,1,8,0:0:0:0:
352,224,151968,1,10,0:0:0:0:
320,76,152077,1,10,0:0:0:0:
228,260,152187,5,8,0:0:0:0:
412,168,152296,1,10,0:0:0:0:
264,132,152406,1,8,0:0:0:0:
412,296,152515,1,8,0:0:0:0:
508,112,152625,86,2,P|490:49|391:65,1,176.000005371094,2|12,0:0|0:0,0:0:0:0:
412,168,152953,1,2,0:0:0:0:
256,192,153008,12,0,156129,0:0:0:0:
116,204,165785,53,8,0:0:0:0:
228,224,165894,1,8,0:0:0:0:
308,140,166003,1,8,0:0:0:0:
116,204,166112,2,2,P|124:276|220:336,1,176.000005371094,10|10,0:0|0:0,0:0:0:0:
192,112,166440,2,2,L|180:16,1,88.000002685547,8|10,0:0|0:0,0:0:0:0:
308,140,166659,5,6,0:0:0:0:
60,88,166877,1,8,0:0:0:0:
308,28,167096,1,0,0:0:0:0:
400,84,167205,1,0,0:0:0:0:
308,140,167315,1,8,0:0:0:0:
60,88,167533,5,0,0:0:0:0:
308,28,167752,1,8,0:0:0:0:
240,272,167970,1,0,0:0:0:0:
216,168,168080,1,0,0:0:0:0:
344,300,168189,1,10,0:0:0:0:
268,376,168298,1,0,0:0:0:0:
320,196,168407,70,2,P|396:208|452:292,1,176.000005371094,2|8,0:0|0:0,0:0:0:0:
240,272,168735,2,2,B|188:248|188:248|52:268,1,176.000005371094,2|0,0:0|0:0,0:0:0:0:
232,160,169063,2,0,P|244:112|240:64,1,88.000002685547,8|0,0:0|0:0,0:0:0:0:
132,108,169282,6,0,L|320:88,1,176.000005371094,0|8,0:0|0:0,0:0:0:0:
400,160,169610,1,0,0:0:0:0:
332,252,169719,2,0,B|300:220|300:220|280:168,1,88.000002685547
400,160,169938,1,10,0:0:0:0:
424,352,170047,1,2,0:0:0:0:
244,280,170156,6,2,L|436:256,1,176.000005371094,2|8,0:0|0:0,0:0:0:0:
284,180,170483,2,2,P|264:128|260:88,1,88.000002685547,2|0,0:0|0:0,0:0:0:0:
428,28,170701,1,0,0:0:0:0:
488,124,170810,2,2,P|488:176|476:220,1,88.000002685547,10|0,0:0|0:0,0:0:0:0:
296,288,171028,70,2,P|216:252|132:284,1,176.000005371094,2|8,0:0|0:0,0:0:0:0:
300,176,171356,2,2,P|344:160|384:156,1,88.000002685547,2|0,0:0|0:0,0:0:0:0:
208,120,171574,1,0,0:0:0:0:
112,180,171683,2,2,P|100:132|100:84,1,88.000002685547,10|0,0:0|0:0,0:0:0:0:
200,244,171901,6,2,L|176:344,1,88.000002685547,2|0,0:0|0:0,0:0:0:0:
332,329,172119,2,0,L|312:244,1,88.000002685547,8|2,0:0|0:0,0:0:0:0:
168,140,172337,2,0,P|124:168|100:204,1,88.000002685547
408,196,172556,2,0,P|381:162|344:140,1,88.000002685547,8|0,0:0|0:0,0:0:0:0:
200,244,172774,5,0,0:0:0:0:
344,140,172883,1,0,0:0:0:0:
168,140,172992,1,8,0:0:0:0:
312,244,173101,1,0,0:0:0:0:
256,72,173210,69,0,0:0:0:0:
164,232,173319,1,0,0:0:0:0:
348,232,173428,1,8,0:0:0:0:
348,232,173659,6,0,L|416:240,2,58.6666684570313,6|0|0,0:0|0:0|0:0,0:0:0:0:
332,144,173877,2,0,L|392:112,2,58.6666684570313,8|0|0,0:0|0:0|0:0,0:0:0:0:
276,76,174096,2,2,P|180:72|120:132,1,176.000005371094,2|8,0:0|0:0,0:0:0:0:
224,176,174424,1,0,0:0:0:0:
168,24,174534,6,0,P|88:20|16:96,1,176.000005371094,0|8,0:0|0:0,0:0:0:0:
48,192,174862,1,0,0:0:0:0:
211,133,174971,2,0,L|111:121,1,88.000002685547
308,88,175190,1,10,0:0:0:0:
204,236,175299,1,0,0:0:0:0:
220,28,175409,70,2,L|404:52,1,176.000005371094,2|8,0:0|0:0,0:0:0:0:
460,144,175737,1,0,0:0:0:0:
356,192,175846,2,0,L|260:180,1,88.000002685547
380,304,176065,2,0,P|424:284|456:244,1,88.000002685547,8|0,0:0|0:0,0:0:0:0:
316,88,176284,6,2,P|264:132|256:248,1,176.000005371094,2|8,0:0|0:0,0:0:0:0:
368,344,176612,2,2,B|328:328|284:336|284:336|236:344|196:328,1,176.000005371094,2|0,0:0|0:0,0:0:0:0:
4,324,176940,2,2,P|52:304|96:300,1,88.000002685547,10|0,0:0|0:0,0:0:0:0:
100,76,177159,6,2,B|140:92|140:92|172:148|168:220,1,176.000005371094,6|8,0:0|0:0,0:0:0:0:
52,180,177487,1,0,0:0:0:0:
220,64,177597,2,0,P|280:56|320:60,1,88.000002685547
464,176,177815,2,0,P|408:160|376:136,1,88.000002685547,8|0,0:0|0:0,0:0:0:0:
272,200,178034,69,2,0:0:0:0:
284,228,178107,1,0,0:0:0:0:
288,256,178181,1,0,0:0:0:0:
284,284,178254,1,8,0:0:0:0:
272,312,178328,1,0,0:0:0:0:
252,332,178401,1,0,0:0:0:0:
224,344,178475,5,2,0:0:0:0:
204,316,178548,1,0,0:0:0:0:
175,297,178622,1,0,0:0:0:0:
142,288,178695,1,10,0:0:0:0:
111,304,178769,1,0,0:0:0:0:
78,314,178842,1,0,0:0:0:0:
40,316,178916,21,8,0:1:0:0:
24,268,178990,1,0,0:0:0:0:
32,216,179064,1,8,0:1:0:0:
64,176,179138,1,0,0:0:0:0:
72,124,179211,1,8,0:0:0:0:
56,76,179285,1,8,0:0:0:0:
72,28,179359,1,8,0:0:0:0:
116,4,179433,1,8,0:0:0:0:
168,8,179507,1,8,0:0:0:0:
200,48,179581,1,8,0:0:0:0:
200,96,179655,2,0,P|208:140|224:176,1,63.9999980468751,8|8,0:1|0:1,0:1:0:0:
296,144,179803,5,8,0:0:0:0:
312,96,179877,1,8,0:0:0:0:
312,48,179951,1,8,0:0:0:0:
344,8,180025,1,8,0:0:0:0:
396,4,180099,1,8,0:0:0:0:
440,28,180173,1,8,0:0:0:0:
456,76,180247,1,8,0:0:0:0:
440,124,180321,1,8,0:0:0:0:
448,176,180394,1,0,0:0:0:0:
480,216,180468,2,0,P|484:260|472:316,1,95.9999970703126,8|8,0:0|0:0,0:0:0:0:
376,352,180654,86,10,P|352:304|376:152,1,200,12|10,0:3|0:0,0:0:0:0:
268,92,180982,1,2,0:0:0:0:
164,152,181091,2,0,P|144:204|140:252,1,100
268,92,181310,2,0,P|224:52|172:32,1,100,8|0,0:0|0:0,0:0:0:0:
352,180,181529,6,0,P|384:128|392:84,1,100,2|0,0:2|0:0,0:0:0:0:
164,152,181747,2,0,P|100:144|60:124,1,100,8|0,0:0|0:0,0:0:0:0:
268,92,181966,1,0,0:0:0:0:
268,212,182076,1,0,0:0:0:0:
164,152,182185,1,8,0:0:0:0:
168,32,182294,1,0,0:0:0:0:
268,212,182404,86,0,B|264:260|264:260|240:312,1,100,2|0,0:2|0:0,0:0:0:0:
66,168,182623,2,0,B|116:168|116:168|163:152,1,100,8|0,0:0|0:0,0:0:0:0:
332,64,182841,2,0,B|384:64|384:64|440:84,1,100
212,40,183060,2,0,B|164:52|164:52|108:52,1,100,8|0,0:0|0:0,0:0:0:0:
310,160,183279,6,0,P|330:104|330:56,1,100
200,212,183498,1,8,0:0:0:0:
84,180,183607,2,2,P|40:124|72:8,1,200,2|0,0:0|0:0,0:0:0:0:
200,212,183935,2,0,P|208:264|204:316,1,100,8|0,0:0|0:0,0:0:0:0:
296,144,184154,86,0,P|280:88|276:40,1,100,2|0,0:2|0:0,0:0:0:0:
408,192,184373,2,0,P|376:232|324:264,1,100,8|0,0:0|0:0,0:0:0:0:
296,144,184592,1,0,0:0:0:0:
396,72,184701,1,0,0:0:0:0:
408,192,184810,1,8,0:0:0:0:
312,264,184920,1,0,0:0:0:0:
396,72,185029,6,0,P|444:48|496:36,1,100
296,144,185248,2,0,P|251:114|214:75,1,100,8|0,0:0|0:0,0:0:0:0:
408,192,185467,2,2,P|404:245|389:296,1,100,2|0,0:0|0:0,0:0:0:0:
157,252,185685,2,2,L|277:236,1,100,10|0,0:0|0:0,0:0:0:0:
221,344,185904,85,2,0:2:0:0:
92,168,186014,1,0,0:0:0:0:
24,376,186123,2,0,L|224:344,1,200,8|0,0:0|0:0,0:0:0:0:
376,252,186451,1,0,0:0:0:0:
256,238,186561,2,0,L|376:252,1,100,8|0,0:0|0:0,0:0:0:0:
168,168,186779,6,0,B|152:120|152:120|156:60,1,100
400,8,186998,2,0,B|403:57|403:57|387:105,1,100,8|0,0:0|0:0,0:0:0:0:
160,40,187217,1,2,0:2:0:0:
296,48,187326,1,0,0:0:0:0:
168,168,187436,1,8,0:0:0:0:
316,76,187545,1,0,0:0:0:0:
268,252,187654,86,0,B|220:272|220:272|52:256,1,200,4|8,0:3|0:0,0:0:0:0:
200,160,187983,1,0,0:0:0:0:
304,356,188092,2,0,L|412:368,1,100
472,200,188311,2,0,L|356:208,1,100,8|0,0:0|0:0,0:0:0:0:
170,236,188530,6,0,P|242:252|290:248,1,100
404,56,188748,2,0,P|340:56|296:72,1,100,8|0,0:0|0:0,0:0:0:0:
232,156,188967,1,0,0:0:0:0:
372,168,189076,1,0,0:0:0:0:
284,80,189186,1,8,0:0:0:0:
328,248,189295,1,0,0:0:0:0:
144,188,189405,86,0,L|256:176,1,100,2|0,0:2|0:0,0:0:0:0:
448,256,189623,2,0,L|336:248,1,100,8|0,0:0|0:0,0:0:0:0:
284,68,189842,2,0,B|328:96|328:96|356:152,1,100
240,280,190061,1,8,0:0:0:0:
243,177,190170,1,0,0:0:0:0:
344,336,190280,6,0,B|296:352|248:332|248:332|200:312|148:324,1,200,2|8,0:2|0:0,0:0:0:0:
300,232,190608,1,0,0:0:0:0:
168,120,190717,2,0,P|156:168|164:236,1,100
416,244,190936,2,0,P|404:184|384:148,1,100,8|0,0:0|0:0,0:0:0:0:
252,40,191164,86,0,P|308:44|368:40,1,100,2|0,0:2|0:0,0:0:0:0:
168,120,191382,2,0,P|143:69|110:19,1,100,8|0,0:0|0:0,0:0:0:0:
280,152,191601,2,0,P|248:198|222:252,1,100
16,212,191820,2,0,P|72:216|132:212,1,100,8|0,0:0|0:0,0:0:0:0:
332,276,192039,6,0,P|240:256|148:324,1,200,0|8,0:0|0:0,0:0:0:0:
260,372,192368,1,0,0:0:0:0:
340,164,192477,2,0,P|276:148|232:148,1,100
440,228,192696,2,0,P|484:196|516:156,1,100,8|0,0:0|0:0,0:0:0:0:
332,276,192915,86,0,B|352:324|352:324|392:368,1,100,2|0,0:2|0:0,0:0:0:0:
204,200,193134,2,0,B|184:248|184:248|144:292,1,100,8|0,0:0|0:0,0:0:0:0:
320,116,193353,2,0,B|348:156|348:156|400:188,1,100
228,24,193572,2,0,B|192:56|192:56|128:76,1,100,12|0,0:0|0:0,0:0:0:0:
320,116,193791,5,2,0:2:0:0:
204,200,193901,1,0,0:0:0:0:
332,276,194010,1,12,0:0:0:0:
188,348,194120,1,0,0:0:0:0:
380,264,194229,85,8,0:0:0:0:
156,208,194339,1,8,0:0:0:0:
340,152,194448,5,8,0:0:0:0:
228,376,194558,1,8,0:0:0:0:
84,176,194673,86,0,L|288:156,1,200,12|8,0:3|0:0,0:0:0:0:
440,264,195001,1,0,0:0:0:0:
340,328,195110,2,0,P|324:272|328:220,1,100
464,52,195329,2,0,P|480:104|480:156,1,100,8|0,0:0|0:0,0:0:0:0:
207,209,195548,6,0,P|264:130|360:117,1,200,2|8,0:2|0:0,0:0:0:0:
325,230,195877,1,0,0:0:0:0:
248,320,195986,2,0,B|200:324|200:324|140:308,1,100
440,264,196205,2,0,B|460:312|460:312|460:376,1,100,8|0,0:0|0:0,0:0:0:0:
262,132,196425,86,0,L|360:117,1,100,2|0,0:2|0:0,0:0:0:0:
148,192,196644,2,0,L|136:92,1,100,8|0,0:0|0:0,0:0:0:0:
256,264,196863,2,0,B|212:304|212:304|112:324|112:324|136:292,1,200,0|8,0:0|0:0,0:0:0:0:
262,132,197191,1,0,0:0:0:0:
396,276,197301,6,0,L|376:384,1,100
262,132,197520,2,0,L|280:28,1,100,8|0,0:0|0:0,0:0:0:0:
400,140,197739,1,2,0:2:0:0:
256,264,197848,1,0,0:0:0:0:
396,276,197958,1,8,0:0:0:0:
262,132,198067,1,0,0:0:0:0:
408,28,198177,86,0,P|488:72|504:184,1,200,2|8,0:2|0:0,0:0:0:0:
316,88,198505,1,0,0:0:0:0:
216,156,198615,2,0,P|200:108|200:56,1,100
384,188,198834,2,0,P|376:256|360:304,1,100,8|0,0:0|0:0,0:0:0:0:
148,264,199053,6,0,L|260:248,1,100
488,356,199272,2,0,L|376:372,1,100,8|0,0:0|0:0,0:0:0:0:
148,264,199491,2,0,B|136:216|136:216|140:156,1,100
328,52,199710,2,0,B|328:104|328:104|316:152,1,100,8|0,0:0|0:0,0:0:0:0:
84,56,199929,86,0,B|152:48|152:48|216:64|216:64|281:56,1,200,2|8,0:2|0:0,0:0:0:0:
139,165,200257,1,0,0:0:0:0:
336,164,200367,2,0,B|271:157|271:157|207:173|207:173|139:165,1,200,2|8,0:2|0:0,0:0:0:0:
280,268,200695,1,0,0:0:0:0:
64,276,200804,6,0,L|168:288,1,100
336,164,201023,2,0,L|232:152,1,100,8|0,0:0|0:0,0:0:0:0:
124,184,201242,1,0,0:0:0:0:
280,268,201352,1,0,0:0:0:0:
120,160,201461,1,8,0:0:0:0:
304,60,201571,1,0,0:0:0:0:
116,136,201680,86,0,B|124:184|124:184|180:224|272:200,1,200,4|8,0:3|0:0,0:0:0:0:
360,120,202009,1,0,0:0:0:0:
216,4,202118,2,0,P|204:56|208:108,1,100
389,214,202337,2,0,P|382:165|360:120,1,100,8|0,0:0|0:0,0:0:0:0:
212,304,202556,6,0,B|260:316|260:316|332:312,1,100,2|0,0:2|0:0,0:0:0:0:
88,260,202775,2,0,B|84:308|84:308|96:364,1,100,8|0,0:0|0:0,0:0:0:0:
192,180,202994,2,0,B|196:132|196:132|184:76,1,100
20,16,203213,1,8,0:0:0:0:
88,144,203323,1,0,0:0:0:0:
288,80,203432,86,0,P|340:124|324:252,1,200,2|8,0:2|0:0,0:0:0:0:
176,120,203761,1,0,0:0:0:0:
392,136,203870,2,0,P|420:96|440:40,1,100
208,220,204089,2,0,P|216:280|232:324,1,100,8|0,0:0|0:0,0:0:0:0:
428,256,204308,6,0,P|384:246|308:248,1,100
136,108,204527,2,0,P|200:100|244:84,1,100,8|0,0:0|0:0,0:0:0:0:
356,156,204745,1,2,0:2:0:0:
208,220,204855,1,0,0:0:0:0:
233,88,204964,1,8,0:0:0:0:
329,245,205074,1,0,0:0:0:0:
428,85,205183,86,0,P|330:69|233:88,1,200,4|8,0:3|0:0,0:0:0:0:
156,184,205513,1,0,0:0:0:0:
12,68,205623,2,0,P|72:76|128:68,1,100
276,192,205843,2,0,P|296:240|300:292,1,100,8|0,0:0|0:0,0:0:0:0:
84,320,206063,6,0,P|132:288|180:272,1,100
412,292,206283,2,0,P|460:324|496:364,1,100,8|0,0:0|0:0,0:0:0:0:
296,168,206504,2,0,P|304:112|320:68,1,100
171,273,206724,2,0,P|195:329|207:373,1,100,8|0,0:0|0:0,0:0:0:0:
28,180,206944,86,0,B|56:184|80:196|80:196|148:168|176:92,1,200,2|8,0:2|0:0,0:0:0:0:
256,192,207274,1,0,0:0:0:0:
484,204,207384,2,0,B|456:200|432:188|432:188|364:216|336:292,1,200,0|8,0:0|0:0,0:0:0:0:
256,192,207715,1,0,0:0:0:0:
152,120,207825,6,0,P|96:104|56:80,1,100
332,96,208045,2,0,P|384:72|432:60,1,100,8|0,0:0|0:0,0:0:0:0:
163,274,208265,2,0,P|120:298|72:312,1,100
360,260,208485,2,0,P|412:284|448:312,1,100,8|0,0:0|0:0,0:0:0:0:
256,192,208705,85,4,0:3:0:0:
324,116,208814,1,0,0:0:0:0:
424,120,208923,2,0,P|467:158|492:200,1,100
256,192,209142,5,8,2:1:0:0:
316,100,209251,1,0,0:0:0:0:
424,92,209361,2,0,P|456:124|480:176,1,100
256,192,209580,85,8,2:1:0:0:
152,156,209689,1,0,0:0:0:0:
48,120,209798,2,0,L|16:-4,1,100
256,192,210017,5,8,2:1:0:0:
140,172,210127,1,0,0:0:0:0:
24,156,210236,2,0,L|24:44,1,100
256,192,210455,85,8,2:1:0:0:
220,304,210564,1,0,0:0:0:0:
112,352,210674,2,0,P|68:348|20:320,1,100
256,192,210892,5,8,2:1:0:0:
236,312,211002,1,0,0:0:0:0:
128,372,211111,2,0,P|80:356|32:332,1,100
256,192,211330,85,8,2:1:0:0:
360,260,211439,1,0,0:0:0:0:
460,188,211549,2,0,B|472:140|472:140|468:80,1,100
256,192,211767,5,8,2:1:0:0:
364,272,211877,1,0,0:0:0:0:
480,208,211986,2,0,B|488:160|488:160|472:104,1,100
256,192,212205,85,4,0:3:0:0:
324,360,212314,1,0,0:0:0:0:
457,237,212424,2,0,L|352:261,1,100
204,296,212643,5,8,2:1:0:0:
357,168,212752,1,0,0:0:0:0:
157,172,212861,2,0,L|255:191,1,100
457,237,213080,85,8,2:1:0:0:
368,52,213189,1,0,0:0:0:0:
359,259,213299,2,0,L|340:360,1,100
157,172,213518,5,8,2:1:0:0:
368,52,213627,1,0,0:0:0:0:
260,272,213736,2,0,L|240:376,1,100
193,195,213955,85,8,0:0:0:0:
240,168,214028,1,0,0:0:0:0:
292,172,214101,1,0,0:0:0:0:
336,200,214174,1,8,0:3:0:0:
360,248,214247,1,8,0:3:0:0:
408,276,214320,1,8,0:3:0:0:
460,272,214393,5,8,0:0:0:0:
432,228,214466,1,0,0:0:0:0:
428,176,214539,1,0,0:0:0:0:
448,124,214612,1,8,0:3:0:0:
440,72,214684,1,8,0:3:0:0:
408,28,214757,1,8,0:3:0:0:
360,8,214830,85,8,0:0:0:0:
368,60,214903,1,0,0:0:0:0:
344,108,214976,1,0,0:0:0:0:
292,128,215049,1,8,0:3:0:0:
240,112,215122,1,8,0:3:0:0:
212,64,215195,1,8,0:3:0:0:
220,12,215268,1,12,0:0:0:0:
368,340,215487,1,8,0:3:0:0:
52,156,215704,53,10,0:0:0:0:
8,248,215813,1,8,0:0:0:0:
112,240,215923,1,8,0:0:0:0:
292,48,216142,1,8,0:3:0:0:
8,248,216361,1,12,0:0:0:0:
352,244,216580,5,0,0:0:0:0:
92,64,216799,1,0,0:0:0:0:
240,372,217018,1,10,0:0:0:0:
256,276,217127,1,8,0:0:0:0:
272,180,217237,1,8,0:0:0:0:
44,356,217456,5,8,0:3:0:0:
352,244,217675,1,12,0:0:0:0:
124,24,217894,2,0,P|44:48|64:120,1,160
396,156,218332,1,8,0:0:0:0:
440,68,218441,1,8,0:0:0:0:
340,72,218551,1,8,0:0:0:0:
396,156,218770,69,8,0:0:0:0:
429,42,218879,1,8,0:0:0:0:
312,68,218989,1,8,0:0:0:0:
396,156,219208,5,8,0:0:0:0:
411,14,219317,1,8,0:0:0:0:
278,69,219427,1,8,0:0:0:0:
192,348,219646,1,8,0:3:0:0:
360,80,219865,1,4,0:0:0:0:
80,232,220084,5,0,0:0:0:0:
392,300,220303,1,0,0:0:0:0:
160,76,220522,1,8,0:0:0:0:
168,176,220631,1,8,0:0:0:0:
176,276,220740,1,8,0:0:0:0:
372,56,220959,69,8,0:3:0:0:
72,128,221178,1,12,0:0:0:0:
324,316,221398,2,0,L|352:156,1,160
68,248,221835,1,8,0:0:0:0:
148,312,221945,1,8,0:0:0:0:
236,260,222054,1,8,0:0:0:0:
148,312,222273,5,8,0:0:0:0:
248,252,222383,1,8,0:0:0:0:
336,328,222492,1,8,0:0:0:0:
248,252,222711,5,8,0:0:0:0:
348,340,222821,1,8,0:0:0:0:
444,248,222930,1,8,0:0:0:0:
344,24,223149,1,8,0:3:0:0:
348,340,223368,1,12,0:0:0:0:
152,96,223587,69,0,0:0:0:0:
464,80,223806,1,0,0:0:0:0:
168,276,224025,1,8,0:0:0:0:
212,180,224135,1,8,0:0:0:0:
272,264,224244,1,8,0:0:0:0:
12,152,224463,5,8,0:3:0:0:
316,172,224682,1,12,0:0:0:0:
36,52,224902,2,0,B|32:96|32:96|52:216,1,160
376,340,225339,1,8,0:0:0:0:
404,240,225449,1,8,0:0:0:0:
432,140,225558,1,8,0:0:0:0:
376,340,225777,5,8,0:0:0:0:
408,228,225887,1,8,0:0:0:0:
440,116,225996,1,8,0:0:0:0:
376,340,226215,69,8,0:0:0:0:
412,216,226325,1,8,0:0:0:0:
448,92,226434,1,8,0:0:0:0:
136,288,226653,1,8,0:3:0:0:
504,308,226872,1,12,0:0:0:0:
264,20,227091,5,0,0:0:0:0:
332,368,227310,1,0,0:0:0:0:
92,140,227529,1,8,0:0:0:0:
178,79,227638,1,8,0:0:0:0:
81,36,227748,1,8,0:0:0:0:
268,288,227967,5,8,0:3:0:0:
496,72,228186,1,12,0:0:0:0:
184,224,228405,2,0,P|164:300|204:376,1,160
424,192,228843,69,0,0:0:0:0:
408,152,228916,1,0,0:0:0:0:
380,120,228989,1,8,0:3:0:0:
344,100,229062,1,8,0:3:0:0:
300,96,229135,1,0,0:0:0:0:
260,108,229208,1,0,0:0:0:0:
228,136,229281,2,0,P|320:92|344:36,1,160,12|8,0:0|0:3,0:0:0:0:
140,76,229609,1,0,0:0:0:0:
132,184,229719,6,0,B|136:228|136:228|160:276,1,88.000002685547,12|0,0:0|0:0,0:0:0:0:
352,321,229938,2,0,B|352:280|352:280|336:236,1,88.000002685547
240,200,230157,2,0,L|248:148,2,44.0000013427735,8|0|0,0:0|0:0|0:0,0:0:0:0:
256,300,230376,1,2,0:0:0:0:
156,268,230485,6,0,L|104:280,2,44.0000013427735,0|0|8,0:0|0:0|0:0,0:0:0:0:
336,236,230704,1,2,0:0:0:0:
144,168,230814,2,0,L|92:148,2,44.0000013427735
256,300,231032,1,10,0:0:0:0:
320,136,231142,2,0,L|356:100,2,44.0000013427735
156,268,231361,1,2,0:0:0:0:
352,336,231471,70,0,L|392:380,2,44.0000013427735,8|0|0,0:0|0:0|0:0,0:0:0:0:
240,200,231690,1,2,0:0:0:0:
428,180,231799,2,0,L|492:172,2,44.0000013427735,0|0|8,0:0|0:0|0:0,0:0:0:0:
220,204,232018,1,2,0:0:0:0:
356,40,232128,2,0,L|392:0,2,44.0000013427735
204,220,232347,1,10,0:0:0:0:
44,48,232456,6,0,L|12:12,2,44.0000013427735
220,236,232675,1,2,0:0:0:0:
176,44,232785,2,0,B|156:84|156:84|152:132,1,88.000002685547,8|0,0:0|0:0,0:0:0:0:
308,308,233004,2,2,B|328:268|328:268|332:220,1,88.000002685547,2|0,0:0|0:0,0:0:0:0:
59,202,233223,6,2,B|79:222|79:222|119:210|119:210|164:240|220:236,1,176.000005371094,10|0,0:0|0:0,0:0:0:0:
332,224,233551,1,0,0:0:0:0:
279,49,233660,2,0,L|264:136,1,88.000002685547,8|0,0:0|0:0,0:0:0:0:
448,256,233879,2,2,L|436:156,1,88.000002685547,2|0,0:0|0:0,0:0:0:0:
232,276,234098,69,10,0:0:0:0:
264,312,234171,1,0,0:0:0:0:
308,332,234244,1,0,0:0:0:0:
356,332,234317,1,2,0:0:0:0:
332,224,234427,1,0,0:0:0:0:
136,328,234536,2,0,P|126:286|128:232,1,88.000002685547,8|0,0:0|0:0,0:0:0:0:
232,276,234755,1,2,0:0:0:0:
16,260,234865,1,0,0:0:0:0:
158,113,234974,5,10,0:0:0:0:
166,161,235047,1,0,0:0:0:0:
154,205,235120,1,0,0:0:0:0:
126,241,235193,1,0,0:0:0:0:
54,153,235303,1,2,0:0:0:0:
132,72,235412,5,8,0:0:0:0:
176,56,235485,1,0,0:0:0:0:
224,60,235558,1,0,0:0:0:0:
264,88,235631,1,2,0:0:0:0:
292,128,235704,1,0,0:0:0:0:
332,148,235777,1,0,0:0:0:0:
380,148,235850,1,8,0:0:0:0:
420,124,235923,1,0,0:0:0:0:
436,80,235996,1,0,0:0:0:0:
432,32,236069,70,0,L|336:24,1,88.000002685547,4|0,0:0|0:0,0:0:0:0:
188,164,236288,2,0,L|80:176,1,88.000002685547,8|0,0:0|0:0,0:0:0:0:
224,60,236507,1,4,0:0:0:0:
416,176,236616,1,0,0:0:0:0:
344,24,236726,6,2,B|336:84|336:84|312:136|312:136|304:200,1,176.000005371094,14|0,0:0|0:0,0:0:0:0:
376,280,237054,1,0,0:0:0:0:
416,176,237164,2,0,B|436:136|436:136|444:84,1,88.000002685547,8|0,0:0|0:0,0:0:0:0:
224,120,237383,2,2,B|204:160|204:160|200:212,1,88.000002685547,2|0,0:0|0:0,0:0:0:0:
328,80,237602,6,0,P|252:88|156:64,1,176.000005371094,8|0,0:0|0:0,0:0:0:0:
16,164,237930,1,0,0:0:0:0:
96,244,238040,2,0,L|200:232,1,88.000002685547,8|0,0:0|0:0,0:0:0:0:
26,76,238259,2,2,L|14:172,1,88.000002685547,2|0,0:0|0:0,0:0:0:0:
208,336,238479,70,2,P|272:300|280:192,1,176.000005371094,10|0,0:0|0:0,0:0:0:0:
196,66,238808,2,2,B|168:114|168:114|184:242,1,176.000005371094,2|0,0:0|0:0,0:0:0:0:
368,288,239138,2,2,L|456:272,1,88.000002685547,2|0,0:0|0:0,0:0:0:0:
286,204,239358,6,0,L|166:196,1,88.000002685547,8|0,0:0|0:0,0:0:0:0:
396,156,239577,1,0,0:0:0:0:
396,156,239687,2,2,B|408:200|396:244|396:244|384:288|392:332,1,176.000005371094,2|0,0:0|0:0,0:0:0:0:
504,192,240017,2,0,P|504:128|496:92,1,88.000002685547
268,28,240237,6,0,P|252:76|252:120,2,88.000002685547,12|0|0,0:0|0:0|0:0,0:0:0:0:
368,96,240566,1,0,0:0:0:0:
280,256,240676,2,0,P|244:232|212:192,2,88.000002685547,8|0|0,0:0|0:0|0:0,0:0:0:0:
368,96,241006,1,0,0:0:0:0:
344,324,241116,2,0,P|392:324|440:312,2,88.000002685547,8|0|0,0:0|0:0|0:0,0:0:0:0:
368,96,241446,1,0,0:0:0:0:
504,240,241555,2,0,L|432:164,1,88.000002685547,8|0,0:0|0:0,0:0:0:0:
280,24,241775,2,0,L|256:116,1,88.000002685547
188,292,241995,70,0,L|160:196,1,88.000002685547,8|0,0:0|0:0,0:0:0:0:
372,284,242214,2,0,L|352:380,1,88.000002685547,4|0,0:0|0:0,0:0:0:0:
328,172,242433,2,0,L|420:160,1,88.000002685547,8|0,0:0|0:0,0:0:0:0:
188,292,242652,2,0,L|84:284,1,88.000002685547,4|0,0:0|0:0,0:0:0:0:
288,76,242871,6,0,L|336:68,2,44.0000013427735,4|0|8,0:0|0:0|0:0,0:0:0:0:
176,92,243090,1,8,0:0:0:0:
328,172,243200,1,8,0:0:0:0:
196,268,243310,1,8,0:0:0:0:
300,152,243419,5,8,0:0:0:0:
372,320,243529,1,8,0:0:0:0:
188,292,243638,1,8,0:0:0:0:
388,212,243729,69,6,0:0:0:0:
403,170,243802,1,0,0:0:0:0:
402,128,243875,1,0,0:0:0:0:
383,90,243948,2,2,B|340:96|340:96|200:72,1,184.000003509522,10|0,0:0|0:0,0:0:0:0:
88,60,244277,1,0,0:0:0:0:
193,163,244386,2,0,B|205:119|205:119|201:72,1,92.0000017547608,8|0,0:0|0:0,0:0:0:0:
92,212,244605,6,0,P|136:256|252:256,1,184.000003509522,0|8,0:0|0:0,0:0:0:0:
193,163,244934,1,0,0:0:0:0:
152,308,245043,2,0,P|196:352|236:368,1,92.0000017547608
416,296,245262,1,10,0:0:0:0:
384,268,245335,1,0,0:0:0:0:
344,252,245408,1,0,0:0:0:0:
300,248,245481,6,2,P|284:204|284:160,1,92.0000017547608,2|0,0:0|0:0,0:0:0:0:
472,52,245700,2,2,P|468:144|392:188,1,184.000003509522,10|0,0:0|0:0,0:0:0:0:
236,60,246028,1,0,0:0:0:0:
340,16,246138,1,10,0:0:0:0:
348,60,246211,1,0,0:0:0:0:
340,100,246284,1,0,0:0:0:0:
316,136,246357,70,2,P|268:164|224:172,1,92.0000017547608,2|0,0:0|0:0,0:0:0:0:
236,60,246576,1,8,0:0:0:0:
320,248,246685,2,2,B|384:288|460:268|460:268|445:249|416:240,1,184.000003509522,2|0,0:0|0:0,0:0:0:0:
216,280,247014,2,2,P|208:332|208:380,1,92.0000017547608,10|0,0:0|0:0,0:0:0:0:
132,208,247233,6,2,P|160:168|120:40,1,184.000003509522,2|8,0:0|0:0,0:0:0:0:
48,128,247561,2,2,L|244:116,1,184.000003509522,2|0,0:0|0:0,0:0:0:0:
412,192,247890,2,2,L|304:184,1,92.0000017547608,10|0,0:0|0:0,0:0:0:0:
372,84,248109,6,2,B|385:122|385:122|388:272,1,184.000003509522,2|8,0:0|0:0,0:0:0:0:
312,352,248437,1,0,0:0:0:0:
220,280,248547,2,2,L|216:168,1,92.0000017547608,2|0,0:0|0:0,0:0:0:0:
36,328,248766,2,2,B|80:344|80:344|144:336,1,92.0000017547608,10|0,0:0|0:0,0:0:0:0:
304,128,248985,70,2,P|224:88|132:124,1,184.000003509522,2|8,0:0|0:0,0:0:0:0:
216,188,249313,2,2,B|224:132|224:132|212:64|212:64|224:4,1,184.000003509522,2|0,0:0|0:0,0:0:0:0:
24,116,249642,2,0,P|65:132|124:132,1,92.0000017547608,8|0,0:0|0:0,0:0:0:0:
324,64,249861,5,0,0:0:0:0:
216,188,249970,1,0,0:0:0:0:
164,32,250080,1,10,0:0:0:0:
164,32,250299,5,2,0:0:0:0:
336,192,250408,1,8,0:0:0:0:
284,28,250518,1,8,0:0:0:0:
224,224,250627,1,10,0:0:0:0:
96,96,250736,69,2,0:0:0:0:
128,68,250809,1,0,0:0:0:0:
168,48,250882,1,0,0:0:0:0:
212,44,250955,2,2,P|256:52|316:52,1,92.0000017547608,10|0,0:0|0:0,0:0:0:0:
352,236,251174,2,2,P|336:193|306:141,1,92.0000017547608,2|0,0:0|0:0,0:0:0:0:
452,16,251393,2,2,P|423:50|393:102,1,92.0000017547608,10|0,0:0|0:0,0:0:0:0:
200,168,251612,6,2,P|216:120|224:64,1,92.0000017547608,2|0,0:0|0:0,0:0:0:0:
432,252,251831,2,2,P|364:216|264:264,1,184.000003509522,10|0,0:0|0:0,0:0:0:0:
224,360,252160,1,0,0:0:0:0:
124,304,252269,1,8,0:0:0:0:
80,304,252342,1,0,0:0:0:0:
40,320,252415,1,0,0:0:0:0:
12,352,252488,6,2,B|0:320|4:284|4:284|40:236|32:176,1,184.000003509522,2|8,0:0|0:0,0:0:0:0:
132,56,252817,2,2,P|180:128|168:240,1,184.000003509522,2|0,0:0|0:0,0:0:0:0:
244,60,253145,1,10,0:0:0:0:
64,164,253255,1,0,0:0:0:0:
244,60,253364,70,2,B|288:36|288:36|344:76|420:64,1,184.000003509522,2|8,0:0|0:0,0:0:0:0:
292,152,253693,1,0,0:0:0:0:
132,56,253802,2,0,P|88:42|28:40,1,92.0000017547608
180,244,254021,2,0,L|184:140,1,92.0000017547608,8|0,0:0|0:0,0:0:0:0:
36,312,254240,5,0,0:0:0:0:
180,244,254350,1,2,0:0:0:0:
80,200,254459,1,8,0:0:0:0:
196,348,254569,1,2,0:0:0:0:
263,204,254678,2,2,L|179:243,1,92.0000017547608,2|0,0:0|0:0,0:0:0:0:
356,276,254897,2,2,L|468:300,1,92.0000017547608,8|2,0:0|0:0,0:0:0:0:
272,356,255116,5,2,0:0:0:0:
248,320,255189,1,0,0:0:0:0:
240,280,255262,1,0,0:0:0:0:
248,236,255335,2,2,P|268:204|320:168,1,92.0000017547608,10|0,0:0|0:0,0:0:0:0:
356,276,255554,1,2,0:0:0:0:
184,152,255664,1,0,0:0:0:0:
312,172,255773,1,10,0:0:0:0:
120,260,255882,1,2,0:0:0:0:
140,60,255992,70,2,L|120:12,2,46.0000008773804,10|0|8,0:0|0:0|0:0,0:0:0:0:
240,264,256211,1,8,0:0:0:0:
76,140,256320,2,2,L|12:132,2,46.0000008773804,10|0|8,0:0|0:0|0:0,0:0:0:0:
312,172,256539,5,10,0:0:0:0:
156,248,256649,1,8,0:3:0:0:
284,68,256758,1,8,0:3:0:0:
356,280,256867,6,0,L|404:312,2,46.0000008773804,8|0|0,0:3|0:0|0:0,0:0:0:0:
176,152,257086,1,0,0:0:0:0:
424,184,257196,1,0,0:0:0:0:
236,256,257306,69,8,0:3:0:0:
276,226,257379,1,0,0:0:0:0:
296,180,257452,1,0,0:0:0:0:
300,132,257525,1,8,0:3:0:0:
280,88,257598,1,0,0:0:0:0:
288,40,257671,1,0,0:0:0:0:
324,4,257744,6,2,B|368:8|368:8|404:28|404:28|456:12|508:40,1,191.999994140625,6|8,0:0|0:0,0:0:0:0:
444,136,258072,1,0,0:0:0:0:
236,144,258182,2,0,P|268:132|348:124,1,95.9999970703126
488,244,258401,2,0,P|424:248|392:240,1,95.9999970703126,8|0,0:0|0:0,0:0:0:0:
164,268,258620,6,0,L|276:256,1,95.9999970703126,2|0,0:0|0:0,0:0:0:0:
224,368,258839,1,8,0:0:0:0:
68,201,258948,2,2,L|52:296,1,95.9999970703126,2|0,0:0|0:0,0:0:0:0:
164,268,259167,1,0,0:0:0:0:
276,112,259277,2,2,B|275:160|275:160|258:204,1,95.9999970703126,10|0,0:0|0:0,0:0:0:0:
120,24,259496,70,2,L|224:20,1,95.9999970703126,2|0,0:0|0:0,0:0:0:0:
332,16,259715,1,8,0:0:0:0:
156,132,259824,2,2,L|56:124,1,95.9999970703126,2|0,0:0|0:0,0:0:0:0:
120,24,260043,1,0,0:0:0:0:
196,240,260153,2,2,P|248:256|296:252,1,95.9999970703126,10|0,0:0|0:0,0:0:0:0:
429,115,260372,6,2,P|338:95|258:145,1,191.999994140625,2|8,0:0|0:0,0:0:0:0:
360,204,260700,1,0,0:0:0:0:
472,220,260809,2,0,L|444:120,1,95.9999970703126
328,312,261028,1,10,0:0:0:0:
504,328,261138,1,0,0:0:0:0:
360,204,261247,6,2,B|204:196|204:196|240:228,1,191.999994140625,2|8,0:0|0:0,0:0:0:0:
312,100,261576,2,2,L|100:88,1,191.999994140625,2|0,0:0|0:0,0:0:0:0:
8,232,261904,2,2,B|56:224|56:224|96:196,1,95.9999970703126,10|0,0:0|0:0,0:0:0:0:
332,256,262123,70,2,B|272:260|272:260|208:288|208:288|144:292,1,191.999994140625,2|8,0:0|0:0,0:0:0:0:
180,180,262452,1,0,0:0:0:0:
304,368,262561,2,0,L|408:360,1,95.9999970703126
388,152,262780,2,0,L|284:144,1,95.9999970703126,8|0,0:0|0:0,0:0:0:0:
332,256,262999,5,2,0:0:0:0:
376,272,263072,1,0,0:0:0:0:
420,272,263145,1,0,0:0:0:0:
460,252,263218,2,2,L|480:352,1,95.9999970703126,8|2,0:0|0:0,0:0:0:0:
388,152,263437,1,2,0:0:0:0:
293,329,263546,1,0,0:0:0:0:
172,228,263656,2,2,L|184:120,1,95.9999970703126,8|2,0:0|0:0,0:0:0:0:
320,68,263875,5,2,0:0:0:0:
182,132,263985,1,0,0:0:0:0:
216,32,264094,1,8,0:0:0:0:
288,168,264204,1,2,0:0:0:0:
64,220,264313,69,8,0:0:0:0:
182,132,264423,1,8,0:0:0:0:
248,316,264532,1,10,0:0:0:0:
72,256,264642,1,8,0:0:0:0:
272,204,264751,6,2,B|356:192|420:236|420:236|452:192,1,191.999994140625,6|10,0:0|0:0,0:0:0:0:
444,124,265043,1,0,0:0:0:0:
420,80,265116,1,0,0:0:0:0:
380,48,265189,2,2,B|300:32|236:44|236:44|216:88,1,191.999994140625,2|10,0:0|0:0,0:0:0:0:
192,168,265481,1,0,0:0:0:0:
148,192,265554,1,0,0:0:0:0:
96,196,265627,6,2,B|124:240|124:240|196:256|260:224,1,191.999994140625,2|10,0:0|0:0,0:0:0:0:
328,168,265919,1,0,0:0:0:0:
380,160,265992,1,0,0:0:0:0:
428,172,266065,2,2,P|484:232|468:344,1,191.999994140625,2|10,0:0|0:0,0:0:0:0:
376,272,266393,1,0,0:0:0:0:
364,64,266503,70,2,B|392:28|392:28|444:8,1,95.9999970703126,2|0,0:0|0:0,0:0:0:0:
376,272,266722,2,2,B|340:304|340:304|280:316,1,95.9999970703126,8|2,0:0|0:0,0:0:0:0:
180,128,266941,2,2,B|208:92|208:92|260:72,1,95.9999970703126,2|0,0:0|0:0,0:0:0:0:
184,312,267160,2,2,B|148:344|148:344|88:356,1,95.9999970703126,8|2,0:0|0:0,0:0:0:0:
132,220,267379,5,2,0:0:0:0:
293,313,267488,1,0,0:0:0:0:
180,128,267598,1,10,0:0:0:0:
184,312,267707,1,0,0:0:0:0:
288,124,267817,5,2,0:0:0:0:
56,163,267926,1,0,0:0:0:0:
208,344,268036,1,10,0:0:0:0:
208,344,268255,70,2,L|224:232,1,95.9999970703126,2|0,0:0|0:0,0:0:0:0:
32,208,268474,2,0,L|48:96,1,95.9999970703126,8|0,0:0|0:0,0:0:0:0:
214,89,268693,1,0,0:0:0:0:
144,180,268802,1,0,0:0:0:0:
296,168,268912,1,10,0:0:0:0:
320,124,268985,1,0,0:0:0:0:
328,72,269058,1,0,0:0:0:0:
310,23,269131,5,2,0:0:0:0:
214,89,269240,1,0,0:0:0:0:
364,200,269350,1,8,0:0:0:0:
404,92,269459,1,0,0:0:0:0:
248,200,269569,2,2,B|260:248|260:248|288:288,1,95.9999970703126,0|2,0:0|0:0,0:0:0:0:
480,108,269788,2,2,B|472:60|472:60|440:16,1,95.9999970703126,10|0,0:0|0:0,0:0:0:0:
220,76,270007,5,2,0:0:0:0:
263,104,270080,1,0,0:0:0:0:
315,113,270153,1,0,0:0:0:0:
365,105,270226,2,0,P|344:168|344:208,1,95.9999970703126,12|0,0:0|0:0,0:0:0:0:
296,352,270445,1,12,0:0:0:0:
271,305,270518,1,0,0:0:0:0:
231,272,270591,1,0,0:0:0:0:
183,253,270664,2,2,P|232:208|252:174,1,95.9999970703126,10|0,0:0|0:0,0:0:0:0:
72,212,270882,69,2,0:0:0:0:
64,264,270955,1,0,0:0:0:0:
80,312,271028,1,0,0:0:0:0:
116,348,271101,1,10,0:0:0:0:
164,328,271174,1,0,0:0:0:0:
216,328,271247,1,0,0:0:0:0:
260,352,271320,5,10,0:0:0:0:
372,192,271430,1,8,0:0:0:0:
192,236,271539,1,8,0:3:0:0:
416,304,271649,1,8,0:3:0:0:
328,80,271758,21,12,0:3:0:0:
328,80,271868,1,0,0:0:0:0:
328,80,271977,2,0,L|208:68,1,100
40,168,272196,1,8,2:1:0:0:
40,168,272306,1,0,0:0:0:0:
40,168,272415,2,0,L|160:156,1,100
316,240,272634,5,8,2:1:0:0:
316,240,272744,1,0,0:0:0:0:
316,240,272853,2,0,P|320:300|312:348,1,100
404,128,273072,1,8,2:1:0:0:
404,128,273182,1,0,0:0:0:0:
404,128,273291,2,0,P|400:68|408:20,1,100
496,216,273510,85,8,2:1:0:0:
496,216,273620,1,0,0:0:0:0:
496,216,273729,2,0,L|476:320,1,100
280,96,273948,1,8,2:1:0:0:
280,96,274058,1,0,0:0:0:0:
280,96,274167,2,0,L|298:194,1,100
132,332,274386,5,8,2:1:0:0:
132,332,274496,1,0,0:0:0:0:
132,332,274605,2,0,B|140:280|140:280|172:232,1,100
368,316,274824,1,8,2:1:0:0:
368,316,274934,1,0,0:0:0:0:
368,316,275043,2,0,B|318:335|318:335|261:331,1,100
56,200,275262,86,2,L|72:88,1,100,10|0,2:1|0:0,0:0:0:0:
280,16,275481,2,2,L|296:128,1,100,2|0,2:1|0:0,0:0:0:0:
232,368,275700,2,2,L|216:256,1,100,10|0,2:1|0:0,0:0:0:0:
456,184,275919,2,0,L|440:296,1,100
196,122,276138,5,8,2:1:0:0:
196,122,276247,1,0,0:0:0:0:
196,122,276357,2,0,P|252:110|308:118,1,100
312,336,276576,1,8,2:1:0:0:
312,336,276685,1,0,0:0:0:0:
312,336,276795,2,0,P|256:348|200:340,1,100
88,176,277014,85,8,2:1:0:0:
88,176,277123,1,0,0:0:0:0:
88,176,277233,2,0,B|81:150|81:150|92:64,1,100
352,24,277452,2,0,B|358:49|358:49|348:136,1,100,8|0,2:1|0:0,0:0:0:0:
248,188,277671,1,0,0:0:0:0:
240,68,277780,1,0,0:0:0:0:
360,248,277890,5,8,2:1:0:0:
360,248,277999,1,0,0:0:0:0:
360,248,278109,2,0,L|464:256,1,100
252,312,278328,2,0,P|208:284|68:320,1,200,8|0,2:1|0:0,0:0:0:0:
72,315,278656,1,0,0:0:0:0:
180,176,278766,86,0,P|192:116|192:72,2,100,12|0|0,2:1|0:0|0:0,0:0:0:0:
256,268,279094,1,0,0:0:0:0:
356,200,279204,2,0,P|400:192|456:192,1,100,8|0,2:1|0:0,0:0:0:0:
268,116,279423,1,0,0:0:0:0:
324,12,279532,1,0,0:0:0:0:
444,28,279642,6,0,P|484:72|504:116,1,100,8|0,2:1|0:0,0:0:0:0:
356,232,279861,2,0,P|365:182|380:135,1,100
416,328,280080,2,0,B|376:352|324:340|324:340|268:328|220:352,1,200,8|0,2:1|0:0,0:0:0:0:
356,232,280408,1,0,0:0:0:0:
244,128,280518,86,0,P|236:184|244:232,1,100,8|0,2:1|0:0,0:0:0:0:
416,328,280736,2,0,P|452:288|472:232,1,100
392,24,280955,2,0,P|376:80|372:128,1,100,8|0,2:1|0:0,0:0:0:0:
284,340,281174,2,0,P|272:284|252:236,1,100
112,132,281393,5,8,2:1:0:0:
150,332,281503,1,0,0:0:0:0:
33,255,281612,1,0,0:0:0:0:
232,210,281722,1,0,0:0:0:0:
105,19,281831,85,8,2:1:0:0:
92,250,281941,1,0,0:0:0:0:
236,74,282050,1,0,0:0:0:0:
16,136,282160,1,0,0:0:0:0:
232,210,282269,6,2,B|288:216|328:176|328:176|372:192|372:192|412:168|412:168|448:180|468:216|460:252,1,300,10|0,2:1|0:0,0:0:0:0:
348,328,282707,2,0,P|304:320|236:328,1,100,8|0,2:1|0:0,0:0:0:0:
40,288,282926,2,2,L|149:280,1,100,2|0,0:0|0:0,0:0:0:0:
348,192,283145,86,0,P|256:208|176:144,1,200,8|0,2:1|0:0,0:0:0:0:
360,80,283474,1,0,0:0:0:0:
464,208,283583,2,0,L|456:324,1,100,8|0,2:1|0:0,0:0:0:0:
348,192,283802,1,2,0:0:0:0:
476,96,283912,1,0,0:0:0:0:
332,32,284021,5,10,2:1:0:0:
280,40,284094,1,0,0:0:0:0:
240,76,284167,1,0,0:0:0:0:
228,128,284240,1,8,0:3:0:0:
188,164,284313,1,0,0:0:0:0:
136,172,284386,1,0,0:0:0:0:
88,144,284459,85,8,2:1:0:0:
136,120,284532,1,0,0:0:0:0:
188,128,284605,1,0,0:0:0:0:
228,164,284678,1,8,0:3:0:0:
244,216,284751,1,0,0:0:0:0:
228,268,284824,1,0,0:0:0:0:
188,300,284897,5,10,2:1:0:0:
248,288,284970,1,0,0:0:0:0:
308,276,285043,1,0,0:0:0:0:
368,264,285116,1,8,0:3:0:0:
316,232,285189,1,0,0:0:0:0:
264,200,285262,1,0,0:0:0:0:
212,168,285335,2,0,L|132:176,2,66.6666666666667,8|0|0,2:1|0:0|0:0,0:0:0:0:
332,136,285554,2,0,L|412:144,2,66.6666666666667,8|0|0,0:0|0:0|0:0,0:0:0:0:
256,40,285773,85,6,0:0:0:0:
256,40,287499,5,8,0:1:0:0:
220,72,287572,1,8,0:1:0:0:
180,92,287646,1,0,0:0:0:0:
132,100,287719,1,0,0:0:0:0:
88,92,287793,85,8,0:3:0:0:
120,136,287866,1,0,0:0:0:0:
136,188,287940,1,0,0:0:0:0:
136,240,288013,1,0,0:0:0:0:
116,288,288087,5,8,0:3:0:0:
172,268,288160,1,0,0:0:0:0:
232,272,288234,1,0,0:0:0:0:
284,300,288307,1,0,0:0:0:0:
320,348,288381,85,8,0:1:0:0:
326,276,288454,1,8,0:1:0:0:
332,204,288528,2,0,L|338:128,1,66.6666666666667
422,106,288675,5,8,0:3:0:0:
444,177,288749,1,8,0:3:0:0:
434,250,288822,2,0,P|418:276|387:302,1,66.6666666666667
284,300,288969,85,8,0:3:0:0:
219,260,289043,1,8,0:3:0:0:
144,272,289116,2,0,B|120:296|120:296|104:336,1,66.6666666666667
240,240,289273,54,0,P|252:164|224:104,1,143.999995605469,6|0,0:0|0:0,0:0:0:0:
63,64,289601,2,0,P|99:63|134:56,1,71.9999978027344,8|0,0:0|0:0,0:0:0:0:
224,8,289820,1,0,0:0:0:0:
224,8,289875,1,0,0:0:0:0:
224,8,289929,2,0,P|268:20|300:40,1,71.9999978027344,8|0,2:1|0:0,0:0:0:0:
224,105,290148,1,0,0:0:0:0:
134,56,290258,2,0,P|124:124|170:192,1,143.999995605469,8|0,0:0|0:0,0:0:0:0:
260,196,290586,1,8,2:1:0:0:
224,105,290696,1,0,0:0:0:0:
204,280,290805,2,2,L|196:360,1,71.9999978027344,2|0,0:1|0:0,0:1:0:0:
336,264,291024,6,0,P|360:212|332:120,1,143.999995605469,4|0,0:0|0:0,0:0:0:0:
248,92,291353,2,0,P|304:96|392:48,1,143.999995605469,8|0,0:0|0:0,0:0:0:0:
508,152,291681,2,0,P|476:144|428:144,1,71.9999978027344,8|0,2:1|0:0,0:0:0:0:
328,228,291900,1,0,0:0:0:0:
396,300,292010,2,0,P|424:236|392:152,1,143.999995605469,8|0,0:0|0:0,0:0:0:0:
404,167,292283,1,0,0:0:0:0:
404,167,292338,2,0,L|336:128,1,71.9999978027344,8|0,2:1|0:0,0:0:0:0:
256,238,292557,2,2,L|340:226,1,71.9999978027344,2|0,0:1|0:0,0:1:0:0:
196,304,292776,6,0,L|220:152,1,143.999995605469,4|0,0:0|0:0,0:0:0:0:
296,316,293105,2,0,P|196:304|152:332,1,143.999995605469,8|0,0:0|0:0,0:0:0:0:
100,248,293433,2,0,B|116:164,1,71.9999978027344,8|0,2:1|0:0,0:0:0:0:
144,32,293652,1,0,0:0:0:0:
64,92,293762,2,0,P|124:132|216:100,1,143.999995605469,8|0,0:0|0:0,0:0:0:0:
191,120,294035,1,0,0:0:0:0:
191,120,294090,2,0,L|200:198,1,71.9999978027344,8|0,2:1|0:0,0:0:0:0:
336,92,294309,2,2,L|268:60,1,71.9999978027344,2|0,0:1|0:0,0:1:0:0:
328,192,294528,70,0,B|380:188|380:188|452:116,1,143.999995605469,4|0,0:0|0:0,0:0:0:0:
480,216,294856,2,0,B|456:244|456:244|440:288,1,71.9999978027344,8|0,0:1|0:0,0:0:0:0:
344,288,295075,1,0,0:0:0:0:
344,288,295130,1,0,0:0:0:0:
344,288,295185,2,0,L|260:296,1,71.9999978027344,8|0,2:1|0:0,0:0:0:0:
140,256,295404,1,0,0:0:0:0:
228,212,295513,2,0,L|220:364,1,143.999995605469,8|0,0:1|0:0,0:0:0:0:
140,256,295842,1,10,0:1:0:0:
232,180,295951,1,0,0:0:0:0:
132,112,296061,2,2,P|98:103|56:104,1,71.9999978027344,2|0,0:1|0:0,0:1:0:0:
232,180,296280,5,6,0:0:0:0:
312,116,296389,2,0,P|328:156|332:200,1,71.9999978027344
216,80,296608,2,0,P|260:28|336:20,1,143.999995605469,8|0,0:0|0:0,0:0:0:0:
332,18,296882,1,0,0:0:0:0:
332,18,296937,2,0,P|369:39|424:52,1,71.9999978027344,8|0,2:1|0:0,0:0:0:0:
456,132,297156,1,0,0:0:0:0:
364,176,297265,2,0,P|356:228|360:264,1,71.9999978027344,8|0,0:0|0:0,0:0:0:0:
420,328,297484,1,0,0:0:0:0:
420,328,297539,1,0,0:0:0:0:
420,328,297594,2,0,P|440:304|456:260,1,71.9999978027344,8|0,2:1|0:0,0:0:0:0:
324,340,297813,2,2,P|292:312|264:296,1,71.9999978027344,2|0,0:1|0:0,0:1:0:0:
266,297,297977,1,0,0:0:0:0:
266,297,298032,6,0,P|220:308|120:296,1,143.999995605469,4|0,0:0|0:0,0:0:0:0:
240,200,298360,2,0,P|284:200|316:208,1,71.9999978027344,8|0,0:0|0:0,0:0:0:0:
372,132,298579,1,0,0:0:0:0:
372,132,298634,1,0,0:0:0:0:
372,132,298689,2,0,P|350:93|340:62,1,71.9999978027344,8|0,2:1|0:0,0:0:0:0:
444,60,298908,1,0,0:0:0:0:
472,156,299017,2,0,B|440:220|440:220|360:236,1,143.999995605469,8|0,0:0|0:0,0:0:0:0:
368,234,299291,1,0,0:0:0:0:
368,234,299345,2,0,L|392:312,1,71.9999978027344,8|0,2:1|0:0,0:0:0:0:
268,248,299564,2,2,L|284:168,1,71.9999978027344,2|0,0:1|0:0,0:1:0:0:
282,177,299729,1,0,0:0:0:0:
282,177,299783,70,0,P|216:212|140:192,1,143.999995605469,4|0,0:0|0:0,0:0:0:0:
76,272,300112,2,0,P|96:212|88:124,1,143.999995605469,8|0,0:0|0:0,0:0:0:0:
90,132,300386,1,0,0:0:0:0:
90,132,300440,2,0,L|164:112,1,71.9999978027344,8|0,2:1|0:0,0:0:0:0:
256,152,300659,1,0,0:0:0:0:
352,188,300769,2,0,L|426:168,1,71.9999978027344,8|0,0:0|0:0,0:0:0:0:
272,252,300988,1,0,0:0:0:0:
272,252,301043,1,0,0:0:0:0:
272,252,301097,2,0,B|272:288|272:288|288:328,1,71.9999978027344,8|0,2:1|0:0,0:0:0:0:
156,352,301316,2,2,B|172:320|172:320|176:280,1,71.9999978027344,2|0,0:1|0:0,0:1:0:0:
175,283,301481,1,0,0:0:0:0:
175,283,301535,6,0,L|32:296,1,143.999995605469,4|0,0:0|0:0,0:0:0:0:
160,184,301864,2,0,B|196:188|196:188|236:204,1,71.9999978027344,8|0,0:0|0:0,0:0:0:0:
340,128,302083,1,0,0:0:0:0:
340,128,302137,1,0,0:0:0:0:
340,128,302192,2,0,B|304:124|304:124|264:108,1,71.9999978027344,8|0,2:1|0:0,0:0:0:0:
332,28,302411,1,0,0:0:0:0:
424,76,302521,2,0,P|436:120|436:152,1,71.9999978027344,8|0,0:0|0:0,0:0:0:0:
368,224,302740,1,0,0:0:0:0:
368,224,302794,1,0,0:0:0:0:
368,224,302849,2,2,L|288:232,1,71.9999978027344,10|0,2:1|0:0,0:1:0:0:
120,244,303068,1,2,0:1:0:0:
120,244,303287,21,4,0:0:0:0:
368,224,303396,1,2,0:1:0:0:
192,128,303506,1,10,0:1:0:0:
368,324,303615,5,10,0:1:0:0:
92,344,303725,1,8,0:1:0:0:
272,204,303834,1,2,0:1:0:0:
28,196,303944,85,8,0:0:0:0:
240,304,304053,1,2,0:1:0:0:
280,100,304163,5,0,0:0:0:0:
168,228,304272,1,2,0:1:0:0:
180,56,304382,1,2,0:1:0:0:
272,204,304491,1,2,0:1:0:0:
112,140,304601,85,8,0:0:0:0:
244,24,304710,1,2,0:1:0:0:
240,144,304820,1,8,0:0:0:0:
116,20,304929,1,2,0:1:0:0:
332,84,305039,54,2,P|348:144|280:248,1,176.000005371094,6|8,0:0|0:0,0:0:0:0:
240,144,305367,1,0,0:0:0:0:
420,36,305476,2,0,L|516:28,2,88.000002685547,0|0|8,0:0|0:0|0:0,0:0:0:0:
328,116,305805,2,2,P|260:112|172:40,1,176.000005371094,2|0,0:0|0:0,0:0:0:0:
312,220,306133,2,2,B|360:219|399:194|399:194|437:169|481:169,1,176.000005371094,10|0,0:0|0:0,0:0:0:0:
231,291,306462,2,2,P|213:252|204:209,1,88.000002685547,2|8,0:0|0:0,0:0:0:0:
340,320,306681,1,0,0:0:0:0:
432,260,306790,6,2,P|444:184|416:84,1,176.000005371094,2|8,0:0|0:0,0:0:0:0:
320,40,307119,1,0,0:0:0:0:
240,156,307228,2,0,L|327:149,1,88.000002685547
419,89,307447,1,8,0:0:0:0:
216,48,307557,2,2,B|160:52|160:52|112:88|112:88|52:92,1,176.000005371094,2|0,0:0|0:0,0:0:0:0:
81,215,307885,2,2,B|163:211|163:211|239:155,1,176.000005371094,10|0,0:0|0:0,0:0:0:0:
256,264,308214,2,2,L|176:328,1,88.000002685547,2|8,0:0|0:0,0:0:0:0:
344,196,308433,1,0,0:0:0:0:
414,280,308542,6,2,P|331:303|255:263,1,176.000005371094,2|8,0:0|0:0,0:0:0:0:
238,155,308871,1,0,0:0:0:0:
324,88,308980,2,0,P|376:96|420:116,2,88.000002685547,0|0|8,0:0|0:0|0:0,0:0:0:0:
344,196,309309,2,2,B|376:176|376:176|392:116|372:32,1,176.000005371094,2|0,0:0|0:0,0:0:0:0:
176,64,309637,2,2,B|144:84|144:84|128:144|148:228,1,176.000005371094,10|0,0:0|0:0,0:0:0:0:
339,283,309966,2,2,P|347:231|343:191,1,88.000002685547,2|8,0:0|0:0,0:0:0:0:
244,336,310184,1,0,0:0:0:0:
444,300,310294,70,2,P|476:256|472:136,1,176.000005371094,2|8,0:0|0:0,0:0:0:0:
380,84,310622,1,0,0:0:0:0:
288,144,310732,2,0,P|240:152|184:144,1,88.000002685547
380,84,310951,1,8,0:0:0:0:
256,236,311060,2,2,L|240:56,1,176.000005371094,2|0,0:0|0:0,0:0:0:0:
148,256,311389,2,2,P|192:320|292:336,1,176.000005371094,10|0,0:0|0:0,0:0:0:0:
360,200,311717,1,2,0:0:0:0:
264,148,311827,2,0,P|256:191|257:235,1,88.000002685547,8|0,0:0|0:0,0:0:0:0:
360,92,312046,6,2,P|320:108|180:88,1,176.000005371094,6|8,0:0|0:0,0:0:0:0:
108,24,312374,1,0,0:0:0:0:
171,179,312484,2,0,P|187:127|191:83,1,88.000002685547
256,244,312703,1,8,0:0:0:0:
156,284,312812,2,2,B|16:264|16:264|52:244,1,176.000005371094,2|0,0:0|0:0,0:0:0:0:
256,244,313141,2,2,P|308:292|228:340,1,176.000005371094,10|0,0:0|0:0,0:0:0:0:
171,179,313469,2,2,P|164:128|168:76,1,88.000002685547,2|8,0:0|0:0,0:0:0:0:
256,28,313688,1,0,0:0:0:0:
401,58,313798,6,2,P|320:82|256:27,1,176.000005371094,2|8,0:0|0:0,0:0:0:0:
400,168,314126,1,0,0:0:0:0:
296,200,314236,2,0,P|244:184|204:156,1,88.000002685547
401,58,314455,1,8,0:0:0:0:
400,168,314564,2,2,P|412:256|436:348,1,176.000005371094,2|0,0:0|0:0,0:0:0:0:
296,200,314893,2,2,P|224:184|108:184,1,176.000005371094,10|0,0:0|0:0,0:0:0:0:
320,92,315221,2,2,P|336:48|344:4,2,88.000002685547,2|8|0,0:0|0:0|0:0,0:0:0:0:
85,79,315549,70,2,P|147:20|232:27,1,176.000005371094,6|8,0:0|0:0,0:0:0:0:
122,182,315878,1,0,0:0:0:0:
224,220,315987,2,0,P|272:216|320:200,1,88.000002685547
140,288,316206,1,8,0:0:0:0:
252,116,316316,2,2,P|324:104|408:168,1,176.000005371094,2|0,0:0|0:0,0:0:0:0:
309,204,316644,2,2,B|320:148|320:148|308:88|308:88|316:28,1,176.000005371094,10|0,0:0|0:0,0:0:0:0:
496,68,316973,2,2,B|456:84|456:84|404:84,1,88.000002685547,2|8,0:0|0:0,0:0:0:0:
212,148,317192,1,0,0:0:0:0:
212,148,317301,6,2,B|300:144|300:144|392:172,1,176.000005371094,2|8,0:0|0:0,0:0:0:0:
232,256,317630,1,0,0:0:0:0:
116,96,317739,2,0,L|128:8,1,88.000002685547
212,148,317958,1,8,0:0:0:0:
56,228,318068,1,2,0:0:0:0:
4,92,318177,6,0,B|49:85|49:85|100:92,1,88.000002685547,8|8,0:0|0:0,0:0:0:0:
256,248,318396,2,2,B|211:255|211:255|160:248,1,88.000002685547,10|8,0:0|0:0,0:0:0:0:
212,148,318615,1,8,0:0:0:0:
184,348,318725,1,10,0:0:0:0:
56,228,318834,1,8,0:0:0:0:
272,244,318944,1,8,0:0:0:0:
88,312,319053,70,2,L|72:132,1,176.000005371094,6|8,0:0|0:0,0:0:0:0:
424,72,319491,2,0,L|432:164,1,88.000002685547
441,270,319710,1,8,0:0:0:0:
88,312,319929,1,0,0:0:0:0:
80,204,320038,1,2,0:0:0:0:
188,196,320148,1,8,0:0:0:0:
196,304,320257,1,2,0:0:0:0:
80,204,320367,5,0,0:0:0:0:
256,244,320476,1,2,0:0:0:0:
88,312,320586,1,10,0:0:0:0:
184,160,320695,6,8,P|264:136|352:188,1,176.000005371094,6|0,0:0|0:0,0:0:0:0:
336,308,321024,2,0,B|320:352|320:352|264:312|256:244,1,176.000005371094,8|0,0:0|0:0,0:0:0:0:
342,175,321352,1,2,0:0:0:0:
448,144,321462,2,2,P|448:192|432:240,1,88.000002685547,10|0,0:0|0:0,0:0:0:0:
342,175,321681,69,2,0:0:0:0:
372,68,321790,1,2,0:0:0:0:
448,144,321900,1,8,0:0:0:0:
268,96,322009,1,2,0:0:0:0:
400,40,322119,5,2,0:0:0:0:
320,204,322228,1,2,0:0:0:0:
216,52,322338,1,8,0:0:0:0:
312,100,322447,6,2,P|236:156|144:136,1,176.000005371094,6|0,0:0|0:0,0:0:0:0:
48,16,322776,2,0,L|56:104,1,88.000002685547,8|0,0:0|0:0,0:0:0:0:
72,212,322995,1,2,0:0:0:0:
159,145,323104,1,0,0:0:0:0:
264,172,323214,1,10,0:0:0:0:
288,276,323323,1,0,0:0:0:0:
159,145,323433,69,2,0:0:0:0:
240,72,323542,1,2,0:0:0:0:
344,100,323652,1,8,0:0:0:0:
368,204,323761,1,2,0:0:0:0:
240,72,323871,5,2,0:0:0:0:
408,44,323980,1,2,0:0:0:0:
264,172,324090,1,8,0:0:0:0:
156,8,324199,6,4,L|356:36,1,176.000005371094,6|0,0:0|0:0,0:0:0:0:
76,232,324528,2,0,B|124:212|124:212|252:232,1,176.000005371094,8|0,0:0|0:0,0:0:0:0:
440,268,324856,1,0,0:0:0:0:
340,376,324966,2,0,B|332:332|332:332|336:276,1,88.000002685547,8|0,0:0|0:0,0:0:0:0:
452,160,325184,69,2,0:0:0:0:
440,268,325294,1,0,0:0:0:0:
352,116,325403,2,0,L|376:28,1,88.000002685547,12|0,0:0|0:0,0:0:0:0:
256,208,325622,2,0,L|272:300,1,88.000002685547
160,96,325841,2,0,L|184:8,1,88.000002685547,12|0,0:0|0:0,0:0:0:0:
28,208,326060,6,2,B|62:218|62:218|96:204|96:204|136:224|180:216|180:216|164:204,1,176.000005371094,6|8,0:0|0:0,0:0:0:0:
166,205,326498,1,2,0:0:0:0:
252,303,326607,1,0,0:0:0:0:
100,308,326717,1,10,0:0:0:0:
267,282,326827,6,2,B|287:253|287:253|285:216|285:216|316:188|326:137|326:137|305:151,1,184.000003509522,6|0,0:0|0:0,0:0:0:0:
359,332,327155,2,0,P|407:331|456:311,1,92.0000017547608,8|0,0:0|0:0,0:0:0:0:
309,150,327374,1,2,0:0:0:0:
167,238,327484,1,0,0:0:0:0:
383,231,327593,1,10,0:0:0:0:
240,64,327703,70,2,B|195:58|195:58|155:77|155:77|118:69|77:84|77:84|102:96,1,191.999994140625,6|0,0:0|0:0,0:0:0:0:
183,264,328031,2,0,P|190:217|186:163,1,95.9999970703126,8|0,0:0|0:0,0:0:0:0:
98,94,328250,1,2,0:0:0:0:
309,150,328360,1,0,0:0:0:0:
76,212,328469,1,10,0:0:0:0:
284,42,328579,6,2,P|356:54|420:162,1,200,6|0,0:0|0:0,0:0:0:0:
336,308,328907,2,2,B|268:304|268:304|208:276|208:276|136:288,1,200,10|0,0:0|0:0,0:0:0:0:
309,150,329236,2,2,B|328:106|328:106|325:54,1,100,2|8,0:0|0:0,0:0:0:0:
144,28,329455,6,2,P|108:88|168:196,1,200,6|0,0:0|0:0,0:0:0:0:
354,129,329783,2,0,B|384:112|384:112|219:104,1,200,8|0,0:0|0:0,0:0:0:0:
312,228,330111,1,0,0:0:0:0:
420,216,330221,2,0,B|464:188|464:188|492:140,1,100,8|0,0:0|0:0,0:0:0:0:
376,12,330440,70,2,L|384:124,1,100,2|0,0:0|0:0,0:0:0:0:
204,264,330659,2,0,L|216:156,1,100,8|0,0:0|0:0,0:0:0:0:
411,220,330878,2,0,L|307:228,1,100
108,132,331097,2,0,L|120:32,1,100,12|0,0:0|0:0,0:0:0:0:
216,164,331316,37,8,0:1:0:0:
224,216,331389,1,0,0:0:0:0:
204,264,331462,1,0,0:0:0:0:
156,284,331535,1,0,0:0:0:0:
104,276,331608,1,0,0:0:0:0:
68,236,331681,1,8,0:1:0:0:
68,184,331754,5,0,0:0:0:0:
116,212,331827,1,8,0:0:0:0:
168,232,331900,1,8,0:0:0:0:
220,240,331973,1,8,0:0:0:0:
272,236,332046,1,0,0:0:0:0:
324,220,332119,1,8,0:1:0:0:
368,188,332192,85,0,0:0:0:0:
356,248,332265,1,8,0:0:0:0:
300,272,332338,1,8,0:0:0:0:
244,248,332411,1,8,0:0:0:0:
232,188,332484,1,0,0:0:0:0:
272,140,332557,1,0,0:0:0:0:
332,140,332630,5,8,0:0:0:0:
368,188,332703,1,8,0:0:0:0:
428,192,332776,1,8,0:0:0:0:
468,148,332849,1,0,0:0:0:0:
456,88,332922,1,0,0:0:0:0:
404,60,332995,1,0,0:0:0:0:
348,84,333068,38,2,P|280:88|216:8,1,176.000005371094,6|8,0:0|0:0,0:0:0:0:
136,88,333396,1,0,0:0:0:0:
220,200,333506,2,2,P|248:144|248:108,1,88.000002685547,2|0,0:0|0:0,0:0:0:0:
104,224,333725,1,8,0:0:0:0:
228,312,333834,2,2,P|292:284|400:312,1,176.000005371094,2|0,0:0|0:0,0:0:0:0:
384,112,334163,2,0,P|368:168|372:216,1,88.000002685547,8|0,0:0|0:0,0:0:0:0:
392,308,334382,1,0,0:0:0:0:
476,176,334491,1,2,0:0:0:0:
500,287,334601,1,8,0:0:0:0:
368,197,334710,6,2,B|331:183|331:183|176:193,1,176.000005371094,2|0,0:0|0:0,0:0:0:0:
128,284,335039,2,0,P|180:300|220:300,1,88.000002685547,8|0,0:0|0:0,0:0:0:0:
368,197,335257,1,2,0:0:0:0:
232,296,335367,1,0,0:0:0:0:
284,128,335476,1,10,0:0:0:0:
340,296,335586,2,2,B|400:332|476:320|476:320|448:292,1,176.000005371094,2|0,0:0|0:0,0:0:0:0:
368,197,335914,1,8,0:0:0:0:
232,296,336024,2,2,P|256:364|272:380,1,88.000002685547,2|0,0:0|0:0,0:0:0:0:
194,191,336243,2,2,P|156:212|124:252,1,88.000002685547,2|8,0:0|0:0,0:0:0:0:
304,212,336462,1,0,0:0:0:0:
304,212,336571,6,0,P|352:216|432:120,1,176.000005371094,2|8,0:0|0:0,0:0:0:0:
268,108,336900,1,0,0:0:0:0:
194,191,337009,2,2,L|212:288,1,88.000002685547,2|0,0:0|0:0,0:0:0:0:
304,212,337228,1,8,0:0:0:0:
160,84,337338,2,2,P|76:72|12:128,1,176.000005371094,2|0,0:0|0:0,0:0:0:0:
194,191,337666,2,0,P|248:152|268:40,1,176.000005371094,8|0,0:0|0:0,0:0:0:0:
160,84,337995,1,2,0:0:0:0:
304,212,338104,1,8,0:0:0:0:
136,280,338214,70,2,L|128:104,1,176.000005371094,2|0,0:0|0:0,0:0:0:0:
36,236,338542,2,0,P|32:320|104:380,1,176.000005371094,8|0,0:0|0:0,0:0:0:0:
280,348,338871,1,0,0:0:0:0:
136,280,338980,1,10,0:0:0:0:
256,372,339090,1,0,0:0:0:0:
156,248,339199,2,2,B|140:164|140:164|164:68,1,176.000005371094,2|8,0:0|0:0,0:0:0:0:
40,156,339528,2,2,L|56:244,1,88.000002685547,2|0,0:0|0:0,0:0:0:0:
248,148,339747,2,2,L|276:52,1,88.000002685547,2|8,0:0|0:0,0:0:0:0:
161,76,339966,1,2,0:0:0:0:
180,236,340075,6,2,B|240:252|240:252|296:249|296:249|352:264,1,176.000005371094,6|8,0:0|0:0,0:0:0:0:
248,148,340403,1,0,0:0:0:0:
92,164,340513,2,2,B|72:204|72:204|68:252,1,88.000002685547,2|0,0:0|0:0,0:0:0:0:
180,236,340732,1,8,0:0:0:0:
72,60,340841,2,2,B|124:68|124:68|256:40,1,176.000005371094,2|0,0:0|0:0,0:0:0:0:
456,96,341170,2,0,L|368:84,1,88.000002685547,8|0,0:0|0:0,0:0:0:0:
252,184,341389,1,2,0:0:0:0:
400,184,341498,1,0,0:0:0:0:
252,64,341608,1,10,0:0:0:0:
377,9,341717,6,2,L|401:197,1,176.000005371094,2|0,0:0|0:0,0:0:0:0:
312,280,342046,2,0,P|388:232|488:264,1,176.000005371094,8|0,0:0|0:0,0:0:0:0:
408,344,342374,1,0,0:0:0:0:
284,180,342484,2,2,L|268:76,1,88.000002685547,10|0,0:0|0:0,0:0:0:0:
127,215,342703,2,2,P|212:227|283:179,1,176.000005371094,2|8,0:0|0:0,0:0:0:0:
206,30,343031,2,2,P|191:72|188:116,1,88.000002685547,2|0,0:0|0:0,0:0:0:0:
376,244,343250,2,2,P|390:202|394:158,1,88.000002685547,2|8,0:0|0:0,0:0:0:0:
272,292,343469,1,2,0:0:0:0:
272,292,343579,70,2,P|320:340|432:340,1,176.000005371094,6|8,0:0|0:0,0:0:0:0:
283,178,343907,1,0,0:0:0:0:
184,304,344017,2,0,L|292:288,1,88.000002685547
463,251,344236,2,2,L|367:243,1,88.000002685547,10|0,0:0|0:0,0:0:0:0:
168,168,344455,2,2,L|348:140,1,176.000005371094,2|8,0:0|0:0,0:0:0:0:
376,244,344783,1,0,0:0:0:0:
244,104,344893,2,0,B|240:60|240:60|252:16,1,88.000002685547
440,80,345111,2,0,B|444:124|444:124|432:168,1,88.000002685547,8|0,0:0|0:0,0:0:0:0:
280,268,345330,6,2,L|100:240,1,176.000005371094,6|8,0:0|0:0,0:0:0:0:
72,344,345658,1,0,0:0:0:0:
204,204,345768,2,0,B|208:160|208:160|196:116,1,88.000002685547
106,240,345987,1,8,0:0:0:0:
308,180,346097,1,0,0:0:0:0:
208,356,346206,6,0,B|192:316|192:316|208:164,1,191.999994140625,6|8,0:0|0:0,0:0:0:0:
400,260,346535,2,2,L|292:264,1,95.9999970703126,14|0,0:0|0:0,0:0:0:0:
476,184,346754,1,2,0:0:0:0:
328,96,346863,2,0,L|444:92,1,95.9999970703126,12|0,0:0|0:0,0:0:0:0:
248,172,347082,70,2,P|216:108|252:16,1,176.000005371094,6|8,0:0|0:0,0:0:0:0:
328,96,347411,1,0,0:0:0:0:
180,104,347520,2,2,P|140:100|92:84,1,88.000002685547,2|0,0:0|0:0,0:0:0:0:
252,15,347739,1,8,0:0:0:0:
260,184,347849,2,2,P|344:200|424:144,1,176.000005371094,2|0,0:0|0:0,0:0:0:0:
240,284,348177,2,0,P|188:276|152:280,1,88.000002685547,8|0,0:0|0:0,0:0:0:0:
312,368,348396,1,2,0:0:0:0:
260,184,348506,1,0,0:0:0:0:
132,288,348615,1,10,0:0:0:0:
340,260,348725,6,2,P|372:176|332:96,1,176.000005371094,2|0,0:0|0:0,0:0:0:0:
144,88,349053,2,0,B|188:92|188:92|240:80,1,88.000002685547,8|0,0:0|0:0,0:0:0:0:
428,68,349272,2,0,B|384:64|384:64|332:76,1,88.000002685547
228,184,349491,1,10,0:0:0:0:
392,172,349601,1,0,0:0:0:0:
236,52,349710,2,2,B|208:40|172:44|172:44|136:84|68:84,1,176.000005371094,2|8,0:0|0:0,0:0:0:0:
240,160,350039,2,2,P|292:144|324:116,1,88.000002685547,2|0,0:0|0:0,0:0:0:0:
176,252,350257,2,2,P|144:216|128:164,1,88.000002685547,2|8,0:0|0:0,0:0:0:0:
292,260,350476,1,0,0:0:0:0:
228,356,350586,6,2,P|156:364|72:304,1,176.000005371094,2|8,0:0|0:0,0:0:0:0:
176,252,350914,1,0,0:0:0:0:
292,260,351024,2,2,P|328:304|344:352,1,88.000002685547,2|0,0:0|0:0,0:0:0:0:
176,252,351243,1,8,0:0:0:0:
348,168,351352,2,2,P|384:104|380:4,1,176.000005371094,2|0,0:0|0:0,0:0:0:0:
240,140,351681,2,0,P|240:180|256:240,1,88.000002685547,8|0,0:0|0:0,0:0:0:0:
436,292,351900,1,2,0:0:0:0:
348,168,352009,1,0,0:0:0:0:
296,340,352119,1,10,0:0:0:0:
148,264,352228,70,2,L|332:252,1,176.000005371094,2|0,0:0|0:0,0:0:0:0:
484,332,352557,2,0,B|440:344|440:344|384:336,1,88.000002685547,8|0,0:0|0:0,0:0:0:0:
388,164,352776,2,0,B|432:152|432:152|488:160,1,88.000002685547
324,252,352995,1,10,0:0:0:0:
344,72,353104,1,0,0:0:0:0:
436,264,353214,2,2,P|408:328|312:364,1,176.000005371094,2|8,0:0|0:0,0:0:0:0:
236,241,353542,2,2,L|340:253,1,88.000002685547,2|0,0:0|0:0,0:0:0:0:
120,336,353761,2,2,L|224:348,1,88.000002685547,2|8,0:0|0:0,0:0:0:0:
60,240,353980,1,2,0:0:0:0:
60,240,354090,6,2,B|48:184|48:184|68:64,1,176.000005371094,6|8,0:0|0:0,0:0:0:0:
168,16,354418,1,0,0:0:0:0:
264,76,354528,2,2,P|310:81|360:72,1,88.000002685547,2|0,0:0|0:0,0:0:0:0:
164,128,354747,1,8,0:0:0:0:
212,227,354856,2,2,P|267:161|264:76,1,176.000005371094,2|0,0:0|0:0,0:0:0:0:
56,108,355184,2,0,P|60:160|80:200,1,88.000002685547,8|0,0:0|0:0,0:0:0:0:
212,228,355403,1,2,0:0:0:0:
164,128,355513,1,0,0:0:0:0:
124,292,355622,1,10,0:0:0:0:
308,276,355732,6,2,B|320:224|320:224|296:88,1,176.000005371094,2|0,0:0|0:0,0:0:0:0:
404,60,356060,2,0,L|396:160,1,88.000002685547,8|0,0:0|0:0,0:0:0:0:
212,228,356279,2,0,L|192:140,1,88.000002685547
320,0,356498,1,10,0:0:0:0:
308,160,356608,1,0,0:0:0:0:
148,44,356717,2,2,B|208:24|264:60|264:60|332:36,1,176.000005371094,2|8,0:0|0:0,0:0:0:0:
192,144,357046,2,2,P|148:150|96:140,1,88.000002685547,2|0,0:0|0:0,0:0:0:0:
308,160,357265,2,2,P|352:154|404:164,1,88.000002685547,2|0,0:0|0:0,0:0:0:0:
236,248,357484,1,2,0:0:0:0:
192,144,357593,70,2,L|204:56,1,88.000002685547,2|0,0:0|0:0,0:0:0:0:
352,260,357812,2,0,L|372:360,1,88.000002685547,8|0,0:0|0:0,0:0:0:0:
142,346,358031,2,0,L|160:260,1,88.000002685547
308,56,358250,2,0,L|320:144,1,88.000002685547,8|0,0:0|0:0,0:0:0:0:
96,127,358469,2,2,P|137:112|180:110,1,88.000002685547,2|0,0:0|0:0,0:0:0:0:
404,126,358688,2,0,P|360:142|312:142,1,88.000002685547,8|0,0:0|0:0,0:0:0:0:
76,256,358907,2,0,P|117:241|160:239,1,88.000002685547
432,252,359126,2,0,P|388:268|340:268,1,88.000002685547,8|0,0:0|0:0,0:0:0:0:
180,110,359345,38,2,B|172:62|172:62|188:2,1,95.9999970703126,2|0,0:0|0:0,0:0:0:0:
351,175,359564,2,0,B|359:223|359:223|343:283,1,95.9999970703126,12|0,0:0|0:0,0:0:0:0:
192,220,359783,1,0,0:0:0:0:
336,68,359893,1,0,0:0:0:0:
144,104,360002,1,8,0:0:0:0:
351,175,360111,1,8,0:0:0:0:
160,228,360221,5,10,0:0:0:0:
336,324,360330,1,8,0:0:0:0:
256,200,360440,1,2,0:0:0:0:
244,372,360549,1,10,0:0:0:0:
360,224,360659,85,8,0:3:0:0:
228,96,360768,1,2,0:0:0:0:
256,200,360878,1,0,0:0:0:0:
332,124,360987,1,0,0:0:0:0:
152,172,361097,5,6,0:0:0:0:
256,192,361152,12,0,364601,0:0:0:0:
96,328,373355,38,0,B|99:285|99:285|87:241,1,88.000002685547,8|8,0:0|0:0,0:0:0:0:
144,64,373580,2,0,B|140:106|140:106|152:150,1,88.000002685547,8|8,0:0|0:0,0:0:0:0:
224,256,373806,2,0,B|228:300|228:300|212:364,1,88.000002685547,8|8,0:0|0:0,0:0:0:0:
264,152,374031,2,0,B|268:108|268:108|288:60,1,88.000002685547,8|8,0:0|0:0,0:0:0:0:
336,240,374257,5,8,0:0:0:0:
152,150,374368,1,8,0:0:0:0:
372,136,374480,1,8,0:0:0:0:
192,44,374591,2,2,L|200:236,1,176.000005371094,10|10,0:0|0:0,0:0:0:0:
400,228,374926,2,2,P|360:216|304:212,1,88.000002685547,8|10,0:0|0:0,0:0:0:0:
124,304,375146,5,4,0:0:0:0:
508,200,375363,1,8,2:1:0:0:
176,16,375580,1,0,0:0:0:0:
232,112,375689,1,0,0:0:0:0:
288,16,375798,1,8,2:1:0:0:
124,304,376015,69,0,0:0:0:0:
408,80,376232,1,8,2:1:0:0:
28,104,376450,1,0,0:0:0:0:
136,124,376559,1,0,0:0:0:0:
244,144,376667,1,10,2:1:0:0:
60,208,376776,1,0,0:0:0:0:
208,40,376885,6,2,L|224:236,1,184.000003509522,2|8,0:0|2:1,0:0:0:0:
72,284,377211,2,2,P|124:224|232:228,1,184.000003509522,2|0,0:0|0:0,0:0:0:0:
352,372,377537,2,0,P|328:328|316:272,1,92.0000017547608,8|0,2:1|0:0,0:0:0:0:
456,136,377754,6,0,P|472:252|408:300,1,184.000003509522,0|8,0:0|2:1,0:0:0:0:
344,120,378080,1,0,0:0:0:0:
412,32,378189,2,0,P|468:28|512:36,1,92.0000017547608
456,136,378406,1,10,2:1:0:0:
300,16,378515,1,2,0:0:0:0:
280,224,378624,70,2,P|368:252|472:208,1,184.000003509522,2|8,0:0|2:1,0:0:0:0:
324,324,378951,2,2,B|356:304|356:304|384:236|364:160,1,184.000003509522,2|0,0:0|0:0,0:0:0:0:
200,92,379279,2,2,P|188:152|192:192,1,92.0000017547608,10|0,2:1|0:0,0:0:0:0:
52,280,379497,6,2,B|100:264|144:280|144:280|188:296|236:280,1,184.000003509522,2|8,0:0|2:1,0:0:0:0:
444,212,379825,2,2,P|352:212|284:132,1,184.000003509522,2|0,0:0|0:0,0:0:0:0:
404,24,380153,2,2,P|408:69|399:114,1,92.0000017547608,10|0,2:1|0:0,0:0:0:0:
184,160,380371,5,2,0:0:0:0:
304,64,380481,1,0,0:0:0:0:
136,40,380590,1,10,2:1:0:0:
308,180,380699,2,2,B|332:216|332:216|340:292|280:348,1,184.000003509522,2|0,0:0|0:0,0:0:0:0:
184,160,381027,1,8,2:1:0:0:
184,160,381245,69,0,0:0:0:0:
308,180,381355,1,0,0:0:0:0:
260,64,381464,1,8,2:1:0:0:
260,64,381682,5,0,0:0:0:0:
232,240,381792,1,0,0:0:0:0:
92,128,381901,2,0,P|152:128|192:136,1,92.0000017547608,8|0,2:1|0:0,0:0:0:0:
340,244,382119,5,4,0:0:0:0:
384,228,382192,1,0,0:0:0:0:
416,192,382265,1,0,0:0:0:0:
436,148,382338,1,8,2:1:0:0:
388,132,382411,1,0,0:0:0:0:
356,96,382485,1,0,0:0:0:0:
348,48,382558,2,2,P|288:76|184:32,1,184.000003509522,2|8,0:0|2:1,0:0:0:0:
92,96,382887,1,0,0:0:0:0:
164,180,382997,70,0,P|188:144|204:92,1,92.0000017547608
52,200,383217,2,0,P|52:252|72:304,1,92.0000017547608,8|0,2:1|0:0,0:0:0:0:
248,276,383436,1,0,0:0:0:0:
152,228,383546,1,0,0:0:0:0:
160,336,383656,1,10,2:1:0:0:
240,168,383766,1,0,0:0:0:0:
404,273,383875,6,2,P|326:315|248:276,1,184.000003509522,2|8,0:0|2:1,0:0:0:0:
364,172,384205,1,0,0:0:0:0:
496,216,384315,2,0,P|508:272|508:316,1,92.0000017547608
364,172,384534,2,0,P|372:124|392:80,1,92.0000017547608,8|0,2:1|0:0,0:0:0:0:
296,284,384754,6,2,B|236:276|236:276|168:284|168:284|108:276,1,184.000003509522,2|8,0:0|2:1,0:0:0:0:
164,176,385083,2,2,P|168:100|88:28,1,184.000003509522,2|0,0:0|0:0,0:0:0:0:
24,215,385413,2,2,P|39:172|67:135,1,92.0000017547608,10|0,2:1|0:0,0:0:0:0:
303,89,385632,70,2,P|252:162|163:175,1,184.000003509522,6|8,0:0|2:1,0:0:0:0:
348,192,385962,1,0,0:0:0:0:
192,68,386072,2,0,B|148:56|148:56|96:60,1,92.0000017547608
400,40,386291,2,0,B|448:44|448:44|496:28,1,92.0000017547608,8|0,2:1|0:0,0:0:0:0:
303,89,386511,5,2,0:0:0:0:
296,136,386583,1,0,0:0:0:0:
312,180,386656,1,0,0:0:0:0:
348,212,386729,1,8,2:1:0:0:
336,260,386802,1,0,0:0:0:0:
344,308,386875,1,0,0:0:0:0:
376,344,386948,5,2,0:0:0:0:
328,316,387021,1,0,0:0:0:0:
272,320,387094,1,0,0:0:0:0:
227,353,387167,1,10,2:1:0:0:
171,350,387240,1,0,0:0:0:0:
122,324,387313,1,0,0:0:0:0:
104,272,387386,6,2,B|96:212|96:212|116:148|116:148|108:76,1,200,6|8,0:1|0:0,0:2:0:0:
208,228,387715,2,2,B|256:236|256:236|316:216,1,100,10|0,0:1|0:0,0:1:0:0:
388,184,387897,1,0,0:0:0:0:
368,112,387970,1,0,0:0:0:0:
348,40,388043,2,2,B|299:23|299:23|251:31,1,100,10|0,0:1|0:0,0:1:0:0:
104,272,388262,6,2,B|156:324|156:324|296:344,1,200,6|8,0:1|0:0,0:2:0:0:
480,288,388591,2,2,B|432:280|432:280|372:300,1,100,10|0,0:1|0:0,0:1:0:0:
312,232,388773,1,0,0:0:0:0:
332,152,388846,1,0,0:0:0:0:
352,72,388919,2,2,B|400:88|400:88|448:80,1,100,10|0,0:1|0:0,0:1:0:0:
240,32,389146,86,0,L|212:148,1,103.999995239258,12|0,0:3|0:0,0:0:0:0:
292,344,389364,2,2,L|272:232,1,103.999995239258
84,252,389583,2,0,B|116:296|116:296|172:312,1,103.999995239258,8|0,0:0|0:0,0:0:0:0:
456,244,389802,2,0,B|424:200|424:200|368:184,1,103.999995239258
156,152,390021,6,0,P|256:136|308:44,1,207.999990478516,2|0,0:2|0:0,0:0:0:0:
184,32,390350,1,0,0:0:0:0:
32,156,390459,2,0,P|36:220|48:272,1,103.999995239258,8|0,0:0|0:0,0:0:0:0:
236,328,390678,1,0,0:0:0:0:
60,284,390788,1,0,0:0:0:0:
232,184,390897,86,0,B|300:180|300:180|360:216|360:216|432:212,1,207.999990478516,2|0,0:2|0:0,0:0:0:0:
392,100,391225,1,0,0:0:0:0:
268,296,391335,2,0,L|160:304,1,103.999995239258,8|0,0:0|0:0,0:0:0:0:
104,68,391554,2,0,L|220:80,1,103.999995239258
328,224,391773,5,8,0:0:0:0:
144,180,391882,1,0,0:0:0:0:
320,108,391992,1,0,0:0:0:0:
216,268,392101,2,2,B|168:287|168:287|108:292,1,103.999995239258,2|8,0:0|0:0,0:0:0:0:
236,152,392320,1,0,0:0:0:0:
317,324,392430,2,0,B|332:276|332:276|328:223,1,103.999995239258
216,56,392649,86,0,B|264:84|264:84|436:68,1,207.999990478516,2|0,0:2|0:0,0:0:0:0:
220,176,392977,1,0,0:0:0:0:
220,176,393086,2,0,P|144:156|92:40,1,207.999990478516,8|0,0:0|0:0,0:0:0:0:
316,100,393415,1,0,0:0:0:0:
236,277,393524,6,0,P|220:205|220:161,1,103.999995239258,8|0,0:0|0:0,0:0:0:0:
432,64,393743,2,0,P|432:124|416:172,1,103.999995239258
220,176,393962,1,10,0:0:0:0:
316,100,394072,1,0,0:0:0:0:
200,56,394181,1,2,0:0:0:0:
336,212,394291,1,0,0:0:0:0:
120,244,394400,86,0,L|104:136,1,103.999995239258,2|0,0:2|0:0,0:0:0:0:
321,315,394619,2,0,L|335:211,1,103.999995239258,2|0,0:2|0:0,0:0:0:0:
192,340,394838,2,0,P|84:360|4:300,1,207.999990478516,8|0,0:0|0:0,0:0:0:0:
236,216,395166,1,0,0:0:0:0:
100,100,395276,6,0,L|116:220,1,103.999995239258,12|0,0:0|0:0,0:0:0:0:
192,340,395495,1,0,0:0:0:0:
228,132,395604,1,0,0:0:0:0:
11,214,395714,2,0,B|63:215|63:215|113:202,1,103.999995239258,12|0,0:0|0:0,0:0:0:0:
264,16,395933,2,0,B|211:14|211:14|161:27,1,103.999995239258
348,104,396152,86,0,B|456:112|456:112|496:76|496:76|448:84,1,207.999990478516,12|0,0:3|0:0,0:0:0:0:
312,220,396480,1,0,0:0:0:0:
424,292,396589,2,0,L|440:176,1,103.999995239258,8|0,0:0|0:0,0:0:0:0:
220,36,396808,2,0,L|232:148,1,103.999995239258
48,340,397027,6,0,L|68:224,1,103.999995239258,8|0,0:0|0:0,0:0:0:0:
312,220,397246,2,0,L|292:332,1,103.999995239258
184,192,397465,1,8,0:0:0:0:
336,92,397575,1,0,0:0:0:0:
208,64,397684,1,0,0:0:0:0:
312,220,397794,1,0,0:0:0:0:
108,288,397903,86,0,P|64:212|116:88,1,207.999990478516,2|0,0:2|0:0,0:0:0:0:
232,312,398231,1,0,0:0:0:0:
312,220,398341,2,0,B|480:208|480:208|448:240,1,207.999990478516,8|0,0:0|0:0,0:0:0:0:
352,332,398669,1,0,0:0:0:0:
188,200,398779,6,0,B|188:148|188:148|208:84,1,103.999995239258,2|0,0:2|0:0,0:0:0:0:
396,48,398998,1,0,0:0:0:0:
296,168,399107,1,0,0:0:0:0:
140,28,399217,2,0,B|200:12|200:12|356:40,1,207.999990478516,8|0,0:0|0:0,0:0:0:0:
204,132,399545,1,0,0:0:0:0:
76,136,399655,86,0,B|40:100|40:100|16:48,1,103.999995239258,4|0,0:3|0:0,0:0:0:0:
204,132,399873,2,0,B|220:180|220:180|216:240,1,103.999995239258
44,364,400092,2,0,B|80:328|80:328|144:308,1,103.999995239258,8|0,0:0|0:0,0:0:0:0:
381,312,400311,2,0,B|432:328|432:328|468:364,1,103.999995239258
295,233,400530,2,0,B|292:180|292:180|308:132,1,103.999995239258,8|0,0:0|0:0,0:0:0:0:
494,51,400749,2,0,B|472:100|472:100|436:136,1,103.999995239258
200,44,400968,2,0,L|324:32,1,103.999995239258,8|0,0:0|0:0,0:0:0:0:
312,340,401187,2,0,L|188:352,1,103.999995239258
156,172,401406,5,4,0:3:0:0:
380,208,401516,1,0,0:0:0:0:
288,92,401625,85,8,0:3:0:0:
259,285,401734,1,0,0:0:0:0:
104,162,401844,1,0,0:0:0:0:
331,187,401953,5,8,0:3:0:0:
160,327,402063,1,0,0:0:0:0:
122,111,402172,1,0,0:0:0:0:
216,237,402282,85,8,0:3:0:0:
16,213,402391,1,8,0:3:0:0:
172,89,402501,5,8,0:3:0:0:
160,327,402610,1,8,0:3:0:0:
376,221,402720,85,0,0:0:0:0:
216,237,402829,1,0,0:0:0:0:
340,125,402939,5,0,0:0:0:0:
356,321,403048,1,0,0:0:0:0:
508,209,403158,86,0,L|404:218,1,103.999995239258,4|0,0:3|0:0,0:0:0:0:
204,109,403376,2,0,L|328:125,1,103.999995239258
112,296,403595,2,0,B|92:248|92:248|96:184,1,103.999995239258,8|0,0:0|0:0,0:0:0:0:
328,272,403814,2,0,B|344:324|344:324|336:384,1,103.999995239258
224,208,404033,6,0,P|264:172|412:188,1,207.999990478516,2|0,0:2|0:0,0:0:0:0:
328,272,404362,1,0,0:0:0:0:
236,72,404471,2,0,P|296:56|344:56,1,103.999995239258,8|0,0:0|0:0,0:0:0:0:
509,195,404690,2,0,P|441:195|397:179,1,103.999995239258
208,300,404909,86,0,P|272:268|396:320,1,207.999990478516,2|0,0:2|0:0,0:0:0:0:
304,172,405237,1,0,0:0:0:0:
132,212,405347,2,0,P|100:264|88:320,1,103.999995239258,8|0,0:0|0:0,0:0:0:0:
173,18,405566,2,0,P|197:64|203:115,1,103.999995239258
16,176,405785,6,0,P|40:132|92:96,1,103.999995239258,8|0,0:0|0:0,0:0:0:0:
320,148,406004,2,0,P|295:193|253:223,1,103.999995239258
202,115,406223,1,2,0:2:0:0:
420,112,406332,1,0,0:0:0:0:
288,44,406442,1,0,0:0:0:0:
360,252,406551,1,0,0:0:0:0:
147,200,406661,86,0,B|176:148|176:148|248:116|319:147,1,207.999990478516,4|0,0:3|0:0,0:0:0:0:
200,304,406989,1,0,0:0:0:0:
147,200,407098,2,0,B|96:184|96:184|20:184,1,103.999995239258,8|0,0:0|0:0,0:0:0:0:
303,247,407317,2,0,B|323:199|323:199|319:139,1,103.999995239258
200,4,407536,6,0,L|212:116,1,103.999995239258,8|0,0:0|0:0,0:0:0:0:
432,156,407755,2,0,L|448:52,1,103.999995239258
256,212,407974,2,0,L|272:328,1,103.999995239258,8|0,0:0|0:0,0:0:0:0:
472,364,408193,2,0,L|488:260,1,103.999995239258
168,304,408412,86,0,B|224:292|272:316|272:316|332:320|372:284,1,207.999990478516,2|0,0:2|0:0,0:0:0:0:
181,191,408740,1,0,0:0:0:0:
380,176,408850,2,0,B|345:207|285:203|285:203|237:179|181:191,1,207.999990478516,2|0,0:2|0:0,0:0:0:0:
308,88,409178,1,0,0:0:0:0:
483,187,409288,6,0,L|379:175,1,103.999995239258,12|0,0:0|0:0,0:0:0:0:
220,320,409507,1,0,0:0:0:0:
424,288,409616,1,0,0:0:0:0:
268,128,409726,2,0,L|276:236,1,103.999995239258,12|0,0:0|0:0,0:0:0:0:
156,84,409945,1,0,0:0:0:0:
380,176,410054,1,0,0:0:0:0:
171,291,410164,86,0,B|155:75,1,207.999990478516,4|0,0:3|0:0,0:0:0:0:
64,216,410492,1,0,0:0:0:0:
264,168,410601,2,0,B|280:120|280:120|276:52,1,103.999995239258,8|0,0:0|0:0,0:0:0:0:
48,16,410820,2,0,B|32:64|32:64|36:132,1,103.999995239258
220,272,411039,6,0,B|300:284|300:284|384:260|384:260|344:252,1,207.999990478516,2|0,0:2|0:0,0:0:0:0:
148,180,411368,1,0,0:0:0:0:
200,371,411477,2,0,B|220:327|220:327|220:267,1,103.999995239258,8|0,0:0|0:0,0:0:0:0:
7,335,411696,2,0,L|107:306,1,103.999995239258
371,324,411915,86,0,P|276:349|219:270,1,207.999990478516,4|0,0:3|0:0,0:0:0:0:
364,204,412243,1,0,0:0:0:0:
476,260,412353,2,0,P|488:316|484:368,1,103.999995239258,8|0,0:0|0:0,0:0:0:0:
364,204,412572,2,0,L|380:88,1,103.999995239258
148,236,412791,6,0,P|212:256|260:252,1,103.999995239258,8|0,0:0|0:0,0:0:0:0:
484,160,413010,2,0,L|504:48,1,103.999995239258
364,204,413229,1,2,0:2:0:0:
460,280,413338,1,0,0:0:0:0:
376,88,413448,1,0,0:0:0:0:
248,254,413557,1,0,0:0:0:0:
465,262,413667,86,0,L|485:150,1,103.999995239258,4|0,0:3|0:0,0:0:0:0:
260,36,413886,2,0,L|276:152,1,103.999995239258
124,292,414104,2,0,P|60:204|88:112,1,207.999990478516,8|0,0:0|0:0,0:0:0:0:
248,254,414433,1,0,0:0:0:0:
344,172,414542,6,0,P|352:112|348:56,1,103.999995239258,8|0,0:0|0:0,0:0:0:0:
372,296,414761,2,0,P|408:340|460:372,1,103.999995239258
248,254,414980,2,0,B|160:256|100:312|100:312|124:316|144:308,1,207.999990478516,8|0,0:0|0:0,0:0:0:0:
344,172,415309,1,0,0:0:0:0:
228,132,415418,86,0,P|192:96|168:48,1,103.999995239258,4|0,0:3|0:0,0:0:0:0:
32,232,415637,2,0,P|92:196|140:180,1,103.999995239258
340,280,415856,2,0,P|392:292|452:288,1,103.999995239258,8|0,0:0|0:0,0:0:0:0:
432,76,416075,2,0,P|412:124|400:196,1,103.999995239258
496,360,416294,5,8,0:0:0:0:
400,204,416403,1,0,0:0:0:0:
248,340,416513,1,0,0:0:0:0:
400,312,416622,1,0,0:0:0:0:
196,240,416732,2,0,B|160:264|160:264|112:264|112:264|76:288|76:288|20:252|12:180|56:136,1,311.999985717774,8|0,0:0|0:0,0:0:0:0:
256,64,417170,85,4,0:3:0:0:
276,168,417279,1,0,0:0:0:0:
296,272,417389,2,0,L|412:296,1,103.999995239258
276,60,417607,5,8,2:1:0:0:
296,172,417717,1,0,0:0:0:0:
316,284,417826,2,0,L|432:308,1,103.999995239258
296,56,418045,85,8,2:1:0:0:
204,124,418155,1,0,0:0:0:0:
112,192,418264,2,0,B|112:244|112:244|149:304,1,103.999995239258
309,71,418483,5,8,2:1:0:0:
212,144,418593,1,0,0:0:0:0:
112,212,418702,2,0,B|112:264|112:264|149:324,1,103.999995239258
324,192,418921,85,4,0:3:0:0:
212,144,419031,1,0,0:0:0:0:
100,96,419140,2,0,B|52:120|52:120|48:176,1,103.999995239258
324,208,419359,5,8,2:1:0:0:
204,156,419468,1,0,0:0:0:0:
84,104,419578,2,0,B|36:128|36:128|32:184,1,103.999995239258
264,324,419797,85,8,2:1:0:0:
324,208,419906,1,0,0:0:0:0:
388,96,420016,2,0,B|376:48|376:48|316:64,1,103.999995239258
248,320,420235,5,8,2:1:0:0:
308,196,420344,1,0,0:0:0:0:
372,76,420454,2,0,B|360:28|360:28|300:44,1,103.999995239258
124,100,420673,85,4,0:3:0:0:
308,196,420782,1,0,0:0:0:0:
204,16,420892,2,0,L|232:120,1,103.999995239258
288,304,421110,5,8,2:1:0:0:
396,124,421220,1,0,0:0:0:0:
208,224,421329,2,0,L|308:196,1,103.999995239258
120,152,421548,85,8,2:1:0:0:
340,184,421658,1,0,0:0:0:0:
156,314,421767,2,0,L|208:224,1,103.999995239258
292,72,421986,1,8,2:1:0:0:
288,304,422096,1,0,0:0:0:0:
480,172,422205,2,0,L|372:180,1,103.999995239258
136,224,422424,5,8,0:0:0:0:
180,260,422497,1,0,0:0:0:0:
236,260,422570,1,8,0:3:0:0:
284,228,422643,1,8,0:3:0:0:
288,172,422716,85,2,0:2:0:0:
232,156,422789,1,0,0:0:0:0:
204,104,422862,1,8,0:3:0:0:
217,47,422935,1,8,0:3:0:0:
268,20,423008,5,2,0:2:0:0:
209,7,423081,1,0,0:0:0:0:
152,28,423154,1,8,0:3:0:0:
111,72,423227,1,8,0:3:0:0:
107,132,423300,85,12,0:0:0:0:
155,183,423373,1,0,0:0:0:0:
224,200,423446,2,8,B|260:200|260:200|304:188,1,69.3333301595054,8|8,0:3|0:3,0:3:0:0:
383,220,423592,5,12,0:0:0:0:
392,296,423665,1,0,0:0:0:0:
349,358,423738,2,8,P|320:373|272:375,1,69.3333301595054,8|8,0:3|0:3,0:3:0:0:
192,327,423884,85,12,0:0:0:0:
206,245,423957,1,0,0:0:0:0:
220,164,424030,2,8,L|232:86,1,69.3333301595054,8|8,0:3|0:3,0:3:0:0:
302,16,424181,22,0,B|337:27|356:57|356:57|244:96|167:21|167:21|120:18|85:42,1,360.000013732911,8|0,1:0|0:0,0:0:0:0:
9,174,425056,2,0,B|72:212|144:182|144:182|216:152|284:190,1,287.999991210938,2|0,0:0|0:0,0:0:0:0:
206,322,425932,6,0,P|169:329|116:328,1,80,2|0,0:0|0:0,0:0:0:0:
330,279,426370,2,0,P|394:275|482:323,2,160,2|0|0,0:0|0:0|0:0,0:0:0:0:
144,236,427684,86,0,B|96:164|112:84|112:84|156:76|192:40,1,240,2|0,0:0|0:0,0:0:0:0:
329,48,428560,2,0,B|356:76|400:84|400:84|416:164|368:236,1,240,2|0,0:0|0:0,0:0:0:0:
256,352,429436,5,2,0:0:0:0:
144,236,429874,1,0,0:0:0:0:
256,120,430312,1,0,0:0:0:0:
368,236,430750,1,0,0:0:0:0:
144,236,431188,86,0,P|104:168|112:80,1,160,2|0,0:0|0:0,0:0:0:0:
368,236,432064,2,0,P|408:168|400:80,1,160,2|0,0:0|0:0,0:0:0:0:
144,236,432940,5,2,0:0:0:0:
368,236,433378,1,0,0:0:0:0:
256,40,433816,2,0,B|264:92|264:92|248:144|248:144|256:196,1,160
276,316,434472,1,0,0:0:0:0:
368,236,434691,86,0,B|424:176|416:88|416:88|368:48|304:48,1,280,2|0,0:0|0:0,0:0:0:0:
176,108,436443,6,0,B|204:160|264:184|264:184|232:232|160:236,1,240,2|0,0:0|0:0,0:0:0:0:
160,236,438195,86,0,B|216:260|276:240|276:240|336:220|396:240,1,240,2|0,0:0|0:0,0:0:0:0:
332,348,439071,2,0,P|276:284|316:140,1,240,2|0,0:0|0:0,0:0:0:0:
440,124,439947,5,2,0:0:0:0:
188,92,440385,2,0,P|112:96|24:128,2,160
348,272,441699,86,0,P|396:232|420:120,1,160,2|0,0:0|0:0,0:0:0:0:
80,216,442575,2,0,P|97:292|155:347,1,160,2|0,0:0|0:0,0:0:0:0:
256,328,443232,1,0,0:0:0:0:
356,308,443451,5,2,0:0:0:0:
160,228,443889,1,0,0:0:0:0:
372,172,444326,1,0,0:0:0:0:
156,100,444764,1,0,0:0:0:0:
380,32,445202,86,0,P|432:52|504:212,1,240,2|0,0:0|0:0,0:0:0:0:
428,304,446078,2,0,P|369:287|276:316,1,160,2|0,0:0|0:0,0:0:0:0:
96,216,446954,6,0,P|154:232|248:204,2,160,2|0|0,0:0|0:0|0:0,0:0:0:0:
280,316,448268,1,0,0:0:0:0:
164,108,448706,86,0,B|216:80|280:96|280:96|340:112|396:84|396:84|376:76|352:80,1,280,2|0,0:0|0:0,0:0:0:0:
232,196,450458,6,0,B|320:216|416:188|416:188|396:204|384:232,1,240,2|0,0:0|0:0,0:0:0:0:
384,230,452210,86,0,B|324:198|260:226|260:226|196:254|136:230|136:230|180:218|212:182|212:138|212:138|181:127|168:96,1,448,2|0,0:0|0:0,0:0:0:0:
168,96,455713,6,0,B|180:120|200:134|200:134|160:176|160:236|192:284|256:304|320:284|352:236|352:176|312:134|312:134|332:120|344:96,1,480,2|0,0:0|0:0,0:0:0:0:
256,192,459217,85,10,0:3:0:0:
160,80,459654,1,0,0:0:0:0:
400,164,460092,1,0,0:0:0:0:
207,331,460530,2,0,P|196:288|192:244,1,80
316,40,460968,2,0,B|328:80|328:80|316:116|316:116|328:156|308:196,1,160
308,194,461844,6,0,B|328:156|316:116|316:116|328:80|328:80|316:40,1,160,2|2,0:0|0:0,0:0:0:0:
316,40,463158,1,0,0:0:0:0:
168,148,463596,1,0,0:0:0:0:
400,244,464034,2,0,L|320:248,1,80
109,329,464472,2,0,P|186:315|256:352,1,160
256,352,465786,1,0,0:0:0:0:
144,136,466224,86,0,B|129:104|129:104|187:98|215:51,1,140,2|0,0:3|0:0,0:0:0:0:
300,33,467100,2,0,B|334:34|334:34|310:88|337:137,1,140,2|0,0:0|0:0,0:0:0:0:
311,222,467976,2,0,B|290:249|290:249|256:202|200:201,1,140,2|0,0:0|0:0,0:0:0:0:
117,216,468852,5,2,0:0:0:0:
338,137,469289,2,0,P|341:117|341:92,1,40
228,28,469727,86,0,L|172:20,3,40,2|0|0|0,0:0|0:0|0:0|0:0,0:0:0:0:
196,112,470165,2,0,L|144:116,3,40
264,172,470603,2,0,L|304:168,3,40
292,256,471041,2,0,L|336:268,3,40
204,284,471479,6,0,P|200:264|200:240,1,40,2|0,0:0|0:0,0:0:0:0:
270,132,471698,2,0,P|267:156|262:180,1,40
112,272,471917,2,0,P|108:252|108:228,1,40
178,120,472136,2,0,P|175:144|170:168,1,40
84,124,472355,2,0,L|76:80,3,40
144,20,472793,2,0,L|196:36,3,40
204,120,473231,86,0,L|164:157,1,40,2|0,0:0|0:0,0:0:0:0:
308,120,473450,2,0,L|344:152,1,40
208,232,473669,2,0,L|184:276,1,40
304,232,473888,2,0,L|324:268,1,40
296,352,474107,2,0,P|256:348|216:352,1,80
476,204,474545,2,0,P|436:208|388:204,1,80
192,36,474983,6,0,P|212:32|236:32,1,40,10|0,0:3|0:0,0:0:0:0:
316,80,475202,2,0,P|324:104|328:128,1,40
208,168,475421,2,0,P|216:148|228:124,1,40
100,80,475640,2,0,P|116:96|132:120,1,40
136,240,475859,2,0,L|120:288,3,40,2|0|0|0,0:3|0:0|0:0|0:0,0:0:0:0:
232,324,476297,2,0,L|224:280,3,40
304,224,476735,86,0,P|344:224|384:236,1,80,2|0,0:3|0:0,0:0:0:0:
220,100,477173,2,0,P|209:75|204:16,1,80
156,232,477611,2,0,P|143:246|120:264,1,40,2|0,0:3|0:0,0:0:0:0:
76,176,477830,2,0,P|77:155|84:124,1,40
168,88,478049,2,0,P|192:96|212:109,1,40
284,196,478268,2,0,P|258:193|228:188,1,40
360,128,478487,6,0,P|376:164|384:216,1,80,2|0,0:3|0:0,0:0:0:0:
88,360,478925,2,0,P|95:320|111:284,1,80,2|0,0:3|0:0,0:0:0:0:
401,284,479362,2,0,P|417:320|424:360,1,80,2|0,0:3|0:0,0:0:0:0:
128,203,479800,2,0,P|135:164|152:128,1,80,2|0,0:3|0:0,0:0:0:0:
444,144,480238,86,0,P|423:148|403:151,1,41.5999997460938,2|0,0:3|0:0,0:0:0:0:
356,32,480457,2,0,P|376:27|396:24,1,41.5999997460938,0|0,0:3|0:0,0:0:0:0:
292,140,480676,2,0,P|271:144|251:147,1,41.5999997460938,2|0,0:3|0:0,0:0:0:0:
204,28,480895,2,0,P|224:23|244:20,1,41.5999997460938,0|0,0:3|0:0,0:0:0:0:
136,132,481114,2,0,P|96:128|48:108,1,83.1999994921875,2|0,0:3|0:0,0:0:0:0:
372,160,481552,2,0,P|416:148|460:144,1,83.1999994921875,2|0,0:3|0:0,0:0:0:0:
196,248,481990,2,0,P|140:260|92:260,1,83.1999994921875,2|0,0:3|0:0,0:0:0:0:
308,48,482428,2,0,P|364:36|412:36,1,83.1999994921875,2|0,0:3|0:0,0:0:0:0:
156,136,482866,6,0,L|96:124,1,41.5999997460938,2|0,0:3|0:0,0:0:0:0:
308,48,483085,2,0,L|332:12,1,41.5999997460938
208,48,483304,2,0,L|184:12,1,41.5999997460938,2|0,0:3|0:0,0:0:0:0:
356,136,483523,2,0,L|416:124,1,41.5999997460938
208,220,483742,2,0,B|168:232|168:232|124:228,1,86.4000021093751,2|0,0:3|0:0,0:0:0:0:
360,316,484180,2,0,B|400:304|400:304|444:308,1,86.4000021093751,2|0,0:3|0:0,0:0:0:0:
352,96,484618,2,0,B|348:140|348:140|332:180,1,86.4000021093751,2|0,0:3|0:0,0:0:0:0:
108,272,485056,2,0,B|92:232|92:232|88:188,1,86.4000021093751,2|0,0:3|0:0,0:0:0:0:
244,16,485494,86,0,L|304:24,1,44.800000546875,2|0,0:3|0:0,0:0:0:0:
244,124,485713,2,0,L|199:131,1,44.800000546875
244,232,485932,2,0,L|304:240,1,44.800000546875,2|0,0:3|0:0,0:0:0:0:
244,340,486151,2,0,L|199:347,1,44.800000546875
352,324,486370,2,0,L|396:336,3,44.800000546875,2|0|0|0,0:3|0:0|0:0|0:0,0:0:0:0:
396,224,486808,2,0,L|444:216,3,44.800000546875,2|0|0|0,0:3|0:0|0:0|0:0,0:0:0:0:
288,237,487246,5,2,0:3:0:0:
324,12,487684,1,2,0:3:0:0:
288,237,488122,2,0,P|293:267|308:304,1,46.4000014160157,2|0,0:3|0:0,0:0:0:0:
200,104,488341,2,0,P|183:87|165:73,1,46.4000014160157
351,159,488560,2,0,P|374:163|398:164,1,46.4000014160157,2|0,0:3|0:0,0:0:0:0:
196,199,488779,2,0,P|175:210|156:223,1,46.4000014160157
296,80,488998,85,2,0:3:0:0:
360,368,489435,1,2,0:3:0:0:
48,156,489873,1,2,0:3:0:0:
456,32,490311,1,2,0:3:0:0:
56,352,490749,69,6,0:3:0:0:
256,192,490804,12,0,493815,0:0:0:0:
236,44,494253,22,0,P|160:84|220:140,1,186.666666666667,2|0,0:0|0:0,0:0:0:0:
313,203,495129,2,0,P|349:150|299:111,1,140,2|0,0:0|0:0,0:0:0:0:
200,172,496005,2,0,P|164:216|188:264,1,112,2|0,0:0|0:0,0:0:0:0:
335,315,496881,2,0,P|348:272|319:238,1,93.3333333333333,2|0,0:0|0:0,0:0:0:0:
222,225,497757,6,0,B|156:266|90:258|23:192|90:104|189:109|256:192|256:192|322:274|421:279|488:192|421:125|355:117|289:158,1,754.285714285714,2|0,0:0|0:0,0:0:0:0:
