osu file format v14

[General]
AudioFilename: audio.mp3
AudioLeadIn: 0
PreviewTime: 41886
Countdown: 0
SampleSet: Soft
StackLeniency: 0.7
Mode: 0
LetterboxInBreaks: 0
WidescreenStoryboard: 1

[Editor]
Bookmarks: 10587,21203,31741,42357,52972,63511,74126,84741,94706,95280
DistanceSpacing: 1
BeatDivisor: 4
GridSize: 4
TimelineZoom: 2

[Metadata]
Title:Take The Windward!
TitleUnicode:Take The Windward!
Artist:Falcom Sound Team jdk
ArtistUnicode:Falcom Sound Team jdk
Creator:Trust
Version:Normal
Source:The Legend of Heroes: Trails of Cold Steel II
Tags:英雄伝説 閃の軌跡 閃の軌跡2 rpg fie captin1 lanturn video game instrumental Masanori Osaki
BeatmapID:2269969
BeatmapSetID:770858

[Difficulty]
HPDrainRate:3
CircleSize:3.5
OverallDifficulty:4
ApproachRate:5
SliderMultiplier:1
SliderTickRate:1

[Events]
//Background and Video events
0,0,"fiebg.jpg",0,0
//Break Periods
//Storyboard Layer 0 (Background)
//Storyboard Layer 1 (Fail)
//Storyboard Layer 2 (Pass)
//Storyboard Layer 3 (Foreground)
//Storyboard Layer 4 (Overlay)
//Storyboard Sound Samples

[TimingPoints]
507,307.692307692308,4,2,2,40,1,0
2968,307.692307692308,4,2,2,70,1,0
18352,-100,4,2,2,70,0,0
20198,-100,4,2,2,70,0,0
22660,-100,4,2,2,70,0,0
41179,307.692307692308,4,2,2,60,1,8
41948,-100,4,2,2,30,0,0
42409,307.692307692308,4,2,2,80,1,0
62101,-100,4,2,2,80,0,0

[Colours]
Combo1 : 253,231,254
Combo2 : 202,255,228
Combo3 : 217,217,255

[HitObjects]
24,56,507,6,0,B|40:92|40:92|28:160,1,100,2|2,0:0|0:0,0:0:0:0:
69,241,1122,2,0,P|139:233|184:160,1,150,2|2,0:0|0:0,0:0:0:0:
200,72,1891,1,0,0:0:0:0:
200,72,2045,2,0,P|140:79|104:120,2,100,2|2|2,0:0|0:0|0:0,0:0:0:0:
232,112,2814,6,0,L|334:104,1,100,4|0,1:0|0:0,0:0:0:0:
368,144,3275,1,8,0:0:0:0:
444,80,3583,2,0,L|457:16,2,50,0|0|8,1:0|1:0|0:0,0:0:0:0:
468,177,4198,2,0,L|484:234,1,50,0|0,1:0|0:0,0:0:0:0:
495,273,4506,1,8,0:0:0:0:
431,350,4814,2,0,P|369:324|317:337,1,100,0|8,1:0|0:0,0:0:0:0:
288,336,5275,6,0,B|266:293|266:293|278:224,1,100,4|0,1:2|0:0,0:0:0:0:
284,192,5737,1,8,0:0:0:0:
204,132,6044,2,0,L|217:67,2,50,0|0|8,1:0|1:0|0:0,0:0:0:0:
116,181,6660,2,0,L|128:237,1,50,0|8,1:0|0:0,0:0:0:0:
21,122,7275,2,0,L|33:66,1,50,0|0,1:0|1:0,0:0:0:0:
111,11,7737,6,0,P|200:17|218:32,1,100,4|0,1:0|0:0,0:0:0:0:
237,59,8198,1,12,0:0:0:0:
334,35,8506,2,0,L|396:17,2,50,0|0|8,1:0|1:0|0:0,0:0:0:0:
304,130,9121,2,0,P|310:200|339:234,1,100,0|8,1:0|0:0,0:0:0:0:
393,297,9737,2,0,P|349:320|300:319,1,100,0|8,1:0|0:0,0:0:0:0:
260,292,10198,6,0,B|213:266|213:266|166:276,1,100,4|0,1:2|0:0,0:0:0:0:
120,288,10660,1,8,0:0:0:0:
48,220,10968,2,0,L|-12:236,2,50,0|8|8,1:0|0:0|0:3,0:0:0:0:
120,152,11583,2,0,L|132:80,1,50,8|8,0:0|0:0,0:0:0:0:
256,24,12198,2,0,L|264:73,1,50,8|8,0:0|0:0,0:0:0:0:
404,128,12814,5,0,1:0:0:0:
500,104,13121,1,12,0:0:0:0:
472,200,13429,2,0,P|468:268|496:312,1,100,0|8,1:0|0:0,0:0:0:0:
450,334,13891,2,0,B|386:362|386:362|294:342,1,150,0|8,1:0|0:0,0:0:0:0:
216,304,14660,1,0,1:0:0:0:
304,252,14968,1,8,0:0:0:0:
216,208,15275,6,0,L|187:107,1,100,0|0,1:0|0:0,0:0:0:0:
122,36,15891,2,0,P|90:96|94:140,1,100,0|8,1:0|0:0,0:0:0:0:
96,176,16352,2,0,P|92:225|64:266,1,100,0|0,1:1|1:1,0:0:0:0:
46,313,16814,1,8,0:0:0:0:
132,364,17121,2,0,L|180:351,1,50,0|0,1:0|1:0,0:0:0:0:
228,336,17429,1,8,0:0:0:0:
324,364,17737,6,0,P|352:300|348:252,1,100,0|8,1:0|0:0,0:0:0:0:
260,232,18352,2,0,P|232:168|236:120,1,100,0|8,1:0|0:0,0:0:0:0:
332,128,18968,2,0,P|384:112|440:104,1,100,0|8,1:0|0:0,0:0:0:0:
392,12,19583,2,0,P|340:28|284:36,1,100,0|12,1:0|0:0,0:0:0:0:
196,16,20198,5,4,1:0:0:0:
224,112,20506,1,8,0:0:0:0:
128,132,20814,2,0,L|104:236,1,100,2|8,1:1|0:0,0:0:0:0:
136,272,21275,2,0,P|180:248|232:248,1,100,4|8,1:2|0:0,0:0:0:0:
276,264,21737,1,8,0:3:0:0:
368,284,22044,2,0,P|367:235|344:192,1,100,8|4,0:0|0:3,0:0:0:0:
264,132,22660,5,4,1:0:0:0:
172,172,22968,1,12,0:0:0:0:
80,128,23275,2,0,P|72:72|104:24,1,100,2|8,1:1|0:0,0:0:0:0:
140,24,23737,2,0,B|192:44|192:44|304:24,1,150,0|8,1:0|0:0,0:0:0:0:
380,0,24506,2,0,B|404:32|404:32|400:96,1,100,0|8,1:1|0:0,0:0:0:0:
348,176,25121,5,2,1:0:0:0:
300,88,25429,1,8,0:0:0:0:
244,172,25737,2,0,P|176:164|144:132,1,100,0|8,1:0|0:0,0:0:0:0:
104,136,26198,2,0,B|76:180|76:180|92:280,1,150,2|8,1:1|0:0,0:0:0:0:
188,308,26968,2,0,L|176:364,2,50,0|2|8,1:0|1:1|0:0,0:0:0:0:
264,244,27583,6,0,P|312:224|372:236,1,100,2|8,1:0|0:0,0:0:0:0:
456,216,28198,2,0,L|444:156,1,50,0|2,1:0|1:0,0:0:0:0:
436,116,28506,1,8,0:0:0:0:
364,44,28814,2,0,B|332:72|332:72|328:152,1,100,2|8,1:1|0:0,0:0:0:0:
240,180,29429,2,0,L|184:168,1,50,0|2,1:0|1:1,0:0:0:0:
144,156,29737,1,12,0:0:0:0:
64,96,30044,5,4,1:0:0:0:
88,0,30352,1,8,0:0:0:0:
168,56,30660,2,0,L|268:72,1,100,2|8,1:1|0:0,0:0:0:0:
312,48,31121,2,0,B|340:96|340:96|328:160,1,100,4|8,1:0|0:0,0:0:0:0:
320,188,31583,1,4,0:3:0:0:
412,232,31891,2,0,P|416:296|392:336,1,100,8|8,0:3|0:0,0:0:0:0:
304,356,32506,6,0,L|204:336,1,100,4|12,1:0|0:0,0:0:0:0:
140,204,33275,2,0,L|120:268,2,50,2|10|0,1:2|0:0|0:0,0:0:0:0:
156,156,33737,2,0,B|208:164|208:164|264:136,1,100,0|10,1:0|0:0,0:0:0:0:
236,44,34352,2,0,B|184:36|184:36|128:64,1,100,0|10,1:0|0:0,0:0:0:0:
60,116,34968,6,0,L|44:176,2,50,2|0|8,1:2|1:0|0:0,0:0:0:0:
156,156,35583,2,0,L|168:224,1,50,2|0,1:2|1:0,0:0:0:0:
176,256,35891,1,8,0:0:0:0:
268,216,36198,2,0,P|320:224|368:268,1,100,2|8,1:2|0:0,0:0:0:0:
420,172,36814,2,0,P|451:214|453:279,1,100,2|12,1:2|0:0,0:0:0:0:
404,344,37429,6,0,B|324:348|324:348|290:325|290:325|203:330,1,200,2|8,1:2|0:0,0:0:0:0:
120,368,38352,1,0,0:0:0:0:
96,272,38660,2,0,P|16:244|-12:252,2,100,0|0|8,1:0|1:0|0:0,0:0:0:0:
172,204,39583,2,0,L|180:144,1,50,0|0,0:0|1:0,0:0:0:0:
188,104,39891,5,8,0:0:0:0:
188,104,40044,2,0,L|308:88,1,100,8|8,0:3|0:3,0:0:0:0:
344,8,40660,2,0,L|464:24,1,100,8|8,0:3|0:0,0:0:0:0:
484,276,42409,6,0,P|432:304|372:292,1,100,4|8,1:0|0:2,0:0:0:0:
336,220,43024,2,0,L|316:112,1,100,0|8,1:0|0:0,0:0:0:0:
276,96,43485,2,0,B|228:120|228:120|204:220,1,150,4|8,1:2|0:0,0:0:0:0:
184,312,44255,1,0,1:0:0:0:
112,244,44562,1,10,0:0:0:0:
44,168,44870,6,0,L|64:56,1,100,2|10,1:2|0:0,0:0:0:0:
148,20,45485,2,0,L|160:80,1,50,2|0,1:2|1:2,0:0:0:0:
172,116,45793,1,10,0:0:0:0:
172,116,45947,2,0,B|232:100|284:128|284:128|268:184,1,150,4|8,1:2|0:0,0:0:0:0:
352,224,46716,2,0,L|384:108,1,100,0|8,1:0|0:0,0:0:0:0:
476,112,47332,6,0,P|500:164|484:224,1,100,4|8,1:0|0:0,0:0:0:0:
444,292,47947,2,0,B|408:316|408:316|340:312,1,100,2|10,1:2|0:0,0:0:0:0:
308,292,48409,2,0,B|212:272|212:272|164:308,1,150,6|8,1:2|0:0,0:0:0:0:
80,348,49178,2,0,L|60:280,1,50,0|0,1:0|1:0,0:0:0:0:
52,252,49485,1,8,0:0:0:0:
124,180,49793,5,2,1:2:0:0:
52,108,50101,1,10,0:2:0:0:
128,40,50409,2,0,L|188:52,1,50,10|0,0:2|1:0,0:0:0:0:
224,36,50716,1,8,1:2:0:0:
224,36,50870,2,0,B|252:80|252:80|236:188,1,150,4|8,1:2|0:0,0:0:0:0:
328,220,51639,2,0,P|372:192|432:196,1,100,4|8,1:2|0:0,0:0:0:0:
400,292,52255,6,0,P|356:320|296:316,1,100,4|8,1:0|0:0,0:0:0:0:
232,256,52870,2,0,L|216:148,1,100,0|8,1:0|0:0,0:0:0:0:
248,120,53332,2,0,B|292:144|292:144|408:120,1,150,4|8,1:2|0:0,0:0:0:0:
476,176,54101,2,0,L|456:284,1,100,0|10,1:0|0:0,0:0:0:0:
396,352,54716,1,2,1:2:0:0:
360,260,55024,1,10,0:0:0:0:
292,332,55332,1,2,1:2:0:0:
292,332,55485,2,0,L|224:344,1,50,0|10,1:2|0:0,0:0:0:0:
200,368,55793,6,0,B|164:324|172:276|172:276|188:224,1,150,4|8,1:2|0:0,0:0:0:0:
276,184,56562,2,0,P|284:144|252:76,1,100,0|8,1:0|0:0,0:0:0:0:
172,52,57178,2,0,P|164:92|196:160,1,100,4|8,1:2|0:0,0:0:0:0:
120,224,57793,2,0,L|60:212,1,50,10|0,0:0|1:0,0:0:0:0:
16,132,58255,6,0,B|0:76|32:24|32:24|84:12,1,150,4|8,1:0|0:0,0:0:0:0:
152,72,59024,2,0,L|204:60,1,50,0|0,1:0|1:0,0:0:0:0:
252,52,59332,1,8,0:0:0:0:
332,112,59639,2,0,L|316:216,1,100,6|10,1:2|0:0,0:0:0:0:
218,232,60255,2,0,L|226:304,1,50,10|0,0:0|1:0,0:0:0:0:
190,316,60562,1,10,0:0:0:0:
190,316,60716,6,0,P|122:308|50:352,1,150,4|8,0:0|0:3,0:0:0:0:
22,384,61332,1,8,0:0:0:0:
268,356,62101,6,0,P|280:268|272:248,1,100,4|8,1:0|0:0,0:0:0:0:
192,208,62716,2,0,B|156:224|156:224|80:200,1,100,2|8,1:2|0:0,0:0:0:0:
60,176,63178,2,0,L|44:24,1,150,4|8,0:0|0:0,0:0:0:0:
140,48,63947,1,0,1:0:0:0:
192,132,64255,1,10,0:0:0:0:
248,52,64562,6,0,P|304:40|348:52,1,100,2|10,1:2|0:0,0:0:0:0:
412,124,65178,2,0,L|400:188,1,50,2|2,1:2|1:2,0:0:0:0:
432,216,65485,1,10,0:0:0:0:
432,216,65639,2,0,B|392:248|392:248|288:232,1,150,4|8,1:2|0:0,0:0:0:0:
200,268,66409,2,0,B|224:312|224:312|216:364,1,100,0|8,1:0|0:0,0:0:0:0:
120,380,67024,6,0,B|96:336|96:336|104:284,1,100,4|8,1:0|0:0,0:0:0:0:
128,188,67639,2,0,L|236:164,1,100,2|8,1:2|0:0,0:0:0:0:
268,192,68101,2,0,B|344:200|368:144|368:144|356:96,1,150,4|8,1:2|0:0,0:0:0:0:
287,47,68870,1,2,1:2:0:0:
382,17,69178,1,8,0:0:0:0:
459,79,69485,6,0,L|491:189,1,100,10|10,0:0|0:0,0:0:0:0:
405,233,70101,2,0,L|393:297,1,50,10|0,0:0|1:0,0:0:0:0:
385,333,70409,1,10,0:0:0:0:
385,333,70562,2,0,B|309:317|309:317|237:353,1,150,4|8,1:2|0:0,0:0:0:0:
152,308,71332,2,0,P|128:244|140:200,1,100,8|8,0:0|0:3,0:0:0:0:
176,124,71947,6,0,L|152:12,1,100,4|8,1:0|0:0,0:0:0:0:
64,68,72562,2,0,L|44:176,1,100,0|8,1:0|0:0,0:0:0:0:
20,208,73024,2,0,B|52:252|52:252|108:232|160:268,1,150,4|8,1:2|0:0,0:0:0:0:
228,316,73793,1,0,1:0:0:0:
312,264,74101,1,10,0:0:0:0:
388,332,74409,6,0,P|412:260|400:220,1,100,2|10,1:2|0:0,0:0:0:0:
336,168,75024,2,0,L|328:108,1,50,2|0,1:2|1:2,0:0:0:0:
292,84,75332,1,10,0:0:0:0:
292,84,75485,2,0,B|244:104|244:104|136:88,1,150,4|8,1:2|0:0,0:0:0:0:
52,56,76255,2,0,P|24:104|28:160,1,100,2|8,1:2|0:0,0:0:0:0:
64,180,76716,1,8,0:0:0:0:
64,180,76870,6,0,B|104:216|104:216|116:272,1,100,4|8,1:0|0:0,0:0:0:0:
208,292,77485,2,0,L|220:232,1,50,8|0,0:0|1:0,0:0:0:0:
300,184,77947,2,0,L|420:172,1,100,4|0,1:2|0:0,0:0:0:0:
448,172,78409,1,8,0:0:0:0:
496,260,78716,2,0,B|484:308|484:308|440:352,1,100,0|8,1:0|0:0,0:0:0:0:
360,296,79332,5,6,1:2:0:0:
288,364,79639,1,10,0:0:0:0:
208,304,79947,2,0,L|192:248,1,50,10|0,0:0|1:0,0:0:0:0:
220,212,80255,1,10,0:0:0:0:
220,212,80409,2,0,B|260:176|260:176|272:72,1,150,4|8,1:0|0:0,0:0:0:0:
196,16,81178,2,0,P|140:12|92:44,1,100,8|4,0:3|0:3,0:0:0:0:
72,128,81793,6,0,P|128:132|176:100,2,100,4|8|8,1:2|0:0|0:0,0:0:0:0:
4,56,82716,1,8,0:0:0:0:
102,32,83024,2,0,B|180:15|180:15|217:32|217:32|294:16,1,200,4|0,0:0|0:0,0:0:0:0:
384,60,83947,1,0,0:0:0:0:
468,8,84255,6,0,B|508:48|512:108|512:108|476:156,1,150,4|12,1:0|0:0,0:0:0:0:
348,188,85178,2,0,B|296:204|276:280|276:280|224:200,1,200,12|12,0:0|0:0,0:0:0:0:
188,124,86101,1,12,0:0:0:0:
140,36,86409,1,12,0:0:0:0:
48,76,86716,6,0,B|20:132|20:132|52:168|48:232,1,150,12|12,1:2|0:0,0:0:0:0:
168,304,87639,2,0,B|212:256|272:260|272:260|300:284,1,150,12|12,0:0|0:0,0:0:0:0:
432,344,88562,2,0,L|440:280,1,50,8|8,0:0|0:0,0:0:0:0:
444,244,88870,1,8,0:0:0:0:
408,152,89178,6,0,L|468:140,2,50,4|0|8,1:0|0:0|0:0,0:0:0:0:
324,204,89793,2,0,L|274:194,1,50,0|0,1:0|1:0,0:0:0:0:
228,184,90101,1,12,0:0:0:0:
152,248,90409,2,0,P|129:203|132:154,1,100,0|8,1:0|0:0,0:0:0:0:
192,72,91024,2,0,L|296:56,1,100,0|8,1:0|0:0,0:0:0:0:
328,24,91485,6,0,B|372:64|372:64|392:168,1,150,4|8,1:2|0:0,0:0:0:0:
460,224,92255,2,0,L|448:288,1,50,0|0,1:0|1:0,0:0:0:0:
440,320,92562,1,8,0:0:0:0:
344,352,92870,2,0,L|332:284,1,50,0|8,1:0|0:0,0:0:0:0:
208,220,93485,2,0,L|199:269,1,50,0|0,1:0|1:0,0:0:0:0:
112,320,93947,6,0,B|80:288|80:288|68:220,1,100,4|0,1:0|1:0,0:0:0:0:
64,184,94409,1,12,0:0:0:0:
108,96,94716,2,0,L|100:40,2,50,0|0|8,1:0|1:0|0:0,0:0:0:0:
184,160,95332,2,0,P|256:160|292:132,1,100,0|8,1:0|0:0,0:0:0:0:
356,84,95947,2,0,P|376:129|369:178,1,100,0|8,1:0|0:0,0:0:0:0:
340,220,96409,6,0,B|316:264|316:264|336:372,1,150,4|8,1:2|0:0,0:0:0:0:
236,372,97178,2,0,L|168:360,1,50,0|8,1:0|0:0,0:0:0:0:
140,352,97485,1,8,0:3:0:0:
80,272,97793,6,0,L|68:208,1,50,8|8,0:0|0:0,0:0:0:0:
200,148,98409,2,0,L|190:197,1,50,8|8,0:0|0:0,0:0:0:0:
