osu file format v14

[General]
AudioFilename: audio.mp3
AudioLeadIn: 0
PreviewTime: 82121
Countdown: 0
SampleSet: Soft
StackLeniency: 0.7
Mode: 0
LetterboxInBreaks: 0
WidescreenStoryboard: 0

[Editor]
Bookmarks: 68407,109764,154978,195264,238121,266407,293220,321264
DistanceSpacing: 2.2
BeatDivisor: 4
GridSize: 4
TimelineZoom: 2.4

[Metadata]
Title:Silver Will
TitleUnicode:Silver Will
Artist:Falcom Sound Team jdk
ArtistUnicode:Falcom Sound Team jdk
Creator:Pho
Version:Trails In The Sky
Source:
Tags:The Legend Of Heroes VI VII 空の軌跡 Sora no Kiseki 2nd sc えいゆうでんせつ eiyuu densetsu レオンハルト レーヴェ 身喰らう蛇 剣帝 Leonhardt anniversary lily bread
BeatmapID:1833816
BeatmapSetID:877014

[Difficulty]
HPDrainRate:7.5
CircleSize:4
OverallDifficulty:8
ApproachRate:8
SliderMultiplier:2
SliderTickRate:1

[Events]
//Background and Video events
0,0,"Leonhardt.jpg",0,0
//Break Periods
//Storyboard Layer 0 (Background)
//Storyboard Layer 1 (Fail)
//Storyboard Layer 2 (Pass)
//Storyboard Layer 3 (Foreground)
//Storyboard Layer 4 (Overlay)
//Storyboard Sound Samples

[TimingPoints]
693.254502439487,428.571428571429,4,2,1,40,1,0
25978,-100,4,2,1,5,0,0
26407,-100,4,2,1,40,0,0
28121,-100,4,2,1,60,0,0
42050,-100,4,2,1,45,0,0
62300,-100,4,2,1,5,0,0
62407,-100,4,2,1,45,0,0
68407,-133.333333333333,4,2,1,40,0,0
82978,-100,4,2,1,40,0,0
206407,-133.333333333333,4,2,1,40,0,0
208121,-133.333333333333,4,2,1,45,0,0
209407,-111.111111111111,4,2,1,40,0,0
209836,-111.111111111111,4,2,1,50,0,0
210907,-111.111111111111,4,2,1,55,0,0
211550,-100,4,2,1,65,0,0
212086,-100,4,2,1,5,0,0
212193,-100,4,2,1,65,0,0
213264,-133.333333333333,4,2,1,65,0,0
214978,-100,4,2,1,65,0,0
215514,-100,4,2,1,5,0,0
215621,-100,4,2,1,65,0,0
216693,-133.333333333333,4,2,1,65,0,0
218407,-100,4,2,1,65,0,0
220121,-133.333333333333,4,2,1,65,0,0
221728,-100,4,2,1,65,0,0
222693,-133.333333333333,4,2,1,65,0,0
224514,-111.111111111111,4,2,1,65,0,0
225264,-100,4,2,1,65,0,0
225800,-100,4,2,1,5,0,0
225907,-100,4,2,1,65,0,0
226978,-133.333333333333,4,2,1,65,0,0
228693,-100,4,2,1,65,0,0
229228,-100,4,2,1,5,0,0
229336,-100,4,2,1,65,0,0
235550,-100,4,2,1,65,0,0
236407,-133.333333333333,4,2,1,65,0,0
238978,-100,4,2,1,65,0,0
266648,428.571428571429,4,2,1,65,1,0
266862,428.571428571429,4,2,1,65,1,0
268147,428.571428571429,4,2,1,65,1,0
279264,442.80442804428,4,2,1,40,1,0
280149,428.571428571429,4,2,1,40,1,0
293434,400,4,2,1,40,1,0
293834,428.571428571429,4,2,1,40,1,0

[Colours]
Combo1 : 131,153,180
Combo2 : 214,185,169
Combo3 : 192,192,192
Combo4 : 49,71,130

[HitObjects]
256,192,21264,12,0,25978,0:0:0:0:
402,216,26407,6,0,P|415:160|382:84,1,100
366,50,26728,1,0,0:0:0:0:
366,50,26836,2,0,B|327:74|327:74|229:85,1,100,2|0,0:0|0:0,0:0:0:0:
215,132,27157,1,0,0:0:0:0:
215,132,27264,2,0,L|140:94,1,50
44,105,27478,2,0,L|74:170,1,50
167,214,27693,1,2,0:0:0:0:
166,248,27800,1,0,0:0:0:0:
153,280,27907,1,2,0:0:0:0:
126,303,28014,1,0,0:0:0:0:
91,308,28121,5,0,3:0:0:0:
115,164,28336,1,0,0:0:0:0:
241,235,28550,1,8,0:2:0:0:
37,216,28764,2,0,L|27:130,1,50,2|0,0:0|0:0,0:0:0:0:
27,77,28978,1,0,3:0:0:0:
23,67,29193,1,0,0:0:0:0:
32,68,29407,1,8,0:2:0:0:
216,147,29621,1,0,0:0:0:0:
184,56,29836,5,0,3:0:0:0:
168,225,30050,1,0,0:0:0:0:
304,161,30264,1,8,0:2:0:0:
133,114,30478,2,0,L|122:174,1,50,2|0,0:0|0:0,0:0:0:0:
102,287,30693,1,0,3:0:0:0:
95,294,30907,1,0,0:0:0:0:
89,285,31121,1,8,0:2:0:0:
272,373,31336,5,0,0:0:0:0:
354,223,31550,1,0,3:0:0:0:
369,384,31764,1,0,0:0:0:0:
203,305,31978,1,8,0:2:0:0:
238,209,32193,2,0,L|302:188,1,50,2|0,0:0|0:0,0:0:0:0:
379,156,32407,1,0,3:0:0:0:
388,158,32621,1,0,0:0:0:0:
384,148,32836,1,8,0:2:0:0:
275,96,33050,1,0,0:0:0:0:
404,52,33264,5,0,3:0:0:0:
309,179,33478,1,0,0:0:0:0:
315,35,33693,1,8,0:2:0:0:
463,156,33907,2,0,L|444:246,1,50,2|0,0:0|0:0,0:0:0:0:
414,273,34121,2,0,L|440:332,1,50,0|2,3:0|0:0,0:0:0:0:
364,208,34336,2,0,L|288:227,1,50
271,288,34550,2,0,P|221:292|149:261,1,100,10|0,0:2|0:0,0:0:0:0:
0,120,34978,5,0,3:0:0:0:
104,58,35193,1,0,0:0:0:0:
189,203,35407,1,8,0:0:0:0:
292,81,35621,1,2,0:0:0:0:
292,81,35728,1,0,0:0:0:0:
292,81,35836,1,0,3:0:0:0:
218,20,36050,1,0,0:0:0:0:
129,45,36264,2,0,L|152:165,1,100,8|0,0:0|0:0,0:0:0:0:
125,288,36693,5,0,3:0:0:0:
21,310,36907,1,0,0:0:0:0:
148,377,37121,1,8,0:2:0:0:
26,224,37336,1,2,0:0:0:0:
26,224,37443,1,0,0:0:0:0:
26,224,37550,1,0,3:0:0:0:
112,170,37764,1,0,0:0:0:0:
197,228,37978,2,0,P|252:267|309:270,1,100,8|0,0:2|0:0,0:0:0:0:
431,186,38407,5,0,3:0:0:0:
294,112,38621,1,0,0:0:0:0:
427,62,38836,1,8,0:2:0:0:
341,206,39050,1,2,0:0:0:0:
341,206,39157,1,0,0:0:0:0:
341,206,39264,1,0,3:0:0:0:
199,156,39478,1,0,0:0:0:0:
223,355,39693,1,8,0:2:0:0:
101,231,39907,5,2,0:0:0:0:
101,231,40014,1,0,0:0:0:0:
101,231,40121,2,0,L|185:257,3,50,0|0|0|0,0:3|0:0|0:0|0:0,0:0:0:0:
218,283,40550,2,0,P|227:254|226:212,1,50,0|0,3:0|0:0,0:0:0:0:
287,126,40764,2,0,P|307:160|315:204,1,50
352,344,40978,2,0,P|351:309|368:268,1,50,0|0,3:0|0:0,0:0:0:0:
408,94,41193,2,0,P|429:123|431:175,1,50
462,304,41407,5,0,3:0:0:0:
507,291,41514,1,0,0:0:0:0:
512,240,41621,1,0,3:0:0:0:
465,222,41728,1,0,0:0:0:0:
434,267,41836,6,0,P|354:283|237:229,1,200,4|8,3:2|0:0,0:0:0:0:
133,379,42478,1,0,0:0:0:0:
53,318,42693,2,0,B|36:279|36:279|73:199|73:199|41:118,1,200,0|8,3:0|0:0,0:0:0:0:
236,184,43336,1,0,0:0:0:0:
226,12,43550,6,0,P|158:27|125:126,1,150,0|0,3:0|0:0,0:0:0:0:
147,166,43978,1,8,0:0:0:0:
286,269,44193,1,0,0:0:0:0:
286,269,44300,1,8,0:0:0:0:
286,269,44407,2,0,B|346:264|346:264|441:315,1,150,0|0,3:0|0:0,0:0:0:0:
476,365,44836,2,0,P|505:306|494:248,1,100,8|0,0:0|0:0,0:0:0:0:
301,174,45264,5,0,3:0:0:0:
456,30,45586,1,0,0:0:0:0:
456,30,45693,2,0,B|466:86|466:86|429:165,1,100,8|0,0:0|0:0,0:0:0:0:
429,200,46014,2,0,P|339:213|278:167,1,150,8|0,0:0|0:0,0:0:0:0:
219,332,46550,2,0,B|201:299|201:299|219:225,1,100,8|0,0:0|0:0,0:0:0:0:
230,48,46978,6,0,P|168:23|108:50,1,100,0|0,3:0|0:0,0:0:0:0:
0,120,47407,2,0,P|52:173|95:174,1,100,8|0,0:0|0:0,0:0:0:0:
138,119,47728,1,8,0:0:0:0:
138,119,47836,2,0,B|160:144|160:144|144:235,1,100,0|0,3:0|0:0,0:0:0:0:
86,299,48264,2,0,L|215:347,1,100,8|0,0:0|0:0,0:0:0:0:
241,120,48693,6,0,B|311:200|311:200|321:275,1,150,0|0,3:0|0:0,0:0:0:0:
278,306,49121,1,8,0:0:0:0:
431,249,49336,2,0,L|450:334,1,50,0|8,0:0|0:0,0:0:0:0:
434,376,49550,2,0,P|502:351|516:269,1,150,0|0,3:0|0:0,0:0:0:0:
501,204,49978,1,8,0:0:0:0:
302,26,50193,1,0,0:0:0:0:
302,26,50300,1,0,0:0:0:0:
302,26,50407,6,0,P|284:82|302:135,1,100,0|0,3:0|0:0,0:0:0:0:
381,262,50836,2,0,L|283:283,1,100,8|0,0:0|0:0,0:0:0:0:
225,217,51157,1,8,0:0:0:0:
225,217,51264,2,0,B|126:199|126:199|60:153,1,150,0|0,3:0|0:0,0:0:0:0:
73,90,51693,1,8,0:0:0:0:
37,250,51907,1,0,0:0:0:0:
250,384,52121,6,0,B|251:333|273:309|273:309|237:253|237:253|261:179,1,200,0|8,3:0|0:0,0:0:0:0:
378,151,52764,1,0,0:0:0:0:
378,151,52871,1,8,0:0:0:0:
378,151,52978,2,0,P|350:221|313:241,1,100,0|0,3:0|0:0,0:0:0:0:
186,136,53407,2,0,P|162:94|161:40,1,100,8|0,0:0|0:0,0:0:0:0:
324,16,53836,5,0,3:0:0:0:
446,104,54050,1,8,0:0:0:0:
280,134,54264,1,8,0:0:0:0:
407,229,54478,1,0,0:0:0:0:
418,240,54586,1,8,0:0:0:0:
430,252,54693,2,0,L|416:308,3,50,0|8|0|0,3:0|0:0|0:0|0:0,0:0:0:0:
353,379,55121,1,8,3:2:0:0:
343,376,55228,1,0,0:0:0:0:
333,373,55336,1,0,0:0:0:0:
323,370,55443,1,0,0:0:0:0:
313,367,55550,6,0,P|275:317|167:290,1,150,0|0,3:0|0:0,0:0:0:0:
131,335,55978,1,8,0:0:0:0:
0,220,56193,1,0,0:0:0:0:
99,194,56407,2,0,P|152:169|185:65,1,150,0|0,3:0|0:0,0:0:0:0:
165,13,56836,1,8,0:0:0:0:
261,215,57050,1,0,0:0:0:0:
332,154,57264,6,0,B|352:96|352:96|292:7,1,150,0|0,3:0|0:0,0:0:0:0:
281,20,57693,2,0,P|227:33|180:17,1,100,8|0,0:0|0:0,0:0:0:0:
103,40,58014,1,8,0:0:0:0:
103,40,58121,2,0,B|86:98|86:98|136:222,1,150,0|0,3:0|0:0,0:0:0:0:
264,295,58550,2,0,B|206:293|206:293|155:266,1,100,8|0,0:0|0:0,0:0:0:0:
18,199,58978,6,0,P|85:151|166:174,1,150,0|0,3:0|0:0,0:0:0:0:
228,220,59407,2,0,P|272:185|288:135,1,100,8|0,0:0|0:0,0:0:0:0:
279,110,59728,1,8,0:0:0:0:
279,110,59836,1,0,3:0:0:0:
384,12,60050,1,0,0:0:0:0:
498,132,60264,2,0,P|442:124|387:97,1,100,8|0,0:0|0:0,0:0:0:0:
512,240,60693,6,0,B|442:241|442:241|410:280|410:280|309:264,1,200,0|8,3:0|0:0,0:0:0:0:
226,333,61336,1,0,0:0:0:0:
226,333,61443,1,8,0:0:0:0:
226,333,61550,2,0,P|199:286|195:227,1,100,0|0,3:0|0:0,0:0:0:0:
307,48,61978,2,0,B|296:154|296:154|234:197,1,150,8|0,3:2|0:0,0:0:0:0:
246,174,62407,6,0,P|168:164|127:196,1,100,0|0,3:0|0:0,0:0:0:0:
81,238,62836,1,8,0:0:0:0:
22,42,63050,1,0,0:0:0:0:
22,42,63157,1,8,0:0:0:0:
22,42,63264,2,0,P|83:69|185:51,1,150,0|0,3:0|0:0,0:0:0:0:
226,15,63693,1,8,0:0:0:0:
364,140,63907,1,0,0:0:0:0:
364,140,64014,1,0,0:0:0:0:
364,140,64121,6,0,B|251:180,1,100,0|0,3:0|0:0,0:0:0:0:
129,247,64550,2,0,B|176:262|176:262|228:313,1,100,8|0,0:0|0:0,0:0:0:0:
272,357,64871,1,8,0:0:0:0:
272,357,64978,2,0,P|332:379|436:323,1,150,0|0,3:0|0:0,0:0:0:0:
422,335,65407,1,8,0:0:0:0:
381,146,65621,1,0,0:0:0:0:
497,218,65836,6,0,B|436:212|436:212|398:241|398:241|347:241|294:184,1,200,0|8,3:0|0:0,0:0:0:0:
236,140,66478,1,0,0:0:0:0:
236,140,66586,1,8,0:0:0:0:
236,140,66693,2,0,P|202:194|201:243,1,100,0|0,3:0|0:0,0:0:0:0:
331,94,67121,1,8,0:0:0:0:
155,30,67336,5,8,0:0:0:0:
155,30,67443,1,8,0:0:0:0:
155,30,67550,2,0,B|94:35|94:35|31:91,1,100,0|0,3:0|0:0,0:0:0:0:
0,129,67978,2,0,B|34:178|34:178|114:205,1,100,8|0,3:2|0:0,0:0:0:0:
156,196,68300,1,8,0:0:0:0:
156,196,68407,1,2,3:2:0:0:
291,94,68621,1,0,0:0:0:0:
264,208,68836,1,10,3:2:0:0:
400,204,69050,1,0,0:0:0:0:
212,320,69264,5,2,3:2:0:0:
212,320,69586,1,0,0:0:0:0:
212,320,69907,1,0,3:0:0:0:
27,82,70336,1,2,3:2:0:0:
72,188,70550,1,2,0:0:0:0:
132,39,70764,1,0,0:0:0:0:
177,145,70978,5,2,3:2:0:0:
177,145,71300,1,0,0:0:0:0:
177,145,71621,1,0,3:0:0:0:
336,200,71836,1,2,0:0:0:0:
291,94,72050,1,0,3:0:0:0:
231,243,72264,1,2,0:0:0:0:
496,340,72693,5,2,3:2:0:0:
496,340,73014,1,0,0:0:0:0:
496,340,73336,1,0,3:0:0:0:
467,78,73764,1,2,3:2:0:0:
512,184,73978,1,2,0:0:0:0:
407,227,74192,1,0,0:0:0:0:
362,121,74406,5,2,3:2:0:0:
362,121,74728,1,0,0:0:0:0:
362,121,75049,1,0,3:0:0:0:
407,227,75264,1,2,0:0:0:0:
248,172,75478,1,0,3:0:0:0:
302,270,75692,1,2,0:0:0:0:
136,232,75907,1,2,0:0:0:0:
192,332,76121,5,2,3:2:0:0:
192,332,76443,1,0,0:0:0:0:
192,332,76764,1,0,3:0:0:0:
56,88,77836,5,2,3:2:0:0:
56,88,78157,1,0,0:0:0:0:
56,88,78478,1,0,3:0:0:0:
64,184,78693,2,0,P|120:156|144:64,1,150.000005722046,2|2,0:0|0:0,0:0:0:0:
272,80,79550,6,0,B|352:80|352:80|388:48,2,112.500004291535,2|0|0,3:2|0:0|3:0,0:0:0:0:
272,184,80407,2,0,B|352:184|352:184|388:216,2,112.500004291535,2|0|0,0:0|0:0|0:0,0:0:0:0:
176,272,81264,6,0,B|200:300|232:312|232:312|276:288|336:312,1,150.000005722046,2|2,3:2|0:0,0:0:0:0:
456,340,81907,1,0,3:0:0:0:
280,376,82121,1,2,0:0:0:0:
120,332,82336,2,0,L|68:332,1,37.5000014305115,0|0,3:0|0:0,0:0:0:0:
160,196,82550,2,0,L|208:196,1,37.5000014305115,2|0,0:0|3:0,0:0:0:0:
72,108,82764,2,0,L|20:108,1,37.5000014305115
204,100,82978,6,0,B|264:112|280:152|280:152|328:168|416:144,1,200,4|8,3:2|0:0,0:0:0:0:
456,32,83621,1,0,0:0:0:0:
456,32,83728,1,8,0:0:0:0:
456,32,83836,2,0,L|480:148,1,100,0|0,3:2|0:0,0:0:0:0:
500,324,84264,1,8,0:0:0:0:
376,244,84478,1,0,0:0:0:0:
284,344,84693,6,0,L|168:352,1,100,0|0,3:0|0:0,0:0:0:0:
236,196,85121,2,0,P|304:172|376:240,1,150,8|8,0:0|0:0,0:0:0:0:
376,244,85550,2,0,L|384:356,1,100,0|0,3:0|0:0,0:0:0:0:
184,350,85978,1,8,0:0:0:0:
296,252,86193,1,0,0:0:0:0:
120,184,86407,6,0,P|44:156|28:84,1,150,0|0,3:0|0:0,0:0:0:0:
32,64,86836,1,8,0:0:0:0:
192,72,87050,1,0,0:0:0:0:
192,72,87157,1,8,0:0:0:0:
192,72,87264,2,0,L|312:64,1,100,0|0,3:0|0:0,0:0:0:0:
448,84,87693,1,8,0:0:0:0:
472,216,87907,1,0,0:0:0:0:
336,192,88121,6,0,P|252:200|208:252,1,150,0|0,3:0|0:0,0:0:0:0:
204,284,88550,2,0,P|192:356|164:360,1,100,8|0,0:0|0:0,0:0:0:0:
140,360,88871,1,8,0:0:0:0:
140,360,88978,1,0,3:0:0:0:
84,176,89193,1,0,0:0:0:0:
16,296,89407,1,8,0:0:0:0:
210,246,89621,1,0,0:0:0:0:
0,156,89836,6,0,B|47:97|47:97|132:100,1,150,0|0,3:0|0:0,0:0:0:0:
156,100,90264,1,8,0:0:0:0:
308,176,90478,2,0,L|388:176,1,50,0|8,0:0|0:0,0:0:0:0:
432,228,90693,2,0,P|452:160|432:120,1,100,0|0,3:0|0:0,0:0:0:0:
328,76,91121,1,8,0:0:0:0:
292,256,91336,1,0,0:0:0:0:
288,276,91443,1,0,0:0:0:0:
284,296,91550,6,0,B|272:336|272:336|400:344,2,150,0|0|0,3:0|0:0|0:0,0:0:0:0:
364,260,92300,1,8,0:0:0:0:
364,260,92407,2,0,L|484:268,1,100,0|0,3:0|0:0,0:0:0:0:
228,216,92836,2,0,L|108:224,1,100,8|0,0:0|0:0,0:0:0:0:
16,136,93264,6,0,P|96:128|128:72,1,150,0|0,3:0|0:0,0:0:0:0:
136,40,93693,1,8,0:0:0:0:
268,112,93907,1,0,0:0:0:0:
268,112,94014,1,8,0:0:0:0:
268,112,94121,2,0,L|372:112,1,100,0|0,3:0|0:0,0:0:0:0:
484,48,94550,1,8,0:0:0:0:
488,184,94764,1,0,0:0:0:0:
488,184,94871,1,8,0:0:0:0:
488,184,94978,6,0,L|472:304,1,100,0|0,3:0|0:0,0:0:0:0:
336,340,95407,2,0,P|252:344|204:324,1,100,8|0,0:0|0:0,0:0:0:0:
200,314,95728,1,8,0:0:0:0:
194,298,95835,1,0,3:0:0:0:
188,282,95942,1,8,0:0:0:0:
182,267,96049,1,0,0:0:0:0:
340,228,96264,1,8,0:0:0:0:
184,172,96478,1,0,0:0:0:0:
316,116,96693,6,0,P|404:132|440:176,1,150,0|0,3:0|0:0,0:0:0:0:
448,212,97121,1,8,0:0:0:0:
340,228,97336,2,0,L|268:228,1,50,0|8,0:0|0:0,0:0:0:0:
184,172,97550,2,0,P|172:240|192:280,1,100,0|0,3:0|0:0,0:0:0:0:
80,364,97978,1,8,0:0:0:0:
12,248,98193,1,0,0:0:0:0:
112,136,98407,6,0,L|128:28,1,100,0|0,3:0|0:0,0:0:0:0:
264,100,98836,2,0,P|320:112|392:80,1,100,8|0,0:0|0:0,0:0:0:0:
384,80,99157,1,8,0:0:0:0:
384,80,99264,1,0,3:0:0:0:
400,208,99478,1,0,0:0:0:0:
316,32,99693,1,8,0:0:0:0:
240,208,99907,1,0,0:0:0:0:
124,72,100121,6,0,B|223:71|223:71|284:108,1,150,0|0,3:0|0:0,0:0:0:0:
292,124,100550,1,8,0:0:0:0:
168,192,100764,1,0,0:0:0:0:
168,192,100871,1,8,0:0:0:0:
168,192,100978,1,0,3:0:0:0:
56,108,101193,2,0,L|0:108,1,50
80,196,101407,2,0,L|30:196,1,50,8|0,0:0|0:0,0:0:0:0:
152,280,101621,2,0,L|88:280,1,50
0,364,101836,6,0,L|168:364,1,150,0|0,3:0|0:0,0:0:0:0:
188,364,102264,2,0,P|240:324|248:272,1,100,8|0,0:0|0:0,0:0:0:0:
252,256,102586,1,8,0:0:0:0:
252,256,102693,1,0,3:0:0:0:
332,136,102907,1,0,0:0:0:0:
452,212,103121,1,8,0:0:0:0:
376,332,103336,1,0,0:0:0:0:
252,256,103550,6,0,B|188:240|152:224|152:224|148:144,1,150,0|0,3:0|0:0,0:0:0:0:
148,148,103978,1,8,0:0:0:0:
88,40,104193,2,0,L|32:40,1,50,0|8,0:0|0:0,0:0:0:0:
168,24,104407,2,0,L|280:24,1,100,0|0,3:0|0:0,0:0:0:0:
420,72,104836,1,8,0:0:0:0:
296,168,105050,1,0,0:0:0:0:
292,188,105157,1,0,0:0:0:0:
288,208,105264,6,0,B|276:248|276:248|412:248,2,150,0|0|0,3:0|0:0|0:0,0:0:0:0:
372,172,106014,1,8,0:0:0:0:
372,172,106121,2,0,L|480:172,1,100,0|0,3:0|0:0,0:0:0:0:
372,328,106550,2,0,L|256:328,1,100,8|0,0:0|0:0,0:0:0:0:
124,208,106978,6,0,P|164:156|260:152,1,150,0|0,3:0|0:0,0:0:0:0:
276,152,107407,1,8,0:0:0:0:
232,256,107621,1,0,0:0:0:0:
232,256,107728,1,8,0:0:0:0:
232,256,107836,2,0,L|116:308,1,100,0|0,3:0|0:0,0:0:0:0:
16,208,108264,2,8,P|32:160|24:108,1,100
16,80,108586,1,8,0:0:0:0:
4,48,108693,6,0,P|48:20|128:28,1,100,0|8,3:0|0:0,0:0:0:0:
256,84,109121,1,8,0:0:0:0:
124,124,109336,1,0,0:0:0:0:
132,155,109443,1,8,0:0:0:0:
154,181,109550,1,0,3:0:0:0:
184,194,109657,1,8,0:0:0:0:
217,193,109764,1,8,0:0:0:0:
104,276,109978,1,8,0:0:0:0:
240,310,110193,1,8,0:0:0:0:
240,310,110300,1,8,0:0:0:0:
240,310,110407,6,0,L|246:374,2,50,4|0|0,0:0|1:0|0:0,0:0:0:0:
278,154,110836,1,0,1:0:0:0:
427,211,111050,1,0,0:0:0:0:
427,211,111157,2,0,L|433:273,1,50,2|0,0:0|3:0,0:0:0:0:
369,310,111371,2,0,L|312:284,1,50,2|0,0:0|0:0,0:0:0:0:
419,112,111693,2,0,L|427:211,1,100,8|0,0:0|0:0,0:0:0:0:
357,355,112121,5,2,0:0:0:0:
311,375,112228,1,0,1:0:0:0:
256,225,112443,1,0,0:0:0:0:
211,245,112550,1,0,1:0:0:0:
118,114,112764,1,0,0:0:0:0:
118,114,112871,2,0,L|112:52,1,50,2|0,0:0|3:0,0:0:0:0:
176,17,113085,2,0,L|221:37,1,50,2|0,0:0|0:0,0:0:0:0:
34,56,113407,2,0,L|42:155,1,100,8|2,0:0|0:0,0:0:0:0:
52,315,113836,5,4,0:0:0:0:
52,315,113943,2,0,L|-2:303,2,50,0|0|0,1:0|0:0|0:0,0:0:0:0:
128,292,114264,2,0,L|136:193,1,100,0|0,1:0|0:0,0:0:0:0:
198,141,114586,1,2,0:0:0:0:
233,175,114693,1,0,3:0:0:0:
281,184,114800,1,2,0:0:0:0:
327,166,114907,1,0,0:0:0:0:
334,6,115121,1,8,0:0:0:0:
187,93,115336,1,0,0:0:0:0:
327,166,115550,5,2,0:0:0:0:
327,166,115657,2,0,L|332:117,2,50,0|0|0,1:0|0:0|0:0,0:0:0:0:
403,185,115978,2,0,L|412:85,1,100,0|2,1:0|0:0,0:0:0:0:
239,33,116407,2,0,L|249:133,1,100,0|2,3:0|0:0,0:0:0:0:
371,236,116836,1,8,0:0:0:0:
330,81,117050,1,2,0:0:0:0:
371,236,117264,5,4,0:0:0:0:
371,236,117371,2,0,L|364:308,2,50,0|0|0,1:0|0:0|0:0,0:0:0:0:
456,205,117693,2,0,L|444:304,1,100,0|0,1:0|0:0,0:0:0:0:
392,364,118014,1,2,0:0:0:0:
343,365,118121,1,0,3:0:0:0:
302,337,118228,1,2,0:0:0:0:
284,291,118335,1,0,0:0:0:0:
164,183,118550,2,0,P|142:228|96:296,1,100,8|2,0:0|0:0,0:0:0:0:
51,222,118871,1,2,0:0:0:0:
51,222,118978,6,0,B|73:267|78:317|78:317|58:377,2,150,4|2|0,0:0|0:0|0:0,0:0:0:0:
95,154,119728,1,2,0:0:0:0:
95,154,119836,2,0,P|170:171|204:174,1,100,0|0,3:0|0:0,0:0:0:0:
344,222,120264,1,8,0:0:0:0:
337,62,120478,1,0,0:0:0:0:
148,113,120693,6,0,P|123:202|204:247,1,200,4|8,0:0|0:0,0:0:0:0:
364,256,121336,1,8,0:0:0:0:
364,256,121443,1,8,0:0:0:0:
364,256,121550,2,0,P|354:308|346:377,1,100,0|2,3:0|0:0,0:0:0:0:
192,317,121978,1,8,0:0:0:0:
299,197,122193,1,8,0:0:0:0:
299,197,122300,1,8,0:0:0:0:
299,197,122407,5,0,1:0:0:0:
353,382,122621,1,2,0:0:0:0:
494,306,122836,1,8,0:0:0:0:
494,306,122943,2,0,L|507:244,2,50,2|8|0,0:0|0:0|0:0,0:0:0:0:
418,331,123264,1,0,1:0:0:0:
412,281,123371,1,8,0:0:0:0:
407,231,123478,1,8,0:0:0:0:
402,181,123585,1,0,0:0:0:0:
397,132,123693,2,0,L|385:32,1,100,8|8,0:0|0:0,0:0:0:0:
310,2,124014,1,8,0:0:0:0:
310,2,124121,6,0,P|261:42|213:72,1,100,4|0,0:0|0:0,0:0:0:0:
69,70,124550,1,0,1:0:0:0:
26,224,124764,1,0,0:0:0:0:
26,224,124871,2,0,L|40:271,1,50,2|0,0:0|3:0,0:0:0:0:
92,333,125086,2,0,L|156:317,1,50,2|0,0:0|0:0,0:0:0:0:
259,213,125407,2,0,L|270:81,1,100,8|0,0:0|0:0,0:0:0:0:
403,28,125836,5,2,0:0:0:0:
415,77,125943,1,0,1:0:0:0:
280,162,126157,1,0,0:0:0:0:
267,113,126264,2,0,L|275:13,1,100,0|0,1:0|0:0,0:0:0:0:
197,35,126586,1,2,0:0:0:0:
192,84,126693,1,0,3:0:0:0:
187,134,126800,1,2,0:0:0:0:
182,184,126907,1,0,0:0:0:0:
44,263,127121,1,8,0:0:0:0:
104,114,127336,1,2,0:0:0:0:
194,338,127550,6,0,P|266:328|306:268,1,150,4|0,0:0|0:0,0:0:0:0:
332,192,127978,2,0,L|321:78,1,100,0|0,1:0|0:0,0:0:0:0:
282,22,128300,1,2,0:0:0:0:
282,22,128407,1,0,3:0:0:0:
216,167,128621,1,2,0:0:0:0:
361,233,128836,1,8,0:0:0:0:
427,88,129050,1,2,0:0:0:0:
282,22,129264,6,0,L|151:16,1,100,4|0,0:0|0:0,0:0:0:0:
261,237,129693,2,0,L|360:232,1,100,0|0,1:0|0:0,0:0:0:0:
295,129,130014,1,2,0:0:0:0:
245,127,130121,2,0,L|114:121,1,100,0|2,3:0|0:0,0:0:0:0:
96,339,130550,2,0,L|195:334,1,100,8|2,0:0|0:0,0:0:0:0:
409,376,130978,6,0,P|457:281|451:183,1,200,4|8,0:0|0:0,0:0:0:0:
235,25,131621,1,2,0:0:0:0:
235,25,131728,1,2,0:0:0:0:
235,25,131836,2,0,P|187:120|193:218,1,200,0|8,3:0|0:0,0:0:0:0:
307,320,132478,1,2,0:0:0:0:
307,320,132586,1,2,0:0:0:0:
307,320,132693,6,0,B|352:293|352:293|374:236|365:197,2,150,4|2|0,0:0|0:0|0:0,0:0:0:0:
227,335,133443,1,2,0:0:0:0:
227,335,133550,2,0,L|114:320,1,100,0|0,3:0|0:0,0:0:0:0:
76,170,133978,2,0,L|175:156,1,100,8|0,0:0|0:0,0:0:0:0:
331,123,134407,5,4,0:0:0:0:
225,241,134621,1,0,0:0:0:0:
246,85,134835,1,8,0:0:0:0:
325,224,135050,1,8,0:0:0:0:
325,224,135157,1,8,0:0:0:0:
325,224,135264,2,0,L|322:273,2,50,0|2|2,1:0|0:0|0:0,0:0:0:0:
421,95,135693,1,8,0:0:0:0:
508,228,135907,1,8,0:0:0:0:
508,228,136014,1,2,0:0:0:0:
508,228,136121,6,0,P|502:278|488:331,1,100,0|8,1:0|0:0,0:0:0:0:
340,371,136550,2,0,P|326:322|321:273,1,100,8|8,0:0|0:0,0:0:0:0:
256,227,136871,1,2,0:0:0:0:
221,261,136978,1,0,1:0:0:0:
173,270,137085,1,8,0:0:0:0:
127,252,137192,1,8,0:0:0:0:
127,91,137407,1,8,0:0:0:0:
271,128,137621,2,0,L|261:198,1,50,8|8,0:0|0:0,0:0:0:0:
338,209,137836,5,2,0:0:0:0:
338,209,137943,2,0,L|340:266,2,50
417,219,138264,2,0,B|460:167|460:167|466:103|438:37,1,200
120,1,139121,1,0,0:0:0:0:
237,298,139550,2,0,P|267:202|298:107,1,200,2|0,0:0|0:0,0:0:0:0:
12,252,140407,1,8,0:0:0:0:
12,252,140514,1,8,0:0:0:0:
12,252,140621,1,8,0:0:0:0:
124,366,140836,1,8,0:0:0:0:
124,366,140944,1,8,0:0:0:0:
124,366,141051,1,8,0:0:0:0:
124,366,141158,1,8,0:0:0:0:
124,366,141265,6,0,P|173:372|220:358,1,100,2|0,0:0|0:0,0:0:0:0:
270,270,141693,2,0,P|276:221|262:174,1,100
174,124,142121,2,0,P|125:118|78:132,1,100,2|0,0:0|0:0,0:0:0:0:
28,220,142550,2,0,P|22:269|36:316,1,100
124,366,142978,5,2,0:0:0:0:
220,357,143193,1,0,0:0:0:0:
270,270,143406,2,0,P|276:221|262:174,1,100
174,124,143836,1,2,0:0:0:0:
77,132,144050,1,0,0:0:0:0:
28,220,144263,2,0,P|22:269|36:316,1,100,2|0,0:0|0:0,0:0:0:0:
126,361,144693,5,2,0:0:0:0:
223,384,144907,1,2,0:0:0:0:
286,307,145121,2,0,L|383:283,1,100
462,221,145550,2,0,L|477:122,1,100,2|0,0:0|0:0,0:0:0:0:
378,110,145978,2,0,L|362:11,1,100
273,56,146407,5,2,0:0:0:0:
175,35,146621,1,0,0:0:0:0:
147,131,146836,2,0,L|19:155,1,100,2|0,0:0|0:0,0:0:0:0:
41,249,147264,1,2,0:0:0:0:
139,228,147478,1,2,0:0:0:0:
167,324,147693,1,0,0:0:0:0:
265,342,147907,1,2,0:0:0:0:
356,303,148121,6,0,P|402:324|449:340,2,100,2|0|0,0:0|0:0|0:0,0:0:0:0:
313,213,148764,1,0,0:0:0:0:
270,122,148978,2,0,P|224:142|177:158,2,100,2|0|0,0:0|0:0|0:0,0:0:0:0:
338,48,149621,1,0,0:0:0:0:
437,61,149836,6,0,P|445:110|459:158,1,100,2|0,0:0|0:0,0:0:0:0:
397,236,150264,2,0,P|385:296|383:335,1,100,2|0,0:0|0:0,0:0:0:0:
303,274,150693,1,2,0:0:0:0:
247,357,150907,1,2,0:0:0:0:
147,347,151121,2,0,L|124:249,1,100,2|0,0:0|0:0,0:0:0:0:
65,168,151550,5,2,0:0:0:0:
16,255,151764,1,0,0:0:0:0:
93,318,151978,2,0,P|134:321|196:273,1,100
213,252,152300,1,2,0:0:0:0:
213,252,152407,2,0,L|190:154,1,100,2|0,0:0|0:0,0:0:0:0:
167,56,152836,1,2,0:0:0:0:
262,83,153050,1,0,0:0:0:0:
336,16,153264,6,0,P|378:41|427:52,1,100,2|2,0:0|0:0,0:0:0:0:
490,130,153693,1,2,0:0:0:0:
408,187,153907,1,0,0:0:0:0:
408,187,154014,1,2,0:0:0:0:
408,187,154121,1,2,0:0:0:0:
477,266,154336,1,2,0:0:0:0:
394,322,154550,1,2,0:0:0:0:
356,317,154657,1,0,0:0:0:0:
320,326,154764,1,2,0:0:0:0:
289,347,154871,1,2,0:0:0:0:
267,377,154978,6,0,B|198:282|332:293|257:172,1,200,0|8,3:0|0:0,0:0:0:0:
128,202,155621,1,2,0:0:0:0:
120,214,155728,1,2,0:0:0:0:
112,227,155836,2,0,L|98:109,1,100,0|0,3:0|0:0,0:0:0:0:
257,61,156264,2,0,B|306:74|306:74|255:87,1,100,8|0,0:0|0:0,0:0:0:0:
163,15,156693,5,0,3:0:0:0:
349,15,156907,1,0,0:0:0:0:
256,160,157121,1,8,0:0:0:0:
384,202,157336,1,2,0:0:0:0:
392,214,157443,1,2,0:0:0:0:
400,227,157550,2,0,L|414:109,1,100,0|0,3:0|0:0,0:0:0:0:
256,160,157978,2,0,B|208:175|208:175|256:193,1,100,8|0,0:0|0:0,0:0:0:0:
118,278,158407,6,0,P|57:248|72:120,1,200,0|8,3:0|0:0,0:0:0:0:
26,39,159050,1,2,0:0:0:0:
17,26,159157,1,2,0:0:0:0:
8,13,159264,2,0,L|118:40,1,100,0|0,3:0|0:0,0:0:0:0:
256,160,159693,2,0,L|157:180,1,100,8|0,0:0|0:0,0:0:0:0:
118,278,160121,5,0,3:0:0:0:
256,352,160336,1,0,0:0:0:0:
394,278,160550,1,8,0:0:0:0:
299,262,160764,1,2,0:0:0:0:
304,275,160871,1,2,0:0:0:0:
309,288,160978,1,0,3:0:0:0:
394,278,161193,1,2,0:0:0:0:
256,192,161407,1,8,0:0:0:0:
118,278,161621,1,2,0:0:0:0:
299,262,161836,6,0,P|335:219|262:108,1,200,0|8,3:0|0:0,0:0:0:0:
393,39,162478,1,2,0:0:0:0:
378,41,162586,1,2,0:0:0:0:
363,43,162693,2,0,P|423:46|476:32,1,100,0|0,3:0|0:0,0:0:0:0:
508,178,163121,2,0,P|462:189|391:185,1,100,8|0,0:0|0:0,0:0:0:0:
384,334,163550,6,0,B|455:324|514:302|514:302|491:332|468:365,1,200,0|8,3:0|0:0,0:0:0:0:
303,338,164193,1,2,0:0:0:0:
288,335,164300,1,2,0:0:0:0:
273,332,164407,1,0,3:0:0:0:
142,268,164621,1,0,0:0:0:0:
19,364,164836,1,8,0:0:0:0:
175,341,165050,1,0,0:0:0:0:
31,286,165264,6,0,B|10:188|10:188|121:196,1,200,0|8,0:0|0:0,3:0:0:0:
13,78,165907,1,2,0:0:0:0:
27,84,166014,1,2,0:0:0:0:
40,89,166121,2,0,P|72:48|50:-10,1,100,0|0,3:0|0:0,0:0:0:0:
163,128,166550,2,2,P|201:93|172:34,1,100,10|2,0:0|0:0,0:0:0:0:
331,48,166978,5,0,3:0:0:0:
329,64,167086,1,0,0:0:0:0:
327,79,167193,1,0,0:0:0:0:
326,94,167300,1,0,0:0:0:0:
375,92,167407,5,0,3:0:0:0:
373,78,167514,1,0,0:0:0:0:
371,64,167621,1,0,0:0:0:0:
370,50,167728,1,0,0:0:0:0:
419,41,167836,5,0,3:0:0:0:
455,56,167943,1,0,0:0:0:0:
478,88,168050,1,0,0:0:0:0:
483,127,168157,1,0,0:0:0:0:
468,164,168264,1,8,0:0:0:0:
436,188,168371,1,0,0:0:0:0:
411,219,168478,1,0,3:0:0:0:
411,259,168586,1,0,0:0:0:0:
431,293,168693,5,4,3:2:0:0:
490,243,169121,2,0,B|432:242|396:233|396:233|432:263|449:292,1,150,10|0,0:0|0:0,0:0:0:0:
431,293,169550,2,0,L|464:75,1,200,2|8,3:2|0:0,0:0:0:0:
303,207,170193,1,2,0:0:0:0:
303,207,170300,1,0,0:0:0:0:
303,207,170407,5,2,3:2:0:0:
4,249,170728,1,2,0:0:0:0:
215,51,171050,1,0,0:0:0:0:
53,95,171264,1,2,3:2:0:0:
163,334,171586,1,2,0:0:0:0:
303,207,171907,1,0,0:0:0:0:
152,186,172121,6,0,B|113:156|163:111|188:177|133:272,1,150,2|2,3:2|0:0,0:0:0:0:
57,191,172764,2,0,B|110:198|149:160|149:160|188:202|259:200,1,200,0|2,0:0|0:0,0:0:0:0:
296,301,173407,1,8,0:0:0:0:
313,202,173621,6,0,B|301:125|397:125|421:188|362:272,1,200,2|0,0:0|0:0,0:0:0:0:
431,326,174264,1,10,0:0:0:0:
512,289,174478,1,0,0:0:0:0:
249,110,174693,1,2,3:2:0:0:
330,73,174907,1,0,0:0:0:0:
219,284,175121,1,10,0:0:0:0:
138,321,175335,1,2,0:0:0:0:
9,167,175550,6,0,B|-33:118|-20:59|99:56|61:161,1,200,2|8,0:0|0:0,0:0:0:0:
155,166,176193,1,2,0:0:0:0:
150,180,176300,1,8,0:0:0:0:
145,194,176407,2,0,P|172:126|55:117,1,200,2|8,3:2|0:0,0:0:0:0:
65,250,177050,1,0,0:0:0:0:
65,250,177157,1,0,0:0:0:0:
65,250,177264,5,2,3:2:0:0:
365,322,177586,1,2,0:0:0:0:
179,92,177907,1,0,0:0:0:0:
351,133,178121,1,2,3:2:0:0:
181,384,178443,1,2,0:0:0:0:
179,92,178764,1,0,0:0:0:0:
288,285,178978,6,0,B|298:237|282:195|282:195|305:220|302:264,1,150,2|2,3:2|0:0,0:0:0:0:
386,239,179621,2,0,B|333:235|290:261|290:261|246:229|149:236,1,200,2|0,0:0|0:0,0:0:0:0:
340,335,180264,2,0,B|378:368|378:368|374:308,1,100,8|2,0:0|0:0,0:0:0:0:
385,144,180693,5,2,3:2:0:0:
427,170,180800,1,0,0:0:0:0:
476,172,180907,1,8,0:0:0:0:
501,128,181014,1,0,0:0:0:0:
497,78,181121,1,10,0:0:0:0:
459,45,181228,1,0,0:0:0:0:
409,36,181336,1,0,0:0:0:0:
365,60,181443,1,8,0:0:0:0:
343,104,181550,6,0,P|319:136|305:109,1,50,2|8,0:0|0:0,0:0:0:0:
250,83,181764,2,0,L|196:79,1,50,2|0,0:0|0:0,0:0:0:0:
200,160,181978,2,0,L|146:156,1,50,10|0,0:0|0:0,0:0:0:0:
76,94,182193,1,8,0:0:0:0:
62,88,182300,1,8,0:0:0:0:
48,82,182407,6,0,L|58:295,1,200,2|8,3:2|0:0,0:0:0:0:
183,334,183050,1,2,0:0:0:0:
196,327,183157,1,0,0:0:0:0:
209,320,183264,1,2,3:2:0:0:
147,257,183478,1,0,0:0:0:0:
256,384,183693,1,8,0:0:0:0:
365,257,183907,1,2,0:0:0:0:
303,320,184121,6,0,L|397:371,1,100,2|0,3:2|0:0,0:0:0:0:
365,257,184550,2,0,L|486:278,1,100,10|0,0:0|0:0,0:0:0:0:
365,127,184978,2,0,L|486:106,1,100,2|0,3:2|0:0,0:0:0:0:
303,64,185407,2,0,L|397:13,1,100,10|2,0:0|0:0,0:0:0:0:
512,192,185836,6,0,P|474:240|370:208,1,150,2|2,3:2|0:0,0:0:0:0:
269,169,186478,2,0,P|215:140|108:228,1,200,0|2,0:0|0:0,0:0:0:0:
7,154,187121,1,8,0:0:0:0:
89,47,187336,6,0,L|212:56,1,100,2|2,0:0|3:2,0:0:0:0:
423,47,187764,2,0,L|300:56,1,100,0|8,0:0|0:0,0:0:0:0:
256,160,188193,1,2,0:0:0:0:
256,174,188300,1,8,0:0:0:0:
256,188,188407,1,2,3:2:0:0:
350,178,188621,1,0,0:0:0:0:
250,267,188836,1,10,0:0:0:0:
156,257,189050,1,2,0:0:0:0:
268,344,189264,6,0,P|388:315|447:390,1,200,2|8,0:0|0:0,0:0:0:0:
467,218,189907,2,0,P|490:238|479:261,1,50,2|8,0:0|0:0,0:0:0:0:
391,217,190121,2,0,P|366:155|422:30,1,200,2|8,3:2|0:0,0:0:0:0:
485,144,190764,1,2,0:0:0:0:
485,144,190871,1,0,0:0:0:0:
485,144,190978,5,2,3:2:0:0:
256,192,191300,1,2,0:0:0:0:
160,55,191621,1,0,0:0:0:0:
352,55,191836,1,2,3:2:0:0:
27,144,192157,1,2,0:0:0:0:
256,288,192478,1,0,0:0:0:0:
256,192,192693,6,0,P|169:246|181:351,1,200,2|8,3:2|0:0,0:0:0:0:
312,333,193336,1,0,0:0:0:0:
326,336,193443,1,8,0:0:0:0:
340,339,193550,2,0,P|357:302|314:237,1,100,0|0,3:0|0:0,0:0:0:0:
256,288,193978,1,8,0:0:0:0:
347,161,194193,1,2,0:0:0:0:
361,160,194300,1,0,0:0:0:0:
375,160,194407,5,2,3:2:0:0:
184,60,194621,1,8,0:0:0:0:
328,60,194836,1,8,0:0:0:0:
137,160,195050,1,8,0:0:0:0:
256,288,195264,5,2,3:2:0:0:
256,196,195478,1,10,0:0:0:0:
256,116,195693,1,10,0:0:0:0:
256,48,195907,1,0,0:0:0:0:
464,168,196121,5,2,3:2:0:0:
385,123,196443,1,0,0:0:0:0:
315,82,196764,1,0,3:0:0:0:
315,82,197193,5,2,3:2:0:0:
385,123,197407,1,2,3:2:0:0:
464,168,197621,1,0,0:2:0:0:
256,288,197836,5,2,3:2:0:0:
334,242,198156,1,0,0:0:0:0:
405,202,198478,1,0,3:0:0:0:
256,288,198693,5,2,3:2:0:0:
256,196,198907,1,2,3:2:0:0:
256,116,199121,1,0,0:0:0:0:
256,116,199228,1,0,3:0:0:0:
150,306,199550,5,2,3:2:0:0:
150,214,199871,1,0,0:0:0:0:
190,145,200193,1,0,3:0:0:0:
190,145,200621,5,2,3:2:0:0:
150,214,200836,1,2,0:2:0:0:
150,306,201050,1,0,3:2:0:0:
297,185,201264,5,2,3:2:0:0:
257,116,201586,1,0,0:0:0:0:
177,70,201907,1,0,3:2:0:0:
297,185,202121,5,2,0:2:0:0:
257,116,202336,1,2,3:2:0:0:
177,70,202550,1,2,0:2:0:0:
72,70,202764,1,2,3:2:0:0:
221,260,202978,5,2,3:2:0:0:
257,116,203300,1,0,0:0:0:0:
375,81,203621,1,2,3:2:0:0:
375,81,204050,5,0,0:0:0:0:
257,116,204264,1,0,0:0:0:0:
257,116,204371,1,0,3:0:0:0:
288,311,204693,5,2,3:2:0:0:
144,275,205015,1,0,0:0:0:0:
109,157,205336,1,2,3:2:0:0:
288,311,205550,5,2,3:2:0:0:
181,207,205764,1,0,0:0:0:0:
209,88,205978,1,2,0:2:0:0:
209,88,206086,1,0,3:0:0:0:
144,275,206407,6,0,P|93:275|56:254,1,75.0000028610231,2|0,3:2|0:0,0:0:0:0:
30,205,206728,1,2,0:2:0:0:
30,205,206836,1,0,0:0:0:0:
253,240,207050,1,0,3:0:0:0:
250,108,207264,6,0,P|224:151|224:194,1,75.0000028610231,2|0,3:2|0:0,0:0:0:0:
253,240,207585,1,2,0:2:0:0:
253,240,207693,1,0,0:0:0:0:
333,30,207907,1,0,3:0:0:0:
486,124,208121,5,2,3:2:0:0:
377,111,208336,1,0,0:0:0:0:
253,240,208549,5,2,0:2:0:0:
355,200,208764,2,0,L|416:174,1,37.5000014305115,0|0,3:0|0:0,0:0:0:0:
504,289,208978,6,0,L|445:282,1,37.5000014305115,2|0,0:2|0:0,0:0:0:0:
395,276,209193,1,0,3:0:0:0:
395,276,209300,1,0,0:0:0:0:
395,276,209407,6,0,L|389:174,1,89.9999972534181,2|0,3:2|0:0,0:0:0:0:
385,98,209728,1,0,0:0:0:0:
385,98,209836,5,2,3:2:0:0:
512,160,210050,1,2,0:2:0:0:
302,69,210264,5,0,0:0:0:0:
442,59,210478,1,2,3:2:0:0:
215,85,210693,5,0,0:0:0:0:
215,85,210800,1,0,0:0:0:0:
215,85,210907,6,0,L|239:128,1,44.999998626709,2|0,3:2|0:0,0:0:0:0:
352,58,211121,2,0,L|326:130,1,44.999998626709,2|0,0:2|3:0,0:0:0:0:
455,159,211336,2,0,L|377:179,1,44.999998626709,2|0,0:2|0:0,0:0:0:0:
392,367,211550,6,0,P|353:338|367:213,1,150,4|0,3:2|0:0,0:0:0:0:
314,102,211978,2,0,P|320:135|305:174,1,50,8|0,0:0|0:0,0:0:0:0:
232,275,212193,1,0,0:0:0:0:
232,275,212300,1,8,0:0:0:0:
232,275,212407,1,0,0:0:0:0:
25,103,212621,5,0,3:0:0:0:
23,200,212835,1,8,0:0:0:0:
96,275,213050,1,0,0:0:0:0:
70,46,213264,6,0,L|245:34,1,150.000005722046,0|8,3:0|0:0,0:0:0:0:
99,64,213907,1,0,3:0:0:0:
136,61,214014,1,8,0:0:0:0:
173,58,214121,1,0,0:0:0:0:
211,56,214228,1,0,0:0:0:0:
248,53,214335,5,0,3:0:0:0:
170,161,214550,1,8,0:0:0:0:
232,275,214764,1,0,0:0:0:0:
425,226,214978,6,0,P|391:198|264:238,1,150,0|0,3:0|0:0,0:0:0:0:
232,275,215407,2,0,P|261:297|294:301,1,50,8|0,0:0|0:0,0:0:0:0:
497,277,215621,1,0,0:0:0:0:
497,277,215728,1,8,0:0:0:0:
497,277,215836,1,0,0:0:0:0:
497,141,216050,5,0,3:0:0:0:
422,68,216265,1,8,0:0:0:0:
325,70,216479,1,0,0:0:0:0:
268,115,216693,6,0,L|256:290,1,150.000005722046,0|8,3:0|0:0,0:0:0:0:
243,126,217336,1,0,3:0:0:0:
240,163,217443,1,8,0:0:0:0:
237,200,217550,1,0,0:0:0:0:
235,238,217657,1,0,0:0:0:0:
232,275,217764,5,0,3:0:0:0:
111,179,217978,1,8,0:0:0:0:
368,198,218193,1,0,0:0:0:0:
171,324,218407,6,0,B|147:290|152:252|177:220|177:220|197:185|186:144|165:122,1,200,0|8,3:0|0:0,0:0:0:0:
27,89,219050,2,0,P|8:120|8:152,1,50,0|8,0:0|0:0,0:0:0:0:
289,119,219264,6,0,P|262:70|103:50,1,200,0|8,3:0|0:0,0:0:0:0:
83,138,219907,2,0,P|93:161|111:179,1,50
249,212,220121,6,0,P|299:198|340:208,1,75.0000028610231,0|0,3:0|0:0,0:0:0:0:
340,211,220443,2,0,P|389:235|417:266,1,75.0000028610231,8|0,0:0|0:0,0:0:0:0:
411,281,220764,1,8,0:0:0:0:
385,254,220871,1,0,0:0:0:0:
354,232,220978,1,0,3:0:0:0:
320,219,221085,1,0,0:0:0:0:
282,214,221192,1,0,0:0:0:0:
382,163,221407,2,0,L|353:233,1,75.0000028610231,8|0,0:0|0:0,0:0:0:0:
238,99,221836,6,0,B|272:123|309:118|342:93|342:93|380:72|418:84|440:105,1,200,0|8,3:0|0:0,0:0:0:0:
434,277,222478,2,0,P|398:296|367:290,1,50,0|8,0:0|0:0,0:0:0:0:
315,94,222693,6,0,P|359:74|470:119,1,150.000005722046,0|8,3:0|0:0,0:0:0:0:
492,209,223336,1,0,0:0:0:0:
492,209,223443,1,0,0:0:0:0:
492,209,223550,5,0,3:0:0:0:
314,268,223764,1,8,0:0:0:0:
380,169,223978,1,8,0:0:0:0:
454,384,224193,1,0,0:0:0:0:
454,384,224300,1,8,0:0:0:0:
454,384,224407,1,0,0:0:0:0:
479,122,224621,6,0,L|444:194,1,44.999998626709,8|0,0:0|0:0,0:0:0:0:
335,136,224835,2,0,L|373:202,1,44.999998626709,8|0,0:0|0:0,0:0:0:0:
269,259,225050,2,0,L|317:268,1,44.999998626709
454,384,225264,6,0,P|458:308|397:243,1,150,0|0,3:0|0:0,0:0:0:0:
308,177,225693,2,0,P|332:180|357:173,1,50,8|0,0:0|0:0,0:0:0:0:
454,97,225907,1,0,0:0:0:0:
454,97,226014,1,8,0:0:0:0:
454,97,226121,1,0,0:0:0:0:
209,209,226335,5,0,3:0:0:0:
232,115,226549,1,8,0:0:0:0:
322,61,226764,1,0,0:0:0:0:
238,276,226978,6,0,L|78:284,1,150.000005722046,0|8,3:0|0:0,0:0:0:0:
209,209,227621,1,0,3:0:0:0:
171,210,227728,1,8,0:0:0:0:
134,212,227835,1,0,0:0:0:0:
96,214,227942,1,0,0:0:0:0:
59,216,228049,5,0,3:0:0:0:
124,90,228264,1,8,0:0:0:0:
264,101,228478,1,0,0:0:0:0:
300,306,228693,6,0,P|260:287|242:155,1,150,0|0,3:0|0:0,0:0:0:0:
264,101,229121,2,0,P|287:109|305:126,1,50,8|0,0:0|0:0,0:0:0:0:
92,263,229336,1,0,0:0:0:0:
92,263,229443,1,8,0:0:0:0:
92,263,229550,1,0,0:0:0:0:
59,136,229764,6,0,L|48:84,1,50,0|0,3:0|0:0,0:0:0:0:
256,76,229978,2,0,L|256:20,1,50,8|0,0:0|0:0,0:0:0:0:
453,136,230193,2,0,L|464:84,1,50
344,308,230407,6,0,B|323:321|288:329|256:306|256:306|224:281|187:274|152:300,1,200,0|8,3:0|0:0,0:0:0:0:
357,223,231050,5,0,3:0:0:0:
309,235,231157,1,8,0:0:0:0:
263,217,231264,1,0,0:0:0:0:
217,199,231371,1,0,0:0:0:0:
170,211,231478,5,0,3:0:0:0:
315,156,231693,1,8,0:0:0:0:
199,362,231907,1,0,0:0:0:0:
256,88,232121,6,0,B|264:22|360:-14|397:12|421:30|433:85|393:115|331:101,1,300,0|0,3:0|0:0,0:0:0:0:
162,96,232871,1,8,0:0:0:0:
154,94,232978,2,0,B|138:88|109:113|122:153|142:166|171:184|240:150|242:100,1,200,0|8,3:0|0:0,0:0:0:0:
65,65,233621,5,0,0:0:0:0:
65,65,233728,1,0,0:0:0:0:
65,65,233836,2,0,P|48:117|65:177,1,100,0|0,3:0|0:0,0:0:0:0:
69,188,234157,2,0,P|86:240|69:300,1,100,8|0,0:0|0:0,0:0:0:0:
62,309,234478,5,8,0:0:0:0:
109,296,234585,1,0,0:0:0:0:
155,314,234692,1,0,3:0:0:0:
201,333,234799,1,0,0:0:0:0:
248,320,234906,1,0,0:0:0:0:
238,153,235121,2,0,P|213:183|206:263,1,100,8|0,0:0|0:0,0:0:0:0:
390,157,235550,6,0,P|292:119|184:181,1,200,0|8,3:0|0:0,0:0:0:0:
92,172,236193,2,0,P|98:207|123:230,1,50,0|8,0:0|0:0,0:0:0:0:
388,240,236407,6,0,B|385:197|414:173|414:173|411:132|343:107,1,150.000005722046,0|8,3:0|0:0,0:0:0:0:
164,84,237050,1,0,0:0:0:0:
164,84,237157,1,8,0:0:0:0:
164,84,237264,5,0,3:0:0:0:
348,84,237478,1,8,0:0:0:0:
256,36,237693,1,8,0:0:0:0:
256,184,237907,5,0,0:0:0:0:
256,221,238014,1,8,0:0:0:0:
256,259,238121,1,0,0:0:0:0:
256,296,238228,1,0,0:0:0:0:
256,334,238335,5,8,0:0:0:0:
400,252,238550,1,8,0:0:0:0:
252,166,238764,1,8,0:0:0:0:
252,166,238871,1,0,0:0:0:0:
252,166,238978,6,0,B|230:144|145:198|114:235|54:217,1,200,4|0,0:0|1:0,0:0:0:0:
245,255,239621,1,0,0:0:0:0:
245,255,239728,2,0,P|234:290|223:336,1,50,2|0,0:0|0:0,0:0:0:0:
327,220,239943,1,2,0:0:0:0:
327,220,240050,1,0,0:0:0:0:
494,364,240264,2,0,P|475:295|459:239,1,100,8|2,0:0|0:0,0:0:0:0:
392,67,240693,5,0,0:0:0:0:
392,67,240800,1,0,1:0:0:0:
323,309,241014,1,0,0:0:0:0:
323,309,241121,1,0,1:0:0:0:
406,180,241336,1,0,0:0:0:0:
406,180,241443,1,2,0:0:0:0:
321,128,241657,1,2,0:0:0:0:
321,128,241764,5,0,0:0:0:0:
223,157,241978,1,8,0:0:0:0:
129,99,242193,1,2,0:0:0:0:
198,46,242407,6,0,B|157:90|116:174|101:270,1,200,4|0,0:0|1:0,0:0:0:0:
32,166,243050,1,0,0:0:0:0:
32,166,243157,2,0,P|23:131|19:97,1,50,2|0,0:0|0:0,0:0:0:0:
20,283,243371,1,2,0:0:0:0:
20,283,243478,1,0,0:0:0:0:
116,312,243693,2,0,P|160:321|233:352,1,100,8|2,0:0|0:0,0:0:0:0:
409,179,244121,6,0,P|419:144|446:89,1,50,2|0,0:0|1:0,0:0:0:0:
289,106,244336,2,0,P|273:80|239:38,1,50
146,104,244550,2,0,P|106:65|30:15,1,100,0|2,1:0|0:0,0:0:0:0:
63,47,244978,6,0,P|87:75|117:110,1,50
258,76,245193,2,0,P|275:101|288:144,1,50,2|0,0:0|0:0,0:0:0:0:
425,121,245407,2,0,P|431:202|440:255,1,100,8|2,0:0|0:0,0:0:0:0:
483,302,245836,6,0,B|446:358|359:388|289:309|345:298,1,200,4|0,0:0|1:0,0:0:0:0:
234,195,246478,2,0,P|245:203|248:255,1,50,2|8,0:0|0:0,0:0:0:0:
355,181,246693,2,0,P|258:218|163:266,1,200,2|8,0:0|0:0,0:0:0:0:
40,100,247336,5,0,0:0:0:0:
74,113,247443,1,0,0:0:0:0:
98,144,247550,1,6,0:0:0:0:
177,74,247764,1,0,0:0:0:0:
193,42,247871,1,0,1:0:0:0:
288,97,248086,1,0,0:0:0:0:
299,134,248193,1,2,0:0:0:0:
401,93,248407,1,0,0:0:0:0:
397,129,248514,1,2,0:0:0:0:
415,162,248621,1,0,0:0:0:0:
423,294,248836,6,0,B|393:280|317:301|353:341,1,100,10|0,0:0|0:0,0:0:0:0:
510,226,249264,2,0,B|456:221|409:275|361:363|326:314,1,200,4|2,0:0|0:0,0:0:0:0:
147,233,249907,1,2,0:0:0:0:
147,233,250014,1,0,0:0:0:0:
147,233,250121,2,0,B|180:197|266:223|278:309|244:332,1,200,0|10,1:0|0:0,0:0:0:0:
89,135,250764,5,10,0:0:0:0:
89,135,250871,1,8,0:0:0:0:
89,135,250978,1,0,0:0:0:0:
220,30,251193,1,8,0:0:0:0:
98,17,251407,1,8,0:0:0:0:
98,17,251514,1,2,0:0:0:0:
232,136,251728,1,10,0:0:0:0:
232,136,251836,1,0,0:0:0:0:
378,113,252050,5,10,0:0:0:0:
306,34,252264,1,10,0:0:0:0:
175,207,252478,1,0,0:0:0:0:
354,274,252693,6,0,B|344:318|401:381|481:375|499:299|464:302,1,200,4|0,0:0|1:0,0:0:0:0:
266,321,253336,1,0,0:0:0:0:
266,321,253443,2,0,P|277:342|299:396,1,50,2|0,0:0|0:0,0:0:0:0:
178,293,253657,1,2,0:0:0:0:
178,293,253764,1,0,0:0:0:0:
36,239,253978,2,0,P|19:158|5:105,1,100,8|0,0:0|0:0,0:0:0:0:
98,45,254407,5,2,0:0:0:0:
98,45,254514,1,0,1:0:0:0:
261,150,254728,1,0,0:0:0:0:
261,150,254836,1,0,1:0:0:0:
338,39,255050,1,0,0:0:0:0:
338,39,255157,1,2,0:0:0:0:
243,56,255371,1,2,0:0:0:0:
243,56,255478,5,0,0:0:0:0:
365,172,255693,1,8,0:0:0:0:
489,68,255907,1,2,0:0:0:0:
270,231,256121,6,0,B|215:218|190:240|93:301|64:256,1,200,4|0,0:0|1:0,0:0:0:0:
333,295,256764,1,0,0:0:0:0:
333,295,256871,2,0,P|368:285|418:281,1,50,2|0,0:0|0:0,0:0:0:0:
471,260,257086,1,2,0:0:0:0:
471,260,257193,1,0,0:0:0:0:
291,364,257407,1,8,0:0:0:0:
150,161,257621,1,2,0:0:0:0:
238,74,257836,5,0,1:0:0:0:
238,74,257943,2,0,P|257:126|281:205,1,100,2|0,0:0|0:0,0:0:0:0:
268,199,258264,1,0,1:0:0:0:
399,265,258478,1,0,0:0:0:0:
399,265,258586,1,2,0:0:0:0:
494,172,258800,1,2,0:0:0:0:
494,172,258907,1,0,0:0:0:0:
370,122,259121,2,0,P|354:68|340:10,1,100,8|2,0:0|0:0,0:0:0:0:
163,353,259550,6,0,B|198:302|197:227|96:201|89:245,1,200,4|0,0:0|1:0,0:0:0:0:
359,330,260193,2,0,P|344:337|349:374,1,50,0|2,0:0|0:0,0:0:0:0:
407,271,260407,2,0,P|365:345|238:309,1,200,0|8,0:0|0:0,0:0:0:0:
254,144,261050,5,0,0:0:0:0:
245,119,261157,1,0,0:0:0:0:
235,94,261264,1,4,0:0:0:0:
142,49,261478,1,0,0:0:0:0:
116,38,261586,1,2,0:0:0:0:
331,74,261800,1,0,0:0:0:0:
360,85,261907,1,2,0:0:0:0:
153,150,262121,1,0,0:0:0:0:
127,159,262228,1,2,0:0:0:0:
100,169,262336,1,0,0:0:0:0:
337,177,262550,6,0,P|390:186|452:198,1,100,10|0,0:0|0:0,0:0:0:0:
492,148,262978,2,0,P|480:256|392:254,1,200,4|2,0:0|0:0,0:0:0:0:
311,273,263621,1,2,0:0:0:0:
311,273,263728,1,0,0:0:0:0:
311,273,263836,2,0,P|329:179|368:56,1,200,0|2,1:0|0:0,0:0:0:0:
68,86,264478,5,8,0:0:0:0:
68,86,264586,1,8,0:0:0:0:
68,86,264693,1,0,0:0:0:0:
135,231,264907,1,8,0:0:0:0:
205,160,265121,1,8,0:0:0:0:
214,134,265228,1,0,0:0:0:0:
54,298,265443,1,8,0:0:0:0:
43,271,265550,1,0,0:0:0:0:
34,245,265657,1,8,0:0:0:0:
21,218,265764,1,8,0:0:0:0:
230,252,265978,5,8,0:0:0:0:
408,297,266193,2,0,P|447:311|513:333,1,100,8|0,0:0|0:0,0:0:0:0:
