osu file format v14

[General]
AudioFilename: audio.mp3
AudioLeadIn: 0
PreviewTime: 142209
Countdown: 1
SampleSet: Soft
StackLeniency: 0.4
Mode: 0
LetterboxInBreaks: 0
WidescreenStoryboard: 0

[Editor]
DistanceSpacing: 0.2
BeatDivisor: 4
GridSize: 4
TimelineZoom: 2.35

[Metadata]
Title:Scias
TitleUnicode:Scias
Artist:Falcom Sound Team jdk
ArtistUnicode:Falcom Sound Team jdk
Creator:- Tojio -
Version:Eques ex Desperatio
Source:Ys Seven
Tags:Falcon Strike Scias Theme Ys Seven Masanori Osaki
BeatmapID:2167169
BeatmapSetID:1036504

[Difficulty]
HPDrainRate:5.7
CircleSize:4.1
OverallDifficulty:8.7
ApproachRate:10
SliderMultiplier:1.4
SliderTickRate:1

[Events]
//Background and Video events
0,0,"hhhhhbg.png",0,0
//Break Periods
//Storyboard Layer 0 (Background)
//Storyboard Layer 1 (Fail)
//Storyboard Layer 2 (Pass)
//Storyboard Layer 3 (Foreground)
//Storyboard Layer 4 (Overlay)
//Storyboard Sound Samples

[TimingPoints]
1865,458.015267175573,4,2,0,50,1,0
1865,-200,4,2,0,50,0,0
5529,-166.666666666667,4,2,0,50,0,0
9193,-200,4,2,0,50,0,0
12857,-166.666666666667,4,2,0,50,0,0
20185,-142.857142857143,4,2,0,50,0,0
23849,-166.666666666667,4,2,0,50,0,0
27513,-181.818181818182,4,2,0,50,0,0
29345,625,4,2,0,50,1,0
29345,-142.857142857143,4,2,0,50,0,0
31845,437.956204379562,4,2,0,50,1,0
37976,-100,4,2,0,50,0,0
38852,218.978102189781,4,2,0,50,1,0
38852,-100,4,2,0,75,0,1
51552,-66.6666666666667,4,2,0,75,0,1
52428,-66.6666666666667,4,2,0,75,0,0
52866,-80,4,2,0,75,0,0
86151,-100,4,2,0,75,0,1
114180,-80,4,2,0,75,0,0
142209,-86.9565217391304,4,2,0,75,0,1
154472,-76.9230769230769,4,2,0,75,0,1
156552,-86.9565217391304,4,2,0,75,0,1
170238,-76.9230769230769,4,2,0,75,0,1
171990,-80,4,2,0,75,0,0
190384,-74.0740740740741,4,2,0,75,0,0
191260,-80,4,2,0,75,0,0

[HitObjects]
373,152,1865,6,0,L|368:236,1,70
217,92,2781,2,0,L|230:168,1,70
161,298,3697,2,0,P|150:258|162:222,1,70
198,130,4613,1,0,0:0:0:0:
299,173,5071,1,0,0:0:0:0:
371,100,5529,2,0,B|410:62|460:63|460:63|387:13|303:102|216:32,1,335.999989746094
86,194,9193,6,0,B|66:233|66:233|71:270,1,70
197,105,10109,2,0,L|204:189,1,70
321,213,11025,2,0,B|347:218|347:218|395:199,1,70
462,268,11941,1,0,0:0:0:0:
459,276,12399,1,0,0:0:0:0:
456,283,12857,2,0,B|397:343|291:290|291:290|211:248|138:307,1,335.999989746094
192,228,16521,6,0,P|146:232|106:222,1,83.9999974365235
37,40,17437,2,0,L|31:132,1,83.9999974365235
201,83,18353,2,0,L|190:-14,1,83.9999974365235
296,73,19269,1,0,0:0:0:0:
301,75,19727,1,0,0:0:0:0:
308,80,20185,2,0,B|366:118|451:73|451:73|397:148|433:195|433:195|469:244|415:302,1,391.99998803711
275,259,23849,6,0,P|262:299|267:341,1,83.9999974365235
475,259,24765,2,0,L|380:280,1,83.9999974365235
163,184,25681,2,0,L|255:197,1,83.9999974365235
357,210,26597,1,0,0:0:0:0:
326,62,27055,1,0,0:0:0:0:
432,106,27513,6,0,P|322:124|361:246,1,269.500008224488
230,100,29345,2,0,B|131:168|94:28|-16:159|-16:159|46:211|92:187,1,391.99998803711
256,192,31954,12,0,37100,0:0:0:0:
188,213,37976,5,0,0:0:0:0:
250,310,38195,1,0,0:0:0:0:
367,60,38414,5,0,0:0:0:0:
349,195,38633,1,0,0:0:0:0:
369,52,38852,6,0,B|326:49|326:49|292:55,1,70
38,123,39070,2,0,B|74:118|74:118|115:140,1,70
301,337,39289,5,0,0:0:0:0:
234,98,39399,1,0,0:0:0:0:
149,297,39509,1,0,0:0:0:0:
359,139,39618,1,0,0:0:0:0:
423,317,39728,2,0,L|327:312,1,70
166,212,39947,2,0,L|258:216,1,70
426,211,40166,5,0,0:0:0:0:
316,3,40275,1,0,0:0:0:0:
277,279,40385,1,0,0:0:0:0:
418,123,40494,1,0,0:0:0:0:
217,82,40604,2,0,B|184:73|184:73|149:80,1,70
12,248,40823,2,0,B|51:252|51:252|82:238,1,70
330,281,41042,5,0,0:0:0:0:
257,109,41151,1,0,0:0:0:0:
178,317,41261,1,0,0:0:0:0:
351,193,41370,5,0,0:0:0:0:
131,246,41480,1,0,0:0:0:0:
158,75,41589,1,0,0:0:0:0:
247,256,41699,5,0,0:0:0:0:
74,151,41808,1,0,0:0:0:0:
233,40,41917,1,0,0:0:0:0:
176,219,42027,5,0,0:0:0:0:
191,33,42136,1,0,0:0:0:0:
361,106,42246,1,0,0:0:0:0:
18,163,42355,2,0,L|87:166,1,70
225,310,42574,1,0,0:0:0:0:
225,310,42684,2,0,L|139:305,1,70
301,183,42903,5,0,0:0:0:0:
187,25,43012,1,0,0:0:0:0:
185,251,43122,1,0,0:0:0:0:
316,34,43231,2,0,P|351:38|416:66,1,70
176,245,43450,5,0,0:0:0:0:
422,135,43559,2,0,P|442:174|459:262,1,70
165,241,43779,5,0,0:0:0:0:
454,298,43888,2,0,P|457:343|442:407,1,70
243,105,44107,2,0,P|245:68|283:24,1,70
305,205,44326,5,0,0:0:0:0:
162,288,44436,1,0,0:0:0:0:
100,134,44545,1,0,0:0:0:0:
256,299,44655,5,0,0:0:0:0:
217,128,44764,1,0,0:0:0:0:
85,230,44874,1,0,0:0:0:0:
149,75,44983,5,0,0:0:0:0:
215,251,45093,1,0,0:0:0:0:
346,110,45202,1,0,0:0:0:0:
358,256,45312,5,0,0:0:0:0:
151,185,45421,1,0,0:0:0:0:
257,46,45531,1,0,0:0:0:0:
151,331,45640,5,0,0:0:0:0:
314,163,45750,1,0,0:0:0:0:
416,343,45859,2,0,P|375:340|331:314,1,70
66,257,46078,1,0,0:0:0:0:
66,257,46188,6,0,P|100:240|151:250,1,70
243,57,46407,1,0,0:0:0:0:
243,57,46516,6,0,P|241:104|226:144,1,70
385,214,46735,2,0,L|379:124,1,70
214,266,46954,1,0,0:0:0:0:
214,266,47063,6,0,P|211:296|233:353,1,70
74,178,47282,1,0,0:0:0:0:
74,178,47392,2,0,B|64:134|76:89,1,70
223,29,47611,2,0,P|223:68|190:126,1,70
133,311,47830,5,0,0:0:0:0:
404,328,47939,1,0,0:0:0:0:
238,169,48049,1,0,0:0:0:0:
268,362,48158,1,0,0:0:0:0:
490,198,48268,2,0,P|446:204|409:186,1,70
138,107,48487,2,0,P|188:116|217:104,1,70
359,60,48706,5,0,0:0:0:0:
233,327,48815,1,0,0:0:0:0:
430,160,48925,1,0,0:0:0:0:
151,195,49034,1,0,0:0:0:0:
422,306,49144,1,0,0:0:0:0:
264,90,49253,1,0,0:0:0:0:
122,316,49363,2,0,P|70:314|21:294,1,70
206,102,49582,1,0,0:0:0:0:
206,102,49691,6,0,L|200:186,1,70
75,59,49910,1,0,0:0:0:0:
75,59,50020,2,0,L|66:-10,1,70
197,86,50239,2,0,L|180:185,1,70
64,296,50458,5,0,0:0:0:0:
255,334,50567,2,0,P|299:348|332:372,1,70
74,293,50786,5,0,0:0:0:0:
374,251,50895,2,0,P|413:256|463:279,1,70
214,132,51115,2,0,B|204:105|204:105|209:53,1,70
341,0,51334,2,0,B|353:36|353:36|343:86,1,70
450,177,51552,6,0,B|454:143|454:143|412:151,5,70.0000026702882
286,210,51990,2,0,B|271:235|271:235|287:273,2,70.0000026702882
392,274,52209,5,0,0:0:0:0:
393,287,52282,1,0,0:0:0:0:
394,300,52355,1,0,0:0:0:0:
395,313,52428,1,0,0:0:0:0:
190,12,52866,6,0,B|165:52|165:52|173:112,1,87.5
193,262,53085,1,0,0:0:0:0:
193,262,53195,2,0,P|168:284|80:288,1,87.5
19,136,53414,1,0,0:0:0:0:
19,136,53523,2,0,L|25:234,1,87.5
161,126,53742,2,0,P|162:81|137:38,1,87.5
266,182,53961,1,0,0:0:0:0:
266,182,54070,2,0,B|300:188|300:188|362:182,1,87.5
190,277,54289,1,0,0:0:0:0:
190,277,54399,2,0,P|146:280|72:260,1,87.5
303,342,54618,2,0,P|345:344|401:322,1,87.5
339,39,54837,6,0,P|342:90|359:137,1,87.5
502,226,55056,2,0,P|460:211|394:215,1,87.5
151,139,55275,1,0,0:0:0:0:
151,139,55384,2,0,P|190:126|255:136,1,87.5
281,258,55603,1,0,0:0:0:0:
281,258,55713,2,0,L|285:357,1,87.5
128,305,55932,2,0,L|116:393,1,87.5
13,229,56151,5,0,0:0:0:0:
13,229,56260,1,0,0:0:0:0:
13,229,56370,2,0,P|-2:191|6:133,1,87.5
150,28,56589,1,0,0:0:0:0:
150,28,56698,2,0,P|156:79|130:130,1,87.5
117,271,56917,1,0,0:0:0:0:
117,271,57027,2,0,P|171:242|225:253,1,87.5
372,338,57246,2,0,P|322:346|286:328,1,87.5
439,146,57465,1,0,0:0:0:0:
439,146,57574,2,0,P|433:203|441:249,1,87.5
306,53,57793,1,0,0:0:0:0:
306,53,57903,2,0,L|316:157,1,87.5
203,174,58122,5,0,0:0:0:0:
200,217,58231,1,0,0:0:0:0:
197,260,58341,1,0,0:0:0:0:
194,303,58450,1,0,0:0:0:0:
72,350,58779,5,0,2:0:0:0:
77,280,58888,1,0,2:0:0:0:
82,210,58997,1,0,2:0:0:0:
192,46,59216,5,0,0:0:0:0:
82,202,59435,1,0,2:0:0:0:
199,37,59545,1,0,0:0:0:0:
239,301,59873,6,0,P|230:255|237:203,1,87.5
350,54,60092,1,0,0:0:0:0:
350,54,60202,2,0,P|362:93|346:154,1,87.5
142,144,60421,1,0,0:0:0:0:
142,144,60530,2,0,L|38:115,1,87.5
214,258,60749,2,0,L|317:236,1,87.5
84,272,60968,5,0,0:0:0:0:
84,272,61078,2,0,L|88:373,1,87.5
166,146,61297,1,0,0:0:0:0:
166,146,61406,2,0,B|162:111|162:111|118:55,1,87.5
270,233,61625,2,0,B|304:236|304:236|379:213,1,87.5
474,339,61844,6,0,B|420:338|420:338|389:324,1,87.5
359,46,62063,2,0,P|361:110|380:144,1,87.5
218,268,62282,1,0,0:0:0:0:
218,268,62392,2,0,P|272:248|339:263,1,87.5
73,325,62611,1,0,0:0:0:0:
73,325,62720,2,0,B|63:287|63:287|79:219,1,87.5
166,49,62939,2,0,L|161:153,1,87.5
255,330,63158,5,0,0:0:0:0:
255,330,63268,1,0,0:0:0:0:
255,330,63377,2,0,L|241:208,1,87.5
54,118,63596,2,0,B|61:167|61:167|103:211,1,87.5
211,28,63815,5,0,0:0:0:0:
340,204,63924,1,0,0:0:0:0:
319,65,64034,1,0,0:0:0:0:
190,228,64143,1,0,0:0:0:0:
423,128,64253,2,0,L|414:238,1,87.5
182,232,64472,5,0,0:0:0:0:
423,128,64581,2,0,L|406:218,1,87.5
172,238,64800,5,0,0:0:0:0:
423,128,64910,2,0,L|390:223,1,87.5
304,351,65129,5,0,0:0:0:0:
294,349,65457,1,0,0:0:0:0:
95,93,65786,5,0,0:0:0:0:
97,106,66005,1,0,0:0:0:0:
209,164,66333,5,0,0:0:0:0:
327,33,66662,5,0,0:0:0:0:
330,44,66881,1,0,0:0:0:0:
112,130,67319,5,0,0:0:0:0:
206,316,67428,1,0,0:0:0:0:
288,158,67538,1,0,0:0:0:0:
103,234,67647,5,0,0:0:0:0:
339,286,67757,1,0,0:0:0:0:
206,52,67866,1,0,0:0:0:0:
245,245,67976,5,0,0:0:0:0:
417,144,68085,1,0,0:0:0:0:
313,26,68195,1,0,0:0:0:0:
414,246,68304,5,0,0:0:0:0:
254,131,68414,1,0,0:0:0:0:
185,338,68523,1,0,0:0:0:0:
328,329,68633,6,0,P|307:282|265:248,1,87.5
26,131,68852,2,0,P|81:142|120:122,1,87.5
301,20,69070,5,0,0:0:0:0:
252,243,69180,1,0,0:0:0:0:
417,110,69289,1,0,0:0:0:0:
463,288,69399,1,0,0:0:0:0:
284,125,69508,2,0,P|243:133|193:171,1,87.5
50,354,69727,2,0,P|41:299|51:258,1,87.5
73,77,69946,5,0,0:0:0:0:
203,264,70056,1,0,0:0:0:0:
233,42,70165,1,0,0:0:0:0:
323,251,70275,1,0,0:0:0:0:
127,160,70384,2,0,B|82:149|82:149|10:163,1,87.5
209,342,70603,2,0,B|246:352|246:352|312:328,1,87.5
350,107,70822,5,0,0:0:0:0:
439,286,70932,1,0,0:0:0:0:
486,113,71041,1,0,0:0:0:0:
285,246,71151,1,0,0:0:0:0:
213,58,71260,2,0,P|174:54|95:86,1,87.5
292,252,71479,5,0,0:0:0:0:
208,64,71589,2,0,P|172:66|96:104,1,87.5
301,262,71808,5,0,0:0:0:0:
202,69,71917,2,0,P|161:81|101:120,1,87.5
124,240,72136,5,0,0:0:0:0:
342,360,72246,1,0,0:0:0:0:
321,135,72355,1,0,0:0:0:0:
244,297,72465,5,0,0:0:0:0:
453,217,72574,1,0,0:0:0:0:
362,35,72684,1,0,0:0:0:0:
290,244,72793,5,0,0:0:0:0:
198,51,72903,1,0,0:0:0:0:
433,81,73012,2,0,P|477:97|517:131,1,87.5
235,195,73231,2,0,P|196:197|137:160,1,87.5
374,334,73450,5,0,0:0:0:0:
152,282,73560,1,0,0:0:0:0:
341,154,73669,1,0,0:0:0:0:
259,359,73779,1,0,0:0:0:0:
212,71,73888,5,0,0:0:0:0:
214,83,74216,1,0,0:0:0:0:
216,95,74545,1,0,0:0:0:0:
218,107,74873,1,0,0:0:0:0:
370,228,75202,5,0,0:0:0:0:
370,228,75311,1,0,0:0:0:0:
370,228,75421,1,0,0:0:0:0:
370,228,75530,1,0,0:0:0:0:
370,228,75640,2,0,B|405:237|405:237|470:214,1,87.5
255,102,75859,2,0,P|218:112|168:145,1,87.5
251,286,76078,5,0,0:0:0:0:
303,39,76187,1,0,0:0:0:0:
468,328,76297,1,0,0:0:0:0:
417,90,76406,1,0,0:0:0:0:
366,298,76516,2,0,L|347:406,1,87.5
246,117,76735,2,0,L|253:230,1,87.5
181,349,76954,5,0,0:0:0:0:
65,73,77063,1,0,0:0:0:0:
97,277,77173,5,0,0:0:0:0:
283,50,77282,1,0,0:0:0:0:
224,261,77392,5,0,0:0:0:0:
146,18,77501,1,0,0:0:0:0:
42,212,77611,5,0,0:0:0:0:
224,87,77720,1,0,0:0:0:0:
280,341,77830,5,0,0:0:0:0:
132,107,77939,1,0,0:0:0:0:
172,322,78049,5,0,0:0:0:0:
289,24,78158,1,0,0:0:0:0:
392,211,78268,2,0,P|403:256|402:297,1,87.5
279,97,78487,1,0,0:0:0:0:
219,277,78596,2,0,P|217:308|238:378,1,87.5
161,65,78815,1,0,0:0:0:0:
71,214,78924,2,0,P|43:228|-26:229,1,87.5
342,360,79143,5,0,0:0:0:0:
347,109,79253,1,0,0:0:0:0:
127,244,79362,1,0,0:0:0:0:
403,263,79472,5,0,0:0:0:0:
268,75,79581,1,0,0:0:0:0:
186,330,79691,1,0,0:0:0:0:
377,137,79800,5,0,0:0:0:0:
118,169,79910,1,0,0:0:0:0:
301,328,80019,2,0,P|337:342|397:322,1,87.5
162,199,80238,2,0,P|125:198|66:228,1,87.5
325,145,80457,5,0,0:0:0:0:
158,33,80567,1,0,0:0:0:0:
392,54,80676,1,0,0:0:0:0:
97,128,80786,1,0,0:0:0:0:
434,191,80895,1,0,0:0:0:0:
436,199,81224,1,0,0:0:0:0:
352,304,81552,5,0,0:0:0:0:
350,314,81881,1,0,0:0:0:0:
99,208,82209,5,0,0:0:0:0:
102,220,82319,1,0,0:0:0:0:
105,232,82428,1,0,0:0:0:0:
108,244,82538,1,0,0:0:0:0:
182,21,82647,6,0,L|194:146,1,87.5
210,294,82866,1,0,0:0:0:0:
185,31,82976,6,0,P|209:89|238:134,1,87.5
312,251,83195,1,0,0:0:0:0:
188,43,83304,6,0,P|226:79|268:101,1,87.5
383,160,83523,1,0,0:0:0:0:
190,54,83633,6,0,P|252:66|305:58,1,87.5
416,40,83852,1,0,0:0:0:0:
416,40,83961,1,0,0:0:0:0:
416,40,84070,1,0,0:0:0:0:
416,40,84180,1,0,0:0:0:0:
416,40,84289,1,0,0:0:0:0:
241,143,84399,6,0,B|210:152|210:152|281:185,3,87.5
146,249,84946,6,0,B|130:288|130:288|170:328,2,87.5
78,126,85275,5,0,0:0:0:0:
80,131,85384,1,0,0:0:0:0:
81,138,85494,1,0,0:0:0:0:
83,145,85603,1,0,0:0:0:0:
367,341,86151,6,0,B|401:302|401:302|391:192,1,140
232,125,86479,1,0,0:0:0:0:
232,125,86589,2,0,L|253:225,1,70
347,67,86808,2,0,L|341:-17,1,70
150,33,87027,2,0,B|120:42|120:42|74:89,1,70
166,300,87246,5,0,0:0:0:0:
166,300,87355,2,0,P|172:242|134:158,1,140
0,253,87684,2,0,L|80:257,1,70
359,306,87903,2,0,B|301:335|301:335|219:315,1,140
100,177,88231,1,0,0:0:0:0:
100,177,88341,2,0,P|91:135|96:81,1,70
238,32,88560,5,0,0:0:0:0:
238,32,88669,1,0,0:0:0:0:
238,32,88779,2,0,L|223:117,1,70
383,265,88997,2,0,L|397:346,1,70
231,216,89216,2,0,B|222:248|222:248|225:297,1,70
431,102,89435,2,0,B|428:66|428:66|414:32,1,70
292,209,89654,5,0,0:0:0:0:
106,330,89764,1,0,0:0:0:0:
77,127,89873,1,0,0:0:0:0:
232,330,89983,5,0,0:0:0:0:
44,266,90092,1,0,0:0:0:0:
201,121,90202,1,0,0:0:0:0:
49,349,90311,5,0,0:0:0:0:
130,148,90421,1,0,0:0:0:0:
306,258,90530,1,0,0:0:0:0:
42,192,90640,5,0,0:0:0:0:
220,45,90749,1,0,0:0:0:0:
242,254,90859,1,0,0:0:0:0:
109,62,90968,5,0,0:0:0:0:
339,105,91078,1,0,0:0:0:0:
142,229,91187,1,0,0:0:0:0:
272,57,91297,5,0,0:0:0:0:
234,304,91406,1,0,0:0:0:0:
106,136,91516,1,0,0:0:0:0:
369,63,91625,5,0,0:0:0:0:
334,288,91735,1,0,0:0:0:0:
181,97,91844,1,0,0:0:0:0:
397,186,91954,5,0,0:0:0:0:
167,285,92063,1,0,0:0:0:0:
219,25,92173,1,0,0:0:0:0:
435,126,92282,6,0,L|436:188,2,35
189,190,92501,1,0,0:0:0:0:
290,44,92611,1,0,0:0:0:0:
333,228,92720,2,0,L|336:270,2,35
135,95,92939,2,0,L|135:60,2,35
18,286,93158,6,0,B|74:317|74:317|171:296,1,140
126,134,93487,1,0,0:0:0:0:
126,134,93596,2,0,P|90:138|58:177,1,70
262,217,93815,2,0,L|253:147,1,70
359,6,94034,2,0,L|361:75,1,70
512,159,94253,1,0,0:0:0:0:
512,159,94362,2,0,P|448:200|375:155,1,140
236,88,94691,2,0,B|272:85|287:77|313:88,1,70
153,208,94910,2,0,L|137:354,1,140
285,265,95238,5,0,0:0:0:0:
285,265,95348,2,0,L|291:361,1,70
119,147,95567,1,0,0:0:0:0:
119,147,95676,1,0,0:0:0:0:
119,147,95786,2,0,B|111:186|111:186|124:239,1,70
274,66,96005,2,0,B|285:31|285:31|263:-31,1,70
351,218,96224,2,0,B|386:223|386:223|452:209,1,70
201,292,96443,2,0,B|195:326|195:326|209:374,1,70
237,165,96662,5,0,0:0:0:0:
84,60,96771,1,0,0:0:0:0:
74,272,96881,1,0,0:0:0:0:
195,66,96990,5,0,0:0:0:0:
37,209,97100,1,0,0:0:0:0:
211,326,97209,1,0,0:0:0:0:
99,100,97319,5,0,0:0:0:0:
150,323,97428,1,0,0:0:0:0:
327,125,97538,1,0,0:0:0:0:
83,174,97647,5,0,0:0:0:0:
308,246,97757,1,0,0:0:0:0:
242,20,97866,1,0,0:0:0:0:
212,249,97976,5,0,0:0:0:0:
404,188,98085,1,0,0:0:0:0:
293,38,98195,1,0,0:0:0:0:
336,298,98304,5,0,0:0:0:0:
369,71,98414,1,0,0:0:0:0:
194,126,98523,1,0,0:0:0:0:
415,255,98633,5,0,0:0:0:0:
281,95,98742,1,0,0:0:0:0:
181,282,98852,1,0,0:0:0:0:
292,330,98961,5,0,0:0:0:0:
122,176,99070,1,0,0:0:0:0:
41,367,99180,1,0,0:0:0:0:
211,157,99289,6,0,L|221:204,3,35
39,88,99508,5,0,0:0:0:0:
162,285,99618,1,0,0:0:0:0:
246,51,99727,1,0,0:0:0:0:
32,222,99837,5,0,0:0:0:0:
302,209,99946,1,0,0:0:0:0:
162,38,100056,1,0,0:0:0:0:
339,359,100165,6,0,B|365:332|365:332|351:208,1,140
273,20,100494,1,0,0:0:0:0:
273,20,100603,2,0,P|263:51|276:98,1,70
480,131,100822,2,0,L|401:137,1,70
167,174,101041,1,0,0:0:0:0:
167,174,101151,2,0,L|250:181,1,70
429,270,101370,1,0,0:0:0:0:
429,270,101479,2,0,L|345:279,1,70
186,375,101698,2,0,B|177:342|177:342|201:294,1,70
3,213,101917,6,0,B|27:185|27:185|131:198,1,140
327,244,102246,1,0,0:0:0:0:
327,244,102355,2,0,L|245:257,1,70
422,99,102574,1,0,0:0:0:0:
422,99,102684,1,0,0:0:0:0:
422,99,102793,2,0,P|455:124|462:174,1,70
262,74,103012,2,0,P|261:43|286:-8,1,70
351,221,103231,2,0,B|323:230|323:230|263:212,1,70
77,147,103450,2,0,B|102:134|102:134|164:140,1,70
134,304,103669,5,0,0:0:0:0:
439,307,103779,1,0,0:0:0:0:
189,175,103888,5,0,0:0:0:0:
329,373,103997,1,0,0:0:0:0:
277,70,104107,5,0,0:0:0:0:
231,347,104216,1,0,0:0:0:0:
387,26,104326,5,0,0:0:0:0:
139,249,104435,1,0,0:0:0:0:
399,154,104545,5,0,0:0:0:0:
183,0,104654,1,0,0:0:0:0:
208,325,104764,5,0,0:0:0:0:
348,20,104873,1,0,0:0:0:0:
86,240,104983,5,0,0:0:0:0:
421,331,105092,1,0,0:0:0:0:
241,18,105202,5,0,0:0:0:0:
156,349,105311,1,0,0:0:0:0:
347,158,105421,5,0,0:0:0:0:
36,94,105530,1,0,0:0:0:0:
254,315,105640,5,0,0:0:0:0:
313,17,105749,1,0,0:0:0:0:
116,248,105859,5,0,0:0:0:0:
473,309,105968,1,0,0:0:0:0:
230,67,106078,5,0,0:0:0:0:
186,370,106187,1,0,0:0:0:0:
459,147,106297,6,0,L|451:214,3,35
327,243,106516,2,0,L|333:303,3,35
241,155,106735,2,0,L|232:222,3,35
90,220,106954,2,0,L|93:272,3,35
5,95,107173,6,0,B|35:79|35:79|147:91,1,140
436,124,107501,1,0,0:0:0:0:
436,124,107611,2,0,B|411:139|411:139|342:126,1,70
225,28,107830,2,0,L|235:103,1,70
299,270,108049,1,0,0:0:0:0:
299,270,108158,2,0,L|303:175,1,70
158,282,108377,1,0,0:0:0:0:
158,282,108487,2,0,L|163:353,1,70
13,176,108706,2,0,B|47:193|47:193|93:193,1,70
460,192,108924,6,0,P|386:151|320:165,1,140
260,286,109253,1,0,0:0:0:0:
260,286,109362,2,0,L|263:363,1,70
174,81,109581,1,0,0:0:0:0:
174,81,109691,1,0,0:0:0:0:
174,81,109800,2,0,B|167:123|167:123|185:171,1,70
420,278,110019,2,0,B|390:252|390:252|350:238,1,70
139,290,110238,2,0,L|133:363,1,70
299,160,110457,2,0,L|291:76,1,70
110,135,110676,5,0,0:0:0:0:
263,329,110786,1,0,0:0:0:0:
36,248,110895,5,0,0:0:0:0:
318,224,111005,1,0,0:0:0:0:
94,339,111114,5,0,0:0:0:0:
235,89,111224,1,0,0:0:0:0:
210,350,111333,5,0,0:0:0:0:
98,71,111443,1,0,0:0:0:0:
361,284,111552,5,0,0:0:0:0:
5,257,111662,1,0,0:0:0:0:
324,120,111771,5,0,0:0:0:0:
145,340,111881,1,0,0:0:0:0:
189,78,111990,5,0,0:0:0:0:
288,376,112100,1,0,0:0:0:0:
108,190,112209,5,0,0:0:0:0:
455,252,112319,1,0,0:0:0:0:
215,295,112428,5,0,0:0:0:0:
427,78,112538,1,0,0:0:0:0:
367,302,112647,5,0,0:0:0:0:
218,27,112757,1,0,0:0:0:0:
451,166,112866,5,0,0:0:0:0:
92,123,112976,1,0,0:0:0:0:
355,54,113085,5,0,0:0:0:0:
93,289,113195,1,0,0:0:0:0:
188,44,113304,6,0,L|223:71,3,35
336,143,113523,2,0,L|288:163,3,35
138,235,113742,2,0,L|184:255,3,35
356,330,113961,2,0,L|308:353,3,35
17,135,114180,6,0,B|70:154|70:154|139:130|139:130|185:153,1,175
272,215,114508,1,0,0:0:0:0:
272,215,114618,2,0,B|296:243|296:243|289:295,1,87.5
141,351,114837,2,0,L|147:254,1,87.5
421,71,115056,6,0,P|332:35|275:80,1,175
89,115,115384,1,0,0:0:0:0:
89,115,115494,2,0,P|137:142|179:133,1,87.5
431,211,115713,2,0,P|373:214|316:185,1,87.5
226,356,115932,2,0,B|202:287|202:287|224:171,1,175
53,108,116260,1,0,0:0:0:0:
53,108,116370,2,0,L|56:210,1,87.5
204,96,116589,2,0,L|206:-5,1,87.5
480,200,116808,6,0,B|424:162|424:162|299:199,1,175
175,317,117136,1,0,0:0:0:0:
175,317,117246,2,0,B|212:326|212:326|285:315,1,87.5
86,221,117465,1,0,0:0:0:0:
86,221,117574,1,0,0:0:0:0:
86,221,117684,2,0,P|30:217|-22:243,1,87.5
209,65,117903,5,0,0:0:0:0:
209,65,118012,2,0,B|177:37|177:37|185:195,1,175
279,321,118341,2,0,L|284:216,1,87.5
447,162,118560,2,0,B|462:216|462:216|440:271,1,87.5
282,67,118779,1,0,0:0:0:0:
282,67,118888,2,0,B|328:52|328:52|377:66,1,87.5
192,137,119107,1,0,0:0:0:0:
192,137,119216,2,0,B|140:146|140:146|67:128,1,87.5
299,237,119435,2,0,B|337:240|337:240|403:218,1,87.5
83,361,119654,6,0,P|54:306|79:258,1,87.5
271,206,119873,1,0,0:0:0:0:
271,206,119983,2,0,P|286:232|255:305,1,87.5
117,155,120202,1,0,0:0:0:0:
228,53,120311,2,0,P|262:44|340:70,1,87.5
432,180,120530,1,0,0:0:0:0:
432,180,120640,2,0,P|374:187|318:176,1,87.5
70,107,120859,5,0,0:0:0:0:
256,306,120968,1,0,0:0:0:0:
235,107,121078,1,0,0:0:0:0:
34,298,121187,2,0,B|86:239|150:372|219:246,1,175
329,188,121516,1,0,0:0:0:0:
329,188,121625,2,0,L|234:176,1,87.5
61,82,121844,2,0,L|149:66,1,87.5
329,188,122063,6,0,B|244:176|244:176|134:204,1,175
337,332,122392,1,0,0:0:0:0:
337,332,122501,2,0,P|391:333|432:288,1,87.5
210,223,122720,2,0,L|204:326,1,87.5
393,154,122939,6,0,P|363:74|266:68,1,175
23,159,123268,1,0,0:0:0:0:
23,159,123377,2,0,B|73:174|73:174|128:158,1,87.5
382,333,123596,2,0,L|369:231,1,87.5
284,33,123815,6,0,B|235:60|235:60|224:185,1,175
97,336,124143,1,0,0:0:0:0:
97,336,124253,2,0,L|110:242,1,87.5
310,189,124472,1,0,0:0:0:0:
310,189,124581,1,0,0:0:0:0:
310,189,124691,2,0,B|310:232|310:232|266:279,1,87.5
25,169,124910,5,0,0:0:0:0:
25,169,125019,2,0,B|78:152|78:152|150:180|150:180|193:161,1,175
391,73,125348,2,0,L|294:78,1,87.5
425,236,125567,1,0,0:0:0:0:
425,236,125676,2,0,P|478:231|520:183,1,87.5
271,259,125895,1,0,0:0:0:0:
271,259,126005,2,0,P|279:297|329:333,1,87.5
160,157,126224,2,0,P|109:217|111:240,1,87.5
367,62,126443,6,0,B|314:44|314:44|246:68|246:68|182:51,1,175
334,184,126771,1,0,0:0:0:0:
334,184,126881,2,0,L|435:176,1,87.5
200,296,127100,2,0,L|301:287,1,87.5
5,213,127319,2,0,L|-2:319,1,87.5
84,135,127538,2,0,L|72:36,1,87.5
244,129,127757,5,0,0:0:0:0:
145,312,127866,1,0,0:0:0:0:
167,42,127976,1,0,0:0:0:0:
290,358,128085,1,0,0:0:0:0:
423,195,128195,2,0,B|379:186|379:186|300:226|300:226|229:219,1,175
218,79,128523,1,0,0:0:0:0:
218,79,128633,2,0,P|291:83|321:110,1,87.5
102,150,128851,2,0,P|36:153|2:122,1,87.5
250,345,129070,6,0,P|258:282|163:274,1,175
45,366,129399,1,0,0:0:0:0:
45,366,129508,2,0,B|37:324|37:324|49:274,1,87.5
156,106,129727,2,0,B|168:151|168:151|146:223,1,87.5
321,309,129946,6,0,P|253:334|218:314,1,87.5
427,172,130165,1,0,0:0:0:0:
427,172,130275,2,0,P|441:226|474:261,1,87.5
174,167,130494,1,0,0:0:0:0:
174,167,130603,2,0,L|59:202,1,87.5
270,342,130822,2,0,B|302:291|302:291|291:168,1,175
34,141,131151,2,0,P|76:66|129:121,1,175
334,83,131479,5,0,0:0:0:0:
334,83,131589,1,0,0:0:0:0:
334,83,131698,2,0,L|237:100,1,87.5
428,199,131917,1,0,0:0:0:0:
428,199,132027,2,0,L|541:172,1,87.5
260,222,132246,1,0,0:0:0:0:
260,222,132355,2,0,L|240:327,1,87.5
376,75,132574,6,0,P|326:62|282:68,1,87.5
61,132,132793,1,0,0:0:0:0:
61,132,132903,2,0,P|142:125|170:141,1,87.5
301,266,133122,1,0,0:0:0:0:
301,266,133231,2,0,P|303:204|282:162,1,87.5
134,288,133450,2,0,L|126:395,1,87.5
250,124,133669,6,0,B|273:115|273:115|350:132,1,87.5
75,137,133888,1,0,0:0:0:0:
75,137,133997,2,0,L|72:38,1,87.5
227,249,134216,1,0,0:0:0:0:
227,249,134326,2,0,B|179:275|179:275|115:254,1,87.5
385,340,134545,1,0,0:0:0:0:
385,340,134654,2,0,B|412:301|412:301|407:233,1,87.5
383,38,134873,5,0,0:0:0:0:
308,200,134983,1,0,0:0:0:0:
248,26,135092,1,0,0:0:0:0:
114,151,135202,2,0,P|55:140|29:95,1,87.5
242,92,135421,1,0,0:0:0:0:
242,92,135530,2,0,P|306:94|339:123,1,87.5
213,272,135749,1,0,0:0:0:0:
213,272,135859,2,0,L|205:383,1,87.5
424,182,136078,6,0,L|315:175,1,87.5
59,102,136297,1,0,0:0:0:0:
59,102,136406,2,0,L|161:94,1,87.5
280,297,136625,1,0,0:0:0:0:
280,297,136735,2,0,B|294:248|294:248|281:214,1,87.5
134,262,136954,6,0,P|124:287|136:363,1,87.5
308,164,137173,1,0,0:0:0:0:
308,164,137282,2,0,B|280:129|280:129|226:126,1,87.5
351,328,137501,1,0,0:0:0:0:
351,328,137611,2,0,P|428:334|459:315,1,87.5
428,112,137830,2,0,B|406:72|406:72|416:209,1,175
275,101,138158,2,0,B|284:-28|284:-28|262:11,1,175
96,185,138487,5,0,0:0:0:0:
96,185,138596,1,0,0:0:0:0:
96,185,138706,2,0,P|50:194|-15:180,1,87.5
167,33,138924,1,0,0:0:0:0:
246,189,139034,2,0,P|265:231|255:287,1,87.5
382,68,139253,1,0,0:0:0:0:
449,291,139362,2,0,P|441:322|400:367,1,87.5
204,195,139581,6,0,P|262:194|293:221,1,87.5
135,331,139800,1,0,0:0:0:0:
135,331,139910,2,0,B|81:327|81:327|28:282,1,87.5
301,219,140129,1,0,0:0:0:0:
301,219,140238,2,0,B|352:220|352:220|405:178,1,87.5
153,84,140457,2,0,L|146:180,1,87.5
302,358,140676,2,0,L|293:236,1,87.5
423,162,140895,5,0,0:0:0:0:
171,46,141005,2,0,P|105:33|62:44,1,87.5
261,263,141224,1,0,0:0:0:0:
359,75,141333,1,0,0:0:0:0:
146,171,141443,1,0,0:0:0:0:
146,171,141497,1,0,0:0:0:0:
146,171,141552,5,0,0:0:0:0:
396,327,141662,1,0,0:0:0:0:
255,104,141771,2,0,B|255:60|255:76|255:89,2,43.75
182,351,141990,1,0,0:0:0:0:
356,194,142100,1,0,0:0:0:0:
22,232,142209,6,0,B|105:191|112:268|185:225,1,161.000003070831
312,96,142538,1,0,0:0:0:0:
312,96,142647,2,0,P|251:73|226:80,1,80.5000015354157
350,293,142866,1,0,0:0:0:0:
350,293,142976,2,0,P|432:274|426:188,1,161.000003070831
223,285,143304,2,0,L|232:371,1,80.5000015354157
136,130,143523,2,0,L|142:25,1,80.5000015354157
38,273,143742,2,0,L|-58:253,1,80.5000015354157
214,140,143961,6,0,L|303:151,1,80.5000015354157
57,135,144180,2,0,P|17:126|-30:82,1,80.5000015354157
251,256,144399,2,0,P|276:319|255:354,1,80.5000015354157
141,65,144618,2,0,B|147:27|147:27|180:-21,1,80.5000015354157
136,238,144837,2,0,P|123:264|71:296,1,80.5000015354157
277,93,145056,2,0,P|293:122|352:153,1,80.5000015354157
452,318,145275,2,0,L|341:320,1,80.5000015354157
60,253,145494,5,0,0:0:0:0:
71,255,145567,1,0,0:0:0:0:
82,257,145640,1,0,0:0:0:0:
95,260,145713,2,0,B|145:270|145:270|207:252|207:252|285:264,1,161.000003070831
135,71,146041,1,0,0:0:0:0:
135,71,146151,2,0,P|117:115|132:151,1,80.5000015354157
241,349,146370,1,0,0:0:0:0:
241,349,146479,6,0,P|288:324|268:205,1,161.000003070831
429,106,146808,1,0,0:0:0:0:
429,106,146917,1,0,0:0:0:0:
429,106,147027,2,0,B|446:146|446:146|443:193,1,80.5000015354157
246,97,147246,2,0,B|252:48|252:48|281:17,1,80.5000015354157
332,206,147465,6,0,L|317:304,1,80.5000015354157
82,381,147684,2,0,L|80:275,1,80.5000015354157
337,213,147903,2,0,L|315:296,1,80.5000015354157
76,375,148122,2,0,L|86:289,1,80.5000015354157
309,143,148341,6,0,P|383:153|400:251,1,161.000003070831
197,110,148669,2,0,B|123:72|107:152|14:96,1,161.000003070831
230,279,148997,1,0,0:0:0:0:
317,75,149107,1,0,0:0:0:0:
403,358,149216,2,0,B|448:337|448:337|451:202,1,161.000003070831
289,172,149545,5,0,0:0:0:0:
289,172,149654,2,0,B|296:218|296:218|342:263,1,80.5000015354157
412,80,149873,1,0,0:0:0:0:
412,80,149983,2,0,P|351:48|234:66,1,161.000003070831
76,94,150311,1,0,0:0:0:0:
76,94,150421,1,0,0:0:0:0:
76,94,150530,2,0,P|150:98|162:108,1,80.5000015354157
321,189,150749,2,0,L|237:200,1,80.5000015354157
85,284,150968,6,0,B|75:315|75:315|91:369,1,80.5000015354157
201,132,151187,2,0,B|208:104|208:104|195:43,1,80.5000015354157
253,327,151406,2,0,P|286:343|343:331,1,80.5000015354157
445,208,151625,2,0,P|398:188|338:202,1,80.5000015354157
86,162,151844,6,0,L|-11:157,1,80.5000015354157
298,91,152063,2,0,L|404:107,1,80.5000015354157
80,158,152282,2,0,L|-1:134,1,80.5000015354157
303,95,152501,2,0,L|390:124,1,80.5000015354157
262,309,152720,5,0,0:0:0:0:
160,207,152830,1,0,0:0:0:0:
293,171,152939,1,0,0:0:0:0:
170,340,153049,5,0,0:0:0:0:
207,147,153158,1,0,0:0:0:0:
353,279,153268,1,0,0:0:0:0:
120,264,153377,5,0,0:0:0:0:
310,137,153487,1,0,0:0:0:0:
286,357,153596,1,0,0:0:0:0:
156,148,153706,5,0,0:0:0:0:
386,264,153815,1,0,0:0:0:0:
189,362,153924,1,0,0:0:0:0:
283,93,154034,5,0,0:0:0:0:
326,324,154143,1,0,0:0:0:0:
79,242,154253,1,0,0:0:0:0:
364,135,154362,1,0,0:0:0:0:
142,38,154472,6,0,P|131:93|291:211,2,272.999987503052
251,107,155348,5,0,0:0:0:0:
318,344,155457,1,0,0:0:0:0:
383,122,155567,1,0,0:0:0:0:
224,273,155676,1,0,0:0:0:0:
317,29,155786,1,0,0:0:0:0:
413,264,155895,1,0,0:0:0:0:
191,60,156005,1,0,0:0:0:0:
319,228,156114,1,0,0:0:0:0:
480,93,156224,2,0,B|429:85|429:85|349:117|349:117|273:105,1,181.999991668702
80,298,156552,5,0,0:0:0:0:
80,298,156662,2,0,P|73:256|94:220,1,80.5000015354157
162,58,156881,1,0,0:0:0:0:
162,58,156990,6,0,B|190:35|190:35|197:185,1,161.000003070831
269,361,157319,2,0,L|265:267,1,80.5000015354157
370,90,157538,2,0,L|362:185,1,80.5000015354157
436,293,157757,2,0,L|536:278,1,80.5000015354157
228,171,157976,1,0,0:0:0:0:
228,171,158085,1,0,0:0:0:0:
228,171,158195,6,0,L|143:179,1,80.5000015354157
350,78,158414,1,0,0:0:0:0:
350,78,158523,1,0,0:0:0:0:
350,78,158633,6,0,L|432:73,1,80.5000015354157
331,222,158852,1,0,0:0:0:0:
331,222,158961,6,0,L|329:309,1,80.5000015354157
190,100,159180,1,0,0:0:0:0:
190,100,159289,6,0,L|195:201,1,80.5000015354157
112,289,159508,2,0,P|94:301|15:279,1,80.5000015354157
301,322,159727,6,0,P|375:326|394:237,1,161.000003070831
274,124,160056,1,0,0:0:0:0:
274,124,160165,2,0,P|276:169|304:212,1,80.5000015354157
421,100,160384,1,0,0:0:0:0:
421,100,160494,2,0,B|441:53|441:53|304:31,1,161.000003070831
207,171,160822,2,0,L|291:149,1,80.5000015354157
167,62,161041,2,0,L|73:49,1,80.5000015354157
30,157,161260,2,0,B|11:205|11:205|46:255,1,80.5000015354157
153,354,161479,5,0,0:0:0:0:
153,354,161589,1,0,0:0:0:0:
153,354,161698,6,0,L|144:265,1,80.5000015354157
296,32,161917,1,0,0:0:0:0:
296,32,162027,1,0,0:0:0:0:
296,32,162136,6,0,L|283:111,1,80.5000015354157
38,177,162355,2,0,P|70:217|183:229,1,161.000003070831
488,180,162684,2,0,B|410:122|403:215|307:157,1,161.000003070831
240,356,163012,1,0,0:0:0:0:
190,80,163122,1,0,0:0:0:0:
58,345,163231,2,0,B|37:264|37:264|74:169,1,161.000003070831
250,220,163560,5,0,0:0:0:0:
250,220,163669,2,0,L|161:228,1,80.5000015354157
392,89,163888,1,0,0:0:0:0:
392,89,163997,2,0,B|428:80|428:80|420:205,1,161.000003070831
215,76,164326,1,0,0:0:0:0:
215,76,164435,1,0,0:0:0:0:
215,76,164545,2,0,B|207:40|207:40|226:-18,1,80.5000015354157
274,273,164764,2,0,B|287:239|287:239|270:187,1,80.5000015354157
95,127,164983,5,0,0:0:0:0:
95,127,165092,1,0,0:0:0:0:
95,127,165202,6,0,L|7:141,1,80.5000015354157
251,183,165421,1,0,0:0:0:0:
251,183,165530,1,0,0:0:0:0:
251,183,165640,6,0,L|352:195,1,80.5000015354157
125,271,165859,1,0,0:0:0:0:
125,271,165968,6,0,B|108:307|108:307|130:361,1,80.5000015354157
295,72,166187,1,0,0:0:0:0:
295,72,166297,6,0,B|305:117|305:117|292:161,1,80.5000015354157
392,319,166516,2,0,B|354:327|354:327|293:314,1,80.5000015354157
100,125,166735,5,0,0:0:0:0:
325,169,166844,1,0,0:0:0:0:
166,323,166954,1,0,0:0:0:0:
221,75,167063,5,0,0:0:0:0:
306,293,167173,1,0,0:0:0:0:
64,244,167282,1,0,0:0:0:0:
357,55,167392,5,0,0:0:0:0:
192,302,167501,1,0,0:0:0:0:
92,38,167611,1,0,0:0:0:0:
372,202,167720,5,0,0:0:0:0:
44,176,167830,1,0,0:0:0:0:
223,17,167939,1,0,0:0:0:0:
301,302,168049,5,0,0:0:0:0:
128,66,168158,1,0,0:0:0:0:
386,35,168268,1,0,0:0:0:0:
135,314,168377,5,0,0:0:0:0:
281,30,168487,1,0,0:0:0:0:
465,253,168596,1,0,0:0:0:0:
43,146,168706,5,0,0:0:0:0:
347,101,168815,1,0,0:0:0:0:
273,371,168924,1,0,0:0:0:0:
179,20,169034,5,0,0:0:0:0:
387,325,169143,1,0,0:0:0:0:
49,327,169253,1,0,0:0:0:0:
433,90,169362,5,0,0:0:0:0:
208,348,169472,1,0,0:0:0:0:
51,72,169581,1,0,0:0:0:0:
421,282,169691,5,0,0:0:0:0:
67,228,169800,1,0,0:0:0:0:
246,11,169910,1,0,0:0:0:0:
264,352,170019,5,0,0:0:0:0:
119,94,170129,1,0,0:0:0:0:
408,56,170238,2,0,P|364:187|238:208,2,272.999987503052
25,88,171114,2,0,B|139:175|163:51|296:116,2,272.999987503052
100,15,171844,5,0,0:0:0:0:
101,21,171917,1,0,0:0:0:0:
102,27,171990,1,0,0:0:0:0:
339,55,172866,5,0,0:0:0:0:
352,168,173085,1,0,0:0:0:0:
179,350,173304,5,0,0:0:0:0:
197,217,173523,1,0,0:0:0:0:
178,356,173742,6,0,P|261:362|309:278,1,175
503,217,174070,2,0,B|443:242|443:242|407:97,1,175
207,58,174399,1,0,0:0:0:0:
207,58,174508,1,0,0:0:0:0:
207,58,174618,6,0,P|172:111|270:188,1,175
452,349,174946,2,0,P|343:324|254:357,1,175
54,266,175275,1,0,0:0:0:0:
54,266,175384,1,0,0:0:0:0:
54,266,175494,6,0,B|105:287|105:287|163:279,1,87.5
441,152,175713,2,0,B|389:137|389:137|344:145,1,87.5
101,58,175932,2,0,B|106:101|106:101|132:142,1,87.5
276,362,176151,2,0,B|283:316|283:316|257:264,1,87.5
374,36,176370,2,0,P|385:97|364:135,1,87.5
83,202,176589,2,0,P|130:182|194:184,1,87.5
468,342,176808,2,0,P|415:340|356:312,1,87.5
114,172,177027,2,0,P|162:178|208:200,1,87.5
476,163,177246,6,0,P|381:140|396:70,1,175
250,19,177574,2,0,B|221:-8|221:-8|240:145,1,175
89,108,177903,1,0,0:0:0:0:
89,108,178012,1,0,0:0:0:0:
89,108,178122,2,0,B|74:166|74:166|103:231|103:231|88:290,1,175
419,369,178450,2,0,P|441:321|349:249,1,175
213,338,178779,1,0,0:0:0:0:
213,338,178888,1,0,0:0:0:0:
213,338,178997,6,0,L|215:244,1,87.5
101,23,179216,2,0,L|115:126,1,87.5
335,164,179435,6,0,L|326:64,1,87.5
112,278,179654,2,0,L|79:370,1,87.5
312,317,179873,2,0,B|356:322|356:322|422:306,1,87.5
171,66,180092,2,0,B|136:59|136:59|63:75,1,87.5
212,229,180311,1,0,0:0:0:0:
281,37,180421,1,0,0:0:0:0:
362,357,180530,1,0,0:0:0:0:
395,128,180640,1,0,0:0:0:0:
10,266,180749,6,0,B|103:232|104:306|189:264,1,175
314,131,181078,2,0,P|242:89|159:156,1,175
434,367,181406,1,0,0:0:0:0:
434,367,181516,1,0,0:0:0:0:
434,367,181625,6,0,B|463:279|463:279|434:191,1,175
223,12,181954,2,0,B|197:90|197:90|226:178,1,175
436,98,182282,1,0,0:0:0:0:
436,98,182392,1,0,0:0:0:0:
436,98,182501,6,0,L|333:104,1,87.5
61,152,182720,2,0,L|166:169,1,87.5
325,347,182939,2,0,B|345:312|345:312|331:244,1,87.5
240,19,183158,2,0,L|238:122,1,87.5
150,289,183377,2,0,B|140:250|140:250|155:189,1,87.5
406,27,183596,2,0,P|410:85|389:126,1,87.5
60,93,183815,2,0,L|156:107,1,87.5
457,214,184034,2,0,L|349:209,1,87.5
73,324,184253,6,0,B|201:335|201:335|240:299,1,175
423,236,184581,2,0,P|340:196|250:234,1,175
84,104,184910,1,0,0:0:0:0:
84,104,185019,1,0,0:0:0:0:
84,104,185129,6,0,P|112:172|217:168,1,175
396,123,185457,2,0,B|389:12|389:12|354:97,1,175
319,226,185786,1,0,0:0:0:0:
319,226,185895,1,0,0:0:0:0:
319,226,186005,6,0,B|337:251|337:251|407:264,1,87.5
198,320,186224,2,0,B|174:349|174:349|112:346,1,87.5
202,48,186443,2,0,B|221:101|221:101|216:150,1,87.5
31,230,186662,2,0,B|15:188|15:188|34:139,1,87.5
250,288,186881,2,0,L|234:383,1,87.5
161,144,187100,2,0,L|275:142,1,87.5
409,164,187319,5,0,0:0:0:0:
340,37,187428,1,0,0:0:0:0:
242,357,187538,1,0,0:0:0:0:
153,37,187647,1,0,0:0:0:0:
67,248,187757,5,0,0:0:0:0:
67,254,187976,5,0,0:0:0:0:
233,334,188195,5,0,0:0:0:0:
264,104,188304,5,0,0:0:0:0:
376,343,188633,5,0,0:0:0:0:
371,335,188851,5,0,0:0:0:0:
239,82,189070,5,0,0:0:0:0:
451,165,189180,5,0,0:0:0:0:
121,325,189508,6,0,B|117:293|117:293|123:253,3,43.75
360,187,189727,2,0,L|314:189,3,43.75
156,79,189946,2,0,L|167:130,3,43.75
295,368,190165,2,0,B|301:342|301:342|299:308,3,43.75
86,234,190384,6,0,P|119:235|148:229,1,47.2500001802444
239,194,190494,2,0,P|269:175|288:150,1,47.2500001802444
343,78,190603,2,0,P|353:53|356:25,1,47.2500001802444
100,40,190713,2,0,L|111:95,1,47.2500001802444
151,353,190822,2,0,L|154:286,1,47.2500001802444
219,44,190932,2,0,L|226:104,1,47.2500001802444
270,295,191041,2,0,L|273:224,1,47.2500001802444
358,126,191151,2,0,L|366:189,1,47.2500001802444
455,363,191260,6,0,B|484:311|484:311|470:193,1,175
291,238,191589,1,0,0:0:0:0:
291,238,191698,2,0,B|332:277|332:277|379:276,1,87.5
387,42,191917,2,0,L|388:135,1,87.5
264,87,192136,2,0,L|265:-36,1,87.5
159,195,192355,1,0,0:0:0:0:
159,195,192465,2,0,P|157:132|43:124,1,175
46,307,192793,2,0,B|33:265|33:265|55:206,1,87.5
337,328,193012,6,0,B|255:351|255:351|146:331,1,175
322,221,193341,1,0,0:0:0:0:
322,221,193450,2,0,B|371:214|371:214|422:260,1,87.5
155,125,193669,1,0,0:0:0:0:
155,125,193779,1,0,0:0:0:0:
155,125,193888,2,0,P|109:133|65:121,1,87.5
380,24,194107,2,0,L|386:120,1,87.5
261,365,194326,2,0,B|239:321|239:321|256:263,1,87.5
46,37,194545,2,0,B|62:77|62:77|107:99,1,87.5
281,155,194764,5,0,0:0:0:0:
193,73,194873,1,0,0:0:0:0:
312,230,194983,5,0,0:0:0:0:
119,198,195092,1,0,0:0:0:0:
390,284,195202,5,0,0:0:0:0:
182,321,195311,1,0,0:0:0:0:
438,204,195421,5,0,0:0:0:0:
310,357,195530,1,0,0:0:0:0:
356,118,195640,5,0,0:0:0:0:
425,361,195749,1,0,0:0:0:0:
241,130,195859,5,0,0:0:0:0:
472,280,195968,1,0,0:0:0:0:
189,224,196078,5,0,0:0:0:0:
447,177,196187,1,0,0:0:0:0:
177,346,196297,5,0,0:0:0:0:
339,249,196406,1,0,0:0:0:0:
98,254,196516,5,0,0:0:0:0:
306,340,196625,1,0,0:0:0:0:
85,134,196735,5,0,0:0:0:0:
236,245,196844,1,0,0:0:0:0:
172,22,196954,5,0,0:0:0:0:
207,130,197063,1,0,0:0:0:0:
333,24,197173,5,0,0:0:0:0:
252,337,197282,1,0,0:0:0:0:
156,131,197392,2,0,L|170:179,2,43.75
442,225,197611,1,0,0:0:0:0:
228,281,197720,1,0,0:0:0:0:
400,80,197830,2,0,L|424:133,2,43.75
339,362,198049,2,0,L|330:292,2,43.75
215,28,198268,2,0,P|149:27|77:109,1,175
187,205,198596,1,0,0:0:0:0:
187,205,198706,6,0,P|198:148|179:112,1,87.5
35,287,198924,2,0,B|80:301|80:301|143:291,1,87.5
336,341,199143,2,0,B|301:306|301:306|235:317,1,87.5
465,218,199362,1,0,0:0:0:0:
465,218,199472,2,0,P|488:280|526:289,1,87.5
314,77,199691,1,0,0:0:0:0:
314,77,199800,2,0,L|316:178,1,87.5
51,292,200019,6,0,B|110:281|110:281|163:304|163:304|222:290,1,175
181,122,200348,1,0,0:0:0:0:
181,122,200457,2,0,B|206:175|206:175|191:218,1,87.5
40,93,200676,1,0,0:0:0:0:
40,93,200786,1,0,0:0:0:0:
40,93,200895,2,0,P|60:38|92:26,1,87.5
265,211,201114,2,0,L|230:295,1,87.5
180,56,201333,2,0,B|216:35|216:35|275:37,1,87.5
422,213,201552,2,0,B|393:243|393:243|331:239,1,87.5
300,77,201771,5,0,0:0:0:0:
175,269,201881,1,0,0:0:0:0:
110,111,201990,1,0,0:0:0:0:
298,246,202100,5,0,0:0:0:0:
197,22,202209,1,0,0:0:0:0:
46,228,202319,1,0,0:0:0:0:
297,112,202428,5,0,0:0:0:0:
207,341,202538,1,0,0:0:0:0:
57,137,202647,1,0,0:0:0:0:
309,258,202757,5,0,0:0:0:0:
77,314,202866,1,0,0:0:0:0:
134,76,202976,1,0,0:0:0:0:
336,92,203085,5,0,0:0:0:0:
155,207,203195,1,0,0:0:0:0:
387,333,203304,1,0,0:0:0:0:
229,68,203414,5,0,0:0:0:0:
270,332,203523,1,0,0:0:0:0:
452,107,203633,1,0,0:0:0:0:
463,289,203742,5,0,0:0:0:0:
370,45,203851,1,0,0:0:0:0:
229,213,203961,1,0,0:0:0:0:
363,219,204070,5,0,0:0:0:0:
204,92,204180,1,0,0:0:0:0:
150,320,204289,1,0,0:0:0:0:
332,151,204399,6,0,L|384:148,2,43.75
74,164,204618,5,0,0:0:0:0:
299,346,204727,1,0,0:0:0:0:
271,37,204837,1,0,0:0:0:0:
99,278,204946,1,0,0:0:0:0:
397,177,205056,1,0,0:0:0:0:
168,80,205165,1,0,0:0:0:0:
192,344,205275,1,0,0:0:0:0:
256,192,205384,12,0,208779,0:0:0:0:
