osu file format v14

[General]
AudioFilename: audio.ogg
AudioLeadIn: 0
PreviewTime: 17740
Countdown: 0
SampleSet: Soft
StackLeniency: 0.7
Mode: 0
LetterboxInBreaks: 0
WidescreenStoryboard: 1

[Editor]
Bookmarks: 9002,17809,35424,53039,70653,88268,101479,119094,136708,154323,171938,189552
DistanceSpacing: 1
BeatDivisor: 4
GridSize: 4
TimelineZoom: 1.8

[Metadata]
Title:SUNSHINE COASTLINE
TitleUnicode:SUNSHINE COASTLINE
Artist:Falcom Sound Team jdk
ArtistUnicode:Falcom Sound Team jdk
Creator:Ayesha Altugle
Version:Hard
Source:イースVIII -Lacrimosa of DANA-
Tags:shizuku- kazato asa shikibe mayu ys viii -ラクリモサ・オブ・ダーナ- オリジナルサウンドトラック original sound track NW10103380 Nihon Falcom video game rock instrumental iclucia
BeatmapID:3667281
BeatmapSetID:1788943

[Difficulty]
HPDrainRate:4.5
CircleSize:3.8
OverallDifficulty:6.5
ApproachRate:8
SliderMultiplier:1.44
SliderTickRate:1

[Events]
//Background and Video events
0,0,"ys8.jpg",0,0
//Break Periods
2,395,8114
//Storyboard Layer 0 (Background)
//Storyboard Layer 1 (Fail)
//Storyboard Layer 2 (Pass)
//Storyboard Layer 3 (Foreground)
//Storyboard Layer 4 (Overlay)
//Storyboard Sound Samples

[TimingPoints]
195,275.229357798165,4,2,5,50,1,0
9002,-142.857142857143,4,2,5,60,0,0
16708,-142.857142857143,4,2,5,70,0,0
16846,-100,4,2,5,70,0,0
17809,-100,4,2,6,70,0,0
17946,-100,4,2,5,70,0,0
18084,-100,4,2,6,70,0,0
18222,-100,4,2,5,70,0,0
18635,-100,4,2,7,70,0,0
19048,-100,4,2,6,70,0,0
19873,-100,4,2,5,70,0,0
20011,-100,4,2,6,70,0,0
20561,-100,4,2,7,70,0,0
20699,-100,4,2,6,70,0,0
22626,-100,4,2,5,70,0,0
23039,-100,4,2,6,70,0,0
23314,-100,4,2,7,70,0,0
23451,-100,4,2,6,70,0,0
24552,-100,4,2,5,70,0,0
24689,-100,4,2,6,70,0,0
24828,-100,4,2,5,70,0,0
25240,-100,4,2,6,70,0,0
25378,-100,4,2,5,70,0,0
25791,-100,4,2,6,70,0,0
26203,-100,4,2,5,70,0,0
26341,-100,4,2,6,70,0,0
26479,-100,4,2,5,70,0,0
26617,-100,4,2,6,70,0,0
27167,-100,4,2,7,70,0,0
27304,-100,4,2,5,70,0,0
27442,-100,4,2,7,70,0,0
27580,-100,4,2,5,70,0,0
27993,-100,4,2,6,70,0,0
28680,-100,4,2,5,70,0,0
28818,-100,4,2,6,70,0,0
29368,-100,4,2,7,70,0,0
29506,-100,4,2,6,70,0,0
31433,-100,4,2,5,70,0,0
31570,-100,4,2,7,70,0,0
31708,-100,4,2,6,70,0,0
33084,-100,4,2,5,70,0,0
33222,-100,4,2,6,70,0,0
34735,-100,4,2,5,70,0,0
35424,-100,4,2,8,75,0,0
35974,-100,4,2,5,75,0,0
36250,-100,4,2,9,75,0,0
36800,-100,4,2,8,75,0,0
37487,-100,4,2,5,75,0,0
37626,-100,4,2,8,75,0,0
37763,-100,4,2,5,75,0,0
37900,-100,4,2,8,75,0,0
38039,-100,4,2,5,75,0,0
38451,-100,4,2,8,75,0,0
39690,-100,4,2,5,75,0,0
39828,-100,4,2,8,75,0,0
41891,-100,4,2,5,75,0,0
42029,-100,4,2,8,75,0,0
42167,-100,4,2,5,75,0,0
42304,-100,4,2,8,75,0,0
42579,-100,4,2,5,75,0,0
42854,-100,4,2,8,75,0,0
44231,-100,4,2,6,75,0,0
44781,-100,4,2,7,75,0,0
45057,-100,4,2,6,75,0,0
45194,-100,4,2,5,75,0,0
45607,-100,4,2,6,75,0,0
45882,-100,4,2,7,75,0,0
46020,-100,4,2,6,75,0,0
46295,-100,4,2,5,75,0,0
46433,-100,4,2,6,75,0,0
46571,-100,4,2,5,75,0,0
46708,-100,4,2,6,75,0,0
46846,-100,4,2,5,75,0,0
47259,-100,4,2,6,75,0,0
47396,-100,4,2,5,75,0,0
47809,-100,4,2,6,75,0,0
48497,-100,4,2,5,75,0,0
48635,-100,4,2,6,75,0,0
49598,-100,4,2,5,75,0,0
50011,-100,4,2,6,75,0,0
52350,-100,4,2,5,75,0,0
52488,-100,4,2,6,75,0,0
53039,-100,4,2,9,70,0,0
53314,-100,4,2,10,70,0,0
53451,-100,4,2,5,70,0,0
53864,-100,4,2,11,70,0,0
54001,-100,4,2,5,70,0,0
54139,-100,4,2,10,70,0,0
54552,-100,4,2,5,70,0,0
54690,-100,4,2,9,70,0,0
54965,-100,4,2,10,70,0,0
55102,-100,4,2,5,70,0,0
55240,-100,4,2,9,70,0,0
55515,-100,4,2,10,70,0,0
55653,-100,4,2,5,70,0,0
56066,-100,4,2,10,70,0,0
56204,-100,4,2,5,70,0,0
56617,-100,4,2,10,70,0,0
56892,-100,4,2,9,70,0,0
57167,-100,4,2,10,70,0,0
57442,-100,4,2,9,70,0,0
57717,-100,4,2,10,70,0,0
57855,-100,4,2,5,70,0,0
58268,-100,4,2,10,70,0,0
58405,-100,4,2,5,70,0,0
58543,-100,4,2,10,70,0,0
59094,-100,4,2,9,70,0,0
59369,-100,4,2,10,70,0,0
59644,-100,4,2,9,70,0,0
59919,-100,4,2,10,70,0,0
60057,-100,4,2,5,70,0,0
60470,-100,4,2,10,70,0,0
60607,-100,4,2,5,70,0,0
61020,-100,4,2,10,70,0,0
61157,-100,4,2,5,70,0,0
61295,-100,4,2,9,70,0,0
61433,-100,4,2,5,70,0,0
61571,-100,4,2,10,70,0,0
61708,-100,4,2,5,70,0,0
61846,-100,4,2,9,70,0,0
62121,-100,4,2,10,70,0,0
62259,-100,4,2,5,70,0,0
62396,-100,4,2,11,70,0,0
62533,-100,4,2,5,70,0,0
62671,-100,4,2,11,70,0,0
62809,-100,4,2,5,70,0,0
63222,-100,4,2,10,70,0,0
63497,-100,4,2,9,70,0,0
63772,-100,4,2,10,70,0,0
63910,-100,4,2,5,70,0,0
64048,-100,4,2,9,70,0,0
64323,-100,4,2,10,70,0,0
64461,-100,4,2,5,70,0,0
64598,-100,4,2,10,70,0,0
64735,-100,4,2,5,70,0,0
64873,-100,4,2,10,70,0,0
65011,-100,4,2,5,70,0,0
65424,-100,4,2,10,70,0,0
65699,-100,4,2,9,70,0,0
65974,-100,4,2,10,70,0,0
66249,-100,4,2,9,70,0,0
66524,-100,4,2,10,70,0,0
66662,-100,4,2,5,70,0,0
67075,-100,4,2,10,70,0,0
67213,-100,4,2,5,70,0,0
67626,-100,4,2,10,70,0,0
68038,-100,4,2,9,70,0,0
68176,-100,4,2,10,70,0,0
68313,-100,4,2,5,70,0,0
68451,-100,4,2,9,70,0,0
68864,-100,4,2,5,70,0,0
70653,-100,4,2,8,70,0,0
70928,-100,4,2,8,75,0,0
71203,-100,4,2,9,75,0,0
72029,-100,4,2,8,75,0,0
72717,-100,4,2,5,75,0,0
72855,-100,4,2,8,75,0,0
72993,-100,4,2,5,75,0,0
73130,-100,4,2,8,75,0,0
73268,-100,4,2,5,75,0,0
73681,-100,4,2,8,75,0,0
74919,-100,4,2,5,75,0,0
75057,-100,4,2,8,75,0,0
77120,-100,4,2,5,75,0,0
77259,-100,4,2,8,75,0,0
77396,-100,4,2,5,75,0,0
77533,-100,4,2,8,75,0,0
79461,-100,4,2,6,75,0,0
80011,-100,4,2,7,75,0,0
80286,-100,4,2,6,75,0,0
80424,-100,4,2,5,75,0,0
80837,-100,4,2,6,75,0,0
81524,-100,4,2,5,75,0,0
81662,-100,4,2,6,75,0,0
81800,-100,4,2,5,75,0,0
81937,-100,4,2,6,75,0,0
82075,-100,4,2,5,75,0,0
82488,-100,4,2,6,75,0,0
82626,-100,4,2,5,75,0,0
83039,-100,4,2,6,75,0,0
83727,-100,4,2,5,75,0,0
83864,-100,4,2,6,75,0,0
84277,-100,4,2,5,75,0,0
84415,-100,4,2,6,75,0,0
84828,-100,4,2,5,75,0,0
85240,-100,4,2,6,75,0,0
87579,-100,4,2,5,75,0,0
87717,-100,4,2,6,75,0,0
88818,-100,4,2,7,75,0,0
88956,-100,4,2,6,75,0,0
89231,-100,4,2,5,75,0,0
89644,-100,4,2,6,75,0,0
90332,-100,4,2,5,75,0,0
90470,-100,4,2,6,75,0,0
90607,-100,4,2,5,75,0,0
90744,-100,4,2,6,75,0,0
90883,-100,4,2,5,75,0,0
91295,-100,4,2,6,75,0,0
91433,-100,4,2,5,75,0,0
91846,-100,4,2,6,75,0,0
92533,-100,4,2,5,75,0,0
92672,-100,4,2,6,75,0,0
93635,-100,4,2,5,75,0,0
94048,-100,4,2,6,75,0,0
94185,-100,4,2,5,75,0,0
94598,-100,4,2,6,75,0,0
95011,-100,4,2,5,75,0,0
95149,-100,4,2,6,75,0,0
96387,-100,4,2,5,75,0,0
96525,-100,4,2,6,75,0,0
97075,-100,4,2,8,75,0,0
99277,-125,4,2,5,70,0,0
100516,-100,4,2,5,70,0,0
101479,-90.9090909090909,4,2,8,85,0,1
101892,-90.9090909090909,4,2,5,85,0,1
102029,-90.9090909090909,4,2,8,85,0,1
102442,-90.9090909090909,4,2,5,85,0,1
102855,-90.9090909090909,4,2,8,85,0,1
103543,-90.9090909090909,4,2,5,85,0,1
103681,-90.9090909090909,4,2,8,85,0,1
104094,-90.9090909090909,4,2,5,85,0,1
104231,-90.9090909090909,4,2,8,85,0,1
105332,-90.9090909090909,4,2,9,85,0,1
105607,-90.9090909090909,4,2,8,85,0,1
105745,-90.9090909090909,4,2,5,85,0,1
105883,-90.9090909090909,4,2,8,85,0,1
106295,-90.9090909090909,4,2,5,85,0,1
106708,-90.9090909090909,4,2,8,85,0,1
106845,-90.9090909090909,4,2,5,85,0,1
106983,-90.9090909090909,4,2,9,85,0,1
107258,-90.9090909090909,4,2,8,85,0,1
107534,-90.9090909090909,4,2,9,85,0,1
107809,-90.9090909090909,4,2,8,85,0,1
107947,-90.9090909090909,4,2,5,85,0,1
108084,-90.9090909090909,4,2,8,85,0,1
108497,-90.9090909090909,4,2,5,85,0,1
108910,-90.9090909090909,4,2,8,85,0,1
109047,-90.9090909090909,4,2,5,85,0,1
109185,-90.9090909090909,4,2,9,85,0,1
109460,-90.9090909090909,4,2,8,85,0,1
109598,-90.9090909090909,4,2,5,85,0,1
110011,-90.9090909090909,4,2,8,85,0,1
110148,-90.9090909090909,4,2,5,85,0,1
110286,-90.9090909090909,4,2,8,85,0,1
111249,-90.9090909090909,4,2,5,85,0,1
111387,-90.9090909090909,4,2,8,85,0,1
111800,-90.9090909090909,4,2,5,85,0,1
112213,-90.9090909090909,4,2,8,85,0,1
112350,-90.9090909090909,4,2,5,85,0,1
112488,-90.9090909090909,4,2,8,85,0,1
112901,-90.9090909090909,4,2,5,85,0,1
113039,-90.9090909090909,4,2,8,85,0,1
114001,-90.9090909090909,4,2,5,85,0,1
114139,-90.9090909090909,4,2,9,85,0,1
114414,-90.9090909090909,4,2,8,85,0,1
114552,-90.9090909090909,4,2,5,85,0,1
114690,-90.9090909090909,4,2,8,85,0,1
115103,-90.9090909090909,4,2,5,85,0,1
115240,-90.9090909090909,4,2,8,85,0,1
115653,-90.9090909090909,4,2,5,85,0,1
115791,-90.9090909090909,4,2,9,85,0,1
116066,-90.9090909090909,4,2,8,85,0,1
116341,-90.9090909090909,4,2,9,85,0,1
116617,-90.9090909090909,4,2,8,85,0,1
116754,-90.9090909090909,4,2,5,85,0,1
116892,-90.9090909090909,4,2,8,85,0,1
117305,-90.9090909090909,4,2,5,85,0,1
117717,-90.9090909090909,4,2,8,85,0,1
117855,-90.9090909090909,4,2,5,85,0,1
117993,-90.9090909090909,4,2,9,85,0,1
118268,-90.9090909090909,4,2,8,85,0,1
118406,-90.9090909090909,4,2,5,85,0,1
118818,-90.9090909090909,4,2,8,85,0,1
119506,-90.9090909090909,4,2,5,85,0,1
119643,-90.9090909090909,4,2,8,85,0,1
120057,-90.9090909090909,4,2,5,85,0,1
120470,-90.9090909090909,4,2,8,85,0,1
120745,-90.9090909090909,4,2,9,85,0,1
121020,-90.9090909090909,4,2,8,85,0,1
121158,-90.9090909090909,4,2,5,85,0,1
121295,-90.9090909090909,4,2,8,85,0,1
121708,-90.9090909090909,4,2,5,85,0,1
122121,-90.9090909090909,4,2,8,85,0,1
122258,-90.9090909090909,4,2,5,85,0,1
122671,-90.9090909090909,4,2,8,85,0,1
122947,-90.9090909090909,4,2,9,85,0,1
123222,-90.9090909090909,4,2,8,85,0,1
123360,-90.9090909090909,4,2,5,85,0,1
123497,-90.9090909090909,4,2,8,85,0,1
123910,-90.9090909090909,4,2,5,85,0,1
124323,-90.9090909090909,4,2,8,85,0,1
124460,-90.9090909090909,4,2,5,85,0,1
124873,-90.9090909090909,4,2,8,85,0,1
125149,-90.9090909090909,4,2,9,85,0,1
125424,-90.9090909090909,4,2,8,85,0,1
125561,-90.9090909090909,4,2,5,85,0,1
125699,-90.9090909090909,4,2,8,85,0,1
126112,-90.9090909090909,4,2,5,85,0,1
126525,-90.9090909090909,4,2,8,85,0,1
126662,-90.9090909090909,4,2,5,85,0,1
126800,-90.9090909090909,4,2,9,85,0,1
127075,-90.9090909090909,4,2,8,85,0,1
127213,-90.9090909090909,4,2,5,85,0,1
127626,-90.9090909090909,4,2,8,85,0,1
127763,-90.9090909090909,4,2,5,85,0,1
127901,-90.9090909090909,4,2,8,85,0,1
128314,-90.9090909090909,4,2,5,85,0,1
128451,-90.9090909090909,4,2,8,85,0,1
129415,-90.9090909090909,4,2,5,85,0,1
129827,-90.9090909090909,4,2,8,85,0,1
129965,-90.9090909090909,4,2,5,85,0,1
130103,-90.9090909090909,4,2,8,85,0,1
130516,-90.9090909090909,4,2,5,85,0,1
130653,-90.9090909090909,4,2,8,85,0,1
131617,-90.9090909090909,4,2,5,85,0,1
132029,-90.9090909090909,4,2,8,85,0,1
132167,-90.9090909090909,4,2,5,85,0,1
132305,-90.9090909090909,4,2,8,85,0,1
133405,-90.9090909090909,4,2,5,85,0,1
133681,-90.9090909090909,4,2,8,85,0,1
134369,-90.9090909090909,4,2,5,85,0,1
134506,-90.9090909090909,4,2,8,85,0,1
134919,-90.9090909090909,4,2,5,85,0,1
135057,-90.9090909090909,4,2,8,85,0,1
135607,-90.9090909090909,4,2,5,85,0,1
136639,-83.3333333333333,4,2,5,85,0,0
136708,-90.9090909090909,4,2,6,85,0,1
137121,-90.9090909090909,4,2,5,85,0,1
137258,-90.9090909090909,4,2,6,85,0,1
137672,-90.9090909090909,4,2,5,85,0,1
138084,-90.9090909090909,4,2,6,85,0,1
138359,-90.9090909090909,4,2,7,85,0,1
138497,-90.9090909090909,4,2,6,85,0,1
138772,-90.9090909090909,4,2,5,85,0,1
138910,-90.9090909090909,4,2,6,85,0,1
139323,-90.9090909090909,4,2,5,85,0,1
139736,-90.9090909090909,4,2,6,85,0,1
139873,-90.9090909090909,4,2,5,85,0,1
140011,-90.9090909090909,4,2,7,85,0,1
140286,-90.9090909090909,4,2,6,85,0,1
140974,-90.9090909090909,4,2,5,85,0,1
141112,-90.9090909090909,4,2,6,85,0,1
141525,-90.9090909090909,4,2,5,85,0,1
141938,-90.9090909090909,4,2,6,85,0,1
142075,-90.9090909090909,4,2,5,85,0,1
142213,-90.9090909090909,4,2,7,85,0,1
142488,-90.9090909090909,4,2,6,85,0,1
142763,-90.9090909090909,4,2,7,85,0,1
142900,-90.9090909090909,4,2,6,85,0,1
143176,-90.9090909090909,4,2,5,85,0,1
143314,-90.9090909090909,4,2,6,85,0,1
143727,-90.9090909090909,4,2,5,85,0,1
144139,-90.9090909090909,4,2,6,85,0,1
144276,-90.9090909090909,4,2,5,85,0,1
144415,-90.9090909090909,4,2,7,85,0,1
144552,-90.9090909090909,4,2,6,85,0,1
144828,-90.9090909090909,4,2,5,85,0,1
145240,-90.9090909090909,4,2,6,85,0,1
145377,-90.9090909090909,4,2,5,85,0,1
145516,-90.9090909090909,4,2,6,85,0,1
145928,-90.9090909090909,4,2,5,85,0,1
146066,-90.9090909090909,4,2,6,85,0,1
146479,-90.9090909090909,4,2,5,85,0,1
146617,-90.9090909090909,4,2,6,85,0,1
147029,-90.9090909090909,4,2,5,85,0,1
147166,-90.9090909090909,4,2,7,85,0,1
147305,-90.9090909090909,4,2,6,85,0,1
147579,-90.9090909090909,4,2,5,85,0,1
147717,-90.9090909090909,4,2,6,85,0,1
148130,-90.9090909090909,4,2,5,85,0,1
148268,-90.9090909090909,4,2,6,85,0,1
149369,-90.9090909090909,4,2,7,85,0,1
149506,-90.9090909090909,4,2,6,85,0,1
149781,-90.9090909090909,4,2,5,85,0,1
149919,-90.9090909090909,4,2,6,85,0,1
150332,-90.9090909090909,4,2,5,85,0,1
150745,-90.9090909090909,4,2,6,85,0,1
150883,-90.9090909090909,4,2,5,85,0,1
151020,-90.9090909090909,4,2,7,85,0,1
151295,-90.9090909090909,4,2,6,85,0,1
151570,-90.9090909090909,4,2,7,85,0,1
151708,-90.9090909090909,4,2,6,85,0,1
151983,-90.9090909090909,4,2,5,85,0,1
152121,-90.9090909090909,4,2,6,85,0,1
152534,-90.9090909090909,4,2,5,85,0,1
152947,-90.9090909090909,4,2,6,85,0,1
153084,-90.9090909090909,4,2,5,85,0,1
153222,-90.9090909090909,4,2,7,85,0,1
153497,-90.9090909090909,4,2,6,85,0,1
153635,-90.9090909090909,4,2,5,85,0,1
153772,-90.9090909090909,4,2,7,85,0,1
153910,-90.9090909090909,4,2,6,85,0,1
154736,-90.9090909090909,4,2,5,85,0,1
155149,-90.9090909090909,4,2,6,85,0,1
155286,-90.9090909090909,4,2,5,85,0,1
155699,-90.9090909090909,4,2,6,85,0,1
156387,-90.9090909090909,4,2,5,85,0,1
156525,-90.9090909090909,4,2,6,85,0,1
156938,-90.9090909090909,4,2,5,85,0,1
157350,-90.9090909090909,4,2,6,85,0,1
157625,-90.9090909090909,4,2,7,85,0,1
157763,-90.9090909090909,4,2,6,85,0,1
158589,-90.9090909090909,4,2,5,85,0,1
158727,-90.9090909090909,4,2,6,85,0,1
159139,-90.9090909090909,4,2,5,85,0,1
159276,-90.9090909090909,4,2,6,85,0,1
159828,-90.9090909090909,4,2,7,85,0,1
160103,-90.9090909090909,4,2,6,85,0,1
160378,-90.9090909090909,4,2,7,85,0,1
160653,-90.9090909090909,4,2,6,85,0,1
160791,-90.9090909090909,4,2,5,85,0,1
160928,-90.9090909090909,4,2,6,85,0,1
161341,-90.9090909090909,4,2,5,85,0,1
161754,-90.9090909090909,4,2,6,85,0,1
161891,-90.9090909090909,4,2,5,85,0,1
162029,-90.9090909090909,4,2,7,85,0,1
162167,-90.9090909090909,4,2,6,85,0,1
162442,-90.9090909090909,4,2,5,85,0,1
162855,-90.9090909090909,4,2,6,85,0,1
162992,-90.9090909090909,4,2,5,85,0,1
163130,-90.9090909090909,4,2,6,85,0,1
163543,-90.9090909090909,4,2,5,85,0,1
163681,-90.9090909090909,4,2,6,85,0,1
164644,-90.9090909090909,4,2,5,85,0,1
165057,-90.9090909090909,4,2,6,85,0,1
165194,-90.9090909090909,4,2,5,85,0,1
165332,-90.9090909090909,4,2,6,85,0,1
167396,-90.9090909090909,4,2,5,85,0,1
167534,-90.9090909090909,4,2,6,85,0,1
168497,-90.9090909090909,4,2,5,85,0,1
168910,-90.9090909090909,4,2,6,85,0,1
169598,-90.9090909090909,4,2,5,85,0,1
169736,-90.9090909090909,4,2,6,85,0,1
170149,-90.9090909090909,4,2,5,85,0,1
170286,-90.9090909090909,4,2,6,85,0,1
170699,-90.9090909090909,4,2,5,85,0,1
171938,-142.857142857143,4,2,5,55,0,0
181846,-142.857142857143,4,2,5,50,0,0
182947,-142.857142857143,4,2,5,45,0,0
184048,-142.857142857143,4,2,5,40,0,0
185149,-142.857142857143,4,2,5,30,0,0
186250,-142.857142857143,4,2,5,20,0,0
187350,-142.857142857143,4,2,5,10,0,0

[Colours]
Combo1 : 129,222,177
Combo2 : 143,189,211
Combo3 : 218,164,103
Combo4 : 210,213,162

[HitObjects]
256,192,195,5,14,2:1:0:0:
149,72,8864,5,8,2:1:0:0:
149,72,8933,1,8,2:1:0:0:
149,72,9002,2,0,B|91:118|91:118|14:102,2,151.2,12|2|2,2:0|2:0|2:0,2:0:0:0:
300,15,10240,2,0,P|277:59|277:113,1,100.8,2|0,2:0|2:0,2:0:0:0:
345,163,10653,2,0,P|392:143|442:143,1,100.8,2|0,2:0|2:0,2:0:0:0:
496,328,11204,6,0,L|396:310,1,100.8,2|0,2:0|2:0,2:0:0:0:
396,310,11617,1,2,2:0:0:0:
264,384,12029,6,0,L|229:288,1,100.8,2|0,2:0|2:0,2:0:0:0:
229,289,12442,1,2,2:0:0:0:
320,160,12717,1,0,2:0:0:0:
320,160,12855,2,0,B|350:119|350:119|336:63,1,100.8,2|0,2:0|2:0,2:0:0:0:
255,45,13406,6,0,P|335:33|397:-1,2,151.2,2|2|2,2:0|2:0|2:0,2:0:0:0:
91,7,14506,1,0,2:0:0:0:
91,7,14644,2,0,P|49:65|41:156,1,151.2,2|2,2:0|2:0,2:0:0:0:
97,256,15332,1,0,2:0:0:0:
224,183,15607,6,0,P|268:163|327:161,1,100.8,2|0,2:0|2:0,2:0:0:0:
319,159,16020,1,2,2:0:0:0:
499,366,16433,6,0,P|448:363|403:342,1,100.8,2|8,2:0|2:1,2:0:0:0:
325,384,16846,2,0,B|314:315|314:315|312:311|312:311|301:243,1,144,14|0,2:0|2:0,2:0:0:0:
390,181,17259,2,0,L|399:145,3,36,8|8|8|8,2:0|2:0|2:0|2:0,2:0:0:0:
394,122,17534,2,0,L|403:86,3,36,8|8|4|4,2:3|2:3|2:3|2:3,2:0:0:0:
392,76,17809,6,0,L|310:95,1,72,14|2,2:1|2:0,2:0:0:0:
245,49,18084,1,10,2:0:0:0:
184,124,18222,2,0,P|111:120|45:76,1,144,10|8,2:1|2:1,2:0:0:0:
0,157,18635,6,0,B|9:224|9:224|11:229|11:229|26:315,1,144,10|2,2:0|2:1,2:0:0:0:
93,359,19048,1,8,2:1:0:0:
179,325,19185,2,0,P|187:284|197:248,1,72,10|0,2:0|3:0,2:0:0:0:
128,202,19461,1,10,2:1:0:0:
128,202,19598,1,8,2:1:0:0:
199,151,19736,2,0,B|183:122|183:122|198:69,1,72,10|2,2:0|2:0,2:0:0:0:
142,9,20011,6,0,P|191:40|277:40,1,144,10|10,2:1|2:0,2:0:0:0:
374,8,20424,2,0,L|357:83,1,72,8|2,2:1|2:1,2:0:0:0:
282,133,20699,2,0,L|299:208,1,72,8|10,2:1|2:0,2:0:0:0:
383,176,20974,6,0,P|451:185|488:252,1,144,8|8,2:1|2:1,2:0:0:0:
459,332,21387,2,0,P|423:340|389:350,1,72,10|0,2:0|3:0,2:0:0:0:
316,303,21662,1,10,2:1:0:0:
235,340,21800,1,8,2:1:0:0:
167,289,21938,1,10,2:0:0:0:
167,289,22213,6,0,P|160:249|149:217,1,72,10|8,2:1|2:1,2:0:0:0:
211,154,22488,1,10,2:0:0:0:
298,179,22626,2,0,P|366:162|381:83,1,144,10|8,2:1|2:1,2:0:0:0:
341,31,23039,6,0,L|182:59,1,144,10|2,2:0|2:1,2:0:0:0:
128,20,23451,1,8,2:1:0:0:
54,52,23589,2,0,B|36:85|36:85|47:134,1,72,10|0,2:0|3:0,2:0:0:0:
101,188,23864,1,10,2:1:0:0:
101,188,24002,1,8,2:1:0:0:
183,140,24139,2,0,L|255:155,1,72,10|0,2:0|2:0,2:0:0:0:
322,106,24415,5,10,2:1:0:0:
365,184,24552,2,0,L|439:167,1,72,2|10,2:0|2:0,2:0:0:0:
494,103,24828,2,0,B|483:168|483:168|480:170|480:170|467:249,1,144,10|8,2:1|2:1,2:0:0:0:
496,325,25240,1,10,2:0:0:0:
427,377,25378,2,0,P|343:378|292:312,1,144,10|8,2:1|2:1,2:0:0:0:
220,313,25791,2,0,P|213:273|206:236,1,72,10|0,2:0|3:0,2:0:0:0:
287,195,26066,2,0,P|294:155|301:118,1,72,10|8,2:1|2:3,2:0:0:0:
200,0,26341,5,10,2:0:0:0:
132,59,26479,1,8,2:3:0:0:
45,33,26617,2,0,B|16:83|16:83|40:169,1,144,14|10,2:1|2:0,2:0:0:0:
109,221,27029,1,8,2:1:0:0:
26,258,27167,2,0,L|9:330,2,72,2|8|10,2:0|2:1|2:0,2:0:0:0:
109,221,27580,6,0,B|176:206|176:206|178:203|178:203|265:184,1,144,8|8,2:1|2:1,2:0:0:0:
327,234,27993,2,0,P|327:159|363:94,1,144,10|10,2:0|2:1,2:0:0:0:
354,6,28406,1,8,2:1:0:0:
354,6,28543,2,0,P|388:20|426:20,1,72,10|2,2:0|2:0,2:0:0:0:
512,1,28818,6,0,L|477:159,1,144,10|10,2:1|2:0,2:0:0:0:
422,210,29231,2,0,L|439:288,1,72,8|2,2:1|2:1,2:0:0:0:
358,335,29506,2,0,L|342:264,1,72,8|10,2:1|2:0,2:0:0:0:
259,313,29782,6,0,P|202:274|187:205,1,144,8|8,2:1|2:1,2:0:0:0:
246,140,30194,2,0,L|319:157,1,72,10|0,2:0|3:0,2:0:0:0:
381,90,30470,5,10,2:1:0:0:
349,17,30607,1,8,2:1:0:0:
265,11,30745,2,0,P|204:47|120:42,1,144,10|10,2:0|2:1,2:0:0:0:
51,2,31158,6,0,L|26:78,1,72,8|10,2:1|2:0,2:0:0:0:
6,162,31433,2,0,L|79:149,1,72,10|2,2:1|2:1,2:0:0:0:
165,187,31708,1,8,2:1:0:0:
226,110,31846,1,10,2:0:0:0:
312,140,31983,6,0,B|398:157|398:157|420:132|459:120,1,144,8|8,2:1|2:1,2:0:0:0:
512,191,32396,2,0,L|479:350,1,144,10|10,2:0|2:1,2:0:0:0:
400,307,32809,1,8,2:1:0:0:
342,376,32947,1,10,2:0:0:0:
342,376,33084,1,2,2:0:0:0:
250,357,33222,6,0,P|228:313|235:207,1,144,10|10,2:1|2:0,2:0:0:0:
288,156,33635,1,0,3:0:0:0:
373,191,33772,2,0,L|450:172,2,72,10|8|10,2:1|2:1|2:0,2:0:0:0:
288,156,34185,6,0,P|313:87|283:16,1,144,8|8,2:1|2:1,2:0:0:0:
206,0,34598,2,0,L|125:15,1,72,10|8,2:0|2:3,2:0:0:0:
135,13,34805,1,8,2:3:0:0:
135,13,34873,2,0,L|116:84,1,72,4|8,2:3|2:1,2:0:0:0:
49,123,35149,1,10,2:0:0:0:
70,200,35286,1,8,2:3:0:0:
152,239,35424,6,0,P|98:284|10:267,2,144,14|10|2,2:1|2:0|2:3,2:0:0:0:
244,113,36250,1,10,2:0:0:0:
318,139,36387,6,0,L|470:108,1,144,12|8,2:1|2:1,2:0:0:0:
512,183,36800,2,0,B|474:238|474:238|513:338,1,144,10|10,2:0|2:1,2:0:0:0:
456,381,37213,1,8,2:1:0:0:
381,340,37350,2,0,L|309:359,1,72,10|2,2:0|2:0,2:0:0:0:
221,306,37626,5,14,2:1:0:0:
221,306,37763,2,0,P|231:266|239:227,1,72,2|10,2:0|2:0,2:0:0:0:
190,162,38039,2,0,P|271:200|324:181,1,144,10|8,2:1|2:1,2:0:0:0:
407,231,38451,1,10,2:0:0:0:
487,184,38589,6,0,B|509:147|516:111|516:111|462:31,1,144,12|8,2:1|2:1,2:0:0:0:
418,6,39002,2,0,P|383:22|346:32,1,72,10|0,2:0|3:0,2:0:0:0:
267,8,39277,1,10,2:1:0:0:
267,8,39415,1,8,2:1:0:0:
228,93,39552,1,10,2:0:0:0:
228,93,39690,1,2,2:0:0:0:
303,147,39828,6,0,B|334:233|334:233|315:253|310:285,1,144,14|10,2:1|2:0,2:0:0:0:
348,352,40240,2,0,P|304:313|205:319,1,144,0|8,3:0|2:1,2:0:0:0:
136,291,40653,1,10,2:0:0:0:
76,369,40791,6,0,P|11:332|2:259,1,144,12|8,2:1|2:1,2:0:0:0:
8,179,41204,2,0,P|81:163|153:141,1,144,10|2,2:0|2:1,2:0:0:0:
262,94,41617,1,8,2:1:0:0:
262,94,41754,2,0,P|249:131|242:166,1,72,10|2,2:0|2:0,2:0:0:0:
164,232,42029,5,14,2:1:0:0:
189,317,42167,2,0,P|230:324|268:337,1,72,2|10,2:0|2:0,2:0:0:0:
334,378,42442,2,0,P|342:338|356:299,1,72,8|2,2:1|2:3,2:0:0:0:
341,223,42717,2,0,P|382:230|420:243,1,72,8|10,2:1|2:0,2:0:0:0:
482,280,42993,6,0,P|440:226|445:150,1,144,12|8,2:1|2:1,2:0:0:0:
499,85,43406,1,10,2:0:0:0:
443,13,43543,1,8,2:0:0:0:
443,13,43612,1,8,2:0:0:0:
443,13,43681,2,0,L|360:32,1,72,10|8,2:0|2:0,2:0:0:0:
295,0,43956,1,10,2:0:0:0:
257,91,44094,1,8,2:0:0:0:
175,49,44231,6,0,P|118:38|38:90,2,144,14|10|2,2:1|2:0|2:0,2:0:0:0:
329,148,45057,1,10,2:0:0:0:
398,83,45194,6,0,L|365:238,1,144,14|8,2:1|2:1,2:0:0:0:
449,262,45607,2,0,P|387:310|316:297,1,144,10|2,2:0|2:0,2:0:0:0:
238,259,46020,1,8,2:1:0:0:
238,259,46158,2,0,P|231:295|222:340,1,72,10|2,2:0|2:0,2:0:0:0:
135,384,46433,5,10,2:1:0:0:
135,384,46571,2,0,P|128:348|119:303,1,72,2|10,2:0|2:0,2:0:0:0:
46,273,46846,6,0,B|12:240|12:240|37:123,1,144,2|8,2:0|2:1,2:0:0:0:
0,65,47259,1,10,2:0:0:0:
60,0,47396,2,0,P|134:33|207:13,1,144,10|8,2:1|2:1,2:0:0:0:
295,0,47809,2,0,L|277:86,1,72,10|0,2:0|3:0,2:0:0:0:
207,123,48084,1,10,2:1:0:0:
207,123,48222,1,8,2:1:0:0:
260,199,48360,1,10,2:0:0:0:
260,199,48497,1,2,2:0:0:0:
213,280,48635,6,0,B|150:268|150:268|145:263|145:263|62:249,2,144,14|10|10,2:1|2:0|2:1,2:0:0:0:
269,350,49323,2,0,L|349:335,1,72,8|10,2:1|2:0,2:0:0:0:
430,377,49598,6,0,P|441:306|465:236,1,144,14|8,2:1|2:1,2:0:0:0:
473,141,50011,2,0,P|439:153|404:160,1,72,10|0,2:0|2:0,2:0:0:0:
340,73,50286,6,0,P|410:59|477:34,2,144,2|10|10,2:1|2:0|2:1,2:0:0:0:
174,8,51112,1,10,2:0:0:0:
174,8,51250,2,0,P|162:44|154:81,1,72,8|2,2:1|2:3,2:0:0:0:
180,158,51525,1,8,2:1:0:0:
264,134,51662,1,10,2:0:0:0:
329,186,51800,6,0,P|355:258|336:326,1,144,12|8,2:1|2:1,2:0:0:0:
254,354,52213,2,0,P|218:346|179:338,1,72,10|8,2:0|2:3,2:0:0:0:
183,338,52419,1,8,2:3:0:0:
183,338,52488,2,0,L|168:264,1,72,6|4,2:3|2:3,2:0:0:0:
85,309,52763,2,0,L|99:379,1,72,6|4,2:3|2:3,2:0:0:0:
0,348,53039,6,0,P|0:268|69:213,1,144,14|10,2:1|2:0,2:0:0:0:
0,138,53451,2,0,P|55:180|138:166,1,144,10|8,2:1|2:1,2:0:0:0:
206,115,53864,2,0,P|216:149|226:194,1,72,10|8,2:0|2:1,2:0:0:0:
168,268,54139,6,0,B|226:278|226:278|242:294|242:294|320:310,1,144,2|10,2:0|2:0,2:0:0:0:
359,376,54552,1,2,2:0:0:0:
439,328,54690,2,0,B|472:310|472:310|514:319,1,72,2|8,2:1|2:1,2:0:0:0:
491,210,54965,2,0,B|458:228|458:228|416:219,1,72,10|2,2:0|2:0,2:0:0:0:
334,215,55240,6,0,P|321:139|301:60,1,144,10|10,2:1|2:0,2:0:0:0:
353,0,55653,2,0,P|298:39|208:40,1,144,8|8,2:1|2:1,2:0:0:0:
149,0,56066,1,10,2:0:0:0:
76,55,56204,6,0,L|59:201,1,144,8|8,2:1|2:1,2:0:0:0:
144,247,56617,2,0,L|152:175,1,72,10|0,2:0|3:0,2:0:0:0:
223,119,56892,1,10,2:1:0:0:
292,172,57029,1,8,2:1:0:0:
353,113,57167,2,0,P|391:102|430:92,1,72,10|0,2:0|2:0,2:0:0:0:
492,153,57442,5,10,2:1:0:0:
492,153,57580,2,0,P|483:191|477:233,1,72,8|10,2:1|2:0,2:0:0:0:
512,300,57855,2,0,P|457:342|366:331,1,144,10|8,2:1|2:1,2:0:0:0:
307,384,58268,2,0,P|298:346|288:311,1,72,10|10,2:0|2:1,2:0:0:0:
231,257,58543,6,0,B|241:193|241:193|246:187|246:187|256:112,1,144,2|10,2:0|2:0,2:0:0:0:
317,48,58956,1,0,3:0:0:0:
404,67,59094,2,0,B|437:59|437:59|455:24,2,72,10|8|10,2:1|2:1|2:0,2:0:0:0:
197,11,59644,5,10,2:1:0:0:
197,11,59782,2,0,P|153:25|123:35,1,72,8|10,2:1|2:0,2:0:0:0:
44,5,60057,2,0,B|21:91|21:91|36:114|46:142,1,144,10|8,2:1|2:1,2:0:0:0:
45,140,60470,1,10,2:0:0:0:
11,225,60607,6,0,P|59:178|147:174,1,144,10|8,2:1|2:1,2:0:0:0:
220,131,61020,2,0,L|239:204,1,72,10|2,2:0|2:0,2:0:0:0:
317,155,61295,1,2,2:1:0:0:
381,214,61433,1,8,2:3:0:0:
459,172,61571,2,0,P|467:137|478:101,1,72,10|8,2:0|2:3,2:0:0:0:
477,102,61777,1,8,2:3:0:0:
477,102,61846,6,0,P|418:96|363:30,1,144,14|10,2:1|2:0,2:0:0:0:
286,0,62259,1,8,2:1:0:0:
238,76,62396,2,0,P|251:117|262:165,2,72,2|8|10,2:0|2:1|2:0,2:0:0:0:
141,74,62809,6,0,P|158:143|180:212,1,144,8|8,2:1|2:1,2:0:0:0:
257,145,63222,2,0,P|294:154|329:159,1,72,10|0,2:0|3:0,2:0:0:0:
413,117,63497,1,10,2:1:0:0:
413,117,63635,1,8,2:1:0:0:
498,159,63772,1,10,2:0:0:0:
498,159,63910,1,2,2:0:0:0:
480,252,64048,6,0,P|405:246|339:293,1,144,10|10,2:1|2:0,2:0:0:0:
264,246,64461,1,8,2:1:0:0:
213,316,64598,2,0,P|226:350|236:384,2,72,2|8|10,2:0|2:1|2:0,2:0:0:0:
264,246,65011,6,0,B|274:219|293:192|293:192|286:146|268:105,1,144,8|8,2:1|2:1,2:0:0:0:
321,35,65424,2,0,P|282:30|247:19,1,72,10|0,2:0|3:0,2:0:0:0:
185,73,65699,1,10,2:1:0:0:
185,73,65837,1,8,2:1:0:0:
118,16,65974,2,0,P|36:33|18:102,1,144,10|10,2:0|2:1,2:0:0:0:
38,166,66387,6,0,P|80:172|116:180,1,72,8|10,2:1|2:0,2:0:0:0:
180,210,66662,2,0,P|236:202|279:122,1,144,8|8,2:1|2:1,2:0:0:0:
309,47,67075,1,10,2:0:0:0:
390,78,67213,6,0,P|476:83|510:141,1,144,12|8,2:1|2:1,2:0:0:0:
479,215,67626,1,10,2:0:0:0:
392,181,67763,2,0,B|328:198|328:198|323:202|323:202|241:223,1,144,0|8,2:0|2:1,2:0:0:0:
185,175,68176,2,0,L|198:103,1,72,10|2,2:0|2:0,2:0:0:0:
104,44,68451,6,0,L|91:114,1,72,14|8,2:1|2:0,2:0:0:0:
91,114,68658,1,8,2:0:0:0:
91,114,68727,2,0,L|51:126,2,36,8|8|8,2:0|2:0|2:3,2:0:0:0:
6,221,69002,2,0,P|40:228|77:240,1,72,8|8,2:0|2:0,2:0:0:0:
75,239,69208,1,8,2:0:0:0:
75,239,69277,2,0,P|63:273|56:308,1,72,8|8,2:3|2:3,2:0:0:0:
145,373,69552,6,0,P|157:339|164:304,1,72,4|8,2:3|2:3,2:0:0:0:
233,250,69828,2,0,P|221:216|214:181,1,72,4|8,2:3|2:3,2:0:0:0:
213,180,70034,1,8,2:3:0:0:
213,180,70103,2,0,P|224:146|230:110,1,72,8|4,0:3|0:3,0:0:0:0:
320,132,70378,2,0,P|351:125|389:111,1,72,4|4,2:3|2:3,2:0:0:0:
388,111,70584,1,4,2:3:0:0:
388,111,70653,6,0,P|451:139|465:221,1,144,14|10,2:1|2:0,2:0:0:0:
481,308,71066,2,0,P|445:316|405:327,1,72,0|2,2:0|2:0,2:0:0:0:
345,384,71341,1,8,2:1:0:0:
264,360,71479,1,10,2:0:0:0:
227,278,71617,6,0,B|237:202|255:230|266:138,1,144,12|8,2:1|2:1,2:0:0:0:
352,103,72029,2,0,P|273:97|217:33,1,144,10|10,2:0|2:1,2:0:0:0:
158,0,72442,1,8,2:1:0:0:
105,59,72580,2,0,P|72:72|31:81,1,72,10|2,2:0|2:0,2:0:0:0:
13,167,72855,5,14,2:1:0:0:
88,222,72993,2,0,P|98:189|105:145,1,72,2|10,2:0|2:0,2:0:0:0:
186,106,73268,2,0,B|218:110|245:118|245:118|282:101|334:92,1,144,10|8,2:1|2:1,2:0:0:0:
384,28,73681,1,10,2:0:0:0:
464,52,73818,6,0,P|478:135|434:189,1,144,12|8,2:1|2:1,2:0:0:0:
505,262,74231,2,0,P|463:272|432:282,1,72,10|0,2:0|3:0,2:0:0:0:
357,239,74506,1,10,2:1:0:0:
357,239,74644,1,8,2:1:0:0:
276,286,74782,1,10,2:0:0:0:
276,286,74919,1,2,2:0:0:0:
193,249,75057,6,0,P|164:307|147:399,2,144,14|10|10,2:1|2:0|2:1,2:0:0:0:
147,177,75745,2,0,P|190:166|222:152,1,72,8|10,2:1|2:0,2:0:0:0:
298,197,76020,6,0,P|335:133|318:57,1,144,12|8,2:1|2:1,2:0:0:0:
373,1,76433,2,0,P|316:28|221:41,1,144,10|10,2:0|2:1,2:0:0:0:
158,6,76846,1,8,2:1:0:0:
69,15,76983,2,0,P|53:46|47:87,1,72,10|2,2:0|2:0,2:0:0:0:
0,154,77259,5,14,2:1:0:0:
62,212,77396,2,0,L|132:194,1,72,2|10,2:0|2:0,2:0:0:0:
205,127,77672,2,0,B|231:149|266:164|266:164|302:148|344:143,1,144,8|8,2:1|2:1,2:0:0:0:
393,74,78084,1,10,2:0:0:0:
488,128,78222,6,0,B|471:216|471:216|439:233|429:264,1,144,12|8,2:1|2:1,2:0:0:0:
478,340,78635,2,0,L|400:359,1,72,14|8,2:0|2:0,2:0:0:0:
408,357,78841,1,8,2:0:0:0:
408,357,78910,1,10,2:0:0:0:
343,295,79048,1,8,2:0:0:0:
252,316,79185,2,0,P|238:349|229:393,1,72,10|8,2:0|2:0,2:0:0:0:
177,241,79461,6,0,P|93:272|22:288,2,144,14|10|2,2:1|2:0|2:0,2:0:0:0:
342,181,80286,1,10,2:0:0:0:
416,224,80424,6,0,P|476:172|461:92,1,144,14|8,2:1|2:1,2:0:0:0:
509,9,80837,2,0,P|442:33|352:50,1,144,10|10,2:0|2:1,2:0:0:0:
300,0,81250,1,8,2:1:0:0:
221,29,81387,2,0,P|209:66|204:99,1,72,10|2,2:0|2:0,2:0:0:0:
283,169,81662,5,10,2:1:0:0:
283,169,81800,2,0,P|295:132|300:99,1,72,2|10,2:0|2:0,2:0:0:0:
204,98,82075,2,0,B|191:126|163:153|163:153|127:142|96:120,1,144,2|8,2:0|2:1,2:0:0:0:
18,200,82488,1,10,2:0:0:0:
60,274,82626,6,0,B|91:252|127:241|127:241|155:268|168:296,1,144,10|8,2:1|2:1,2:0:0:0:
242,353,83039,2,0,P|253:321|259:282,1,72,10|0,2:0|3:0,2:0:0:0:
217,218,83314,1,10,2:1:0:0:
217,218,83451,1,8,2:1:0:0:
252,136,83589,1,10,2:0:0:0:
252,136,83727,1,2,2:0:0:0:
173,80,83864,6,0,B|186:62|207:48|207:48|256:48|326:22,1,144,14|10,2:1|2:0,2:0:0:0:
374,84,84277,1,2,2:0:0:0:
463,62,84415,2,0,P|472:20|489:-21,2,72,10|8|10,2:1|2:1|2:0,2:0:0:0:
512,136,84828,6,0,P|507:213|448:264,1,144,14|8,2:1|2:1,2:0:0:0:
383,320,85240,2,0,P|374:279|364:245,1,72,10|0,2:0|2:0,2:0:0:0:
266,230,85516,2,0,P|285:299|300:369,2,144,2|10|10,2:1|2:0|2:1,2:0:0:0:
345,61,86341,5,10,2:0:0:0:
345,61,86479,2,0,B|274:83|274:83|206:40,1,144,8|8,2:1|2:1,2:0:0:0:
127,0,86892,1,10,2:0:0:0:
67,76,87029,6,0,L|97:221,1,144,12|8,2:1|2:1,2:0:0:0:
81,325,87442,2,0,P|118:320|155:306,1,72,10|8,2:0|2:3,2:0:0:0:
151,309,87649,1,8,2:3:0:0:
151,309,87717,2,0,L|173:382,1,72,6|8,2:3|2:0,2:0:0:0:
243,293,87993,1,10,2:0:0:0:
306,355,88130,1,8,2:0:0:0:
383,316,88268,6,0,P|462:330|517:371,2,144,14|10|2,2:1|2:0|2:0,2:0:0:0:
323,252,88956,2,0,L|339:177,1,72,8|10,2:1|2:0,2:0:0:0:
265,132,89231,6,0,P|200:165|121:172,1,144,14|8,2:1|2:1,2:0:0:0:
54,216,89644,2,0,P|48:174|31:136,1,72,10|0,2:0|3:0,2:0:0:0:
16,32,89919,2,0,B|83:67|83:67|155:45,1,144,10|10,2:1|2:0,2:0:0:0:
216,6,90332,1,2,2:0:0:0:
298,70,90470,5,10,2:1:0:0:
298,70,90607,2,0,L|281:154,1,72,2|10,2:0|2:0,2:0:0:0:
235,206,90883,2,0,B|288:192|338:187|338:187|376:148,1,144,2|8,2:0|2:1,2:0:0:0:
424,100,91295,1,10,2:0:0:0:
494,159,91433,6,0,B|518:250|518:250|487:305,1,144,10|8,2:1|2:1,2:0:0:0:
504,379,91846,2,0,P|466:366|431:360,1,72,10|0,2:0|3:0,2:0:0:0:
366,307,92121,1,10,2:1:0:0:
310,373,92259,1,8,2:1:0:0:
229,338,92396,2,0,P|221:302|210:266,1,72,10|2,2:0|2:0,2:0:0:0:
257,186,92672,6,0,P|205:230|117:224,2,144,14|10|10,2:1|2:0|2:1,2:0:0:0:
398,214,93497,1,10,2:0:0:0:
398,214,93635,6,0,P|411:147|431:73,1,144,14|8,2:1|2:1,2:0:0:0:
474,0,94048,1,10,2:0:0:0:
474,0,94185,2,0,P|422:42|341:33,1,144,6|8,2:0|2:1,2:0:0:0:
276,4,94598,2,0,P|244:17|206:28,1,72,10|0,2:0|3:0,2:0:0:0:
149,90,94873,5,10,2:1:0:0:
149,90,95011,1,2,2:1:0:0:
221,148,95149,2,0,B|275:160|275:160|294:187|294:187|374:204,1,144,10|2,2:0|2:3,2:0:0:0:
421,157,95561,2,0,P|433:195|444:228,1,72,8|10,2:1|2:0,2:0:0:0:
512,304,95837,6,0,P|439:310|373:357,1,144,12|8,2:1|2:1,2:0:0:0:
288,272,96250,2,0,L|268:351,1,72,10|8,2:0|2:3,2:0:0:0:
270,341,96456,1,8,2:3:0:0:
270,341,96525,2,0,P|232:350|190:363,1,72,6|4,2:3|2:3,2:0:0:0:
132,315,96800,1,6,2:3:0:0:
49,361,96938,1,4,2:3:0:0:
5,285,97075,5,14,2:1:0:0:
256,192,97144,12,0,98727,2:0:0:0:
276,73,99277,6,0,B|351:101|453:24|453:24|377:100|418:175,1,345.6,14|0,2:1|2:0,2:0:0:0:
504,263,100378,5,14,2:1:0:0:
504,263,100516,2,0,B|421:249|441:283|340:263,1,144,8|8,2:0|2:3,2:0:0:0:
283,301,100928,2,0,L|275:263,3,36,8|8|8|8,2:0|2:0|2:0|2:0,2:0:0:0:
256,246,101204,2,0,L|248:208,3,36,8|8|4|4,2:3|2:3|2:3|2:3,2:0:0:0:
228,187,101479,6,0,B|258:146|258:146|231:42,1,158.4,14|10,2:1|2:0,2:0:0:0:
129,0,101892,2,0,P|90:11|51:20,1,79.2,2|10,2:0|2:1,2:0:0:0:
31,123,102167,2,0,P|70:112|109:103,1,79.2,8|10,2:1|2:0,2:0:0:0:
191,147,102442,6,0,P|257:148|331:67,1,158.4,10|8,2:1|2:1,2:0:0:0:
378,18,102855,2,0,P|417:29|456:36,1,79.2,10|0,2:0|3:0,2:0:0:0:
506,106,103130,1,10,2:1:0:0:
506,106,103268,1,8,2:1:0:0:
442,172,103406,2,0,B|428:211|428:211|447:254,1,79.2,10|2,2:0|2:0,2:0:0:0:
498,315,103681,6,0,P|450:273|350:277,1,158.4,10|10,2:1|2:0,2:0:0:0:
303,334,104094,1,2,2:0:0:0:
220,307,104231,2,0,P|210:348|200:385,2,79.2,10|8|10,2:1|2:1|2:0,2:0:0:0:
141,239,104644,6,0,P|192:221|206:98,1,158.4,0|8,3:0|2:1,2:0:0:0:
295,76,105057,2,0,L|372:93,1,79.2,10|0,2:0|2:0,2:0:0:0:
356,6,105332,2,0,B|306:14|268:33|268:33|237:20|204:12,1,158.4,2|10,2:0|2:0,2:0:0:0:
137,58,105745,1,2,2:0:0:0:
45,34,105883,6,0,P|56:71|65:119,1,79.2,10|0,2:1|2:0,2:0:0:0:
122,173,106158,1,10,2:0:0:0:
23,207,106295,2,0,P|100:214|159:280,1,158.4,2|8,2:0|2:1,2:0:0:0:
231,324,106708,2,0,P|241:284|253:243,1,79.2,10|10,2:0|2:1,2:0:0:0:
207,163,106983,6,0,P|285:151|338:84,1,158.4,2|10,2:0|2:0,2:0:0:0:
356,12,107396,1,0,2:0:0:0:
423,69,107534,2,0,P|495:112|507:204,1,158.4,2|10,2:0|2:0,2:0:0:0:
469,257,107947,5,2,2:0:0:0:
469,257,108016,1,2,2:0:0:0:
469,257,108084,2,0,P|421:269|380:284,2,79.2,10|0|10,2:1|2:0|2:0,2:0:0:0:
457,352,108497,2,0,B|389:312|389:312|281:343,1,158.4,2|8,2:0|2:1,2:0:0:0:
219,355,108910,2,0,L|234:275,1,79.2,10|10,2:0|2:1,2:0:0:0:
186,205,109185,5,2,2:0:0:0:
245,137,109323,2,0,B|286:136|322:117,1,79.2,8|10,2:1|2:0,2:0:0:0:
295,27,109598,2,0,B|254:28|218:46,1,79.2,10|2,2:1|2:3,2:0:0:0:
134,1,109873,1,8,2:1:0:0:
134,1,110011,2,0,L|116:81,1,79.2,10|2,2:0|2:0,2:0:0:0:
47,191,110286,6,0,B|33:124|33:124|14:109|14:109|0:29,2,158.4,14|10|10,2:1|2:0|2:1,2:0:0:0:
121,236,110974,1,8,2:1:0:0:
173,169,111112,2,0,P|212:160|250:145,1,79.2,10|2,2:0|2:1,2:0:0:0:
308,76,111387,6,0,P|382:96|406:173,1,158.4,10|10,2:1|2:0,2:0:0:0:
496,197,111800,2,0,P|484:239|476:279,1,79.2,10|2,2:1|2:3,2:0:0:0:
362,343,112075,1,8,2:1:0:0:
362,343,112213,2,0,P|374:301|382:261,1,79.2,10|2,2:0|2:0,2:0:0:0:
288,224,112488,6,0,B|248:235|222:266|222:266|180:271|136:247,1,158.4,10|10,2:1|2:0,2:0:0:0:
145,251,112901,1,2,2:0:0:0:
73,310,113039,1,10,2:1:0:0:
73,310,113176,1,8,2:1:0:0:
9,240,113314,2,0,P|21:202|26:161,1,79.2,10|0,2:0|3:0,2:0:0:0:
0,81,113589,5,10,2:1:0:0:
0,81,113727,1,8,2:1:0:0:
63,21,113864,2,0,P|104:30|142:36,1,79.2,10|2,2:0|2:0,2:0:0:0:
230,8,114139,6,0,P|172:56|172:134,1,158.4,2|10,2:0|2:0,2:0:0:0:
225,210,114552,1,2,2:0:0:0:
308,161,114690,6,0,P|384:143|461:116,1,158.4,14|10,2:1|2:0,2:0:0:0:
507,195,115103,2,0,P|495:235|489:279,1,79.2,2|10,2:0|2:1,2:0:0:0:
412,366,115378,1,8,2:1:0:0:
412,366,115516,2,0,P|405:326|394:289,1,79.2,10|10,2:0|2:1,2:0:0:0:
301,256,115791,6,0,P|247:251|207:154,1,158.4,2|10,2:0|2:0,2:0:0:0:
261,85,116204,1,0,2:0:0:0:
261,85,116341,2,0,P|308:74|346:61,1,79.2,2|8,2:0|2:1,2:0:0:0:
196,5,116617,5,10,2:0:0:0:
131,66,116754,1,2,2:0:0:0:
44,31,116892,2,0,P|2:105|27:181,1,158.4,10|10,2:1|2:0,2:0:0:0:
0,268,117305,2,0,P|71:243|159:224,1,158.4,2|8,2:0|2:1,2:0:0:0:
224,270,117717,1,10,2:0:0:0:
224,270,117855,1,10,2:1:0:0:
294,215,117993,6,0,P|284:179|279:136,1,79.2,2|8,2:0|2:1,2:0:0:0:
205,97,118268,1,10,2:0:0:0:
244,18,118406,2,0,P|304:50|399:18,1,158.4,10|8,2:1|2:1,2:0:0:0:
497,16,118818,2,0,P|474:71|458:143,1,118.8,14|0,2:0|2:0,2:0:0:0:
465,143,119094,6,0,B|407:157|407:157|388:190|388:190|302:209,1,158.4,14|10,2:1|2:0,2:0:0:0:
248,246,119506,2,0,P|241:205|232:167,1,79.2,2|10,2:0|2:1,2:0:0:0:
301,117,119782,2,0,P|308:76|317:38,1,79.2,8|10,2:1|2:0,2:0:0:0:
233,0,120057,6,0,P|175:41|70:22,1,158.4,10|8,2:1|2:1,2:0:0:0:
0,23,120470,2,0,P|15:68|22:104,1,79.2,10|0,2:0|2:0,2:0:0:0:
6,189,120745,2,0,P|78:205|121:280,1,158.4,2|10,2:0|2:0,2:0:0:0:
120,273,121158,1,2,2:0:0:0:
210,254,121295,6,0,P|216:207|230:160,1,79.2,10|0,2:1|2:0,2:0:0:0:
169,101,121571,1,10,2:0:0:0:
169,101,121708,2,0,P|222:136|326:110,1,158.4,2|8,2:0|2:1,2:0:0:0:
367,56,122121,2,0,P|406:46|443:31,1,79.2,10|10,2:0|2:1,2:0:0:0:
507,103,122396,6,0,B|482:142|476:196|476:196|517:264,1,158.4,2|10,2:3|2:0,2:0:0:0:
507,247,122809,1,0,3:0:0:0:
494,334,122947,2,0,P|451:342|413:352,1,79.2,2|8,2:0|2:1,2:0:0:0:
342,383,123222,1,10,2:0:0:0:
342,383,123360,1,2,2:0:0:0:
270,332,123497,6,0,B|258:304|239:282|239:282|247:235|271:181,1,158.4,10|10,2:1|2:0,2:0:0:0:
371,154,123910,2,0,P|296:144|260:62,1,158.4,2|8,2:0|2:1,2:0:0:0:
186,18,124323,2,0,L|108:37,1,79.2,10|10,2:0|2:1,2:0:0:0:
24,0,124598,6,0,B|67:51|67:51|44:140,1,158.4,2|10,2:3|2:0,2:0:0:0:
0,208,125011,1,0,2:0:0:0:
43,281,125149,2,0,B|134:279|104:231|211:232,1,158.4,2|10,2:0|2:0,2:0:0:0:
266,293,125561,5,2,2:0:0:0:
266,293,125630,1,2,2:0:0:0:
266,293,125699,2,0,P|251:336|243:376,2,79.2,10|0|10,2:1|2:0|2:0,2:0:0:0:
190,232,126112,2,0,P|141:176|179:73,1,158.4,2|8,2:0|2:1,2:0:0:0:
132,6,126525,2,0,P|180:24|222:32,1,79.2,10|10,2:0|2:1,2:0:0:0:
271,109,126800,5,2,2:0:0:0:
271,109,126938,2,0,P|312:96|351:89,1,79.2,8|10,2:1|2:0,2:0:0:0:
415,25,127213,2,0,P|486:54|483:139,1,158.4,10|8,2:1|2:1,2:0:0:0:
433,189,127626,1,10,2:0:0:0:
433,189,127763,1,2,2:0:0:0:
512,237,127901,6,0,B|433:224|433:224|347:293,1,158.4,14|10,2:1|2:0,2:0:0:0:
302,218,128314,1,2,2:0:0:0:
243,289,128451,2,0,P|236:333|228:375,1,79.2,10|8,2:1|2:1,2:0:0:0:
144,327,128727,2,0,P|151:288|157:248,1,79.2,10|0,2:0|3:0,2:0:0:0:
60,193,129002,6,0,B|116:177|116:177|139:145|139:145|208:128,1,158.4,14|10,2:1|2:0,2:0:0:0:
249,48,129415,2,0,B|288:66|288:66|340:52,1,79.2,2|2,2:0|2:3,2:0:0:0:
347,143,129690,2,0,L|433:156,1,79.2,8|10,2:1|2:0,2:0:0:0:
512,122,129965,1,2,2:0:0:0:
504,240,130103,6,0,B|433:223|433:277|345:259,1,158.4,14|10,2:1|2:0,2:0:0:0:
269,308,130516,1,2,2:0:0:0:
215,237,130653,2,0,P|229:181|243:114,1,118.8,10|0,2:1|2:0,2:0:0:0:
241,121,130928,2,0,P|282:113|322:100,1,79.2,10|0,2:0|3:0,2:0:0:0:
242,22,131204,6,0,P|204:33|165:41,1,79.2,14|8,2:1|2:1,2:0:0:0:
84,3,131479,1,10,2:0:0:0:
21,66,131617,2,0,P|9:140|86:200,1,158.4,10|8,2:1|2:1,2:0:0:0:
145,157,132029,1,10,2:0:0:0:
201,233,132167,1,2,2:0:0:0:
276,180,132305,6,0,P|321:170|367:154,1,79.2,14|0,2:1|2:0,2:0:0:0:
417,85,132580,1,10,2:0:0:0:
495,134,132717,2,0,P|507:199|457:274,1,158.4,0|8,3:0|2:1,2:0:0:0:
512,350,133130,6,0,P|462:310|350:309,1,158.4,10|2,2:0|2:3,2:0:0:0:
298,356,133543,1,8,2:1:0:0:
219,303,133681,2,0,P|229:259|242:219,1,79.2,10|0,2:0|3:0,2:0:0:0:
321,153,133956,2,0,P|363:145|401:132,2,79.2,10|8|10,2:1|2:1|2:0,2:0:0:0:
258,94,134369,1,2,2:0:0:0:
340,37,134506,6,0,P|256:43|188:-17,1,158.4,10|10,2:1|2:0,2:0:0:0:
135,56,134919,1,2,2:0:0:0:
55,16,135057,2,0,P|44:56|37:95,1,79.2,10|8,2:1|2:1,2:0:0:0:
0,194,135332,6,0,B|46:176|91:167|91:167|116:184|154:193,1,158.4,10|2,2:0|2:3,2:0:0:0:
231,130,135745,1,8,2:1:0:0:
231,130,135814,1,8,2:0:0:0:
231,130,135883,2,0,P|243:177|260:221,1,79.2,8|8,2:0|2:0,2:0:0:0:
194,273,136158,2,0,P|207:310|216:348,1,79.2,8|8,2:0|2:3,2:0:0:0:
300,326,136433,1,4,2:3:0:0:
374,384,136571,1,4,2:3:0:0:
475,319,136708,6,0,P|513:258|513:174,1,158.4,14|10,2:1|2:0,2:0:0:0:
446,126,137121,2,0,P|403:141|363:152,1,79.2,2|10,2:0|2:1,2:0:0:0:
314,224,137396,1,8,2:1:0:0:
221,201,137534,1,10,2:0:0:0:
152,272,137672,6,0,P|70:260|44:175,1,158.4,10|8,2:1|2:1,2:0:0:0:
2,107,138084,2,0,P|76:103|132:34,1,158.4,10|2,2:0|2:0,2:0:0:0:
129,43,138497,1,8,2:1:0:0:
208,2,138635,1,10,2:0:0:0:
208,2,138772,1,2,2:0:0:0:
276,64,138910,6,0,B|258:128|258:128|240:141|240:141|224:212,1,158.4,10|10,2:1|2:0,2:0:0:0:
136,248,139323,2,0,P|212:248|280:304,1,158.4,2|8,2:0|2:1,2:0:0:0:
335,361,139736,2,0,L|416:345,1,79.2,10|10,2:0|2:1,2:0:0:0:
492,384,140011,6,0,B|455:337|455:337|482:241,1,158.4,2|10,2:1|2:0,2:0:0:0:
436,169,140424,1,0,3:0:0:0:
512,132,140561,2,0,P|427:120|382:51,1,158.4,10|10,2:1|2:0,2:0:0:0:
334,3,140974,1,2,2:0:0:0:
261,42,141112,6,0,P|254:83|244:122,1,79.2,10|0,2:1|2:0,2:0:0:0:
309,177,141387,1,10,2:0:0:0:
283,263,141525,2,0,B|218:278|218:278|200:300|200:300|124:317,1,158.4,2|8,2:0|2:1,2:0:0:0:
53,353,141938,2,0,P|43:314|29:278,1,79.2,10|10,2:0|2:1,2:0:0:0:
0,183,142213,6,0,P|63:193|141:132,1,158.4,2|10,2:1|2:0,2:0:0:0:
202,88,142626,1,0,2:0:0:0:
247,162,142763,2,0,P|290:171|330:189,1,79.2,2|8,2:0|2:1,2:0:0:0:
381,111,143039,1,10,2:0:0:0:
473,128,143176,5,2,2:0:0:0:
473,128,143245,1,2,2:0:0:0:
473,128,143314,2,0,P|509:190|509:275,1,158.4,10|10,2:1|2:0,2:0:0:0:
512,382,143727,2,0,P|450:346|365:346,1,158.4,2|8,2:0|2:1,2:0:0:0:
284,384,144139,2,0,P|275:344|265:308,1,79.2,10|10,2:0|2:1,2:0:0:0:
328,250,144415,5,2,2:0:0:0:
328,250,144552,2,0,P|336:209|346:167,1,79.2,8|10,2:1|2:0,2:0:0:0:
417,113,144828,2,0,P|348:121|265:57,1,158.4,10|8,2:1|2:1,2:0:0:0:
210,17,145240,2,0,L|125:37,1,79.2,10|2,2:0|2:0,2:0:0:0:
42,0,145516,6,0,B|30:46|17:95|17:95|35:123|48:154,1,158.4,14|10,2:1|2:0,2:0:0:0:
4,236,145928,1,2,2:0:0:0:
82,282,146066,2,0,P|120:271|160:262,1,79.2,10|8,2:1|2:1,2:0:0:0:
228,317,146341,1,10,2:0:0:0:
228,317,146479,1,2,2:1:0:0:
291,251,146617,6,0,B|303:187|303:187|317:167|317:167|329:90,1,158.4,10|10,2:1|2:0,2:0:0:0:
286,27,147029,2,0,P|326:19|368:3,1,79.2,10|2,2:1|2:1,2:0:0:0:
411,74,147305,1,8,2:1:0:0:
489,37,147442,2,0,P|504:75|514:119,1,79.2,10|2,2:0|2:0,2:0:0:0:
493,201,147717,6,0,P|416:189|346:241,1,158.4,10|10,2:1|2:0,2:0:0:0:
352,231,148130,1,2,2:0:0:0:
272,204,148268,1,10,2:1:0:0:
272,204,148406,1,8,2:1:0:0:
202,273,148543,2,0,P|193:311|183:350,1,79.2,10|0,2:0|2:0,2:0:0:0:
95,378,148818,5,10,2:1:0:0:
95,378,148956,1,8,2:1:0:0:
31,302,149094,2,0,P|72:292|111:278,1,79.2,10|0,2:0|2:0,2:0:0:0:
149,180,149369,5,2,2:0:0:0:
96,108,149506,1,8,2:1:0:0:
135,31,149644,2,0,B|175:42|212:46,1,79.2,10|2,2:0|2:0,2:0:0:0:
317,32,149919,6,0,P|253:57|245:160,1,158.4,14|10,2:1|2:0,2:0:0:0:
292,202,150332,2,0,B|353:184|353:184|396:192|396:192|473:171,1,158.4,2|8,2:0|2:1,2:0:0:0:
509,235,150745,1,10,2:0:0:0:
467,307,150883,1,10,2:1:0:0:
511,382,151020,6,0,P|463:351|362:352,1,158.4,2|10,2:1|2:0,2:0:0:0:
271,383,151433,2,0,P|278:345|288:299,1,79.2,0|2,2:0|2:0,2:0:0:0:
233,232,151708,1,8,2:1:0:0:
233,232,151846,2,0,P|272:222|316:210,1,79.2,10|2,2:0|2:0,2:0:0:0:
395,239,152121,6,0,P|447:179|431:105,1,158.4,10|10,2:1|2:0,2:0:0:0:
493,30,152534,2,0,P|415:56|334:73,1,158.4,2|0,2:0|3:0,2:0:0:0:
272,19,152947,1,10,2:0:0:0:
244,108,153084,1,10,2:1:0:0:
176,41,153222,6,0,P|123:33|47:112,1,158.4,2|10,2:0|2:0,2:0:0:0:
4,165,153635,2,0,P|21:201|30:244,1,79.2,10|2,2:1|2:1,2:0:0:0:
97,294,153910,1,8,2:1:0:0:
28,344,154048,2,0,P|106:346|162:392,1,118.8,14|0,2:0|2:0,2:0:0:0:
145,376,154323,6,0,P|185:369|228:335,1,79.2,14|0,2:1|2:0,2:0:0:0:
268,276,154598,1,10,2:0:0:0:
208,212,154736,2,0,P|163:147|184:48,1,158.4,2|8,2:0|2:1,2:0:0:0:
232,7,155149,1,10,2:0:0:0:
318,28,155286,6,0,B|366:53|417:46|417:46|438:21|482:8,1,158.4,10|8,2:1|2:1,2:0:0:0:
512,99,155699,2,0,L|494:188,1,79.2,10|0,2:0|3:0,2:0:0:0:
512,261,155974,2,0,P|462:218|364:210,1,158.4,10|10,2:1|2:0,2:0:0:0:
307,152,156387,1,2,2:0:0:0:
251,214,156525,6,0,P|263:251|276:292,1,79.2,10|0,2:1|2:0,2:0:0:0:
357,321,156800,1,10,2:0:0:0:
292,380,156938,2,0,B|237:367|237:367|201:378|201:378|116:364,1,158.4,2|8,2:0|2:1,2:0:0:0:
55,384,157350,6,0,P|7:334|30:227,1,158.4,10|2,2:0|2:1,2:0:0:0:
9,154,157763,1,8,2:1:0:0:
9,154,157901,2,0,P|49:168|85:179,1,79.2,10|0,2:0|3:0,2:0:0:0:
143,255,158176,2,0,B|210:221|210:221|295:238,1,158.4,10|10,2:1|2:0,2:0:0:0:
374,209,158589,1,2,2:0:0:0:
445,275,158727,6,0,P|495:229|495:136,1,158.4,10|10,2:1|2:0,2:0:0:0:
495,50,159139,2,0,P|459:64|420:75,1,79.2,2|10,2:0|2:1,2:0:0:0:
361,6,159415,1,8,2:1:0:0:
278,39,159552,2,0,P|264:78|255:121,1,79.2,10|8,2:0|3:1,2:0:0:0:
180,169,159828,6,0,P|237:149|319:211,1,158.4,2|10,3:1|2:0,2:0:0:0:
369,123,160240,1,0,2:0:0:0:
448,148,160378,2,0,L|419:304,1,158.4,2|10,2:0|2:0,2:0:0:0:
491,360,160791,5,2,2:0:0:0:
491,360,160860,1,2,2:0:0:0:
491,360,160928,2,0,B|431:346|380:341|380:341|320:359,1,158.4,10|10,2:1|2:0,2:0:0:0:
248,384,161341,2,0,P|211:327|212:232,1,158.4,2|0,2:0|3:0,2:0:0:0:
198,150,161754,2,0,P|244:161|282:168,1,79.2,10|10,2:0|2:1,2:0:0:0:
329,92,162029,5,2,2:0:0:0:
329,92,162167,2,0,P|290:84|251:75,1,79.2,8|10,2:1|2:0,2:0:0:0:
173,7,162442,2,0,B|114:22|114:22|94:50|94:50|8:68,1,158.4,10|8,2:1|2:1,2:0:0:0:
83,141,162855,2,0,P|74:181|67:229,1,79.2,10|2,2:0|2:0,2:0:0:0:
5,291,163130,6,0,B|43:263|79:253|79:253|118:271|166:267,1,158.4,14|10,2:1|2:0,2:0:0:0:
227,301,163543,1,2,2:0:0:0:
288,245,163681,2,0,P|278:207|264:165,1,79.2,10|8,2:1|2:1,2:0:0:0:
201,110,163956,2,0,P|205:48|267:33,1,118.8,10|0,2:0|3:0,2:0:0:0:
264,33,164231,6,0,P|305:24|345:11,1,79.2,14|0,2:1|2:0,2:0:0:0:
403,68,164506,1,10,2:0:0:0:
483,30,164644,2,0,P|524:99|505:185,1,158.4,2|8,2:0|2:1,2:0:0:0:
453,236,165057,1,10,2:0:0:0:
453,236,165194,1,2,2:0:0:0:
512,322,165332,6,0,P|474:289|343:290,1,158.4,14|10,2:1|2:0,2:0:0:0:
294,326,165745,1,0,3:0:0:0:
247,254,165883,2,0,B|250:222|260:193|260:193|273:178|273:178|284:144|284:94,1,158.4,10|10,2:1|2:0,2:0:0:0:
355,60,166295,1,0,2:0:0:0:
236,0,166433,6,0,P|184:44|90:31,1,158.4,14|10,2:1|2:0,2:0:0:0:
3,17,166846,2,0,P|17:57|26:97,1,79.2,0|10,3:0|2:1,2:0:0:0:
94,145,167121,1,8,2:1:0:0:
33,216,167259,2,0,P|71:223|112:238,1,79.2,10|2,2:0|2:0,2:0:0:0:
190,182,167534,6,0,P|213:251|231:345,2,158.4,14|10|10,2:1|2:0|2:1,2:0:0:0:
234,21,168360,1,10,2:0:0:0:
308,62,168497,2,0,B|369:80|369:80|413:68|449:27,1,158.4,10|8,2:1|2:1,2:0:0:0:
512,92,168910,2,0,P|502:133|494:172,1,79.2,10|0,2:0|3:0,2:0:0:0:
439,239,169185,1,10,2:1:0:0:
439,239,169323,1,8,2:1:0:0:
509,299,169461,2,0,P|475:321|415:322,1,79.2,10|2,2:0|2:0,2:0:0:0:
356,384,169736,6,0,P|340:297|275:246,1,158.4,10|10,2:1|2:0,2:0:0:0:
218,208,170149,1,2,2:0:0:0:
290,169,170286,2,0,P|304:132|304:93,1,79.2,10|8,2:1|2:1,2:0:0:0:
271,12,170561,1,10,2:0:0:0:
191,40,170699,6,0,B|124:82|124:82|41:63,1,158.4,14|8,2:1|2:1,2:0:0:0:
46,64,171043,1,0,2:0:0:0:
46,64,171112,1,12,2:0:0:0:
14,149,171250,1,8,2:0:0:0:
76,214,171387,2,0,P|113:202|158:193,1,79.2,8|8,2:0|2:3,2:0:0:0:
228,136,171662,1,4,2:3:0:0:
293,219,171800,1,4,2:3:0:0:
398,173,171938,6,0,P|448:112|432:44,1,151.2,14|0,2:1|2:0,2:0:0:0:
288,0,172763,2,0,P|191:29|91:41,1,201.6,0|0,2:0|2:0,2:0:0:0:
16,0,173589,1,0,2:0:0:0:
0,196,174139,6,0,P|56:232|136:219,1,151.2,2|0,2:1|2:0,2:0:0:0:
273,273,174965,2,0,P|286:174|309:76,1,201.6,0|0,2:0|2:0,2:0:0:0:
379,20,175791,1,0,2:0:0:0:
512,170,176341,6,0,P|466:204|364:200,1,151.2,2|0,2:1|2:0,2:0:0:0:
311,76,177167,2,0,L|105:123,1,201.6,0|0,2:0|2:0,2:0:0:0:
27,74,177993,1,0,2:0:0:0:
6,244,178543,6,0,P|64:205|159:220,1,151.2,2|0,2:1|2:0,2:0:0:0:
320,288,179369,6,0,P|401:236|405:139,1,201.6,0|0,2:0|2:0,2:0:0:0:
319,44,180194,2,0,P|274:60|219:73,1,100.8,0|0,2:0|2:0,2:0:0:0:
139,37,180607,2,0,L|145:8,2,25.2,8|8|12,2:3|2:3|2:1,2:0:0:0:
256,192,180814,12,0,189552,2:0:0:0:
