osu file format v14

[General]
AudioFilename: audio.ogg
AudioLeadIn: 0
PreviewTime: 17740
Countdown: 0
SampleSet: Soft
StackLeniency: 0.7
Mode: 0
LetterboxInBreaks: 0
WidescreenStoryboard: 1

[Editor]
Bookmarks: 9002,17809,35424,53039,70653,88268,101479,119094,136708,154323,171938,189552
DistanceSpacing: 1
BeatDivisor: 2
GridSize: 16
TimelineZoom: 0.7999997

[Metadata]
Title:SUNSHINE COASTLINE
TitleUnicode:SUNSHINE COASTLINE
Artist:Falcom Sound Team jdk
ArtistUnicode:Falcom Sound Team jdk
Creator:Ayesha Altugle
Version:Easy
Source:イースVIII -Lacrimosa of DANA-
Tags:shizuku- kazato asa shikibe mayu ys viii -ラクリモサ・オブ・ダーナ- オリジナルサウンドトラック original sound track NW10103380 Nihon Falcom video game rock instrumental iclucia
BeatmapID:3668730
BeatmapSetID:1788943

[Difficulty]
HPDrainRate:2
CircleSize:3.2
OverallDifficulty:2
ApproachRate:3
SliderMultiplier:0.85
SliderTickRate:1

[Events]
//Background and Video events
0,0,"ys8.jpg",0,0
//Break Periods
2,4798,7562
2,13606,15406
//Storyboard Layer 0 (Background)
//Storyboard Layer 1 (Fail)
//Storyboard Layer 2 (Pass)
//Storyboard Layer 3 (Foreground)
//Storyboard Layer 4 (Overlay)
//Storyboard Sound Samples

[TimingPoints]
195,275.229357798165,4,2,5,50,1,0
9002,-100,4,2,5,60,0,0
16846,-100,4,2,5,70,0,0
17809,-100,4,2,6,70,0,0
18221,-100,4,2,5,70,0,0
18635,-100,4,2,7,70,0,0
19185,-100,4,2,6,70,0,0
22625,-100,4,2,5,70,0,0
23039,-100,4,2,6,70,0,0
24827,-100,4,2,5,70,0,0
25790,-100,4,2,6,70,0,0
27167,-100,4,2,7,70,0,0
27579,-100,4,2,5,70,0,0
27992,-100,4,2,6,70,0,0
29369,-100,4,2,7,70,0,0
29781,-100,4,2,6,70,0,0
31432,-100,4,2,5,70,0,0
32395,-100,4,2,6,70,0,0
35148,-100,4,2,5,70,0,0
35424,-100,4,2,8,75,0,0
35974,-100,4,2,5,75,0,0
36799,-100,4,2,8,75,0,0
38038,-100,4,2,5,75,0,0
39001,-100,4,2,8,75,0,0
44231,-100,4,2,6,75,0,0
44781,-100,4,2,7,75,0,0
45194,-100,4,2,5,75,0,0
45882,-100,4,2,7,75,0,0
46158,-100,4,2,6,75,0,0
46845,-100,4,2,5,75,0,0
47808,-100,4,2,6,75,0,0
49597,-100,4,2,5,75,0,0
50010,-100,4,2,6,75,0,0
53039,-100,4,2,9,70,0,0
53451,-100,4,2,5,70,0,0
53864,-100,4,2,11,70,0,0
54414,-100,4,2,10,70,0,0
54690,-100,4,2,9,70,0,0
54965,-100,4,2,10,70,0,0
55240,-100,4,2,9,70,0,0
56065,-100,4,2,10,70,0,0
56892,-100,4,2,9,70,0,0
57854,-100,4,2,5,70,0,0
58268,-100,4,2,10,70,0,0
59094,-100,4,2,9,70,0,0
59369,-100,4,2,10,70,0,0
59644,-100,4,2,9,70,0,0
60056,-100,4,2,5,70,0,0
61019,-100,4,2,10,70,0,0
61295,-100,4,2,9,70,0,0
61570,-100,4,2,10,70,0,0
61846,-100,4,2,9,70,0,0
62396,-100,4,2,11,70,0,0
62808,-100,4,2,5,70,0,0
63221,-100,4,2,10,70,0,0
63497,-100,4,2,9,70,0,0
64323,-100,4,2,10,70,0,0
65010,-100,4,2,5,70,0,0
65423,-100,4,2,10,70,0,0
65699,-100,4,2,9,70,0,0
67625,-100,4,2,10,70,0,0
67901,-100,4,2,9,70,0,0
68176,-100,4,2,10,70,0,0
68451,-100,4,2,9,70,0,0
69277,-100,4,2,5,70,0,0
70653,-100,4,2,8,70,0,0
71203,-100,4,2,9,75,0,0
72029,-100,4,2,8,75,0,0
73267,-100,4,2,5,75,0,0
74230,-100,4,2,8,75,0,0
79461,-100,4,2,6,75,0,0
80011,-100,4,2,7,75,0,0
80424,-100,4,2,5,75,0,0
81112,-100,4,2,6,75,0,0
82074,-100,4,2,5,75,0,0
83038,-100,4,2,6,75,0,0
84828,-100,4,2,5,75,0,0
85240,-100,4,2,6,75,0,0
88818,-100,4,2,7,75,0,0
89231,-100,4,2,5,75,0,0
89919,-100,4,2,6,75,0,0
90882,-100,4,2,5,75,0,0
91845,-100,4,2,6,75,0,0
93635,-100,4,2,5,75,0,0
94597,-100,4,2,6,75,0,0
97075,-100,4,2,8,75,0,0
99277,-100,4,2,5,70,0,0
101479,-100,4,2,8,85,0,1
101891,-100,4,2,5,85,0,1
102854,-100,4,2,8,85,0,1
104093,-100,4,2,5,85,0,1
104506,-100,4,2,8,85,0,1
105332,-100,4,2,9,85,0,1
105607,-100,4,2,8,85,0,1
106295,-100,4,2,5,85,0,1
106708,-100,4,2,8,85,0,1
106983,-100,4,2,9,85,0,1
108084,-100,4,2,8,85,0,1
108496,-100,4,2,5,85,0,1
108909,-100,4,2,8,85,0,1
109185,-100,4,2,9,85,0,1
109597,-100,4,2,5,85,0,1
110286,-100,4,2,8,85,0,1
111799,-100,4,2,5,85,0,1
113038,-100,4,2,8,85,0,1
114139,-100,4,2,9,85,0,1
114690,-100,4,2,8,85,0,1
115791,-100,4,2,9,85,0,1
116617,-100,4,2,8,85,0,1
117993,-100,4,2,9,85,0,1
118405,-100,4,2,5,85,0,1
118818,-100,4,2,8,85,0,1
119506,-100,4,2,5,85,0,1
120469,-100,4,2,8,85,0,1
120745,-100,4,2,9,85,0,1
121020,-100,4,2,8,85,0,1
121707,-100,4,2,5,85,0,1
122120,-100,4,2,8,85,0,1
122396,-100,4,2,5,85,0,1
122671,-100,4,2,8,85,0,1
122946,-100,4,2,9,85,0,1
123497,-100,4,2,8,85,0,1
123909,-100,4,2,5,85,0,1
124322,-100,4,2,8,85,0,1
124598,-100,4,2,5,85,0,1
125148,-100,4,2,9,85,0,1
125424,-100,4,2,8,85,0,1
126111,-100,4,2,5,85,0,1
126524,-100,4,2,8,85,0,1
126800,-100,4,2,9,85,0,1
127212,-100,4,2,5,85,0,1
127625,-100,4,2,8,85,0,1
129414,-100,4,2,5,85,0,1
130103,-100,4,2,8,85,0,1
131616,-100,4,2,5,85,0,1
132305,-100,4,2,8,85,0,1
133406,-100,4,2,5,85,0,1
133681,-100,4,2,8,85,0,1
136433,-100,4,2,5,85,0,1
136639,-83.3333333333333,4,2,5,85,0,0
136708,-100,4,2,6,85,0,1
137120,-100,4,2,5,85,0,1
138084,-100,4,2,6,85,0,1
138360,-100,4,2,7,85,0,1
138635,-100,4,2,6,85,0,1
139322,-100,4,2,5,85,0,1
139735,-100,4,2,6,85,0,1
140011,-100,4,2,7,85,0,1
140561,-100,4,2,6,85,0,1
141524,-100,4,2,5,85,0,1
141937,-100,4,2,6,85,0,1
142213,-100,4,2,7,85,0,1
142488,-100,4,2,6,85,0,1
142763,-100,4,2,7,85,0,1
143314,-100,4,2,6,85,0,1
143726,-100,4,2,5,85,0,1
144139,-100,4,2,6,85,0,1
144415,-100,4,2,7,85,0,1
144827,-100,4,2,5,85,0,1
145516,-100,4,2,6,85,0,1
147029,-100,4,2,5,85,0,1
147992,-100,4,2,6,85,0,1
149369,-100,4,2,7,85,0,1
149919,-100,4,2,6,85,0,1
151020,-100,4,2,7,85,0,1
151846,-100,4,2,6,85,0,1
153222,-100,4,2,7,85,0,1
153634,-100,4,2,5,85,0,1
154323,-100,4,2,6,85,0,1
154735,-100,4,2,5,85,0,1
155698,-100,4,2,6,85,0,1
156937,-100,4,2,5,85,0,1
157350,-100,4,2,6,85,0,1
157626,-100,4,2,7,85,0,1
158176,-100,4,2,6,85,0,1
159139,-100,4,2,5,85,0,1
159552,-100,4,2,6,85,0,1
159828,-100,4,2,7,85,0,1
160928,-100,4,2,6,85,0,1
161340,-100,4,2,5,85,0,1
161753,-100,4,2,6,85,0,1
162029,-100,4,2,7,85,0,1
162441,-100,4,2,5,85,0,1
163130,-100,4,2,6,85,0,1
164643,-100,4,2,5,85,0,1
165056,-100,4,2,6,85,0,1
167396,-100,4,2,5,85,0,1
167808,-100,4,2,6,85,0,1
168635,-100,4,2,7,85,0,1
168910,-100,4,2,6,85,0,1
171938,-100,4,2,5,55,0,0

[Colours]
Combo1 : 129,222,177
Combo2 : 143,189,211
Combo3 : 218,164,103
Combo4 : 210,213,162

[HitObjects]
256,192,195,5,14,2:1:0:0:
256,192,332,12,2,4598,2:1:0:0:
256,192,9002,5,12,2:0:0:0:
256,192,9139,12,2,13406,2:0:0:0:
507,55,16846,6,0,P|457:88|390:81,1,127.5,14|8,2:0|2:0,2:0:0:0:
346,10,17534,1,8,2:3:0:0:
263,29,17809,6,0,L|134:53,1,127.5,14|10,2:1|2:1,2:0:0:0:
15,15,18635,2,0,B|-8:55|-7:102|-7:102|33:122|52:168,1,170,10|10,2:0|2:0,2:0:0:0:
28,240,19461,2,0,P|76:237|111:218,1,85,10|10,2:1|2:0,2:0:0:0:
185,255,20011,6,0,P|212:322|196:379,2,127.5,10|8|10,2:1|2:1|2:0,2:0:0:0:
154,87,21387,1,10,2:0:0:0:
211,24,21662,2,0,L|294:41,1,85,10|10,2:1|2:0,2:0:0:0:
373,10,22213,6,0,B|413:30|413:30|425:69|433:121,1,127.5,10|10,2:1|2:1,2:0:0:0:
502,217,23039,2,0,P|419:229|359:291,1,170,10|10,2:0|2:0,2:0:0:0:
312,357,23864,1,10,2:1:0:0:
228,343,24139,1,10,2:0:0:0:
144,362,24415,6,0,P|82:349|42:301,1,127.5,10|10,2:1|2:1,2:0:0:0:
19,219,25103,1,8,2:1:0:0:
39,136,25378,2,0,L|163:108,1,127.5,10|10,2:1|2:0,2:0:0:0:
246,89,26066,2,0,L|262:2,2,85,10|10|14,2:1|2:0|2:1,2:0:0:0:
247,259,27167,6,0,B|203:251|203:251|164:261|164:261|111:250,2,127.5,2|8|10,2:0|2:1|2:0,2:0:0:0:
329,280,28268,1,10,2:1:0:0:
488,221,28818,6,0,P|496:173|506:135,1,85,10|10,2:1|2:0,2:0:0:0:
427,102,29369,2,0,P|415:174|400:231,2,127.5,2|8|10,2:1|2:1|2:0,2:0:0:0:
397,22,30470,1,10,2:1:0:0:
228,4,31020,6,0,P|182:31|109:31,1,127.5,10|10,2:1|2:1,2:0:0:0:
29,1,31708,1,8,2:1:0:0:
1,81,31983,2,0,L|29:209,1,127.5,8|10,2:1|2:0,2:0:0:0:
46,289,32672,1,10,2:1:0:0:
196,367,33222,6,0,P|267:322|356:334,1,170,10|10,2:1|2:1,2:0:0:0:
425,369,34048,1,10,2:0:0:0:
502,217,34598,2,0,L|485:134,2,85,10|4|10,2:0|2:3|2:0,2:0:0:0:
425,255,35424,6,0,P|379:246|341:240,1,85,14|10,2:1|2:0,2:0:0:0:
267,198,35974,2,0,P|259:252|295:314,2,127.5,2|12|10,2:3|2:1|2:0,2:0:0:0:
314,127,37075,1,10,2:1:0:0:
192,7,37626,6,0,B|137:37|137:37|70:24,1,127.5,14|10,2:1|2:1,2:0:0:0:
20,91,38314,1,8,2:1:0:0:
53,168,38589,2,0,L|181:147,1,127.5,12|10,2:1|2:0,2:0:0:0:
251,191,39277,1,10,2:1:0:0:
389,92,39828,6,0,L|374:7,2,85,14|10|10,2:1|2:0|2:1,2:0:0:0:
502,150,40791,2,0,L|481:281,1,127.5,12|10,2:1|2:0,2:0:0:0:
497,359,41479,2,0,P|455:357|416:331,1,85,2|10,2:1|2:0,2:0:0:0:
337,357,42029,6,0,P|303:304|299:238,1,127.5,14|8,2:1|2:1,2:0:0:0:
358,180,42717,1,8,2:1:0:0:
336,97,42993,2,0,L|253:82,1,85,12|8,2:1|2:1,2:0:0:0:
183,32,43543,2,0,P|110:48|81:94,1,127.5,8|10,2:0|2:0,2:0:0:0:
13,139,44231,6,0,P|33:223|48:307,1,170,14|2,2:1|2:0,2:0:0:0:
158,368,45194,2,0,P|253:333|273:234,1,212.5,14|2,2:1|2:0,2:0:0:0:
215,171,46158,1,10,2:0:0:0:
234,88,46433,6,0,P|302:72|358:57,1,127.5,10|2,2:1|2:0,2:0:0:0:
425,5,47121,1,8,2:1:0:0:
493,54,47396,2,0,L|471:180,1,127.5,10|10,2:1|2:0,2:0:0:0:
504,257,48084,1,10,2:1:0:0:
478,338,48360,1,10,2:0:0:0:
401,375,48635,6,0,P|361:362|317:356,1,85,14|10,2:1|2:0,2:0:0:0:
246,311,49185,2,0,P|195:344|123:340,2,127.5,10|14|10,2:1|2:1|2:0,2:0:0:0:
320,269,50286,2,0,P|336:182|358:94,1,170,2|10,2:1|2:1,2:0:0:0:
258,19,51250,6,0,P|213:32|171:43,1,85,8|8,2:1|2:1,2:0:0:0:
95,15,51800,2,0,P|46:47|35:123,1,127.5,12|10,2:1|2:0,2:0:0:0:
84,178,52488,1,6,2:3:0:0:
163,149,52763,1,6,2:3:0:0:
239,187,53039,6,0,L|368:158,1,127.5,14|10,2:1|2:1,2:0:0:0:
476,99,53864,2,0,B|492:132|515:144|515:144|515:204|495:251,1,170,10|10,2:0|2:0,2:0:0:0:
500,335,54690,2,0,P|460:342|414:353,1,85,2|10,2:1|2:0,2:0:0:0:
335,327,55240,6,0,B|284:341|284:341|270:355|270:355|207:370,2,127.5,10|8|10,2:1|2:1|2:0,2:0:0:0:
397,269,56341,2,0,P|414:230|409:183,1,85,2|10,2:0|2:0,2:0:0:0:
368,114,56892,1,10,2:1:0:0:
256,4,57442,6,0,L|131:29,1,127.5,10|10,2:1|2:1,2:0:0:0:
4,9,58268,2,0,P|4:92|57:159,1,170,10|10,2:0|2:0,2:0:0:0:
135,187,59094,1,10,2:1:0:0:
202,135,59369,1,10,2:0:0:0:
285,147,59644,6,0,B|333:163|333:163|408:146,1,127.5,10|10,2:1|2:1,2:0:0:0:
489,120,60332,1,8,2:1:0:0:
507,202,60607,2,0,P|494:263|482:326,1,127.5,10|10,2:1|2:0,2:0:0:0:
406,366,61295,2,0,P|366:348|322:348,1,85,2|10,2:1|2:0,2:0:0:0:
245,378,61846,1,14,2:1:0:0:
132,250,62396,6,0,B|75:262|75:262|66:268|66:268|-5:283,2,127.5,2|8|10,2:0|2:1|2:0,2:0:0:0:
204,205,63497,1,10,2:1:0:0:
359,274,64048,6,0,P|404:281|443:290,1,85,10|10,2:1|2:0,2:0:0:0:
479,213,64598,2,0,P|411:202|353:189,2,127.5,2|8|10,2:0|2:1|2:0,2:0:0:0:
510,133,65699,1,10,2:1:0:0:
382,20,66250,6,0,B|340:27|308:55|308:55|258:42,1,127.5,10|8,2:1|2:1,2:0:0:0:
187,9,66938,1,8,2:1:0:0:
121,62,67213,2,0,P|62:63|0:108,1,127.5,12|10,2:1|2:0,2:0:0:0:
4,184,67901,2,0,P|17:226|29:269,1,85,2|10,2:1|2:0,2:0:0:0:
11,348,68451,6,0,P|82:303|171:315,1,170,14|8,2:1|2:0,2:0:0:0:
238,353,69277,1,8,2:3:0:0:
400,301,69828,2,0,L|417:384,2,85,4|8|4,2:3|2:3|2:3,2:0:0:0:
466,249,70653,6,0,P|525:190|522:107,1,170,14|2,2:1|2:0,2:0:0:0:
445,5,71617,2,0,L|313:29,1,127.5,12|10,2:1|2:0,2:0:0:0:
235,11,72305,2,0,L|217:98,1,85,10|10,2:1|2:0,2:0:0:0:
291,135,72855,6,0,B|319:173|319:173|304:253,1,127.5,14|10,2:1|2:1,2:0:0:0:
336,330,73543,1,8,2:1:0:0:
266,379,73818,2,0,P|210:351|139:355,1,127.5,12|10,2:1|2:0,2:0:0:0:
64,377,74506,1,10,2:1:0:0:
4,217,75057,6,0,L|19:132,2,85,14|10|10,2:1|2:0|2:1,2:0:0:0:
129,240,76020,2,0,L|254:214,1,127.5,12|10,2:1|2:0,2:0:0:0:
327,170,76708,2,0,P|336:211|327:252,1,85,10|10,2:1|2:0,2:0:0:0:
360,331,77259,6,0,P|420:318|488:303,1,127.5,14|8,2:1|2:1,2:0:0:0:
507,221,77947,1,8,2:1:0:0:
463,148,78222,2,0,L|478:62,1,85,12|8,2:1|2:1,2:0:0:0:
412,10,78772,2,0,P|362:37|292:31,1,127.5,8|10,2:0|2:0,2:0:0:0:
229,89,79461,6,0,P|247:171|264:257,1,170,14|2,2:1|2:0,2:0:0:0:
230,378,80424,2,0,B|161:396|123:358|140:349|95:308|33:331,1,212.5,14|10,2:1|2:1,2:0:0:0:
7,249,81387,1,10,2:0:0:0:
35,169,81662,6,0,P|95:154|159:138,1,127.5,10|2,2:1|2:0,2:0:0:0:
215,74,82350,1,8,2:1:0:0:
292,110,82626,2,0,L|270:236,1,127.5,10|10,2:1|2:0,2:0:0:0:
282,319,83314,1,10,2:1:0:0:
355,361,83589,1,10,2:0:0:0:
429,320,83864,6,0,P|477:327|522:339,2,85,14|10|10,2:1|2:0|2:1,2:0:0:0:
407,193,84828,2,0,P|444:142|439:70,1,127.5,14|10,2:1|2:0,2:0:0:0:
378,23,85516,2,0,P|298:46|211:63,1,170,2|10,2:1|2:1,2:0:0:0:
89,32,86479,6,0,P|80:76|70:115,1,85,8|8,2:1|2:1,2:0:0:0:
26,187,87029,2,0,P|81:219|144:209,1,127.5,12|10,2:1|2:0,2:0:0:0:
224,230,87717,1,6,2:3:0:0:
300,193,87993,1,10,2:0:0:0:
335,115,88268,6,0,P|346:73|352:30,2,85,14|10|2,2:1|2:0|2:0,2:0:0:0:
453,162,89231,2,0,P|468:264|409:349,1,212.5,14|10,2:1|2:1,2:0:0:0:
327,328,90194,1,10,2:0:0:0:
252,368,90470,6,0,L|126:349,1,127.5,10|2,2:1|2:0,2:0:0:0:
44,375,91158,1,8,2:1:0:0:
5,299,91433,2,0,P|4:236|42:186,1,127.5,10|10,2:1|2:0,2:0:0:0:
119,150,92121,1,10,2:1:0:0:
186,201,92396,1,10,2:0:0:0:
258,155,92672,6,0,L|276:71,2,85,14|10|10,2:1|2:0|2:1,2:0:0:0:
317,267,93635,2,0,L|402:252,1,85,14|8,2:1|2:1,2:0:0:0:
482,276,94185,2,0,P|516:220|509:156,1,127.5,6|10,2:0|2:0,2:0:0:0:
456,94,94873,5,10,2:1:0:0:
473,10,95149,2,0,L|349:37,1,127.5,10|8,2:0|2:1,2:0:0:0:
266,11,95837,2,0,B|241:89|241:89|266:143,1,127.5,12|10,2:1|2:0,2:0:0:0:
291,209,96525,2,0,P|279:252|269:291,1,85,6|6,2:3|2:3,2:0:0:0:
240,371,97075,1,14,2:1:0:0:
256,192,97213,12,14,99277,2:1:0:0:
144,352,100378,6,0,P|31:308|21:188,1,255,14|8,2:1|2:3,2:0:0:0:
12,102,101479,6,0,L|137:125,1,127.5,14|2,2:1|2:0,2:0:0:0:
212,84,102167,1,8,2:1:0:0:
266,148,102442,2,0,B|245:230|245:230|260:251|269:272,1,127.5,10|10,2:1|2:0,2:0:0:0:
315,336,103130,2,0,P|359:324|399:315,1,85,10|10,2:1|2:0,2:0:0:0:
462,259,103681,6,0,P|505:301|512:368,2,127.5,10|2|10,2:1|2:0|2:0,2:0:0:0:
409,191,104782,2,0,B|335:236|335:236|246:219,1,170,10|2,2:1|2:0,2:0:0:0:
189,276,105607,1,10,2:0:0:0:
108,249,105883,6,0,P|86:308|105:377,2,127.5,10|2|10,2:1|2:0|2:0,2:0:0:0:
42,194,106983,2,0,P|7:120|36:40,1,170,2|2,2:0|2:0,2:0:0:0:
204,23,108084,6,0,L|330:-1,2,127.5,10|2|10,2:1|2:0|2:0,2:0:0:0:
146,85,109185,2,0,B|168:134|168:134|148:209,1,127.5,2|10,2:0|2:1,2:0:0:0:
124,286,109873,1,8,2:1:0:0:
212,378,110286,6,0,B|321:354|321:354|338:329|338:329|457:302,1,255,14|10,2:1|2:0,2:0:0:0:
498,235,111387,2,0,P|512:172|484:113,1,127.5,10|10,2:1|2:1,2:0:0:0:
422,60,112075,1,8,2:1:0:0:
342,88,112350,6,0,B|270:107|229:69|253:53|205:15|138:38,1,212.5,2|10,2:0|2:1,2:0:0:0:
17,143,113589,1,10,2:1:0:0:
58,308,114139,1,2,2:0:0:0:
218,364,114690,6,0,P|294:329|378:339,1,170,14|10,2:1|2:1,2:0:0:0:
452,378,115516,1,10,2:0:0:0:
511,317,115791,2,0,L|486:148,1,170,2|2,2:0|2:0,2:0:0:0:
502,65,116617,1,10,2:0:0:0:
435,12,116892,6,0,B|357:2|304:43|344:63|273:116|194:87,1,255,10|10,2:1|2:0,2:0:0:0:
128,124,117993,2,0,P|116:54|100:-1,2,127.5,2|10|14,2:0|2:1|2:0,2:0:0:0:
63,179,119094,6,0,P|32:231|38:300,1,127.5,14|2,2:1|2:0,2:0:0:0:
95,357,119782,1,8,2:1:0:0:
172,322,120057,2,0,P|238:319|295:353,1,127.5,10|10,2:1|2:0,2:0:0:0:
360,300,120745,2,0,L|342:216,1,85,2|10,2:0|2:0,2:0:0:0:
263,184,121295,6,0,B|204:199|204:199|130:162,2,127.5,10|2|10,2:1|2:0|2:0,2:0:0:0:
342,216,122396,2,0,P|385:206|426:193,2,85,2|10|2,2:3|2:0|2:0,2:0:0:0:
215,329,123497,6,0,B|167:344|167:344|153:359|153:359|92:378,2,127.5,10|2|10,2:1|2:0|2:0,2:0:0:0:
259,256,124598,2,0,P|268:170|283:84,1,170,2|2,2:3|2:0,2:0:0:0:
223,25,125424,1,10,2:0:0:0:
142,51,125699,6,0,P|78:53|5:9,2,127.5,10|2|10,2:1|2:0|2:0,2:0:0:0:
142,136,126800,2,0,P|108:190|109:275,2,127.5,2|10|10,2:0|2:1|2:0,2:0:0:0:
226,149,127901,6,0,B|279:135|315:156|303:168|335:193|396:173,1,170,14|10,2:1|2:1,2:0:0:0:
457,126,128727,1,10,2:0:0:0:
508,193,129002,2,0,L|484:329,1,127.5,14|2,2:1|2:0,2:0:0:0:
415,366,129690,1,8,2:1:0:0:
294,324,130103,6,0,L|112:359,1,170,14|10,2:1|2:1,2:0:0:0:
44,377,130928,1,10,2:0:0:0:
5,300,131204,2,0,B|16:239|16:239|23:228|23:228|34:166,1,127.5,14|10,2:1|2:1,2:0:0:0:
46,92,131892,1,8,2:1:0:0:
144,10,132305,6,0,P|203:50|309:35,1,170,14|10,2:1|2:1,2:0:0:0:
376,9,133130,1,10,2:0:0:0:
430,74,133406,2,0,P|471:63|513:53,2,85,2|10|10,2:3|2:0|2:1,2:0:0:0:
277,148,134506,6,0,B|172:123|172:123|89:152,1,170,10|10,2:1|2:1,2:0:0:0:
34,110,135332,2,0,L|4:277,1,170,10|8,2:0|2:0,2:0:0:0:
56,344,136158,1,8,2:0:0:0:
138,322,136433,1,4,2:3:0:0:
214,359,136708,6,0,L|339:381,1,127.5,14|2,2:1|2:0,2:0:0:0:
405,326,137396,1,8,2:1:0:0:
489,334,137672,2,0,P|512:275|501:213,1,127.5,10|10,2:1|2:0,2:0:0:0:
502,128,138360,2,0,P|462:141|419:152,1,85,2|10,2:0|2:0,2:0:0:0:
341,120,138910,6,0,P|312:182|322:244,2,127.5,10|2|10,2:1|2:0|2:0,2:0:0:0:
283,56,140011,2,0,P|213:98|109:80,1,170,2|10,2:1|2:1,2:0:0:0:
28,228,141112,6,0,L|53:356,2,127.5,10|2|10,2:1|2:0|2:0,2:0:0:0:
91,170,142213,2,0,P|135:177|178:184,1,85,2|10,2:1|2:0,2:0:0:0:
246,229,142763,1,2,2:0:0:0:
375,118,143314,6,0,P|402:67|403:-3,2,127.5,10|2|10,2:1|2:0|2:0,2:0:0:0:
444,167,144415,2,0,L|421:293,1,127.5,2|10,2:0|2:1,2:0:0:0:
400,375,145103,1,8,2:1:0:0:
286,316,145516,6,0,B|204:297|155:337|183:348|136:387|42:364,1,255,14|10,2:1|2:0,2:0:0:0:
7,289,146617,2,0,L|33:161,1,127.5,10|10,2:1|2:1,2:0:0:0:
104,118,147305,1,8,2:1:0:0:
156,184,147580,6,0,B|193:202|193:202|279:183,1,127.5,2|10,2:0|2:0,2:0:0:0:
336,245,148268,1,10,2:1:0:0:
497,192,148818,1,10,2:1:0:0:
474,23,149369,1,2,2:0:0:0:
305,3,149919,6,0,P|233:45|146:39,1,170,14|10,2:1|2:1,2:0:0:0:
68,12,150745,1,10,2:0:0:0:
7,71,151020,2,0,L|41:238,1,170,2|2,2:1|2:0,2:0:0:0:
14,318,151846,1,10,2:0:0:0:
72,379,152121,6,0,P|144:336|234:350,1,170,10|10,2:1|2:1,2:0:0:0:
307,372,152947,1,10,2:0:0:0:
373,319,153222,2,0,L|352:189,1,127.5,2|10,2:0|2:1,2:0:0:0:
281,146,153910,1,8,2:1:0:0:
171,211,154323,6,0,P|109:218|44:177,1,127.5,14|2,2:1|2:0,2:0:0:0:
19,109,155011,1,8,2:1:0:0:
79,48,155286,2,0,P|141:41|196:70,1,127.5,10|10,2:1|2:0,2:0:0:0:
274,35,155974,2,0,L|361:17,1,85,10|10,2:1|2:0,2:0:0:0:
390,96,156525,6,0,B|330:109|330:109|322:115|322:115|263:127,2,127.5,10|2|10,2:1|2:0|2:0,2:0:0:0:
460,48,157626,2,0,P|504:119|504:203,1,170,2|10,2:1|2:1,2:0:0:0:
480,284,158451,1,10,2:0:0:0:
397,262,158727,6,0,P|374:319|374:384,2,127.5,10|2|10,2:1|2:0|2:0,2:0:0:0:
343,195,159828,2,0,P|279:249|194:260,1,170,2|2,3:1|2:0,2:0:0:0:
34,207,160928,2,0,L|10:333,2,127.5,10|2|10,2:1|2:0|2:0,2:0:0:0:
18,123,162029,2,0,P|86:112|132:77,1,127.5,2|10,2:0|2:1,2:0:0:0:
177,5,162717,1,8,2:1:0:0:
272,89,163130,6,0,L|239:255,1,170,14|10,2:1|2:1,2:0:0:0:
214,337,163956,1,10,2:0:0:0:
134,307,164231,2,0,P|73:312|16:351,2,127.5,14|2|10,2:1|2:0|2:0,2:0:0:0:
214,337,165332,6,0,B|266:364|266:364|322:359|371:332,1,170,14|10,2:1|2:1,2:0:0:0:
488,207,166433,2,0,P|497:134|508:77,1,127.5,14|0,2:1|3:0,2:0:0:0:
460,9,167121,1,8,2:1:0:0:
378,34,167396,6,0,P|323:64|255:64,1,127.5,2|10,2:0|2:0,2:0:0:0:
180,32,168084,2,0,P|139:44|97:54,1,85,10|10,2:1|2:0,2:0:0:0:
22,92,168635,2,0,P|12:50|0:9,2,85,2|10|10,2:1|2:0|2:1,2:0:0:0:
256,192,169736,12,14,171938,2:1:0:0:
