osu file format v14

[General]
AudioFilename: masquerade.mp3
AudioLeadIn: 0
PreviewTime: 88778
Countdown: 0
SampleSet: Normal
StackLeniency: 0.7
Mode: 3
LetterboxInBreaks: 0
SpecialStyle: 0
WidescreenStoryboard: 0

[Editor]
DistanceSpacing: 0.8
BeatDivisor: 4
GridSize: 32
TimelineZoom: 1.8

[Metadata]
Title:Masquerade of Lies
TitleUnicode:Masquerade of Lies
Artist:Falcom Sound Team jdk
ArtistUnicode:Falcom Sound Team jdk
Creator:lemonguy
Version:Nightmare
Source:英雄伝説 空の軌跡 the 3rd
Tags:legend of heroes trails in the sky 3rd chapter sora no kiseki zanmai Ryo Takeshita Toshiharu Okajima video game instrumental rock violin Gekido- Shxfted
BeatmapID:3207970
BeatmapSetID:1570994

[Difficulty]
HPDrainRate:8
CircleSize:4
OverallDifficulty:8
ApproachRate:5
SliderMultiplier:1.4
SliderTickRate:1

[Events]
//Background and Video events
0,0,"bg.jpg",0,0
//Break Periods
//Storyboard Layer 0 (Background)
//Storyboard Layer 1 (Fail)
//Storyboard Layer 2 (Pass)
//Storyboard Layer 3 (Foreground)
//Storyboard Layer 4 (Overlay)
//Storyboard Sound Samples

[TimingPoints]
178,400,4,1,1,25,1,0
778,400,4,1,1,40,1,0
87178,-100,4,1,1,35,0,0
87978,-100,4,1,1,40,0,0
199178,-100,4,1,1,35,0,0
208778,-100,4,1,1,40,0,0
210378,-100,4,1,1,35,0,0
211178,-100,4,1,1,40,0,0
272778,-100,4,1,1,35,0,0
274378,-100,4,1,1,40,0,0

[HitObjects]
448,192,178,5,0,0:0:0:0:
192,192,244,1,0,0:0:0:0:
320,192,303,1,0,0:0:0:0:
64,192,403,1,0,0:0:0:0:
64,192,778,1,0,0:0:0:0:
192,192,778,128,0,1378:0:0:0:0:
320,192,778,1,0,0:0:0:0:
64,192,1378,128,0,1478:0:0:0:0:
192,192,1478,128,0,1578:0:0:0:0:
320,192,1578,128,0,1978:0:0:0:0:
448,192,1978,128,0,2378:0:0:0:0:
64,192,2378,128,0,3978:0:0:0:0:
448,192,2978,1,0,0:0:0:0:
320,192,3078,1,0,0:0:0:0:
448,192,3178,1,0,0:0:0:0:
320,192,3378,1,0,0:0:0:0:
192,192,3578,1,0,0:0:0:0:
192,192,3978,1,0,0:0:0:0:
320,192,3978,128,0,4578:0:0:0:0:
448,192,3978,1,0,0:0:0:0:
448,192,4578,128,0,4678:0:0:0:0:
320,192,4678,128,0,4778:0:0:0:0:
192,192,4778,128,0,5178:0:0:0:0:
64,192,5178,128,0,5578:0:0:0:0:
448,192,5578,128,0,7178:0:0:0:0:
64,192,6178,1,0,0:0:0:0:
320,192,6244,1,0,0:0:0:0:
192,192,6311,1,0,0:0:0:0:
64,192,6378,1,0,0:0:0:0:
320,192,6378,1,0,0:0:0:0:
192,192,6578,1,0,0:0:0:0:
64,192,6778,1,0,0:0:0:0:
64,192,7178,1,0,0:0:0:0:
192,192,7178,128,0,7778:0:0:0:0:
320,192,7178,1,0,0:0:0:0:
64,192,7778,128,0,7878:0:0:0:0:
192,192,7878,128,0,7978:0:0:0:0:
64,192,7978,1,0,0:0:0:0:
320,192,7978,128,0,8378:0:0:0:0:
448,192,7978,1,0,0:0:0:0:
64,192,8378,128,0,8778:0:0:0:0:
192,192,8778,1,0,0:0:0:0:
320,192,8778,128,0,9378:0:0:0:0:
448,192,8778,1,0,0:0:0:0:
192,192,9378,128,0,9478:0:0:0:0:
320,192,9478,128,0,9578:0:0:0:0:
64,192,9578,1,0,0:0:0:0:
192,192,9578,1,0,0:0:0:0:
448,192,9578,128,0,9978:0:0:0:0:
192,192,9978,128,0,10378:0:0:0:0:
64,192,10378,1,0,0:0:0:0:
320,192,10378,1,0,0:0:0:0:
448,192,10378,1,0,0:0:0:0:
192,192,10478,1,0,0:0:0:0:
320,192,10578,1,0,0:0:0:0:
64,192,10678,1,0,0:0:0:0:
448,192,10778,1,0,0:0:0:0:
320,192,10878,1,0,0:0:0:0:
64,192,10978,1,0,0:0:0:0:
192,192,10978,1,0,0:0:0:0:
448,192,10978,1,0,0:0:0:0:
320,192,11078,1,0,0:0:0:0:
192,192,11178,1,0,0:0:0:0:
448,192,11278,1,0,0:0:0:0:
64,192,11378,1,0,0:0:0:0:
192,192,11478,1,0,0:0:0:0:
64,192,11578,1,0,0:0:0:0:
320,192,11578,1,0,0:0:0:0:
448,192,11578,1,0,0:0:0:0:
192,192,11678,1,0,0:0:0:0:
320,192,11778,1,0,0:0:0:0:
64,192,11878,1,0,0:0:0:0:
192,192,11978,1,0,0:0:0:0:
448,192,11978,1,0,0:0:0:0:
320,192,11978,128,0,12078:0:0:0:0:
64,192,12078,128,0,12178:0:0:0:0:
448,192,12178,128,0,12278:0:0:0:0:
192,192,12278,128,0,12378:0:0:0:0:
448,192,12378,128,0,12478:0:0:0:0:
320,192,12478,128,0,12578:0:0:0:0:
192,192,12578,128,0,12678:0:0:0:0:
64,192,12678,128,0,12778:0:0:0:0:
448,192,12778,128,0,12878:0:0:0:0:
192,192,12878,128,0,12978:0:0:0:0:
320,192,12978,128,0,13078:0:0:0:0:
64,192,13078,128,0,13178:0:0:0:0:
320,192,13178,128,0,13278:0:0:0:0:
192,192,13278,128,0,13378:0:0:0:0:
448,192,13378,128,0,13478:0:0:0:0:
320,192,13478,128,0,13578:0:0:0:0:
64,192,13578,1,0,0:0:0:0:
192,192,13578,1,0,0:0:0:0:
448,192,13578,1,0,0:0:0:0:
320,192,13678,1,0,0:0:0:0:
64,192,13778,1,0,0:0:0:0:
320,192,13878,1,0,0:0:0:0:
64,192,13978,1,0,0:0:0:0:
192,192,13978,1,0,0:0:0:0:
448,192,14078,1,0,0:0:0:0:
192,192,14178,1,0,0:0:0:0:
320,192,14178,1,0,0:0:0:0:
64,192,14278,1,0,0:0:0:0:
320,192,14378,1,0,0:0:0:0:
448,192,14378,1,0,0:0:0:0:
192,192,14478,1,0,0:0:0:0:
320,192,14578,1,0,0:0:0:0:
448,192,14678,1,0,0:0:0:0:
64,192,14778,1,0,0:0:0:0:
192,192,14778,1,0,0:0:0:0:
320,192,14878,1,0,0:0:0:0:
192,192,14978,1,0,0:0:0:0:
64,192,15078,1,0,0:0:0:0:
320,192,15178,1,0,0:0:0:0:
448,192,15178,1,0,0:0:0:0:
192,192,15278,1,0,0:0:0:0:
448,192,15378,1,0,0:0:0:0:
192,192,15478,1,0,0:0:0:0:
320,192,15478,1,0,0:0:0:0:
64,192,15578,1,0,0:0:0:0:
320,192,15678,1,0,0:0:0:0:
64,192,15778,1,0,0:0:0:0:
192,192,15778,1,0,0:0:0:0:
448,192,15878,1,0,0:0:0:0:
64,192,15978,1,0,0:0:0:0:
320,192,15978,1,0,0:0:0:0:
192,192,16078,1,0,0:0:0:0:
320,192,16178,1,0,0:0:0:0:
192,192,16278,1,0,0:0:0:0:
64,192,16378,1,0,0:0:0:0:
448,192,16378,1,0,0:0:0:0:
320,192,16478,1,0,0:0:0:0:
448,192,16578,1,0,0:0:0:0:
320,192,16678,1,0,0:0:0:0:
64,192,16778,1,0,0:0:0:0:
192,192,16778,1,0,0:0:0:0:
448,192,16878,1,0,0:0:0:0:
192,192,16978,1,0,0:0:0:0:
448,192,17078,1,0,0:0:0:0:
64,192,17178,1,0,0:0:0:0:
192,192,17178,1,0,0:0:0:0:
320,192,17278,1,0,0:0:0:0:
64,192,17378,1,0,0:0:0:0:
448,192,17378,1,0,0:0:0:0:
192,192,17478,1,0,0:0:0:0:
320,192,17578,1,0,0:0:0:0:
448,192,17578,1,0,0:0:0:0:
64,192,17678,1,0,0:0:0:0:
320,192,17778,1,0,0:0:0:0:
64,192,17878,1,0,0:0:0:0:
448,192,17878,1,0,0:0:0:0:
192,192,17978,1,0,0:0:0:0:
448,192,18078,1,0,0:0:0:0:
64,192,18178,1,0,0:0:0:0:
192,192,18178,1,0,0:0:0:0:
320,192,18278,1,0,0:0:0:0:
64,192,18378,1,0,0:0:0:0:
448,192,18378,1,0,0:0:0:0:
192,192,18478,1,0,0:0:0:0:
448,192,18578,1,0,0:0:0:0:
192,192,18678,1,0,0:0:0:0:
64,192,18778,1,0,0:0:0:0:
448,192,18778,1,0,0:0:0:0:
320,192,18878,1,0,0:0:0:0:
64,192,18978,1,0,0:0:0:0:
192,192,18978,1,0,0:0:0:0:
448,192,19078,1,0,0:0:0:0:
64,192,19178,1,0,0:0:0:0:
320,192,19178,1,0,0:0:0:0:
192,192,19278,1,0,0:0:0:0:
320,192,19378,1,0,0:0:0:0:
448,192,19378,1,0,0:0:0:0:
64,192,19478,1,0,0:0:0:0:
192,192,19578,1,0,0:0:0:0:
448,192,19578,1,0,0:0:0:0:
64,192,19678,1,0,0:0:0:0:
192,192,19778,1,0,0:0:0:0:
320,192,19778,1,0,0:0:0:0:
448,192,19878,1,0,0:0:0:0:
64,192,19978,1,0,0:0:0:0:
192,192,19978,1,0,0:0:0:0:
320,192,19978,1,0,0:0:0:0:
448,192,20078,1,0,0:0:0:0:
64,192,20178,1,0,0:0:0:0:
320,192,20278,1,0,0:0:0:0:
64,192,20378,1,0,0:0:0:0:
192,192,20378,1,0,0:0:0:0:
448,192,20478,1,0,0:0:0:0:
192,192,20578,1,0,0:0:0:0:
320,192,20578,1,0,0:0:0:0:
64,192,20678,1,0,0:0:0:0:
320,192,20778,1,0,0:0:0:0:
448,192,20778,1,0,0:0:0:0:
192,192,20878,1,0,0:0:0:0:
448,192,20978,1,0,0:0:0:0:
64,192,21078,1,0,0:0:0:0:
192,192,21078,1,0,0:0:0:0:
320,192,21178,1,0,0:0:0:0:
192,192,21278,1,0,0:0:0:0:
64,192,21378,1,0,0:0:0:0:
448,192,21378,1,0,0:0:0:0:
320,192,21478,1,0,0:0:0:0:
64,192,21578,1,0,0:0:0:0:
192,192,21578,1,0,0:0:0:0:
448,192,21678,1,0,0:0:0:0:
192,192,21778,1,0,0:0:0:0:
448,192,21878,1,0,0:0:0:0:
64,192,21978,1,0,0:0:0:0:
192,192,21978,1,0,0:0:0:0:
320,192,22078,1,0,0:0:0:0:
64,192,22178,1,0,0:0:0:0:
448,192,22178,1,0,0:0:0:0:
192,192,22278,1,0,0:0:0:0:
320,192,22378,1,0,0:0:0:0:
448,192,22378,1,0,0:0:0:0:
64,192,22478,1,0,0:0:0:0:
320,192,22578,1,0,0:0:0:0:
64,192,22678,1,0,0:0:0:0:
192,192,22778,1,0,0:0:0:0:
448,192,22778,1,0,0:0:0:0:
320,192,22878,1,0,0:0:0:0:
448,192,22978,1,0,0:0:0:0:
320,192,23078,1,0,0:0:0:0:
64,192,23178,1,0,0:0:0:0:
192,192,23178,1,0,0:0:0:0:
448,192,23278,1,0,0:0:0:0:
64,192,23378,1,0,0:0:0:0:
192,192,23478,1,0,0:0:0:0:
448,192,23478,1,0,0:0:0:0:
320,192,23578,1,0,0:0:0:0:
192,192,23678,1,0,0:0:0:0:
64,192,23778,1,0,0:0:0:0:
448,192,23778,1,0,0:0:0:0:
192,192,23878,1,0,0:0:0:0:
320,192,23978,1,0,0:0:0:0:
448,192,23978,1,0,0:0:0:0:
64,192,24078,1,0,0:0:0:0:
448,192,24178,1,0,0:0:0:0:
64,192,24278,1,0,0:0:0:0:
320,192,24278,1,0,0:0:0:0:
192,192,24378,1,0,0:0:0:0:
320,192,24478,1,0,0:0:0:0:
64,192,24578,1,0,0:0:0:0:
448,192,24578,1,0,0:0:0:0:
320,192,24678,1,0,0:0:0:0:
64,192,24778,1,0,0:0:0:0:
192,192,24778,1,0,0:0:0:0:
448,192,24878,1,0,0:0:0:0:
192,192,24978,1,0,0:0:0:0:
448,192,25078,1,0,0:0:0:0:
64,192,25178,1,0,0:0:0:0:
192,192,25178,1,0,0:0:0:0:
320,192,25278,1,0,0:0:0:0:
64,192,25378,1,0,0:0:0:0:
448,192,25378,1,0,0:0:0:0:
192,192,25478,1,0,0:0:0:0:
320,192,25578,1,0,0:0:0:0:
448,192,25578,1,0,0:0:0:0:
64,192,25678,1,0,0:0:0:0:
320,192,25778,1,0,0:0:0:0:
64,192,25878,1,0,0:0:0:0:
192,192,25878,1,0,0:0:0:0:
448,192,25978,1,0,0:0:0:0:
320,192,26078,1,0,0:0:0:0:
192,192,26078,1,0,0:0:0:0:
448,192,26178,1,0,0:0:0:0:
192,192,26278,1,0,0:0:0:0:
64,192,26278,1,0,0:0:0:0:
64,192,26378,1,0,0:0:0:0:
320,192,26378,1,0,0:0:0:0:
448,192,26378,1,0,0:0:0:0:
192,192,26478,1,0,0:0:0:0:
448,192,26578,1,0,0:0:0:0:
192,192,26678,1,0,0:0:0:0:
320,192,26778,1,0,0:0:0:0:
448,192,26778,1,0,0:0:0:0:
64,192,26878,1,0,0:0:0:0:
192,192,26978,1,0,0:0:0:0:
320,192,26978,1,0,0:0:0:0:
448,192,27078,1,0,0:0:0:0:
64,192,27178,1,0,0:0:0:0:
192,192,27178,1,0,0:0:0:0:
320,192,27278,1,0,0:0:0:0:
192,192,27378,1,0,0:0:0:0:
64,192,27478,1,0,0:0:0:0:
320,192,27578,1,0,0:0:0:0:
448,192,27578,1,0,0:0:0:0:
192,192,27678,1,0,0:0:0:0:
320,192,27778,1,0,0:0:0:0:
448,192,27878,1,0,0:0:0:0:
64,192,27978,1,0,0:0:0:0:
192,192,27978,1,0,0:0:0:0:
320,192,28078,1,0,0:0:0:0:
64,192,28178,1,0,0:0:0:0:
192,192,28278,1,0,0:0:0:0:
320,192,28278,1,0,0:0:0:0:
448,192,28378,1,0,0:0:0:0:
192,192,28478,1,0,0:0:0:0:
320,192,28578,1,0,0:0:0:0:
448,192,28578,1,0,0:0:0:0:
64,192,28678,1,0,0:0:0:0:
192,192,28778,1,0,0:0:0:0:
448,192,28778,1,0,0:0:0:0:
320,192,28878,1,0,0:0:0:0:
192,192,28978,1,0,0:0:0:0:
320,192,29078,1,0,0:0:0:0:
64,192,29178,1,0,0:0:0:0:
448,192,29178,1,0,0:0:0:0:
192,192,29278,1,0,0:0:0:0:
64,192,29378,1,0,0:0:0:0:
192,192,29478,1,0,0:0:0:0:
320,192,29578,1,0,0:0:0:0:
448,192,29578,1,0,0:0:0:0:
64,192,29678,1,0,0:0:0:0:
320,192,29778,1,0,0:0:0:0:
64,192,29878,1,0,0:0:0:0:
320,192,29978,1,0,0:0:0:0:
448,192,29978,1,0,0:0:0:0:
192,192,30078,1,0,0:0:0:0:
64,192,30178,1,0,0:0:0:0:
448,192,30178,1,0,0:0:0:0:
320,192,30278,1,0,0:0:0:0:
64,192,30378,1,0,0:0:0:0:
192,192,30378,1,0,0:0:0:0:
448,192,30478,1,0,0:0:0:0:
192,192,30578,1,0,0:0:0:0:
64,192,30678,1,0,0:0:0:0:
448,192,30678,1,0,0:0:0:0:
320,192,30778,1,0,0:0:0:0:
64,192,30878,1,0,0:0:0:0:
320,192,30978,1,0,0:0:0:0:
448,192,30978,1,0,0:0:0:0:
192,192,31078,1,0,0:0:0:0:
64,192,31178,1,0,0:0:0:0:
448,192,31178,1,0,0:0:0:0:
320,192,31278,1,0,0:0:0:0:
64,192,31378,1,0,0:0:0:0:
320,192,31478,1,0,0:0:0:0:
64,192,31578,1,0,0:0:0:0:
448,192,31578,1,0,0:0:0:0:
192,192,31678,1,0,0:0:0:0:
320,192,31778,1,0,0:0:0:0:
448,192,31778,1,0,0:0:0:0:
64,192,31878,1,0,0:0:0:0:
192,192,31978,1,0,0:0:0:0:
448,192,31978,1,0,0:0:0:0:
320,192,32078,1,0,0:0:0:0:
64,192,32178,1,0,0:0:0:0:
192,192,32178,1,0,0:0:0:0:
448,192,32278,1,0,0:0:0:0:
64,192,32378,1,0,0:0:0:0:
320,192,32378,1,0,0:0:0:0:
448,192,32478,1,0,0:0:0:0:
192,192,32578,1,0,0:0:0:0:
320,192,32578,1,0,0:0:0:0:
64,192,32678,1,0,0:0:0:0:
192,192,32778,1,0,0:0:0:0:
320,192,32778,1,0,0:0:0:0:
448,192,32778,1,0,0:0:0:0:
64,192,32878,1,0,0:0:0:0:
448,192,32978,1,0,0:0:0:0:
192,192,33078,1,0,0:0:0:0:
320,192,33178,1,0,0:0:0:0:
448,192,33178,1,0,0:0:0:0:
64,192,33278,1,0,0:0:0:0:
192,192,33378,1,0,0:0:0:0:
320,192,33378,1,0,0:0:0:0:
448,192,33478,1,0,0:0:0:0:
64,192,33578,1,0,0:0:0:0:
192,192,33578,1,0,0:0:0:0:
320,192,33678,1,0,0:0:0:0:
192,192,33778,1,0,0:0:0:0:
64,192,33878,1,0,0:0:0:0:
320,192,33978,1,0,0:0:0:0:
448,192,33978,1,0,0:0:0:0:
192,192,34078,1,0,0:0:0:0:
320,192,34178,1,0,0:0:0:0:
448,192,34278,1,0,0:0:0:0:
64,192,34378,1,0,0:0:0:0:
192,192,34378,1,0,0:0:0:0:
320,192,34478,1,0,0:0:0:0:
64,192,34578,1,0,0:0:0:0:
320,192,34678,1,0,0:0:0:0:
448,192,34678,1,0,0:0:0:0:
192,192,34778,1,0,0:0:0:0:
320,192,34878,1,0,0:0:0:0:
192,192,34978,1,0,0:0:0:0:
448,192,34978,1,0,0:0:0:0:
64,192,35078,1,0,0:0:0:0:
320,192,35178,1,0,0:0:0:0:
448,192,35178,1,0,0:0:0:0:
192,192,35278,1,0,0:0:0:0:
448,192,35378,1,0,0:0:0:0:
64,192,35478,1,0,0:0:0:0:
192,192,35478,1,0,0:0:0:0:
320,192,35578,1,0,0:0:0:0:
192,192,35678,1,0,0:0:0:0:
64,192,35778,1,0,0:0:0:0:
320,192,35778,1,0,0:0:0:0:
448,192,35878,1,0,0:0:0:0:
64,192,35978,1,0,0:0:0:0:
192,192,35978,1,0,0:0:0:0:
320,192,36078,1,0,0:0:0:0:
192,192,36178,1,0,0:0:0:0:
64,192,36278,1,0,0:0:0:0:
448,192,36278,1,0,0:0:0:0:
320,192,36378,1,0,0:0:0:0:
64,192,36478,1,0,0:0:0:0:
192,192,36578,1,0,0:0:0:0:
448,192,36578,1,0,0:0:0:0:
64,192,36678,1,0,0:0:0:0:
320,192,36778,1,0,0:0:0:0:
448,192,36778,1,0,0:0:0:0:
192,192,36878,1,0,0:0:0:0:
64,192,36978,1,0,0:0:0:0:
192,192,37078,1,0,0:0:0:0:
448,192,37078,1,0,0:0:0:0:
320,192,37178,1,0,0:0:0:0:
192,192,37278,1,0,0:0:0:0:
64,192,37378,1,0,0:0:0:0:
448,192,37378,1,0,0:0:0:0:
320,192,37478,1,0,0:0:0:0:
64,192,37578,1,0,0:0:0:0:
192,192,37578,1,0,0:0:0:0:
448,192,37578,1,0,0:0:0:0:
320,192,37678,1,0,0:0:0:0:
192,192,37778,1,0,0:0:0:0:
448,192,37878,1,0,0:0:0:0:
64,192,37978,1,0,0:0:0:0:
192,192,37978,1,0,0:0:0:0:
320,192,38078,1,0,0:0:0:0:
64,192,38178,1,0,0:0:0:0:
448,192,38178,1,0,0:0:0:0:
192,192,38278,1,0,0:0:0:0:
320,192,38378,1,0,0:0:0:0:
448,192,38378,1,0,0:0:0:0:
64,192,38478,1,0,0:0:0:0:
320,192,38578,1,0,0:0:0:0:
64,192,38678,1,0,0:0:0:0:
192,192,38678,1,0,0:0:0:0:
448,192,38778,1,0,0:0:0:0:
64,192,38878,1,0,0:0:0:0:
320,192,38878,1,0,0:0:0:0:
448,192,38978,1,0,0:0:0:0:
192,192,39078,1,0,0:0:0:0:
64,192,39078,1,0,0:0:0:0:
64,192,39178,1,0,0:0:0:0:
320,192,39178,1,0,0:0:0:0:
448,192,39178,1,0,0:0:0:0:
192,192,39278,1,0,0:0:0:0:
448,192,39378,1,0,0:0:0:0:
64,192,39478,1,0,0:0:0:0:
192,192,39478,1,0,0:0:0:0:
320,192,39578,1,0,0:0:0:0:
448,192,39678,1,0,0:0:0:0:
64,192,39778,1,0,0:0:0:0:
320,192,39778,1,0,0:0:0:0:
192,192,39878,1,0,0:0:0:0:
64,192,39978,1,0,0:0:0:0:
448,192,39978,1,0,0:0:0:0:
320,192,40078,1,0,0:0:0:0:
64,192,40178,1,0,0:0:0:0:
320,192,40278,1,0,0:0:0:0:
448,192,40278,1,0,0:0:0:0:
192,192,40378,1,0,0:0:0:0:
64,192,40478,1,0,0:0:0:0:
192,192,40578,1,0,0:0:0:0:
448,192,40578,1,0,0:0:0:0:
320,192,40678,1,0,0:0:0:0:
64,192,40778,1,0,0:0:0:0:
192,192,40778,1,0,0:0:0:0:
448,192,40878,1,0,0:0:0:0:
64,192,40978,1,0,0:0:0:0:
320,192,41078,1,0,0:0:0:0:
448,192,41078,1,0,0:0:0:0:
192,192,41178,1,0,0:0:0:0:
64,192,41278,1,0,0:0:0:0:
192,192,41378,1,0,0:0:0:0:
448,192,41378,1,0,0:0:0:0:
320,192,41478,1,0,0:0:0:0:
64,192,41578,1,0,0:0:0:0:
448,192,41578,1,0,0:0:0:0:
192,192,41678,1,0,0:0:0:0:
320,192,41778,1,0,0:0:0:0:
192,192,41878,1,0,0:0:0:0:
64,192,41978,1,0,0:0:0:0:
448,192,41978,1,0,0:0:0:0:
320,192,42078,1,0,0:0:0:0:
64,192,42178,1,0,0:0:0:0:
448,192,42178,1,0,0:0:0:0:
192,192,42278,1,0,0:0:0:0:
320,192,42378,1,0,0:0:0:0:
448,192,42378,1,0,0:0:0:0:
64,192,42478,1,0,0:0:0:0:
320,192,42578,1,0,0:0:0:0:
64,192,42678,1,0,0:0:0:0:
192,192,42678,1,0,0:0:0:0:
448,192,42778,1,0,0:0:0:0:
320,192,42878,1,0,0:0:0:0:
192,192,42978,1,0,0:0:0:0:
448,192,42978,1,0,0:0:0:0:
64,192,43078,1,0,0:0:0:0:
192,192,43178,1,0,0:0:0:0:
320,192,43178,1,0,0:0:0:0:
448,192,43278,1,0,0:0:0:0:
192,192,43378,1,0,0:0:0:0:
320,192,43478,1,0,0:0:0:0:
448,192,43478,1,0,0:0:0:0:
64,192,43578,1,0,0:0:0:0:
192,192,43678,1,0,0:0:0:0:
64,192,43778,1,0,0:0:0:0:
320,192,43778,1,0,0:0:0:0:
448,192,43878,1,0,0:0:0:0:
64,192,43978,1,0,0:0:0:0:
192,192,43978,1,0,0:0:0:0:
320,192,44078,1,0,0:0:0:0:
192,192,44178,1,0,0:0:0:0:
320,192,44278,1,0,0:0:0:0:
448,192,44278,1,0,0:0:0:0:
64,192,44378,1,0,0:0:0:0:
192,192,44478,1,0,0:0:0:0:
64,192,44578,1,0,0:0:0:0:
320,192,44578,1,0,0:0:0:0:
448,192,44678,1,0,0:0:0:0:
192,192,44778,1,0,0:0:0:0:
320,192,44778,1,0,0:0:0:0:
64,192,44878,1,0,0:0:0:0:
320,192,44978,1,0,0:0:0:0:
64,192,45078,1,0,0:0:0:0:
192,192,45178,1,0,0:0:0:0:
448,192,45178,1,0,0:0:0:0:
320,192,45278,1,0,0:0:0:0:
64,192,45378,1,0,0:0:0:0:
448,192,45378,1,0,0:0:0:0:
192,192,45478,1,0,0:0:0:0:
64,192,45578,1,0,0:0:0:0:
320,192,45578,1,0,0:0:0:0:
448,192,45578,1,0,0:0:0:0:
192,192,45678,1,0,0:0:0:0:
320,192,45778,1,0,0:0:0:0:
64,192,45878,1,0,0:0:0:0:
192,192,45878,1,0,0:0:0:0:
448,192,45978,1,0,0:0:0:0:
320,192,46078,1,0,0:0:0:0:
64,192,46178,1,0,0:0:0:0:
448,192,46178,1,0,0:0:0:0:
192,192,46278,1,0,0:0:0:0:
64,192,46378,1,0,0:0:0:0:
320,192,46378,1,0,0:0:0:0:
448,192,46478,1,0,0:0:0:0:
64,192,46578,1,0,0:0:0:0:
320,192,46678,1,0,0:0:0:0:
448,192,46678,1,0,0:0:0:0:
192,192,46778,1,0,0:0:0:0:
64,192,46878,1,0,0:0:0:0:
192,192,46978,1,0,0:0:0:0:
320,192,46978,1,0,0:0:0:0:
448,192,47078,1,0,0:0:0:0:
64,192,47178,1,0,0:0:0:0:
192,192,47178,1,0,0:0:0:0:
320,192,47278,1,0,0:0:0:0:
64,192,47378,1,0,0:0:0:0:
320,192,47478,1,0,0:0:0:0:
448,192,47478,1,0,0:0:0:0:
192,192,47578,1,0,0:0:0:0:
64,192,47678,1,0,0:0:0:0:
192,192,47778,1,0,0:0:0:0:
448,192,47778,1,0,0:0:0:0:
320,192,47878,1,0,0:0:0:0:
64,192,47978,1,0,0:0:0:0:
448,192,47978,1,0,0:0:0:0:
192,192,48078,1,0,0:0:0:0:
448,192,48178,1,0,0:0:0:0:
64,192,48278,1,0,0:0:0:0:
192,192,48278,1,0,0:0:0:0:
320,192,48378,1,0,0:0:0:0:
448,192,48478,1,0,0:0:0:0:
192,192,48578,1,0,0:0:0:0:
320,192,48578,1,0,0:0:0:0:
64,192,48678,1,0,0:0:0:0:
192,192,48778,1,0,0:0:0:0:
320,192,48778,1,0,0:0:0:0:
448,192,48778,1,0,0:0:0:0:
64,192,48878,1,0,0:0:0:0:
448,192,48978,1,0,0:0:0:0:
64,192,49078,1,0,0:0:0:0:
192,192,49078,1,0,0:0:0:0:
320,192,49178,1,0,0:0:0:0:
448,192,49278,1,0,0:0:0:0:
192,192,49378,1,0,0:0:0:0:
320,192,49378,1,0,0:0:0:0:
64,192,49478,1,0,0:0:0:0:
192,192,49578,1,0,0:0:0:0:
448,192,49578,1,0,0:0:0:0:
320,192,49678,1,0,0:0:0:0:
192,192,49778,1,0,0:0:0:0:
320,192,49878,1,0,0:0:0:0:
448,192,49878,1,0,0:0:0:0:
64,192,49978,1,0,0:0:0:0:
192,192,50078,1,0,0:0:0:0:
64,192,50178,1,0,0:0:0:0:
320,192,50178,1,0,0:0:0:0:
448,192,50278,1,0,0:0:0:0:
64,192,50378,1,0,0:0:0:0:
192,192,50378,1,0,0:0:0:0:
320,192,50378,1,0,0:0:0:0:
448,192,50478,1,0,0:0:0:0:
192,192,50578,1,0,0:0:0:0:
320,192,50678,1,0,0:0:0:0:
448,192,50678,1,0,0:0:0:0:
64,192,50778,1,0,0:0:0:0:
320,192,50878,1,0,0:0:0:0:
192,192,50978,1,0,0:0:0:0:
448,192,50978,1,0,0:0:0:0:
320,192,51078,1,0,0:0:0:0:
64,192,51178,1,0,0:0:0:0:
192,192,51178,1,0,0:0:0:0:
320,192,51278,1,0,0:0:0:0:
64,192,51378,1,0,0:0:0:0:
192,192,51478,1,0,0:0:0:0:
448,192,51478,1,0,0:0:0:0:
64,192,51578,1,0,0:0:0:0:
320,192,51678,1,0,0:0:0:0:
448,192,51678,1,0,0:0:0:0:
192,192,51778,1,0,0:0:0:0:
320,192,51878,1,0,0:0:0:0:
448,192,51878,1,0,0:0:0:0:
64,192,51978,1,0,0:0:0:0:
192,192,51978,1,0,0:0:0:0:
448,192,51978,1,0,0:0:0:0:
320,192,52078,1,0,0:0:0:0:
64,192,52178,1,0,0:0:0:0:
320,192,52278,1,0,0:0:0:0:
448,192,52278,1,0,0:0:0:0:
192,192,52378,1,0,0:0:0:0:
64,192,52478,1,0,0:0:0:0:
192,192,52578,1,0,0:0:0:0:
448,192,52578,1,0,0:0:0:0:
320,192,52678,1,0,0:0:0:0:
64,192,52778,1,0,0:0:0:0:
448,192,52778,1,0,0:0:0:0:
192,192,52878,1,0,0:0:0:0:
448,192,52978,1,0,0:0:0:0:
64,192,53078,1,0,0:0:0:0:
192,192,53078,1,0,0:0:0:0:
320,192,53178,1,0,0:0:0:0:
448,192,53278,1,0,0:0:0:0:
64,192,53378,1,0,0:0:0:0:
320,192,53378,1,0,0:0:0:0:
192,192,53478,1,0,0:0:0:0:
320,192,53578,1,0,0:0:0:0:
448,192,53578,1,0,0:0:0:0:
64,192,53678,1,0,0:0:0:0:
448,192,53778,1,0,0:0:0:0:
64,192,53878,1,0,0:0:0:0:
192,192,53878,1,0,0:0:0:0:
320,192,53978,1,0,0:0:0:0:
448,192,54078,1,0,0:0:0:0:
64,192,54178,1,0,0:0:0:0:
320,192,54178,1,0,0:0:0:0:
192,192,54278,1,0,0:0:0:0:
64,192,54378,1,0,0:0:0:0:
448,192,54378,1,0,0:0:0:0:
320,192,54478,1,0,0:0:0:0:
192,192,54578,1,0,0:0:0:0:
320,192,54678,1,0,0:0:0:0:
64,192,54778,1,0,0:0:0:0:
448,192,54778,1,0,0:0:0:0:
192,192,54878,1,0,0:0:0:0:
64,192,54978,1,0,0:0:0:0:
448,192,54978,1,0,0:0:0:0:
320,192,55078,1,0,0:0:0:0:
64,192,55178,1,0,0:0:0:0:
192,192,55178,1,0,0:0:0:0:
448,192,55278,1,0,0:0:0:0:
192,192,55378,1,0,0:0:0:0:
320,192,55478,1,0,0:0:0:0:
448,192,55478,1,0,0:0:0:0:
64,192,55578,1,0,0:0:0:0:
192,192,55678,1,0,0:0:0:0:
64,192,55778,1,0,0:0:0:0:
320,192,55778,1,0,0:0:0:0:
448,192,55878,1,0,0:0:0:0:
192,192,55978,1,0,0:0:0:0:
320,192,55978,1,0,0:0:0:0:
64,192,56078,1,0,0:0:0:0:
320,192,56178,1,0,0:0:0:0:
64,192,56278,1,0,0:0:0:0:
192,192,56278,1,0,0:0:0:0:
448,192,56378,1,0,0:0:0:0:
320,192,56478,1,0,0:0:0:0:
192,192,56578,1,0,0:0:0:0:
448,192,56578,1,0,0:0:0:0:
64,192,56678,1,0,0:0:0:0:
320,192,56778,1,0,0:0:0:0:
448,192,56778,1,0,0:0:0:0:
192,192,56878,1,0,0:0:0:0:
320,192,56978,1,0,0:0:0:0:
64,192,57078,1,0,0:0:0:0:
192,192,57078,1,0,0:0:0:0:
448,192,57178,1,0,0:0:0:0:
320,192,57278,1,0,0:0:0:0:
192,192,57378,1,0,0:0:0:0:
448,192,57378,1,0,0:0:0:0:
64,192,57478,1,0,0:0:0:0:
192,192,57578,1,0,0:0:0:0:
320,192,57578,1,0,0:0:0:0:
448,192,57678,1,0,0:0:0:0:
192,192,57778,1,0,0:0:0:0:
448,192,57878,1,0,0:0:0:0:
64,192,57978,1,0,0:0:0:0:
320,192,57978,1,0,0:0:0:0:
192,192,58078,1,0,0:0:0:0:
64,192,58178,1,0,0:0:0:0:
448,192,58178,1,0,0:0:0:0:
320,192,58278,1,0,0:0:0:0:
64,192,58378,1,0,0:0:0:0:
192,192,58378,1,0,0:0:0:0:
448,192,58378,1,0,0:0:0:0:
320,192,58478,1,0,0:0:0:0:
192,192,58578,1,0,0:0:0:0:
320,192,58678,1,0,0:0:0:0:
448,192,58678,1,0,0:0:0:0:
64,192,58778,1,0,0:0:0:0:
192,192,58878,1,0,0:0:0:0:
64,192,58978,1,0,0:0:0:0:
448,192,58978,1,0,0:0:0:0:
320,192,59078,1,0,0:0:0:0:
192,192,59178,1,0,0:0:0:0:
448,192,59178,1,0,0:0:0:0:
64,192,59278,1,0,0:0:0:0:
448,192,59378,1,0,0:0:0:0:
64,192,59478,1,0,0:0:0:0:
192,192,59478,1,0,0:0:0:0:
320,192,59578,1,0,0:0:0:0:
448,192,59678,1,0,0:0:0:0:
192,192,59778,1,0,0:0:0:0:
320,192,59778,1,0,0:0:0:0:
64,192,59878,1,0,0:0:0:0:
320,192,59978,1,0,0:0:0:0:
448,192,59978,1,0,0:0:0:0:
192,192,60078,1,0,0:0:0:0:
448,192,60178,1,0,0:0:0:0:
64,192,60278,1,0,0:0:0:0:
192,192,60278,1,0,0:0:0:0:
320,192,60378,1,0,0:0:0:0:
448,192,60478,1,0,0:0:0:0:
64,192,60578,1,0,0:0:0:0:
320,192,60578,1,0,0:0:0:0:
192,192,60678,1,0,0:0:0:0:
320,192,60778,1,0,0:0:0:0:
448,192,60778,1,0,0:0:0:0:
64,192,60878,1,0,0:0:0:0:
448,192,60978,1,0,0:0:0:0:
64,192,61078,1,0,0:0:0:0:
192,192,61178,1,0,0:0:0:0:
320,192,61178,1,0,0:0:0:0:
448,192,61278,1,0,0:0:0:0:
320,192,61378,1,0,0:0:0:0:
192,192,61478,1,0,0:0:0:0:
64,192,61578,1,0,0:0:0:0:
320,192,61578,1,0,0:0:0:0:
448,192,61578,1,0,0:0:0:0:
192,192,61678,1,0,0:0:0:0:
448,192,61778,1,0,0:0:0:0:
320,192,61878,1,0,0:0:0:0:
64,192,61978,1,0,0:0:0:0:
192,192,62078,1,0,0:0:0:0:
64,192,62178,1,0,0:0:0:0:
320,192,62178,1,0,0:0:0:0:
448,192,62278,1,0,0:0:0:0:
320,192,62378,1,0,0:0:0:0:
192,192,62378,1,0,0:0:0:0:
64,192,62478,1,0,0:0:0:0:
320,192,62578,1,0,0:0:0:0:
448,192,62578,1,0,0:0:0:0:
192,192,62678,1,0,0:0:0:0:
448,192,62778,1,0,0:0:0:0:
64,192,62778,1,0,0:0:0:0:
192,192,62878,1,0,0:0:0:0:
320,192,62978,1,0,0:0:0:0:
448,192,62978,1,0,0:0:0:0:
192,192,63078,1,0,0:0:0:0:
64,192,63178,1,0,0:0:0:0:
448,192,63178,1,0,0:0:0:0:
320,192,63178,1,0,0:0:0:0:
64,192,63378,1,0,0:0:0:0:
192,192,63378,1,0,0:0:0:0:
448,192,63378,1,0,0:0:0:0:
64,192,63578,1,0,0:0:0:0:
320,192,63578,1,0,0:0:0:0:
448,192,63678,1,0,0:0:0:0:
192,192,63778,1,0,0:0:0:0:
320,192,63778,1,0,0:0:0:0:
64,192,63878,1,0,0:0:0:0:
192,192,63978,1,0,0:0:0:0:
448,192,63978,1,0,0:0:0:0:
320,192,64078,1,0,0:0:0:0:
64,192,64178,1,0,0:0:0:0:
192,192,64278,1,0,0:0:0:0:
64,192,64378,1,0,0:0:0:0:
320,192,64378,1,0,0:0:0:0:
448,192,64478,1,0,0:0:0:0:
192,192,64578,1,0,0:0:0:0:
320,192,64578,1,0,0:0:0:0:
64,192,64678,1,0,0:0:0:0:
320,192,64778,1,0,0:0:0:0:
448,192,64778,1,0,0:0:0:0:
192,192,64878,1,0,0:0:0:0:
448,192,64978,1,0,0:0:0:0:
320,192,65078,1,0,0:0:0:0:
64,192,65178,1,0,0:0:0:0:
448,192,65178,1,0,0:0:0:0:
192,192,65278,1,0,0:0:0:0:
64,192,65378,1,0,0:0:0:0:
320,192,65378,1,0,0:0:0:0:
448,192,65478,1,0,0:0:0:0:
192,192,65578,1,0,0:0:0:0:
320,192,65578,1,0,0:0:0:0:
64,192,65678,1,0,0:0:0:0:
448,192,65778,1,0,0:0:0:0:
320,192,65878,1,0,0:0:0:0:
64,192,65978,1,0,0:0:0:0:
448,192,65978,1,0,0:0:0:0:
192,192,66078,1,0,0:0:0:0:
64,192,66178,1,0,0:0:0:0:
320,192,66178,1,0,0:0:0:0:
448,192,66278,1,0,0:0:0:0:
64,192,66378,1,0,0:0:0:0:
192,192,66378,1,0,0:0:0:0:
320,192,66478,1,0,0:0:0:0:
192,192,66578,1,0,0:0:0:0:
64,192,66678,1,0,0:0:0:0:
192,192,66778,1,0,0:0:0:0:
448,192,66778,1,0,0:0:0:0:
320,192,66878,1,0,0:0:0:0:
64,192,66978,1,0,0:0:0:0:
448,192,66978,1,0,0:0:0:0:
192,192,67078,1,0,0:0:0:0:
64,192,67178,1,0,0:0:0:0:
320,192,67178,1,0,0:0:0:0:
448,192,67278,1,0,0:0:0:0:
192,192,67378,1,0,0:0:0:0:
64,192,67478,1,0,0:0:0:0:
192,192,67578,1,0,0:0:0:0:
448,192,67578,1,0,0:0:0:0:
320,192,67678,1,0,0:0:0:0:
64,192,67778,1,0,0:0:0:0:
448,192,67778,1,0,0:0:0:0:
192,192,67878,1,0,0:0:0:0:
320,192,67978,1,0,0:0:0:0:
448,192,67978,1,0,0:0:0:0:
64,192,68078,1,0,0:0:0:0:
320,192,68178,1,0,0:0:0:0:
448,192,68278,1,0,0:0:0:0:
192,192,68378,1,0,0:0:0:0:
320,192,68378,1,0,0:0:0:0:
64,192,68478,1,0,0:0:0:0:
192,192,68578,1,0,0:0:0:0:
448,192,68578,1,0,0:0:0:0:
320,192,68678,1,0,0:0:0:0:
64,192,68778,1,0,0:0:0:0:
448,192,68778,1,0,0:0:0:0:
192,192,68878,1,0,0:0:0:0:
320,192,68978,1,0,0:0:0:0:
448,192,69078,1,0,0:0:0:0:
192,192,69178,1,0,0:0:0:0:
320,192,69178,1,0,0:0:0:0:
64,192,69278,1,0,0:0:0:0:
192,192,69378,1,0,0:0:0:0:
448,192,69378,1,0,0:0:0:0:
320,192,69478,1,0,0:0:0:0:
64,192,69578,1,0,0:0:0:0:
192,192,69578,1,0,0:0:0:0:
448,192,69578,1,0,0:0:0:0:
320,192,69678,1,0,0:0:0:0:
64,192,69778,1,0,0:0:0:0:
192,192,69878,1,0,0:0:0:0:
64,192,69978,1,0,0:0:0:0:
448,192,69978,1,0,0:0:0:0:
320,192,70078,1,0,0:0:0:0:
192,192,70178,1,0,0:0:0:0:
448,192,70178,1,0,0:0:0:0:
64,192,70278,1,0,0:0:0:0:
192,192,70378,1,0,0:0:0:0:
320,192,70378,1,0,0:0:0:0:
448,192,70478,1,0,0:0:0:0:
64,192,70578,1,0,0:0:0:0:
192,192,70678,1,0,0:0:0:0:
64,192,70778,1,0,0:0:0:0:
448,192,70778,1,0,0:0:0:0:
320,192,70878,1,0,0:0:0:0:
192,192,70978,1,0,0:0:0:0:
448,192,70978,1,0,0:0:0:0:
64,192,71078,1,0,0:0:0:0:
320,192,71178,1,0,0:0:0:0:
448,192,71178,1,0,0:0:0:0:
192,192,71278,1,0,0:0:0:0:
320,192,71378,1,0,0:0:0:0:
448,192,71478,1,0,0:0:0:0:
64,192,71578,1,0,0:0:0:0:
320,192,71578,1,0,0:0:0:0:
192,192,71678,1,0,0:0:0:0:
64,192,71778,1,0,0:0:0:0:
448,192,71778,1,0,0:0:0:0:
320,192,71878,1,0,0:0:0:0:
192,192,71978,1,0,0:0:0:0:
448,192,71978,1,0,0:0:0:0:
64,192,72078,1,0,0:0:0:0:
320,192,72178,1,0,0:0:0:0:
448,192,72278,1,0,0:0:0:0:
64,192,72378,1,0,0:0:0:0:
320,192,72378,1,0,0:0:0:0:
192,192,72478,1,0,0:0:0:0:
64,192,72578,1,0,0:0:0:0:
448,192,72578,1,0,0:0:0:0:
320,192,72678,1,0,0:0:0:0:
64,192,72778,1,0,0:0:0:0:
192,192,72778,1,0,0:0:0:0:
448,192,72778,1,0,0:0:0:0:
320,192,72878,1,0,0:0:0:0:
192,192,72978,1,0,0:0:0:0:
64,192,73078,1,0,0:0:0:0:
320,192,73178,1,0,0:0:0:0:
448,192,73178,1,0,0:0:0:0:
192,192,73244,1,0,0:0:0:0:
320,192,73311,1,0,0:0:0:0:
64,192,73378,1,0,0:0:0:0:
448,192,73378,1,0,0:0:0:0:
192,192,73478,1,0,0:0:0:0:
64,192,73578,1,0,0:0:0:0:
320,192,73578,1,0,0:0:0:0:
448,192,73678,1,0,0:0:0:0:
192,192,73778,1,0,0:0:0:0:
64,192,73878,1,0,0:0:0:0:
320,192,73978,1,0,0:0:0:0:
448,192,73978,1,0,0:0:0:0:
192,192,74078,1,0,0:0:0:0:
64,192,74178,1,0,0:0:0:0:
320,192,74178,1,0,0:0:0:0:
448,192,74178,1,0,0:0:0:0:
192,192,74278,1,0,0:0:0:0:
64,192,74378,1,0,0:0:0:0:
448,192,74378,1,0,0:0:0:0:
320,192,74478,1,0,0:0:0:0:
192,192,74578,1,0,0:0:0:0:
320,192,74678,1,0,0:0:0:0:
64,192,74778,1,0,0:0:0:0:
448,192,74778,1,0,0:0:0:0:
192,192,74878,1,0,0:0:0:0:
320,192,74978,1,0,0:0:0:0:
192,192,75078,1,0,0:0:0:0:
64,192,75178,1,0,0:0:0:0:
448,192,75178,1,0,0:0:0:0:
320,192,75278,1,0,0:0:0:0:
192,192,75378,1,0,0:0:0:0:
320,192,75478,1,0,0:0:0:0:
448,192,75478,1,0,0:0:0:0:
64,192,75578,1,0,0:0:0:0:
192,192,75678,1,0,0:0:0:0:
448,192,75678,1,0,0:0:0:0:
64,192,75778,1,0,0:0:0:0:
320,192,75878,1,0,0:0:0:0:
448,192,75878,1,0,0:0:0:0:
64,192,75978,1,0,0:0:0:0:
192,192,75978,1,0,0:0:0:0:
448,192,75978,1,0,0:0:0:0:
64,192,76178,1,0,0:0:0:0:
192,192,76178,1,0,0:0:0:0:
320,192,76178,1,0,0:0:0:0:
448,192,76278,1,0,0:0:0:0:
320,192,76378,1,0,0:0:0:0:
64,192,76478,1,0,0:0:0:0:
192,192,76478,1,0,0:0:0:0:
320,192,76578,1,0,0:0:0:0:
448,192,76578,1,0,0:0:0:0:
192,192,76678,1,0,0:0:0:0:
64,192,76778,1,0,0:0:0:0:
448,192,76778,1,0,0:0:0:0:
320,192,76878,1,0,0:0:0:0:
64,192,76978,1,0,0:0:0:0:
192,192,77078,1,0,0:0:0:0:
64,192,77178,1,0,0:0:0:0:
448,192,77178,1,0,0:0:0:0:
320,192,77278,1,0,0:0:0:0:
192,192,77378,1,0,0:0:0:0:
448,192,77378,1,0,0:0:0:0:
64,192,77478,1,0,0:0:0:0:
320,192,77578,1,0,0:0:0:0:
448,192,77578,1,0,0:0:0:0:
192,192,77678,1,0,0:0:0:0:
320,192,77778,1,0,0:0:0:0:
64,192,77778,1,0,0:0:0:0:
192,192,77878,1,0,0:0:0:0:
320,192,77978,1,0,0:0:0:0:
448,192,78078,1,0,0:0:0:0:
64,192,78178,1,0,0:0:0:0:
320,192,78178,1,0,0:0:0:0:
192,192,78278,1,0,0:0:0:0:
320,192,78378,1,0,0:0:0:0:
448,192,78378,1,0,0:0:0:0:
64,192,78478,1,0,0:0:0:0:
448,192,78578,1,0,0:0:0:0:
64,192,78678,1,0,0:0:0:0:
448,192,78778,1,0,0:0:0:0:
192,192,78778,1,0,0:0:0:0:
320,192,78878,1,0,0:0:0:0:
64,192,78978,1,0,0:0:0:0:
448,192,78978,1,0,0:0:0:0:
192,192,79078,1,0,0:0:0:0:
64,192,79178,1,0,0:0:0:0:
320,192,79178,1,0,0:0:0:0:
448,192,79178,1,0,0:0:0:0:
192,192,79378,1,0,0:0:0:0:
320,192,79378,1,0,0:0:0:0:
448,192,79378,1,0,0:0:0:0:
64,192,79478,1,0,0:0:0:0:
192,192,79578,1,0,0:0:0:0:
320,192,79678,1,0,0:0:0:0:
448,192,79678,1,0,0:0:0:0:
64,192,79778,1,0,0:0:0:0:
192,192,79778,1,0,0:0:0:0:
320,192,79878,1,0,0:0:0:0:
64,192,79978,1,0,0:0:0:0:
448,192,79978,1,0,0:0:0:0:
192,192,80078,1,0,0:0:0:0:
448,192,80178,1,0,0:0:0:0:
320,192,80278,1,0,0:0:0:0:
64,192,80378,1,0,0:0:0:0:
448,192,80378,1,0,0:0:0:0:
192,192,80478,1,0,0:0:0:0:
64,192,80578,1,0,0:0:0:0:
320,192,80578,1,0,0:0:0:0:
448,192,80678,1,0,0:0:0:0:
64,192,80778,1,0,0:0:0:0:
192,192,80778,1,0,0:0:0:0:
320,192,80878,1,0,0:0:0:0:
192,192,80978,1,0,0:0:0:0:
448,192,80978,1,0,0:0:0:0:
320,192,81078,1,0,0:0:0:0:
192,192,81178,1,0,0:0:0:0:
64,192,81278,1,0,0:0:0:0:
192,192,81378,1,0,0:0:0:0:
320,192,81378,1,0,0:0:0:0:
448,192,81478,1,0,0:0:0:0:
64,192,81578,1,0,0:0:0:0:
192,192,81578,1,0,0:0:0:0:
320,192,81578,1,0,0:0:0:0:
448,192,81678,1,0,0:0:0:0:
64,192,81778,1,0,0:0:0:0:
320,192,81878,1,0,0:0:0:0:
64,192,81978,1,0,0:0:0:0:
192,192,81978,1,0,0:0:0:0:
448,192,81978,1,0,0:0:0:0:
320,192,82078,1,0,0:0:0:0:
64,192,82178,1,0,0:0:0:0:
192,192,82278,1,0,0:0:0:0:
64,192,82378,1,0,0:0:0:0:
320,192,82378,1,0,0:0:0:0:
448,192,82378,1,0,0:0:0:0:
192,192,82578,1,0,0:0:0:0:
448,192,82578,1,0,0:0:0:0:
320,192,82678,1,0,0:0:0:0:
64,192,82778,1,0,0:0:0:0:
192,192,82878,1,0,0:0:0:0:
64,192,82978,1,0,0:0:0:0:
448,192,82978,1,0,0:0:0:0:
320,192,83078,1,0,0:0:0:0:
64,192,83178,1,0,0:0:0:0:
192,192,83178,1,0,0:0:0:0:
448,192,83178,1,0,0:0:0:0:
192,192,83378,1,0,0:0:0:0:
320,192,83378,1,0,0:0:0:0:
64,192,83478,1,0,0:0:0:0:
448,192,83578,1,0,0:0:0:0:
320,192,83678,1,0,0:0:0:0:
192,192,83778,1,0,0:0:0:0:
448,192,83778,1,0,0:0:0:0:
64,192,83878,1,0,0:0:0:0:
192,192,83978,1,0,0:0:0:0:
320,192,83978,1,0,0:0:0:0:
448,192,83978,1,0,0:0:0:0:
64,192,84178,1,0,0:0:0:0:
320,192,84178,1,0,0:0:0:0:
448,192,84278,1,0,0:0:0:0:
192,192,84378,1,0,0:0:0:0:
64,192,84478,1,0,0:0:0:0:
192,192,84578,1,0,0:0:0:0:
320,192,84578,1,0,0:0:0:0:
448,192,84678,1,0,0:0:0:0:
64,192,84778,1,0,0:0:0:0:
192,192,84778,1,0,0:0:0:0:
320,192,84778,1,0,0:0:0:0:
64,192,84978,1,0,0:0:0:0:
448,192,84978,1,0,0:0:0:0:
192,192,85078,1,0,0:0:0:0:
320,192,85178,1,0,0:0:0:0:
448,192,85278,1,0,0:0:0:0:
64,192,85378,1,0,0:0:0:0:
320,192,85378,1,0,0:0:0:0:
192,192,85478,1,0,0:0:0:0:
64,192,85578,1,0,0:0:0:0:
320,192,85578,1,0,0:0:0:0:
448,192,85578,1,0,0:0:0:0:
192,192,85678,1,0,0:0:0:0:
320,192,85778,1,0,0:0:0:0:
64,192,85878,1,0,0:0:0:0:
448,192,85978,1,0,0:0:0:0:
320,192,86078,1,0,0:0:0:0:
64,192,86178,1,0,0:0:0:0:
192,192,86178,1,0,0:0:0:0:
448,192,86178,1,0,0:0:0:0:
320,192,86278,1,0,0:0:0:0:
192,192,86378,1,0,0:0:0:0:
448,192,86478,1,0,0:0:0:0:
64,192,86578,1,0,0:0:0:0:
192,192,86678,1,0,0:0:0:0:
64,192,86778,1,0,0:0:0:0:
320,192,86778,1,0,0:0:0:0:
448,192,86778,1,0,0:0:0:0:
192,192,86878,1,0,0:0:0:0:
320,192,86978,1,0,0:0:0:0:
64,192,87078,1,0,0:0:0:0:
192,192,87178,1,0,0:0:0:0:
448,192,87178,1,0,0:0:0:0:
320,192,87178,128,0,87278:0:0:0:0:
64,192,87278,128,0,87378:0:0:0:0:
448,192,87378,128,0,87478:0:0:0:0:
192,192,87478,128,0,87578:0:0:0:0:
448,192,87578,128,0,87678:0:0:0:0:
320,192,87678,128,0,87778:0:0:0:0:
192,192,87778,128,0,87878:0:0:0:0:
64,192,87878,128,0,87978:0:0:0:0:
320,192,87978,1,0,0:0:0:0:
448,192,87978,1,0,0:0:0:0:
192,192,88078,1,0,0:0:0:0:
64,192,88178,1,0,0:0:0:0:
320,192,88178,1,0,0:0:0:0:
448,192,88278,1,0,0:0:0:0:
192,192,88378,1,0,0:0:0:0:
320,192,88378,1,0,0:0:0:0:
64,192,88478,1,0,0:0:0:0:
192,192,88578,1,0,0:0:0:0:
448,192,88578,1,0,0:0:0:0:
320,192,88678,1,0,0:0:0:0:
64,192,88778,1,0,0:0:0:0:
192,192,88778,1,0,0:0:0:0:
448,192,88778,1,0,0:0:0:0:
320,192,88878,1,0,0:0:0:0:
64,192,88978,1,0,0:0:0:0:
320,192,89078,1,0,0:0:0:0:
64,192,89178,1,0,0:0:0:0:
192,192,89178,1,0,0:0:0:0:
448,192,89278,1,0,0:0:0:0:
192,192,89378,1,0,0:0:0:0:
320,192,89378,1,0,0:0:0:0:
64,192,89478,1,0,0:0:0:0:
320,192,89578,1,0,0:0:0:0:
448,192,89578,1,0,0:0:0:0:
192,192,89678,1,0,0:0:0:0:
320,192,89778,1,0,0:0:0:0:
448,192,89878,1,0,0:0:0:0:
64,192,89978,1,0,0:0:0:0:
192,192,89978,1,0,0:0:0:0:
320,192,90078,1,0,0:0:0:0:
192,192,90178,1,0,0:0:0:0:
64,192,90278,1,0,0:0:0:0:
320,192,90378,1,0,0:0:0:0:
448,192,90378,1,0,0:0:0:0:
192,192,90478,1,0,0:0:0:0:
448,192,90578,1,0,0:0:0:0:
192,192,90678,1,0,0:0:0:0:
320,192,90678,1,0,0:0:0:0:
64,192,90778,1,0,0:0:0:0:
320,192,90878,1,0,0:0:0:0:
64,192,90978,1,0,0:0:0:0:
192,192,90978,1,0,0:0:0:0:
448,192,91078,1,0,0:0:0:0:
64,192,91178,1,0,0:0:0:0:
320,192,91178,1,0,0:0:0:0:
192,192,91278,1,0,0:0:0:0:
320,192,91378,1,0,0:0:0:0:
192,192,91478,1,0,0:0:0:0:
64,192,91578,1,0,0:0:0:0:
448,192,91578,1,0,0:0:0:0:
320,192,91678,1,0,0:0:0:0:
448,192,91778,1,0,0:0:0:0:
320,192,91878,1,0,0:0:0:0:
64,192,91978,1,0,0:0:0:0:
192,192,91978,1,0,0:0:0:0:
448,192,92078,1,0,0:0:0:0:
192,192,92178,1,0,0:0:0:0:
448,192,92278,1,0,0:0:0:0:
64,192,92378,1,0,0:0:0:0:
192,192,92378,1,0,0:0:0:0:
320,192,92478,1,0,0:0:0:0:
64,192,92578,1,0,0:0:0:0:
448,192,92578,1,0,0:0:0:0:
192,192,92678,1,0,0:0:0:0:
320,192,92778,1,0,0:0:0:0:
448,192,92778,1,0,0:0:0:0:
64,192,92878,1,0,0:0:0:0:
320,192,92978,1,0,0:0:0:0:
64,192,93078,1,0,0:0:0:0:
448,192,93078,1,0,0:0:0:0:
192,192,93178,1,0,0:0:0:0:
448,192,93278,1,0,0:0:0:0:
64,192,93378,1,0,0:0:0:0:
192,192,93378,1,0,0:0:0:0:
320,192,93478,1,0,0:0:0:0:
64,192,93578,1,0,0:0:0:0:
448,192,93578,1,0,0:0:0:0:
192,192,93678,1,0,0:0:0:0:
448,192,93778,1,0,0:0:0:0:
192,192,93878,1,0,0:0:0:0:
64,192,93978,1,0,0:0:0:0:
448,192,93978,1,0,0:0:0:0:
320,192,94078,1,0,0:0:0:0:
64,192,94178,1,0,0:0:0:0:
192,192,94178,1,0,0:0:0:0:
448,192,94278,1,0,0:0:0:0:
64,192,94378,1,0,0:0:0:0:
320,192,94378,1,0,0:0:0:0:
192,192,94478,1,0,0:0:0:0:
320,192,94578,1,0,0:0:0:0:
448,192,94578,1,0,0:0:0:0:
64,192,94678,1,0,0:0:0:0:
192,192,94778,1,0,0:0:0:0:
448,192,94778,1,0,0:0:0:0:
64,192,94878,1,0,0:0:0:0:
192,192,94978,1,0,0:0:0:0:
320,192,94978,1,0,0:0:0:0:
448,192,95078,1,0,0:0:0:0:
64,192,95178,1,0,0:0:0:0:
192,192,95178,1,0,0:0:0:0:
320,192,95178,1,0,0:0:0:0:
448,192,95278,1,0,0:0:0:0:
64,192,95378,1,0,0:0:0:0:
320,192,95478,1,0,0:0:0:0:
64,192,95578,1,0,0:0:0:0:
192,192,95578,1,0,0:0:0:0:
448,192,95678,1,0,0:0:0:0:
192,192,95778,1,0,0:0:0:0:
320,192,95778,1,0,0:0:0:0:
64,192,95878,1,0,0:0:0:0:
320,192,95978,1,0,0:0:0:0:
448,192,95978,1,0,0:0:0:0:
192,192,96078,1,0,0:0:0:0:
448,192,96178,1,0,0:0:0:0:
64,192,96278,1,0,0:0:0:0:
192,192,96278,1,0,0:0:0:0:
320,192,96378,1,0,0:0:0:0:
192,192,96478,1,0,0:0:0:0:
64,192,96578,1,0,0:0:0:0:
448,192,96578,1,0,0:0:0:0:
320,192,96678,1,0,0:0:0:0:
64,192,96778,1,0,0:0:0:0:
192,192,96778,1,0,0:0:0:0:
448,192,96878,1,0,0:0:0:0:
192,192,96978,1,0,0:0:0:0:
448,192,97078,1,0,0:0:0:0:
64,192,97178,1,0,0:0:0:0:
192,192,97178,1,0,0:0:0:0:
320,192,97278,1,0,0:0:0:0:
64,192,97378,1,0,0:0:0:0:
448,192,97378,1,0,0:0:0:0:
192,192,97478,1,0,0:0:0:0:
320,192,97578,1,0,0:0:0:0:
448,192,97578,1,0,0:0:0:0:
64,192,97678,1,0,0:0:0:0:
320,192,97778,1,0,0:0:0:0:
64,192,97878,1,0,0:0:0:0:
192,192,97978,1,0,0:0:0:0:
448,192,97978,1,0,0:0:0:0:
320,192,98078,1,0,0:0:0:0:
448,192,98178,1,0,0:0:0:0:
320,192,98278,1,0,0:0:0:0:
64,192,98378,1,0,0:0:0:0:
192,192,98378,1,0,0:0:0:0:
448,192,98478,1,0,0:0:0:0:
64,192,98578,1,0,0:0:0:0:
192,192,98678,1,0,0:0:0:0:
448,192,98678,1,0,0:0:0:0:
320,192,98778,1,0,0:0:0:0:
192,192,98878,1,0,0:0:0:0:
64,192,98978,1,0,0:0:0:0:
448,192,98978,1,0,0:0:0:0:
192,192,99078,1,0,0:0:0:0:
320,192,99178,1,0,0:0:0:0:
448,192,99178,1,0,0:0:0:0:
64,192,99278,1,0,0:0:0:0:
448,192,99378,1,0,0:0:0:0:
64,192,99478,1,0,0:0:0:0:
320,192,99478,1,0,0:0:0:0:
192,192,99578,1,0,0:0:0:0:
320,192,99678,1,0,0:0:0:0:
64,192,99778,1,0,0:0:0:0:
448,192,99778,1,0,0:0:0:0:
320,192,99878,1,0,0:0:0:0:
64,192,99978,1,0,0:0:0:0:
192,192,99978,1,0,0:0:0:0:
448,192,100078,1,0,0:0:0:0:
192,192,100178,1,0,0:0:0:0:
448,192,100278,1,0,0:0:0:0:
64,192,100378,1,0,0:0:0:0:
192,192,100378,1,0,0:0:0:0:
320,192,100478,1,0,0:0:0:0:
64,192,100578,1,0,0:0:0:0:
448,192,100578,1,0,0:0:0:0:
320,192,100678,1,0,0:0:0:0:
64,192,100778,1,0,0:0:0:0:
192,192,100778,1,0,0:0:0:0:
320,192,100878,1,0,0:0:0:0:
192,192,100978,1,0,0:0:0:0:
448,192,100978,1,0,0:0:0:0:
64,192,101078,1,0,0:0:0:0:
192,192,101178,1,0,0:0:0:0:
320,192,101178,1,0,0:0:0:0:
448,192,101278,1,0,0:0:0:0:
64,192,101378,1,0,0:0:0:0:
320,192,101378,1,0,0:0:0:0:
192,192,101478,1,0,0:0:0:0:
64,192,101578,1,0,0:0:0:0:
320,192,101578,1,0,0:0:0:0:
448,192,101578,1,0,0:0:0:0:
192,192,101678,1,0,0:0:0:0:
448,192,101778,1,0,0:0:0:0:
192,192,101878,1,0,0:0:0:0:
320,192,101978,1,0,0:0:0:0:
448,192,101978,1,0,0:0:0:0:
64,192,102078,1,0,0:0:0:0:
192,192,102178,1,0,0:0:0:0:
320,192,102178,1,0,0:0:0:0:
448,192,102278,1,0,0:0:0:0:
64,192,102378,1,0,0:0:0:0:
192,192,102378,1,0,0:0:0:0:
320,192,102478,1,0,0:0:0:0:
192,192,102578,1,0,0:0:0:0:
64,192,102678,1,0,0:0:0:0:
320,192,102778,1,0,0:0:0:0:
448,192,102778,1,0,0:0:0:0:
192,192,102878,1,0,0:0:0:0:
320,192,102978,1,0,0:0:0:0:
448,192,103078,1,0,0:0:0:0:
64,192,103178,1,0,0:0:0:0:
192,192,103178,1,0,0:0:0:0:
320,192,103278,1,0,0:0:0:0:
64,192,103378,1,0,0:0:0:0:
192,192,103478,1,0,0:0:0:0:
320,192,103478,1,0,0:0:0:0:
448,192,103578,1,0,0:0:0:0:
192,192,103678,1,0,0:0:0:0:
320,192,103778,1,0,0:0:0:0:
448,192,103778,1,0,0:0:0:0:
64,192,103878,1,0,0:0:0:0:
192,192,103978,1,0,0:0:0:0:
448,192,103978,1,0,0:0:0:0:
320,192,104078,1,0,0:0:0:0:
192,192,104178,1,0,0:0:0:0:
320,192,104278,1,0,0:0:0:0:
64,192,104378,1,0,0:0:0:0:
448,192,104378,1,0,0:0:0:0:
192,192,104478,1,0,0:0:0:0:
64,192,104578,1,0,0:0:0:0:
192,192,104678,1,0,0:0:0:0:
320,192,104778,1,0,0:0:0:0:
448,192,104778,1,0,0:0:0:0:
64,192,104878,1,0,0:0:0:0:
320,192,104978,1,0,0:0:0:0:
64,192,105078,1,0,0:0:0:0:
320,192,105178,1,0,0:0:0:0:
448,192,105178,1,0,0:0:0:0:
192,192,105278,1,0,0:0:0:0:
64,192,105378,1,0,0:0:0:0:
448,192,105378,1,0,0:0:0:0:
320,192,105478,1,0,0:0:0:0:
64,192,105578,1,0,0:0:0:0:
192,192,105578,1,0,0:0:0:0:
448,192,105678,1,0,0:0:0:0:
192,192,105778,1,0,0:0:0:0:
64,192,105878,1,0,0:0:0:0:
448,192,105878,1,0,0:0:0:0:
320,192,105978,1,0,0:0:0:0:
64,192,106078,1,0,0:0:0:0:
320,192,106178,1,0,0:0:0:0:
448,192,106178,1,0,0:0:0:0:
192,192,106278,1,0,0:0:0:0:
64,192,106378,1,0,0:0:0:0:
448,192,106378,1,0,0:0:0:0:
320,192,106478,1,0,0:0:0:0:
64,192,106578,1,0,0:0:0:0:
320,192,106678,1,0,0:0:0:0:
64,192,106778,1,0,0:0:0:0:
448,192,106778,1,0,0:0:0:0:
192,192,106878,1,0,0:0:0:0:
320,192,106978,1,0,0:0:0:0:
448,192,106978,1,0,0:0:0:0:
64,192,107078,1,0,0:0:0:0:
192,192,107178,1,0,0:0:0:0:
448,192,107178,1,0,0:0:0:0:
320,192,107278,1,0,0:0:0:0:
64,192,107378,1,0,0:0:0:0:
192,192,107378,1,0,0:0:0:0:
448,192,107478,1,0,0:0:0:0:
64,192,107578,1,0,0:0:0:0:
320,192,107578,1,0,0:0:0:0:
448,192,107678,1,0,0:0:0:0:
192,192,107778,1,0,0:0:0:0:
320,192,107778,1,0,0:0:0:0:
64,192,107878,1,0,0:0:0:0:
192,192,107978,1,0,0:0:0:0:
320,192,107978,1,0,0:0:0:0:
448,192,107978,1,0,0:0:0:0:
64,192,108078,1,0,0:0:0:0:
448,192,108178,1,0,0:0:0:0:
192,192,108278,1,0,0:0:0:0:
320,192,108378,1,0,0:0:0:0:
448,192,108378,1,0,0:0:0:0:
64,192,108478,1,0,0:0:0:0:
192,192,108578,1,0,0:0:0:0:
320,192,108578,1,0,0:0:0:0:
448,192,108678,1,0,0:0:0:0:
64,192,108778,1,0,0:0:0:0:
192,192,108778,1,0,0:0:0:0:
320,192,108878,1,0,0:0:0:0:
192,192,108978,1,0,0:0:0:0:
64,192,109078,1,0,0:0:0:0:
320,192,109178,1,0,0:0:0:0:
448,192,109178,1,0,0:0:0:0:
192,192,109278,1,0,0:0:0:0:
320,192,109378,1,0,0:0:0:0:
448,192,109478,1,0,0:0:0:0:
64,192,109578,1,0,0:0:0:0:
192,192,109578,1,0,0:0:0:0:
320,192,109678,1,0,0:0:0:0:
64,192,109778,1,0,0:0:0:0:
320,192,109878,1,0,0:0:0:0:
448,192,109878,1,0,0:0:0:0:
192,192,109978,1,0,0:0:0:0:
320,192,110078,1,0,0:0:0:0:
192,192,110178,1,0,0:0:0:0:
448,192,110178,1,0,0:0:0:0:
64,192,110278,1,0,0:0:0:0:
320,192,110378,1,0,0:0:0:0:
448,192,110378,1,0,0:0:0:0:
192,192,110478,1,0,0:0:0:0:
320,192,110578,1,0,0:0:0:0:
64,192,110678,1,0,0:0:0:0:
192,192,110678,1,0,0:0:0:0:
448,192,110778,1,0,0:0:0:0:
192,192,110878,1,0,0:0:0:0:
64,192,110978,1,0,0:0:0:0:
448,192,110978,1,0,0:0:0:0:
320,192,111078,1,0,0:0:0:0:
64,192,111178,1,0,0:0:0:0:
192,192,111178,1,0,0:0:0:0:
448,192,111178,1,0,0:0:0:0:
320,192,111278,1,0,0:0:0:0:
192,192,111378,1,0,0:0:0:0:
64,192,111478,1,0,0:0:0:0:
448,192,111478,1,0,0:0:0:0:
320,192,111578,1,0,0:0:0:0:
64,192,111678,1,0,0:0:0:0:
192,192,111778,1,0,0:0:0:0:
448,192,111778,1,0,0:0:0:0:
64,192,111878,1,0,0:0:0:0:
320,192,111978,1,0,0:0:0:0:
448,192,111978,1,0,0:0:0:0:
192,192,112078,1,0,0:0:0:0:
64,192,112178,1,0,0:0:0:0:
192,192,112278,1,0,0:0:0:0:
448,192,112278,1,0,0:0:0:0:
320,192,112378,1,0,0:0:0:0:
192,192,112478,1,0,0:0:0:0:
64,192,112578,1,0,0:0:0:0:
448,192,112578,1,0,0:0:0:0:
320,192,112678,1,0,0:0:0:0:
64,192,112778,1,0,0:0:0:0:
192,192,112778,1,0,0:0:0:0:
448,192,112778,1,0,0:0:0:0:
320,192,112878,1,0,0:0:0:0:
192,192,112978,1,0,0:0:0:0:
448,192,113078,1,0,0:0:0:0:
64,192,113178,1,0,0:0:0:0:
192,192,113178,1,0,0:0:0:0:
320,192,113278,1,0,0:0:0:0:
64,192,113378,1,0,0:0:0:0:
448,192,113378,1,0,0:0:0:0:
192,192,113478,1,0,0:0:0:0:
320,192,113578,1,0,0:0:0:0:
448,192,113578,1,0,0:0:0:0:
64,192,113678,1,0,0:0:0:0:
320,192,113778,1,0,0:0:0:0:
64,192,113878,1,0,0:0:0:0:
192,192,113878,1,0,0:0:0:0:
448,192,113978,1,0,0:0:0:0:
64,192,114078,1,0,0:0:0:0:
320,192,114078,1,0,0:0:0:0:
448,192,114178,1,0,0:0:0:0:
192,192,114278,1,0,0:0:0:0:
64,192,114278,1,0,0:0:0:0:
64,192,114378,1,0,0:0:0:0:
320,192,114378,1,0,0:0:0:0:
448,192,114378,1,0,0:0:0:0:
192,192,114478,1,0,0:0:0:0:
448,192,114578,1,0,0:0:0:0:
64,192,114678,1,0,0:0:0:0:
192,192,114678,1,0,0:0:0:0:
320,192,114778,1,0,0:0:0:0:
448,192,114878,1,0,0:0:0:0:
64,192,114978,1,0,0:0:0:0:
320,192,114978,1,0,0:0:0:0:
192,192,115078,1,0,0:0:0:0:
64,192,115178,1,0,0:0:0:0:
448,192,115178,1,0,0:0:0:0:
320,192,115278,1,0,0:0:0:0:
64,192,115378,1,0,0:0:0:0:
320,192,115478,1,0,0:0:0:0:
448,192,115478,1,0,0:0:0:0:
192,192,115578,1,0,0:0:0:0:
64,192,115678,1,0,0:0:0:0:
192,192,115778,1,0,0:0:0:0:
448,192,115778,1,0,0:0:0:0:
320,192,115878,1,0,0:0:0:0:
64,192,115978,1,0,0:0:0:0:
192,192,115978,1,0,0:0:0:0:
448,192,116078,1,0,0:0:0:0:
64,192,116178,1,0,0:0:0:0:
320,192,116278,1,0,0:0:0:0:
448,192,116278,1,0,0:0:0:0:
192,192,116378,1,0,0:0:0:0:
64,192,116478,1,0,0:0:0:0:
192,192,116578,1,0,0:0:0:0:
448,192,116578,1,0,0:0:0:0:
320,192,116678,1,0,0:0:0:0:
64,192,116778,1,0,0:0:0:0:
448,192,116778,1,0,0:0:0:0:
192,192,116878,1,0,0:0:0:0:
320,192,116978,1,0,0:0:0:0:
192,192,117078,1,0,0:0:0:0:
64,192,117178,1,0,0:0:0:0:
448,192,117178,1,0,0:0:0:0:
320,192,117278,1,0,0:0:0:0:
64,192,117378,1,0,0:0:0:0:
448,192,117378,1,0,0:0:0:0:
192,192,117478,1,0,0:0:0:0:
320,192,117578,1,0,0:0:0:0:
448,192,117578,1,0,0:0:0:0:
64,192,117678,1,0,0:0:0:0:
320,192,117778,1,0,0:0:0:0:
64,192,117878,1,0,0:0:0:0:
192,192,117878,1,0,0:0:0:0:
448,192,117978,1,0,0:0:0:0:
320,192,118078,1,0,0:0:0:0:
192,192,118178,1,0,0:0:0:0:
448,192,118178,1,0,0:0:0:0:
64,192,118278,1,0,0:0:0:0:
192,192,118378,1,0,0:0:0:0:
320,192,118378,1,0,0:0:0:0:
448,192,118478,1,0,0:0:0:0:
192,192,118578,1,0,0:0:0:0:
320,192,118678,1,0,0:0:0:0:
448,192,118678,1,0,0:0:0:0:
64,192,118778,1,0,0:0:0:0:
192,192,118878,1,0,0:0:0:0:
64,192,118978,1,0,0:0:0:0:
320,192,118978,1,0,0:0:0:0:
448,192,119078,1,0,0:0:0:0:
64,192,119178,1,0,0:0:0:0:
192,192,119178,1,0,0:0:0:0:
320,192,119278,1,0,0:0:0:0:
192,192,119378,1,0,0:0:0:0:
320,192,119478,1,0,0:0:0:0:
448,192,119478,1,0,0:0:0:0:
64,192,119578,1,0,0:0:0:0:
192,192,119678,1,0,0:0:0:0:
64,192,119778,1,0,0:0:0:0:
320,192,119778,1,0,0:0:0:0:
448,192,119878,1,0,0:0:0:0:
192,192,119978,1,0,0:0:0:0:
320,192,119978,1,0,0:0:0:0:
64,192,120078,1,0,0:0:0:0:
320,192,120178,1,0,0:0:0:0:
64,192,120278,1,0,0:0:0:0:
192,192,120378,1,0,0:0:0:0:
448,192,120378,1,0,0:0:0:0:
320,192,120478,1,0,0:0:0:0:
64,192,120578,1,0,0:0:0:0:
448,192,120578,1,0,0:0:0:0:
192,192,120678,1,0,0:0:0:0:
64,192,120778,1,0,0:0:0:0:
320,192,120778,1,0,0:0:0:0:
448,192,120778,1,0,0:0:0:0:
192,192,120878,1,0,0:0:0:0:
320,192,120978,1,0,0:0:0:0:
64,192,121078,1,0,0:0:0:0:
192,192,121078,1,0,0:0:0:0:
448,192,121178,1,0,0:0:0:0:
320,192,121278,1,0,0:0:0:0:
64,192,121378,1,0,0:0:0:0:
448,192,121378,1,0,0:0:0:0:
192,192,121478,1,0,0:0:0:0:
64,192,121578,1,0,0:0:0:0:
320,192,121578,1,0,0:0:0:0:
448,192,121678,1,0,0:0:0:0:
64,192,121778,1,0,0:0:0:0:
320,192,121878,1,0,0:0:0:0:
448,192,121878,1,0,0:0:0:0:
192,192,121978,1,0,0:0:0:0:
64,192,122078,1,0,0:0:0:0:
192,192,122178,1,0,0:0:0:0:
320,192,122178,1,0,0:0:0:0:
448,192,122278,1,0,0:0:0:0:
64,192,122378,1,0,0:0:0:0:
192,192,122378,1,0,0:0:0:0:
320,192,122478,1,0,0:0:0:0:
64,192,122578,1,0,0:0:0:0:
320,192,122678,1,0,0:0:0:0:
448,192,122678,1,0,0:0:0:0:
192,192,122778,1,0,0:0:0:0:
64,192,122878,1,0,0:0:0:0:
192,192,122978,1,0,0:0:0:0:
448,192,122978,1,0,0:0:0:0:
320,192,123078,1,0,0:0:0:0:
64,192,123178,1,0,0:0:0:0:
448,192,123178,1,0,0:0:0:0:
192,192,123278,1,0,0:0:0:0:
448,192,123378,1,0,0:0:0:0:
64,192,123478,1,0,0:0:0:0:
192,192,123478,1,0,0:0:0:0:
320,192,123578,1,0,0:0:0:0:
448,192,123678,1,0,0:0:0:0:
192,192,123778,1,0,0:0:0:0:
320,192,123778,1,0,0:0:0:0:
64,192,123878,1,0,0:0:0:0:
192,192,123978,1,0,0:0:0:0:
320,192,123978,1,0,0:0:0:0:
448,192,123978,1,0,0:0:0:0:
64,192,124078,1,0,0:0:0:0:
448,192,124178,1,0,0:0:0:0:
64,192,124278,1,0,0:0:0:0:
192,192,124278,1,0,0:0:0:0:
320,192,124378,1,0,0:0:0:0:
448,192,124478,1,0,0:0:0:0:
192,192,124578,1,0,0:0:0:0:
320,192,124578,1,0,0:0:0:0:
64,192,124678,1,0,0:0:0:0:
192,192,124778,1,0,0:0:0:0:
448,192,124778,1,0,0:0:0:0:
320,192,124878,1,0,0:0:0:0:
192,192,124978,1,0,0:0:0:0:
320,192,125078,1,0,0:0:0:0:
448,192,125078,1,0,0:0:0:0:
64,192,125178,1,0,0:0:0:0:
192,192,125278,1,0,0:0:0:0:
64,192,125378,1,0,0:0:0:0:
320,192,125378,1,0,0:0:0:0:
448,192,125478,1,0,0:0:0:0:
64,192,125578,1,0,0:0:0:0:
192,192,125578,1,0,0:0:0:0:
320,192,125578,1,0,0:0:0:0:
448,192,125678,1,0,0:0:0:0:
192,192,125778,1,0,0:0:0:0:
320,192,125878,1,0,0:0:0:0:
448,192,125878,1,0,0:0:0:0:
64,192,125978,1,0,0:0:0:0:
320,192,126078,1,0,0:0:0:0:
192,192,126178,1,0,0:0:0:0:
448,192,126178,1,0,0:0:0:0:
320,192,126278,1,0,0:0:0:0:
64,192,126378,1,0,0:0:0:0:
192,192,126378,1,0,0:0:0:0:
320,192,126478,1,0,0:0:0:0:
64,192,126578,1,0,0:0:0:0:
192,192,126678,1,0,0:0:0:0:
448,192,126678,1,0,0:0:0:0:
64,192,126778,1,0,0:0:0:0:
320,192,126878,1,0,0:0:0:0:
448,192,126878,1,0,0:0:0:0:
192,192,126978,1,0,0:0:0:0:
320,192,127078,1,0,0:0:0:0:
448,192,127078,1,0,0:0:0:0:
64,192,127178,1,0,0:0:0:0:
192,192,127178,1,0,0:0:0:0:
448,192,127178,1,0,0:0:0:0:
320,192,127278,1,0,0:0:0:0:
64,192,127378,1,0,0:0:0:0:
320,192,127478,1,0,0:0:0:0:
448,192,127478,1,0,0:0:0:0:
192,192,127578,1,0,0:0:0:0:
64,192,127678,1,0,0:0:0:0:
192,192,127778,1,0,0:0:0:0:
448,192,127778,1,0,0:0:0:0:
320,192,127878,1,0,0:0:0:0:
64,192,127978,1,0,0:0:0:0:
448,192,127978,1,0,0:0:0:0:
192,192,128078,1,0,0:0:0:0:
64,192,128178,1,0,0:0:0:0:
448,192,128178,1,0,0:0:0:0:
320,192,128244,1,0,0:0:0:0:
192,192,128311,1,0,0:0:0:0:
320,192,128378,1,0,0:0:0:0:
448,192,128378,1,0,0:0:0:0:
64,192,128511,1,0,0:0:0:0:
448,192,128511,1,0,0:0:0:0:
64,192,128644,1,0,0:0:0:0:
192,192,128644,1,0,0:0:0:0:
320,192,128778,1,0,0:0:0:0:
448,192,128778,1,0,0:0:0:0:
192,192,128878,1,0,0:0:0:0:
448,192,128978,1,0,0:0:0:0:
64,192,129078,1,0,0:0:0:0:
192,192,129078,1,0,0:0:0:0:
320,192,129178,1,0,0:0:0:0:
448,192,129278,1,0,0:0:0:0:
192,192,129378,1,0,0:0:0:0:
320,192,129378,1,0,0:0:0:0:
64,192,129478,1,0,0:0:0:0:
320,192,129578,1,0,0:0:0:0:
448,192,129578,1,0,0:0:0:0:
192,192,129678,1,0,0:0:0:0:
64,192,129778,1,0,0:0:0:0:
448,192,129778,1,0,0:0:0:0:
320,192,129878,1,0,0:0:0:0:
64,192,129978,1,0,0:0:0:0:
192,192,130078,1,0,0:0:0:0:
64,192,130178,1,0,0:0:0:0:
320,192,130178,1,0,0:0:0:0:
448,192,130278,1,0,0:0:0:0:
64,192,130378,1,0,0:0:0:0:
192,192,130378,1,0,0:0:0:0:
320,192,130478,1,0,0:0:0:0:
192,192,130578,1,0,0:0:0:0:
320,192,130678,1,0,0:0:0:0:
448,192,130678,1,0,0:0:0:0:
64,192,130778,1,0,0:0:0:0:
192,192,130878,1,0,0:0:0:0:
64,192,130978,1,0,0:0:0:0:
448,192,130978,1,0,0:0:0:0:
320,192,131078,1,0,0:0:0:0:
192,192,131178,1,0,0:0:0:0:
448,192,131178,1,0,0:0:0:0:
64,192,131278,1,0,0:0:0:0:
192,192,131378,1,0,0:0:0:0:
320,192,131378,1,0,0:0:0:0:
448,192,131478,1,0,0:0:0:0:
64,192,131578,1,0,0:0:0:0:
320,192,131578,1,0,0:0:0:0:
448,192,131678,1,0,0:0:0:0:
64,192,131778,1,0,0:0:0:0:
192,192,131778,1,0,0:0:0:0:
320,192,131878,1,0,0:0:0:0:
192,192,131978,1,0,0:0:0:0:
448,192,131978,1,0,0:0:0:0:
64,192,132078,1,0,0:0:0:0:
320,192,132178,1,0,0:0:0:0:
448,192,132178,1,0,0:0:0:0:
192,192,132278,1,0,0:0:0:0:
448,192,132378,1,0,0:0:0:0:
320,192,132478,1,0,0:0:0:0:
64,192,132578,1,0,0:0:0:0:
448,192,132578,1,0,0:0:0:0:
192,192,132678,1,0,0:0:0:0:
64,192,132778,1,0,0:0:0:0:
320,192,132778,1,0,0:0:0:0:
448,192,132878,1,0,0:0:0:0:
64,192,132978,1,0,0:0:0:0:
192,192,132978,1,0,0:0:0:0:
320,192,133078,1,0,0:0:0:0:
192,192,133178,1,0,0:0:0:0:
64,192,133278,1,0,0:0:0:0:
192,192,133378,1,0,0:0:0:0:
448,192,133378,1,0,0:0:0:0:
320,192,133478,1,0,0:0:0:0:
64,192,133578,1,0,0:0:0:0:
192,192,133578,1,0,0:0:0:0:
448,192,133578,1,0,0:0:0:0:
320,192,133678,1,0,0:0:0:0:
64,192,133778,1,0,0:0:0:0:
320,192,133878,1,0,0:0:0:0:
448,192,133878,1,0,0:0:0:0:
192,192,133978,1,0,0:0:0:0:
448,192,134078,1,0,0:0:0:0:
64,192,134178,1,0,0:0:0:0:
320,192,134178,1,0,0:0:0:0:
192,192,134278,1,0,0:0:0:0:
320,192,134378,1,0,0:0:0:0:
448,192,134378,1,0,0:0:0:0:
64,192,134478,1,0,0:0:0:0:
448,192,134578,1,0,0:0:0:0:
64,192,134678,1,0,0:0:0:0:
192,192,134678,1,0,0:0:0:0:
320,192,134778,1,0,0:0:0:0:
448,192,134878,1,0,0:0:0:0:
64,192,134978,1,0,0:0:0:0:
320,192,134978,1,0,0:0:0:0:
192,192,135078,1,0,0:0:0:0:
64,192,135178,1,0,0:0:0:0:
448,192,135178,1,0,0:0:0:0:
320,192,135278,1,0,0:0:0:0:
192,192,135378,1,0,0:0:0:0:
320,192,135478,1,0,0:0:0:0:
448,192,135478,1,0,0:0:0:0:
64,192,135578,1,0,0:0:0:0:
192,192,135678,1,0,0:0:0:0:
64,192,135778,1,0,0:0:0:0:
320,192,135778,1,0,0:0:0:0:
448,192,135878,1,0,0:0:0:0:
64,192,135978,1,0,0:0:0:0:
192,192,135978,1,0,0:0:0:0:
320,192,136078,1,0,0:0:0:0:
192,192,136178,1,0,0:0:0:0:
448,192,136278,1,0,0:0:0:0:
64,192,136378,1,0,0:0:0:0:
320,192,136378,1,0,0:0:0:0:
192,192,136478,1,0,0:0:0:0:
64,192,136578,1,0,0:0:0:0:
448,192,136578,1,0,0:0:0:0:
320,192,136678,1,0,0:0:0:0:
64,192,136778,1,0,0:0:0:0:
192,192,136778,1,0,0:0:0:0:
448,192,136778,1,0,0:0:0:0:
320,192,136878,1,0,0:0:0:0:
192,192,136978,1,0,0:0:0:0:
320,192,137078,1,0,0:0:0:0:
448,192,137078,1,0,0:0:0:0:
64,192,137178,1,0,0:0:0:0:
448,192,137244,1,0,0:0:0:0:
192,192,137311,1,0,0:0:0:0:
64,192,137378,1,0,0:0:0:0:
320,192,137378,1,0,0:0:0:0:
448,192,137378,1,0,0:0:0:0:
192,192,137478,1,0,0:0:0:0:
320,192,137578,1,0,0:0:0:0:
448,192,137578,1,0,0:0:0:0:
64,192,137678,1,0,0:0:0:0:
320,192,137778,1,0,0:0:0:0:
64,192,137878,1,0,0:0:0:0:
192,192,137878,1,0,0:0:0:0:
448,192,137978,1,0,0:0:0:0:
64,192,138078,1,0,0:0:0:0:
320,192,138078,1,0,0:0:0:0:
448,192,138178,1,0,0:0:0:0:
192,192,138278,1,0,0:0:0:0:
64,192,138278,1,0,0:0:0:0:
64,192,138378,1,0,0:0:0:0:
320,192,138378,1,0,0:0:0:0:
448,192,138378,1,0,0:0:0:0:
64,192,138578,128,0,139978:0:0:0:0:
320,192,138578,1,0,0:0:0:0:
448,192,138578,1,0,0:0:0:0:
192,192,138778,1,0,0:0:0:0:
448,192,138878,1,0,0:0:0:0:
192,192,138978,1,0,0:0:0:0:
320,192,138978,1,0,0:0:0:0:
448,192,139178,1,0,0:0:0:0:
192,192,139378,1,0,0:0:0:0:
448,192,139378,1,0,0:0:0:0:
320,192,139578,1,0,0:0:0:0:
192,192,139678,1,0,0:0:0:0:
320,192,139778,1,0,0:0:0:0:
448,192,139778,1,0,0:0:0:0:
192,192,139978,128,0,140578:0:0:0:0:
448,192,139978,1,0,0:0:0:0:
64,192,140178,1,0,0:0:0:0:
320,192,140178,1,0,0:0:0:0:
448,192,140378,1,0,0:0:0:0:
64,192,140478,1,0,0:0:0:0:
320,192,140578,128,0,141178:0:0:0:0:
448,192,140578,1,0,0:0:0:0:
192,192,140778,1,0,0:0:0:0:
64,192,140978,1,0,0:0:0:0:
448,192,140978,1,0,0:0:0:0:
64,192,141178,128,0,141578:0:0:0:0:
192,192,141178,1,0,0:0:0:0:
448,192,141278,1,0,0:0:0:0:
192,192,141378,1,0,0:0:0:0:
320,192,141378,1,0,0:0:0:0:
320,192,141578,1,0,0:0:0:0:
448,192,141578,128,0,142978:0:0:0:0:
64,192,141778,1,0,0:0:0:0:
192,192,141778,1,0,0:0:0:0:
320,192,141978,1,0,0:0:0:0:
64,192,142078,1,0,0:0:0:0:
192,192,142178,1,0,0:0:0:0:
320,192,142178,1,0,0:0:0:0:
64,192,142378,1,0,0:0:0:0:
64,192,142578,1,0,0:0:0:0:
320,192,142578,1,0,0:0:0:0:
192,192,142778,1,0,0:0:0:0:
320,192,142878,1,0,0:0:0:0:
64,192,142978,1,0,0:0:0:0:
192,192,142978,1,0,0:0:0:0:
448,192,143078,1,0,0:0:0:0:
64,192,143178,128,0,143778:0:0:0:0:
320,192,143178,1,0,0:0:0:0:
192,192,143378,1,0,0:0:0:0:
448,192,143378,1,0,0:0:0:0:
320,192,143578,1,0,0:0:0:0:
192,192,143678,1,0,0:0:0:0:
320,192,143778,1,0,0:0:0:0:
448,192,143778,1,0,0:0:0:0:
64,192,143878,1,0,0:0:0:0:
192,192,143978,1,0,0:0:0:0:
448,192,143978,128,0,144278:0:0:0:0:
320,192,144078,1,0,0:0:0:0:
64,192,144178,1,0,0:0:0:0:
192,192,144178,1,0,0:0:0:0:
320,192,144278,128,0,144578:0:0:0:0:
448,192,144378,1,0,0:0:0:0:
192,192,144478,1,0,0:0:0:0:
64,192,144578,128,0,144778:0:0:0:0:
448,192,144578,1,0,0:0:0:0:
192,192,144778,1,0,0:0:0:0:
320,192,144778,128,0,145378:0:0:0:0:
448,192,144778,1,0,0:0:0:0:
64,192,144978,1,0,0:0:0:0:
192,192,144978,1,0,0:0:0:0:
448,192,145178,1,0,0:0:0:0:
64,192,145278,1,0,0:0:0:0:
192,192,145378,1,0,0:0:0:0:
448,192,145378,1,0,0:0:0:0:
320,192,145478,1,0,0:0:0:0:
64,192,145578,1,0,0:0:0:0:
192,192,145578,128,0,146378:0:0:0:0:
320,192,145778,1,0,0:0:0:0:
448,192,145778,1,0,0:0:0:0:
64,192,145978,1,0,0:0:0:0:
448,192,146078,1,0,0:0:0:0:
64,192,146178,1,0,0:0:0:0:
320,192,146178,1,0,0:0:0:0:
448,192,146378,1,0,0:0:0:0:
64,192,146578,128,0,146978:0:0:0:0:
192,192,146578,1,0,0:0:0:0:
448,192,146778,1,0,0:0:0:0:
320,192,146878,1,0,0:0:0:0:
192,192,146978,128,0,147178:0:0:0:0:
448,192,146978,1,0,0:0:0:0:
64,192,147178,1,0,0:0:0:0:
320,192,147178,128,0,147478:0:0:0:0:
64,192,147378,1,0,0:0:0:0:
448,192,147378,1,0,0:0:0:0:
192,192,147478,128,0,147778:0:0:0:0:
320,192,147578,1,0,0:0:0:0:
64,192,147678,1,0,0:0:0:0:
320,192,147778,1,0,0:0:0:0:
448,192,147778,128,0,147978:0:0:0:0:
64,192,147978,1,0,0:0:0:0:
192,192,147978,1,0,0:0:0:0:
320,192,147978,128,0,149378:0:0:0:0:
192,192,148178,1,0,0:0:0:0:
448,192,148178,1,0,0:0:0:0:
64,192,148378,1,0,0:0:0:0:
192,192,148444,1,0,0:0:0:0:
448,192,148511,1,0,0:0:0:0:
64,192,148578,1,0,0:0:0:0:
192,192,148578,1,0,0:0:0:0:
448,192,148778,1,0,0:0:0:0:
192,192,148978,1,0,0:0:0:0:
448,192,148978,1,0,0:0:0:0:
64,192,149178,1,0,0:0:0:0:
192,192,149244,1,0,0:0:0:0:
448,192,149311,1,0,0:0:0:0:
64,192,149378,1,0,0:0:0:0:
192,192,149378,1,0,0:0:0:0:
320,192,149478,1,0,0:0:0:0:
64,192,149578,1,0,0:0:0:0:
448,192,149578,128,0,150178:0:0:0:0:
192,192,149678,1,0,0:0:0:0:
320,192,149778,1,0,0:0:0:0:
64,192,149878,1,0,0:0:0:0:
192,192,149978,1,0,0:0:0:0:
320,192,149978,1,0,0:0:0:0:
64,192,150078,1,0,0:0:0:0:
320,192,150178,1,0,0:0:0:0:
192,192,150278,1,0,0:0:0:0:
64,192,150378,1,0,0:0:0:0:
320,192,150378,1,0,0:0:0:0:
448,192,150378,1,0,0:0:0:0:
192,192,150578,1,0,0:0:0:0:
448,192,150628,1,0,0:0:0:0:
320,192,150678,1,0,0:0:0:0:
64,192,150778,1,0,0:0:0:0:
192,192,150878,1,0,0:0:0:0:
64,192,150978,1,0,0:0:0:0:
448,192,150978,1,0,0:0:0:0:
192,192,151078,1,0,0:0:0:0:
64,192,151178,1,0,0:0:0:0:
320,192,151178,1,0,0:0:0:0:
448,192,151178,1,0,0:0:0:0:
64,192,151378,1,0,0:0:0:0:
320,192,151378,1,0,0:0:0:0:
448,192,151378,1,0,0:0:0:0:
192,192,151578,1,0,0:0:0:0:
320,192,151578,1,0,0:0:0:0:
64,192,151678,1,0,0:0:0:0:
192,192,151778,1,0,0:0:0:0:
448,192,151778,1,0,0:0:0:0:
320,192,151878,1,0,0:0:0:0:
64,192,151978,1,0,0:0:0:0:
448,192,151978,1,0,0:0:0:0:
192,192,152078,1,0,0:0:0:0:
320,192,152178,1,0,0:0:0:0:
448,192,152178,1,0,0:0:0:0:
64,192,152278,1,0,0:0:0:0:
192,192,152378,1,0,0:0:0:0:
320,192,152378,1,0,0:0:0:0:
448,192,152478,1,0,0:0:0:0:
64,192,152578,1,0,0:0:0:0:
320,192,152578,1,0,0:0:0:0:
192,192,152678,1,0,0:0:0:0:
64,192,152778,1,0,0:0:0:0:
448,192,152778,1,0,0:0:0:0:
320,192,152878,1,0,0:0:0:0:
64,192,152978,1,0,0:0:0:0:
192,192,152978,1,0,0:0:0:0:
448,192,153078,1,0,0:0:0:0:
192,192,153178,1,0,0:0:0:0:
320,192,153178,1,0,0:0:0:0:
64,192,153278,1,0,0:0:0:0:
192,192,153378,1,0,0:0:0:0:
448,192,153378,1,0,0:0:0:0:
320,192,153478,1,0,0:0:0:0:
64,192,153578,1,0,0:0:0:0:
448,192,153578,1,0,0:0:0:0:
192,192,153678,1,0,0:0:0:0:
320,192,153778,1,0,0:0:0:0:
448,192,153778,1,0,0:0:0:0:
64,192,153844,1,0,0:0:0:0:
192,192,153911,1,0,0:0:0:0:
448,192,153978,1,0,0:0:0:0:
320,192,154044,1,0,0:0:0:0:
192,192,154111,1,0,0:0:0:0:
64,192,154178,1,0,0:0:0:0:
192,192,154244,1,0,0:0:0:0:
320,192,154311,1,0,0:0:0:0:
64,192,154378,1,0,0:0:0:0:
448,192,154378,1,0,0:0:0:0:
192,192,154478,1,0,0:0:0:0:
320,192,154578,1,0,0:0:0:0:
448,192,154578,1,0,0:0:0:0:
192,192,154678,1,0,0:0:0:0:
448,192,154778,1,0,0:0:0:0:
320,192,154878,1,0,0:0:0:0:
192,192,154978,1,0,0:0:0:0:
448,192,154978,1,0,0:0:0:0:
64,192,155078,1,0,0:0:0:0:
192,192,155178,1,0,0:0:0:0:
320,192,155178,1,0,0:0:0:0:
448,192,155278,1,0,0:0:0:0:
64,192,155378,1,0,0:0:0:0:
192,192,155378,1,0,0:0:0:0:
320,192,155478,1,0,0:0:0:0:
64,192,155578,1,0,0:0:0:0:
448,192,155578,1,0,0:0:0:0:
192,192,155678,1,0,0:0:0:0:
64,192,155778,1,0,0:0:0:0:
320,192,155778,1,0,0:0:0:0:
448,192,155878,1,0,0:0:0:0:
192,192,155978,1,0,0:0:0:0:
320,192,155978,1,0,0:0:0:0:
64,192,156078,1,0,0:0:0:0:
320,192,156178,1,0,0:0:0:0:
448,192,156178,1,0,0:0:0:0:
192,192,156278,1,0,0:0:0:0:
64,192,156378,1,0,0:0:0:0:
448,192,156378,1,0,0:0:0:0:
320,192,156478,1,0,0:0:0:0:
192,192,156578,1,0,0:0:0:0:
448,192,156578,1,0,0:0:0:0:
64,192,156678,1,0,0:0:0:0:
192,192,156778,1,0,0:0:0:0:
320,192,156778,1,0,0:0:0:0:
448,192,156878,1,0,0:0:0:0:
64,192,156978,1,0,0:0:0:0:
320,192,156978,1,0,0:0:0:0:
448,192,157078,1,0,0:0:0:0:
64,192,157178,1,0,0:0:0:0:
192,192,157178,1,0,0:0:0:0:
320,192,157278,1,0,0:0:0:0:
64,192,157378,1,0,0:0:0:0:
448,192,157378,1,0,0:0:0:0:
192,192,157478,1,0,0:0:0:0:
64,192,157578,1,0,0:0:0:0:
320,192,157578,1,0,0:0:0:0:
448,192,157578,1,0,0:0:0:0:
192,192,157678,1,0,0:0:0:0:
320,192,157778,1,0,0:0:0:0:
448,192,157778,1,0,0:0:0:0:
192,192,157878,1,0,0:0:0:0:
64,192,157978,1,0,0:0:0:0:
320,192,157978,1,0,0:0:0:0:
448,192,158078,1,0,0:0:0:0:
192,192,158178,1,0,0:0:0:0:
320,192,158178,1,0,0:0:0:0:
64,192,158278,1,0,0:0:0:0:
192,192,158378,1,0,0:0:0:0:
448,192,158378,1,0,0:0:0:0:
320,192,158478,1,0,0:0:0:0:
64,192,158578,1,0,0:0:0:0:
448,192,158578,1,0,0:0:0:0:
192,192,158678,1,0,0:0:0:0:
64,192,158778,1,0,0:0:0:0:
320,192,158778,1,0,0:0:0:0:
448,192,158878,1,0,0:0:0:0:
320,192,158978,1,0,0:0:0:0:
64,192,159044,1,0,0:0:0:0:
192,192,159111,1,0,0:0:0:0:
64,192,159178,1,0,0:0:0:0:
320,192,159178,1,0,0:0:0:0:
448,192,159178,1,0,0:0:0:0:
192,192,159311,1,0,0:0:0:0:
448,192,159311,1,0,0:0:0:0:
192,192,159444,1,0,0:0:0:0:
320,192,159444,1,0,0:0:0:0:
64,192,159578,1,0,0:0:0:0:
448,192,159578,1,0,0:0:0:0:
192,192,159711,1,0,0:0:0:0:
320,192,159711,1,0,0:0:0:0:
64,192,159844,1,0,0:0:0:0:
320,192,159844,1,0,0:0:0:0:
64,192,159978,1,0,0:0:0:0:
192,192,159978,1,0,0:0:0:0:
448,192,160078,1,0,0:0:0:0:
192,192,160178,1,0,0:0:0:0:
320,192,160278,1,0,0:0:0:0:
448,192,160278,1,0,0:0:0:0:
64,192,160378,1,0,0:0:0:0:
192,192,160478,1,0,0:0:0:0:
320,192,160478,1,0,0:0:0:0:
64,192,160578,1,0,0:0:0:0:
448,192,160578,1,0,0:0:0:0:
320,192,160678,1,0,0:0:0:0:
64,192,160778,1,0,0:0:0:0:
192,192,160778,1,0,0:0:0:0:
448,192,160778,1,0,0:0:0:0:
320,192,160878,1,0,0:0:0:0:
64,192,160978,1,0,0:0:0:0:
192,192,160978,1,0,0:0:0:0:
320,192,161078,1,0,0:0:0:0:
448,192,161178,1,0,0:0:0:0:
192,192,161244,1,0,0:0:0:0:
64,192,161311,1,0,0:0:0:0:
192,192,161378,1,0,0:0:0:0:
320,192,161378,1,0,0:0:0:0:
448,192,161478,1,0,0:0:0:0:
64,192,161578,1,0,0:0:0:0:
320,192,161578,1,0,0:0:0:0:
448,192,161678,1,0,0:0:0:0:
64,192,161778,1,0,0:0:0:0:
192,192,161778,1,0,0:0:0:0:
448,192,161878,1,0,0:0:0:0:
192,192,161978,1,0,0:0:0:0:
320,192,162044,1,0,0:0:0:0:
448,192,162111,1,0,0:0:0:0:
64,192,162178,1,0,0:0:0:0:
320,192,162244,1,0,0:0:0:0:
192,192,162311,1,0,0:0:0:0:
64,192,162378,1,0,0:0:0:0:
320,192,162378,1,0,0:0:0:0:
448,192,162378,1,0,0:0:0:0:
192,192,162478,1,0,0:0:0:0:
448,192,162578,1,0,0:0:0:0:
448,192,162678,1,0,0:0:0:0:
64,192,162778,1,0,0:0:0:0:
192,192,162828,1,0,0:0:0:0:
320,192,162878,1,0,0:0:0:0:
64,192,162978,1,0,0:0:0:0:
448,192,163078,1,0,0:0:0:0:
320,192,163128,1,0,0:0:0:0:
192,192,163178,1,0,0:0:0:0:
448,192,163278,1,0,0:0:0:0:
64,192,163378,1,0,0:0:0:0:
320,192,163378,1,0,0:0:0:0:
192,192,163478,1,0,0:0:0:0:
320,192,163578,1,0,0:0:0:0:
448,192,163578,1,0,0:0:0:0:
192,192,163678,1,0,0:0:0:0:
64,192,163778,1,0,0:0:0:0:
448,192,163778,1,0,0:0:0:0:
192,192,163878,1,0,0:0:0:0:
320,192,163978,1,0,0:0:0:0:
448,192,163978,1,0,0:0:0:0:
64,192,164044,1,0,0:0:0:0:
192,192,164111,1,0,0:0:0:0:
320,192,164178,1,0,0:0:0:0:
64,192,164244,1,0,0:0:0:0:
192,192,164311,1,0,0:0:0:0:
448,192,164378,1,0,0:0:0:0:
64,192,164444,1,0,0:0:0:0:
320,192,164511,1,0,0:0:0:0:
448,192,164578,1,0,0:0:0:0:
320,192,164644,1,0,0:0:0:0:
192,192,164711,1,0,0:0:0:0:
64,192,164778,1,0,0:0:0:0:
448,192,164844,1,0,0:0:0:0:
320,192,164911,1,0,0:0:0:0:
64,192,164978,1,0,0:0:0:0:
448,192,165044,1,0,0:0:0:0:
192,192,165111,1,0,0:0:0:0:
64,192,165178,1,0,0:0:0:0:
192,192,165244,1,0,0:0:0:0:
320,192,165311,1,0,0:0:0:0:
448,192,165378,1,0,0:0:0:0:
64,192,165444,1,0,0:0:0:0:
192,192,165511,1,0,0:0:0:0:
448,192,165578,1,0,0:0:0:0:
320,192,165644,1,0,0:0:0:0:
64,192,165711,1,0,0:0:0:0:
448,192,165778,1,0,0:0:0:0:
192,192,165844,1,0,0:0:0:0:
64,192,165911,1,0,0:0:0:0:
320,192,165978,1,0,0:0:0:0:
448,192,166044,1,0,0:0:0:0:
64,192,166111,1,0,0:0:0:0:
320,192,166178,1,0,0:0:0:0:
192,192,166244,1,0,0:0:0:0:
448,192,166311,1,0,0:0:0:0:
320,192,166378,1,0,0:0:0:0:
192,192,166444,1,0,0:0:0:0:
64,192,166511,1,0,0:0:0:0:
448,192,166578,1,0,0:0:0:0:
192,192,166644,1,0,0:0:0:0:
64,192,166711,1,0,0:0:0:0:
320,192,166778,1,0,0:0:0:0:
448,192,166778,1,0,0:0:0:0:
192,192,166878,1,0,0:0:0:0:
320,192,166978,1,0,0:0:0:0:
448,192,166978,1,0,0:0:0:0:
64,192,167078,1,0,0:0:0:0:
192,192,167178,1,0,0:0:0:0:
320,192,167178,1,0,0:0:0:0:
448,192,167278,1,0,0:0:0:0:
64,192,167378,1,0,0:0:0:0:
320,192,167378,1,0,0:0:0:0:
448,192,167478,1,0,0:0:0:0:
320,192,167578,1,0,0:0:0:0:
192,192,167678,1,0,0:0:0:0:
320,192,167778,1,0,0:0:0:0:
448,192,167778,1,0,0:0:0:0:
192,192,167878,1,0,0:0:0:0:
64,192,167978,1,0,0:0:0:0:
448,192,167978,1,0,0:0:0:0:
192,192,168078,1,0,0:0:0:0:
320,192,168178,1,0,0:0:0:0:
448,192,168178,1,0,0:0:0:0:
64,192,168278,1,0,0:0:0:0:
192,192,168378,1,0,0:0:0:0:
320,192,168378,1,0,0:0:0:0:
448,192,168478,1,0,0:0:0:0:
64,192,168578,1,0,0:0:0:0:
192,192,168578,1,0,0:0:0:0:
320,192,168678,1,0,0:0:0:0:
64,192,168778,1,0,0:0:0:0:
448,192,168778,1,0,0:0:0:0:
192,192,168878,1,0,0:0:0:0:
320,192,168978,1,0,0:0:0:0:
448,192,168978,1,0,0:0:0:0:
192,192,169044,1,0,0:0:0:0:
320,192,169111,1,0,0:0:0:0:
64,192,169178,1,0,0:0:0:0:
192,192,169244,1,0,0:0:0:0:
448,192,169311,1,0,0:0:0:0:
64,192,169378,1,0,0:0:0:0:
320,192,169444,1,0,0:0:0:0:
448,192,169511,1,0,0:0:0:0:
192,192,169578,1,0,0:0:0:0:
320,192,169678,1,0,0:0:0:0:
64,192,169778,1,0,0:0:0:0:
192,192,169778,1,0,0:0:0:0:
448,192,169778,1,0,0:0:0:0:
320,192,169878,1,0,0:0:0:0:
448,192,169978,1,0,0:0:0:0:
64,192,170078,1,0,0:0:0:0:
192,192,170178,1,0,0:0:0:0:
320,192,170178,1,0,0:0:0:0:
448,192,170178,1,0,0:0:0:0:
64,192,170278,1,0,0:0:0:0:
320,192,170378,1,0,0:0:0:0:
192,192,170444,1,0,0:0:0:0:
448,192,170511,1,0,0:0:0:0:
320,192,170578,1,0,0:0:0:0:
192,192,170644,1,0,0:0:0:0:
64,192,170711,1,0,0:0:0:0:
320,192,170778,1,0,0:0:0:0:
448,192,170844,1,0,0:0:0:0:
192,192,170911,1,0,0:0:0:0:
320,192,170978,1,0,0:0:0:0:
64,192,171044,1,0,0:0:0:0:
192,192,171111,1,0,0:0:0:0:
448,192,171178,1,0,0:0:0:0:
320,192,171244,1,0,0:0:0:0:
192,192,171311,1,0,0:0:0:0:
64,192,171378,1,0,0:0:0:0:
448,192,171444,1,0,0:0:0:0:
192,192,171511,1,0,0:0:0:0:
320,192,171578,1,0,0:0:0:0:
64,192,171644,1,0,0:0:0:0:
192,192,171711,1,0,0:0:0:0:
320,192,171778,1,0,0:0:0:0:
448,192,171844,1,0,0:0:0:0:
64,192,171911,1,0,0:0:0:0:
320,192,171978,1,0,0:0:0:0:
192,192,172044,1,0,0:0:0:0:
448,192,172111,1,0,0:0:0:0:
64,192,172178,1,0,0:0:0:0:
320,192,172244,1,0,0:0:0:0:
448,192,172311,1,0,0:0:0:0:
192,192,172378,1,0,0:0:0:0:
64,192,172444,1,0,0:0:0:0:
320,192,172511,1,0,0:0:0:0:
192,192,172578,1,0,0:0:0:0:
448,192,172644,1,0,0:0:0:0:
320,192,172711,1,0,0:0:0:0:
64,192,172778,1,0,0:0:0:0:
192,192,172844,1,0,0:0:0:0:
448,192,172911,1,0,0:0:0:0:
64,192,172978,1,0,0:0:0:0:
320,192,173044,1,0,0:0:0:0:
448,192,173111,1,0,0:0:0:0:
192,192,173178,1,0,0:0:0:0:
320,192,173244,1,0,0:0:0:0:
448,192,173311,1,0,0:0:0:0:
64,192,173378,1,0,0:0:0:0:
192,192,173478,1,0,0:0:0:0:
64,192,173578,1,0,0:0:0:0:
320,192,173578,1,0,0:0:0:0:
448,192,173578,1,0,0:0:0:0:
192,192,173678,1,0,0:0:0:0:
448,192,173728,1,0,0:0:0:0:
320,192,173778,1,0,0:0:0:0:
448,192,173878,1,0,0:0:0:0:
64,192,173978,1,0,0:0:0:0:
192,192,174044,1,0,0:0:0:0:
320,192,174111,1,0,0:0:0:0:
448,192,174178,1,0,0:0:0:0:
320,192,174244,1,0,0:0:0:0:
192,192,174311,1,0,0:0:0:0:
64,192,174378,1,0,0:0:0:0:
192,192,174444,1,0,0:0:0:0:
320,192,174511,1,0,0:0:0:0:
448,192,174578,1,0,0:0:0:0:
320,192,174644,1,0,0:0:0:0:
192,192,174711,1,0,0:0:0:0:
64,192,174778,1,0,0:0:0:0:
320,192,174844,1,0,0:0:0:0:
448,192,174911,1,0,0:0:0:0:
192,192,174978,1,0,0:0:0:0:
320,192,175044,1,0,0:0:0:0:
64,192,175111,1,0,0:0:0:0:
448,192,175178,1,0,0:0:0:0:
192,192,175244,1,0,0:0:0:0:
64,192,175311,1,0,0:0:0:0:
448,192,175378,1,0,0:0:0:0:
320,192,175444,1,0,0:0:0:0:
192,192,175511,1,0,0:0:0:0:
64,192,175578,1,0,0:0:0:0:
320,192,175644,1,0,0:0:0:0:
192,192,175711,1,0,0:0:0:0:
448,192,175778,1,0,0:0:0:0:
192,192,175844,1,0,0:0:0:0:
320,192,175911,1,0,0:0:0:0:
64,192,175978,1,0,0:0:0:0:
448,192,176044,1,0,0:0:0:0:
320,192,176111,1,0,0:0:0:0:
192,192,176178,1,0,0:0:0:0:
448,192,176244,1,0,0:0:0:0:
320,192,176311,1,0,0:0:0:0:
64,192,176378,1,0,0:0:0:0:
448,192,176444,1,0,0:0:0:0:
192,192,176511,1,0,0:0:0:0:
64,192,176578,1,0,0:0:0:0:
320,192,176644,1,0,0:0:0:0:
192,192,176711,1,0,0:0:0:0:
64,192,176778,1,0,0:0:0:0:
320,192,176778,1,0,0:0:0:0:
448,192,176778,1,0,0:0:0:0:
192,192,176878,1,0,0:0:0:0:
320,192,176978,1,0,0:0:0:0:
192,192,177078,1,0,0:0:0:0:
64,192,177178,1,0,0:0:0:0:
448,192,177178,1,0,0:0:0:0:
320,192,177278,1,0,0:0:0:0:
192,192,177378,1,0,0:0:0:0:
448,192,177378,1,0,0:0:0:0:
64,192,177478,1,0,0:0:0:0:
320,192,177578,1,0,0:0:0:0:
448,192,177578,128,0,177778:0:0:0:0:
192,192,177678,1,0,0:0:0:0:
320,192,177778,1,0,0:0:0:0:
64,192,177878,128,0,178078:0:0:0:0:
192,192,177878,1,0,0:0:0:0:
448,192,177978,1,0,0:0:0:0:
320,192,178078,1,0,0:0:0:0:
64,192,178178,1,0,0:0:0:0:
448,192,178178,1,0,0:0:0:0:
192,192,178278,1,0,0:0:0:0:
64,192,178378,1,0,0:0:0:0:
320,192,178378,128,0,178578:0:0:0:0:
448,192,178478,1,0,0:0:0:0:
64,192,178578,1,0,0:0:0:0:
320,192,178678,1,0,0:0:0:0:
448,192,178678,128,0,178878:0:0:0:0:
192,192,178778,1,0,0:0:0:0:
64,192,178878,1,0,0:0:0:0:
192,192,178978,1,0,0:0:0:0:
448,192,178978,1,0,0:0:0:0:
320,192,179078,1,0,0:0:0:0:
64,192,179178,128,0,179378:0:0:0:0:
448,192,179178,1,0,0:0:0:0:
192,192,179278,1,0,0:0:0:0:
448,192,179378,1,0,0:0:0:0:
64,192,179478,1,0,0:0:0:0:
192,192,179478,128,0,179678:0:0:0:0:
320,192,179578,1,0,0:0:0:0:
448,192,179678,1,0,0:0:0:0:
64,192,179778,1,0,0:0:0:0:
320,192,179778,1,0,0:0:0:0:
192,192,179878,1,0,0:0:0:0:
64,192,179978,1,0,0:0:0:0:
448,192,179978,128,0,180478:0:0:0:0:
320,192,180078,1,0,0:0:0:0:
64,192,180178,1,0,0:0:0:0:
192,192,180178,1,0,0:0:0:0:
320,192,180278,1,0,0:0:0:0:
192,192,180378,1,0,0:0:0:0:
64,192,180478,1,0,0:0:0:0:
192,192,180578,1,0,0:0:0:0:
448,192,180578,1,0,0:0:0:0:
320,192,180678,1,0,0:0:0:0:
64,192,180778,128,0,181278:0:0:0:0:
448,192,180778,1,0,0:0:0:0:
192,192,180878,1,0,0:0:0:0:
320,192,180978,1,0,0:0:0:0:
448,192,180978,1,0,0:0:0:0:
192,192,181078,1,0,0:0:0:0:
320,192,181178,1,0,0:0:0:0:
448,192,181278,1,0,0:0:0:0:
64,192,181378,1,0,0:0:0:0:
320,192,181378,1,0,0:0:0:0:
192,192,181478,1,0,0:0:0:0:
64,192,181578,128,0,181778:0:0:0:0:
448,192,181578,1,0,0:0:0:0:
320,192,181678,1,0,0:0:0:0:
192,192,181778,1,0,0:0:0:0:
320,192,181878,128,0,182078:0:0:0:0:
448,192,181878,1,0,0:0:0:0:
64,192,181978,1,0,0:0:0:0:
192,192,182078,1,0,0:0:0:0:
64,192,182178,1,0,0:0:0:0:
448,192,182178,1,0,0:0:0:0:
64,192,182378,1,0,0:0:0:0:
320,192,182378,1,0,0:0:0:0:
448,192,182378,128,0,182578:0:0:0:0:
192,192,182478,1,0,0:0:0:0:
320,192,182578,1,0,0:0:0:0:
64,192,182678,1,0,0:0:0:0:
192,192,182678,128,0,182878:0:0:0:0:
448,192,182778,1,0,0:0:0:0:
320,192,182878,1,0,0:0:0:0:
64,192,182978,1,0,0:0:0:0:
448,192,182978,1,0,0:0:0:0:
64,192,183178,1,0,0:0:0:0:
192,192,183178,1,0,0:0:0:0:
448,192,183178,1,0,0:0:0:0:
320,192,183278,1,0,0:0:0:0:
192,192,183378,1,0,0:0:0:0:
448,192,183378,1,0,0:0:0:0:
64,192,183478,1,0,0:0:0:0:
192,192,183578,1,0,0:0:0:0:
320,192,183578,1,0,0:0:0:0:
448,192,183678,1,0,0:0:0:0:
64,192,183778,1,0,0:0:0:0:
320,192,183778,1,0,0:0:0:0:
192,192,183878,1,0,0:0:0:0:
320,192,183978,1,0,0:0:0:0:
448,192,183978,1,0,0:0:0:0:
192,192,184078,1,0,0:0:0:0:
64,192,184178,1,0,0:0:0:0:
320,192,184178,1,0,0:0:0:0:
448,192,184278,1,0,0:0:0:0:
192,192,184378,1,0,0:0:0:0:
320,192,184378,1,0,0:0:0:0:
64,192,184478,1,0,0:0:0:0:
192,192,184578,1,0,0:0:0:0:
448,192,184578,1,0,0:0:0:0:
320,192,184678,1,0,0:0:0:0:
64,192,184778,1,0,0:0:0:0:
192,192,184778,1,0,0:0:0:0:
448,192,184778,1,0,0:0:0:0:
64,192,184978,1,0,0:0:0:0:
192,192,184978,1,0,0:0:0:0:
448,192,184978,1,0,0:0:0:0:
320,192,185178,1,0,0:0:0:0:
448,192,185178,1,0,0:0:0:0:
192,192,185244,1,0,0:0:0:0:
64,192,185311,1,0,0:0:0:0:
320,192,185378,1,0,0:0:0:0:
192,192,185444,1,0,0:0:0:0:
448,192,185511,1,0,0:0:0:0:
320,192,185578,1,0,0:0:0:0:
64,192,185644,1,0,0:0:0:0:
192,192,185711,1,0,0:0:0:0:
448,192,185778,1,0,0:0:0:0:
320,192,185844,1,0,0:0:0:0:
448,192,185911,1,0,0:0:0:0:
64,192,185978,1,0,0:0:0:0:
192,192,185978,1,0,0:0:0:0:
448,192,186178,1,0,0:0:0:0:
320,192,186278,1,0,0:0:0:0:
64,192,186378,1,0,0:0:0:0:
192,192,186378,1,0,0:0:0:0:
448,192,186378,1,0,0:0:0:0:
64,192,186578,1,0,0:0:0:0:
192,192,186578,1,0,0:0:0:0:
448,192,186578,1,0,0:0:0:0:
64,192,186778,1,0,0:0:0:0:
320,192,186778,1,0,0:0:0:0:
448,192,186878,1,0,0:0:0:0:
192,192,186978,1,0,0:0:0:0:
320,192,186978,1,0,0:0:0:0:
64,192,187078,1,0,0:0:0:0:
192,192,187178,1,0,0:0:0:0:
448,192,187178,1,0,0:0:0:0:
320,192,187278,1,0,0:0:0:0:
64,192,187378,1,0,0:0:0:0:
448,192,187378,1,0,0:0:0:0:
192,192,187478,1,0,0:0:0:0:
64,192,187578,1,0,0:0:0:0:
320,192,187578,1,0,0:0:0:0:
448,192,187678,1,0,0:0:0:0:
192,192,187778,1,0,0:0:0:0:
320,192,187778,1,0,0:0:0:0:
64,192,187878,1,0,0:0:0:0:
320,192,187978,1,0,0:0:0:0:
448,192,187978,1,0,0:0:0:0:
192,192,188078,1,0,0:0:0:0:
64,192,188178,1,0,0:0:0:0:
448,192,188178,1,0,0:0:0:0:
320,192,188278,1,0,0:0:0:0:
64,192,188378,1,0,0:0:0:0:
448,192,188378,1,0,0:0:0:0:
192,192,188478,1,0,0:0:0:0:
64,192,188578,1,0,0:0:0:0:
320,192,188578,1,0,0:0:0:0:
448,192,188678,1,0,0:0:0:0:
192,192,188778,1,0,0:0:0:0:
320,192,188778,1,0,0:0:0:0:
64,192,188878,1,0,0:0:0:0:
192,192,188978,1,0,0:0:0:0:
448,192,188978,1,0,0:0:0:0:
320,192,189078,1,0,0:0:0:0:
64,192,189178,1,0,0:0:0:0:
448,192,189178,1,0,0:0:0:0:
192,192,189278,1,0,0:0:0:0:
64,192,189378,1,0,0:0:0:0:
320,192,189378,1,0,0:0:0:0:
448,192,189478,1,0,0:0:0:0:
64,192,189578,1,0,0:0:0:0:
192,192,189578,1,0,0:0:0:0:
320,192,189678,1,0,0:0:0:0:
192,192,189778,1,0,0:0:0:0:
448,192,189778,1,0,0:0:0:0:
64,192,189878,1,0,0:0:0:0:
192,192,189978,1,0,0:0:0:0:
448,192,189978,1,0,0:0:0:0:
320,192,190078,1,0,0:0:0:0:
64,192,190178,1,0,0:0:0:0:
448,192,190178,1,0,0:0:0:0:
192,192,190278,1,0,0:0:0:0:
64,192,190378,1,0,0:0:0:0:
320,192,190378,1,0,0:0:0:0:
448,192,190478,1,0,0:0:0:0:
192,192,190578,1,0,0:0:0:0:
320,192,190578,1,0,0:0:0:0:
64,192,190678,1,0,0:0:0:0:
192,192,190778,1,0,0:0:0:0:
448,192,190778,1,0,0:0:0:0:
320,192,190878,1,0,0:0:0:0:
64,192,190978,1,0,0:0:0:0:
448,192,190978,1,0,0:0:0:0:
192,192,191078,1,0,0:0:0:0:
320,192,191178,1,0,0:0:0:0:
448,192,191178,1,0,0:0:0:0:
64,192,191278,1,0,0:0:0:0:
192,192,191378,1,0,0:0:0:0:
320,192,191378,1,0,0:0:0:0:
448,192,191478,1,0,0:0:0:0:
192,192,191578,1,0,0:0:0:0:
320,192,191578,1,0,0:0:0:0:
64,192,191678,1,0,0:0:0:0:
192,192,191778,1,0,0:0:0:0:
448,192,191778,1,0,0:0:0:0:
320,192,191878,1,0,0:0:0:0:
64,192,191978,1,0,0:0:0:0:
448,192,191978,1,0,0:0:0:0:
192,192,192078,1,0,0:0:0:0:
64,192,192178,1,0,0:0:0:0:
320,192,192178,1,0,0:0:0:0:
448,192,192178,1,0,0:0:0:0:
192,192,192278,1,0,0:0:0:0:
320,192,192378,1,0,0:0:0:0:
448,192,192478,1,0,0:0:0:0:
64,192,192578,1,0,0:0:0:0:
192,192,192578,1,0,0:0:0:0:
320,192,192578,1,0,0:0:0:0:
64,192,192778,1,0,0:0:0:0:
192,192,192778,1,0,0:0:0:0:
448,192,192778,1,0,0:0:0:0:
320,192,192878,1,0,0:0:0:0:
64,192,192978,1,0,0:0:0:0:
448,192,192978,1,0,0:0:0:0:
192,192,193078,1,0,0:0:0:0:
64,192,193178,1,0,0:0:0:0:
448,192,193178,1,0,0:0:0:0:
320,192,193278,1,0,0:0:0:0:
192,192,193378,1,0,0:0:0:0:
448,192,193378,1,0,0:0:0:0:
64,192,193478,1,0,0:0:0:0:
192,192,193578,1,0,0:0:0:0:
320,192,193578,1,0,0:0:0:0:
448,192,193678,1,0,0:0:0:0:
64,192,193778,1,0,0:0:0:0:
320,192,193778,1,0,0:0:0:0:
192,192,193878,1,0,0:0:0:0:
64,192,193978,1,0,0:0:0:0:
448,192,193978,1,0,0:0:0:0:
320,192,194078,1,0,0:0:0:0:
192,192,194178,1,0,0:0:0:0:
448,192,194178,1,0,0:0:0:0:
64,192,194278,1,0,0:0:0:0:
320,192,194378,1,0,0:0:0:0:
448,192,194378,1,0,0:0:0:0:
192,192,194478,1,0,0:0:0:0:
64,192,194578,1,0,0:0:0:0:
320,192,194578,1,0,0:0:0:0:
448,192,194678,1,0,0:0:0:0:
64,192,194778,1,0,0:0:0:0:
320,192,194778,1,0,0:0:0:0:
192,192,194878,1,0,0:0:0:0:
64,192,194978,1,0,0:0:0:0:
448,192,194978,1,0,0:0:0:0:
320,192,195078,1,0,0:0:0:0:
192,192,195178,1,0,0:0:0:0:
448,192,195178,1,0,0:0:0:0:
64,192,195278,1,0,0:0:0:0:
192,192,195378,1,0,0:0:0:0:
320,192,195378,1,0,0:0:0:0:
448,192,195478,1,0,0:0:0:0:
64,192,195578,1,0,0:0:0:0:
320,192,195578,1,0,0:0:0:0:
192,192,195678,1,0,0:0:0:0:
64,192,195778,1,0,0:0:0:0:
448,192,195778,1,0,0:0:0:0:
320,192,195878,1,0,0:0:0:0:
64,192,195978,1,0,0:0:0:0:
192,192,195978,1,0,0:0:0:0:
320,192,196078,1,0,0:0:0:0:
192,192,196178,1,0,0:0:0:0:
448,192,196178,1,0,0:0:0:0:
64,192,196278,1,0,0:0:0:0:
192,192,196378,1,0,0:0:0:0:
448,192,196378,1,0,0:0:0:0:
320,192,196478,1,0,0:0:0:0:
64,192,196578,1,0,0:0:0:0:
448,192,196578,1,0,0:0:0:0:
192,192,196678,1,0,0:0:0:0:
64,192,196778,1,0,0:0:0:0:
320,192,196778,1,0,0:0:0:0:
448,192,196878,1,0,0:0:0:0:
192,192,196978,1,0,0:0:0:0:
320,192,196978,1,0,0:0:0:0:
64,192,197078,1,0,0:0:0:0:
192,192,197178,1,0,0:0:0:0:
448,192,197178,1,0,0:0:0:0:
320,192,197278,1,0,0:0:0:0:
64,192,197378,1,0,0:0:0:0:
192,192,197378,1,0,0:0:0:0:
320,192,197578,1,0,0:0:0:0:
448,192,197578,1,0,0:0:0:0:
64,192,197678,1,0,0:0:0:0:
192,192,197728,1,0,0:0:0:0:
448,192,197778,1,0,0:0:0:0:
320,192,197878,1,0,0:0:0:0:
448,192,197928,1,0,0:0:0:0:
64,192,197978,1,0,0:0:0:0:
192,192,197978,1,0,0:0:0:0:
448,192,198078,1,0,0:0:0:0:
320,192,198128,1,0,0:0:0:0:
64,192,198178,1,0,0:0:0:0:
192,192,198278,1,0,0:0:0:0:
64,192,198328,1,0,0:0:0:0:
320,192,198378,1,0,0:0:0:0:
448,192,198378,1,0,0:0:0:0:
64,192,198478,1,0,0:0:0:0:
192,192,198528,1,0,0:0:0:0:
448,192,198578,1,0,0:0:0:0:
320,192,198678,1,0,0:0:0:0:
64,192,198778,1,0,0:0:0:0:
192,192,198778,1,0,0:0:0:0:
320,192,198878,1,0,0:0:0:0:
448,192,198878,1,0,0:0:0:0:
64,192,198978,1,0,0:0:0:0:
192,192,198978,1,0,0:0:0:0:
448,192,199078,1,0,0:0:0:0:
64,192,199178,1,0,0:0:0:0:
192,192,199178,128,0,199778:0:0:0:0:
320,192,199178,1,0,0:0:0:0:
64,192,199778,128,0,199878:0:0:0:0:
192,192,199878,128,0,199978:0:0:0:0:
320,192,199978,128,0,200378:0:0:0:0:
448,192,200378,128,0,200778:0:0:0:0:
64,192,200778,128,0,202378:0:0:0:0:
448,192,201378,1,0,0:0:0:0:
320,192,201478,1,0,0:0:0:0:
448,192,201578,1,0,0:0:0:0:
320,192,201778,1,0,0:0:0:0:
192,192,201978,1,0,0:0:0:0:
192,192,202378,1,0,0:0:0:0:
320,192,202378,128,0,202978:0:0:0:0:
448,192,202378,1,0,0:0:0:0:
448,192,202978,128,0,203078:0:0:0:0:
320,192,203078,128,0,203178:0:0:0:0:
192,192,203178,128,0,203578:0:0:0:0:
64,192,203578,128,0,203978:0:0:0:0:
448,192,203978,128,0,205578:0:0:0:0:
64,192,204578,1,0,0:0:0:0:
320,192,204644,1,0,0:0:0:0:
192,192,204711,1,0,0:0:0:0:
320,192,204778,1,0,0:0:0:0:
192,192,204978,1,0,0:0:0:0:
64,192,205178,1,0,0:0:0:0:
64,192,205578,1,0,0:0:0:0:
192,192,205578,128,0,206178:0:0:0:0:
320,192,205578,1,0,0:0:0:0:
64,192,206178,128,0,206278:0:0:0:0:
192,192,206278,128,0,206378:0:0:0:0:
64,192,206378,1,0,0:0:0:0:
320,192,206378,128,0,206778:0:0:0:0:
448,192,206378,1,0,0:0:0:0:
64,192,206778,128,0,207178:0:0:0:0:
192,192,207178,1,0,0:0:0:0:
320,192,207178,128,0,207778:0:0:0:0:
448,192,207178,1,0,0:0:0:0:
192,192,207778,128,0,207878:0:0:0:0:
320,192,207878,128,0,207978:0:0:0:0:
64,192,207978,1,0,0:0:0:0:
192,192,207978,1,0,0:0:0:0:
448,192,207978,128,0,208378:0:0:0:0:
192,192,208378,128,0,208778:0:0:0:0:
64,192,208778,1,0,0:0:0:0:
320,192,208778,1,0,0:0:0:0:
448,192,208778,1,0,0:0:0:0:
192,192,208878,1,0,0:0:0:0:
320,192,208978,1,0,0:0:0:0:
64,192,209078,1,0,0:0:0:0:
448,192,209178,1,0,0:0:0:0:
320,192,209278,1,0,0:0:0:0:
64,192,209378,1,0,0:0:0:0:
192,192,209378,1,0,0:0:0:0:
448,192,209378,1,0,0:0:0:0:
320,192,209478,1,0,0:0:0:0:
192,192,209578,1,0,0:0:0:0:
448,192,209678,1,0,0:0:0:0:
64,192,209778,1,0,0:0:0:0:
192,192,209878,1,0,0:0:0:0:
64,192,209978,1,0,0:0:0:0:
320,192,209978,1,0,0:0:0:0:
448,192,209978,1,0,0:0:0:0:
192,192,210078,1,0,0:0:0:0:
320,192,210178,1,0,0:0:0:0:
64,192,210278,1,0,0:0:0:0:
192,192,210378,1,0,0:0:0:0:
448,192,210378,1,0,0:0:0:0:
320,192,210378,128,0,210478:0:0:0:0:
64,192,210478,128,0,210578:0:0:0:0:
448,192,210578,128,0,210678:0:0:0:0:
192,192,210678,128,0,210778:0:0:0:0:
448,192,210778,128,0,210878:0:0:0:0:
320,192,210878,128,0,210978:0:0:0:0:
192,192,210978,128,0,211078:0:0:0:0:
64,192,211078,128,0,211178:0:0:0:0:
320,192,211178,1,0,0:0:0:0:
448,192,211178,1,0,0:0:0:0:
192,192,211278,1,0,0:0:0:0:
64,192,211378,1,0,0:0:0:0:
320,192,211378,1,0,0:0:0:0:
448,192,211478,1,0,0:0:0:0:
192,192,211578,1,0,0:0:0:0:
320,192,211578,1,0,0:0:0:0:
64,192,211678,1,0,0:0:0:0:
192,192,211778,1,0,0:0:0:0:
448,192,211778,1,0,0:0:0:0:
320,192,211878,1,0,0:0:0:0:
64,192,211978,1,0,0:0:0:0:
192,192,211978,1,0,0:0:0:0:
448,192,211978,1,0,0:0:0:0:
320,192,212078,1,0,0:0:0:0:
64,192,212178,1,0,0:0:0:0:
320,192,212278,1,0,0:0:0:0:
64,192,212378,1,0,0:0:0:0:
192,192,212378,1,0,0:0:0:0:
448,192,212478,1,0,0:0:0:0:
192,192,212578,1,0,0:0:0:0:
320,192,212578,1,0,0:0:0:0:
64,192,212678,1,0,0:0:0:0:
320,192,212778,1,0,0:0:0:0:
448,192,212778,1,0,0:0:0:0:
192,192,212878,1,0,0:0:0:0:
320,192,212978,1,0,0:0:0:0:
448,192,213078,1,0,0:0:0:0:
64,192,213178,1,0,0:0:0:0:
192,192,213178,1,0,0:0:0:0:
320,192,213278,1,0,0:0:0:0:
192,192,213378,1,0,0:0:0:0:
64,192,213478,1,0,0:0:0:0:
320,192,213578,1,0,0:0:0:0:
448,192,213578,1,0,0:0:0:0:
192,192,213678,1,0,0:0:0:0:
448,192,213778,1,0,0:0:0:0:
192,192,213878,1,0,0:0:0:0:
320,192,213878,1,0,0:0:0:0:
64,192,213978,1,0,0:0:0:0:
320,192,214078,1,0,0:0:0:0:
64,192,214178,1,0,0:0:0:0:
192,192,214178,1,0,0:0:0:0:
448,192,214278,1,0,0:0:0:0:
64,192,214378,1,0,0:0:0:0:
320,192,214378,1,0,0:0:0:0:
192,192,214478,1,0,0:0:0:0:
320,192,214578,1,0,0:0:0:0:
192,192,214678,1,0,0:0:0:0:
64,192,214778,1,0,0:0:0:0:
448,192,214778,1,0,0:0:0:0:
320,192,214878,1,0,0:0:0:0:
448,192,214978,1,0,0:0:0:0:
320,192,215078,1,0,0:0:0:0:
64,192,215178,1,0,0:0:0:0:
192,192,215178,1,0,0:0:0:0:
448,192,215278,1,0,0:0:0:0:
192,192,215378,1,0,0:0:0:0:
448,192,215478,1,0,0:0:0:0:
64,192,215578,1,0,0:0:0:0:
192,192,215578,1,0,0:0:0:0:
320,192,215678,1,0,0:0:0:0:
64,192,215778,1,0,0:0:0:0:
448,192,215778,1,0,0:0:0:0:
192,192,215878,1,0,0:0:0:0:
320,192,215978,1,0,0:0:0:0:
448,192,215978,1,0,0:0:0:0:
64,192,216078,1,0,0:0:0:0:
320,192,216178,1,0,0:0:0:0:
64,192,216278,1,0,0:0:0:0:
448,192,216278,1,0,0:0:0:0:
192,192,216378,1,0,0:0:0:0:
448,192,216478,1,0,0:0:0:0:
64,192,216578,1,0,0:0:0:0:
192,192,216578,1,0,0:0:0:0:
320,192,216678,1,0,0:0:0:0:
64,192,216778,1,0,0:0:0:0:
448,192,216778,1,0,0:0:0:0:
192,192,216878,1,0,0:0:0:0:
448,192,216978,1,0,0:0:0:0:
192,192,217078,1,0,0:0:0:0:
64,192,217178,1,0,0:0:0:0:
448,192,217178,1,0,0:0:0:0:
320,192,217278,1,0,0:0:0:0:
64,192,217378,1,0,0:0:0:0:
192,192,217378,1,0,0:0:0:0:
448,192,217478,1,0,0:0:0:0:
64,192,217578,1,0,0:0:0:0:
320,192,217578,1,0,0:0:0:0:
192,192,217678,1,0,0:0:0:0:
320,192,217778,1,0,0:0:0:0:
448,192,217778,1,0,0:0:0:0:
64,192,217878,1,0,0:0:0:0:
192,192,217978,1,0,0:0:0:0:
448,192,217978,1,0,0:0:0:0:
64,192,218078,1,0,0:0:0:0:
192,192,218178,1,0,0:0:0:0:
320,192,218178,1,0,0:0:0:0:
448,192,218278,1,0,0:0:0:0:
64,192,218378,1,0,0:0:0:0:
192,192,218378,1,0,0:0:0:0:
320,192,218378,1,0,0:0:0:0:
448,192,218478,1,0,0:0:0:0:
64,192,218578,1,0,0:0:0:0:
320,192,218678,1,0,0:0:0:0:
64,192,218778,1,0,0:0:0:0:
192,192,218778,1,0,0:0:0:0:
448,192,218878,1,0,0:0:0:0:
192,192,218978,1,0,0:0:0:0:
320,192,218978,1,0,0:0:0:0:
64,192,219078,1,0,0:0:0:0:
320,192,219178,1,0,0:0:0:0:
448,192,219178,1,0,0:0:0:0:
192,192,219278,1,0,0:0:0:0:
448,192,219378,1,0,0:0:0:0:
64,192,219478,1,0,0:0:0:0:
192,192,219478,1,0,0:0:0:0:
320,192,219578,1,0,0:0:0:0:
192,192,219678,1,0,0:0:0:0:
64,192,219778,1,0,0:0:0:0:
448,192,219778,1,0,0:0:0:0:
320,192,219878,1,0,0:0:0:0:
64,192,219978,1,0,0:0:0:0:
192,192,219978,1,0,0:0:0:0:
448,192,220078,1,0,0:0:0:0:
192,192,220178,1,0,0:0:0:0:
448,192,220278,1,0,0:0:0:0:
64,192,220378,1,0,0:0:0:0:
192,192,220378,1,0,0:0:0:0:
320,192,220478,1,0,0:0:0:0:
64,192,220578,1,0,0:0:0:0:
448,192,220578,1,0,0:0:0:0:
192,192,220678,1,0,0:0:0:0:
320,192,220778,1,0,0:0:0:0:
448,192,220778,1,0,0:0:0:0:
64,192,220878,1,0,0:0:0:0:
320,192,220978,1,0,0:0:0:0:
64,192,221078,1,0,0:0:0:0:
192,192,221178,1,0,0:0:0:0:
448,192,221178,1,0,0:0:0:0:
320,192,221278,1,0,0:0:0:0:
448,192,221378,1,0,0:0:0:0:
320,192,221478,1,0,0:0:0:0:
64,192,221578,1,0,0:0:0:0:
192,192,221578,1,0,0:0:0:0:
448,192,221678,1,0,0:0:0:0:
64,192,221778,1,0,0:0:0:0:
192,192,221878,1,0,0:0:0:0:
448,192,221878,1,0,0:0:0:0:
320,192,221978,1,0,0:0:0:0:
192,192,222078,1,0,0:0:0:0:
64,192,222178,1,0,0:0:0:0:
448,192,222178,1,0,0:0:0:0:
192,192,222278,1,0,0:0:0:0:
320,192,222378,1,0,0:0:0:0:
448,192,222378,1,0,0:0:0:0:
64,192,222478,1,0,0:0:0:0:
448,192,222578,1,0,0:0:0:0:
64,192,222678,1,0,0:0:0:0:
320,192,222678,1,0,0:0:0:0:
192,192,222778,1,0,0:0:0:0:
320,192,222878,1,0,0:0:0:0:
64,192,222978,1,0,0:0:0:0:
448,192,222978,1,0,0:0:0:0:
320,192,223078,1,0,0:0:0:0:
64,192,223178,1,0,0:0:0:0:
192,192,223178,1,0,0:0:0:0:
448,192,223178,1,0,0:0:0:0:
320,192,223278,1,0,0:0:0:0:
192,192,223378,1,0,0:0:0:0:
448,192,223478,1,0,0:0:0:0:
64,192,223578,1,0,0:0:0:0:
192,192,223578,1,0,0:0:0:0:
320,192,223678,1,0,0:0:0:0:
64,192,223778,1,0,0:0:0:0:
448,192,223778,1,0,0:0:0:0:
192,192,223878,1,0,0:0:0:0:
320,192,223978,1,0,0:0:0:0:
448,192,223978,1,0,0:0:0:0:
64,192,224078,1,0,0:0:0:0:
320,192,224178,1,0,0:0:0:0:
64,192,224278,1,0,0:0:0:0:
192,192,224278,1,0,0:0:0:0:
448,192,224378,1,0,0:0:0:0:
64,192,224478,1,0,0:0:0:0:
320,192,224478,1,0,0:0:0:0:
448,192,224578,1,0,0:0:0:0:
192,192,224678,1,0,0:0:0:0:
64,192,224678,1,0,0:0:0:0:
64,192,224778,1,0,0:0:0:0:
320,192,224778,1,0,0:0:0:0:
448,192,224778,1,0,0:0:0:0:
192,192,224878,1,0,0:0:0:0:
64,192,224978,1,0,0:0:0:0:
448,192,224978,1,0,0:0:0:0:
192,192,225078,1,0,0:0:0:0:
320,192,225178,1,0,0:0:0:0:
64,192,225278,1,0,0:0:0:0:
192,192,225378,1,0,0:0:0:0:
320,192,225378,1,0,0:0:0:0:
448,192,225478,1,0,0:0:0:0:
64,192,225578,1,0,0:0:0:0:
192,192,225578,1,0,0:0:0:0:
320,192,225678,1,0,0:0:0:0:
192,192,225778,1,0,0:0:0:0:
448,192,225778,1,0,0:0:0:0:
64,192,225878,1,0,0:0:0:0:
320,192,225978,1,0,0:0:0:0:
448,192,225978,1,0,0:0:0:0:
192,192,226078,1,0,0:0:0:0:
64,192,226178,1,0,0:0:0:0:
320,192,226178,1,0,0:0:0:0:
448,192,226278,1,0,0:0:0:0:
64,192,226378,1,0,0:0:0:0:
192,192,226378,1,0,0:0:0:0:
320,192,226478,1,0,0:0:0:0:
64,192,226578,1,0,0:0:0:0:
448,192,226578,1,0,0:0:0:0:
192,192,226678,1,0,0:0:0:0:
320,192,226678,1,0,0:0:0:0:
448,192,226778,1,0,0:0:0:0:
192,192,226878,1,0,0:0:0:0:
320,192,226978,1,0,0:0:0:0:
448,192,226978,1,0,0:0:0:0:
64,192,227078,1,0,0:0:0:0:
192,192,227178,1,0,0:0:0:0:
448,192,227178,1,0,0:0:0:0:
320,192,227278,1,0,0:0:0:0:
64,192,227378,1,0,0:0:0:0:
192,192,227378,1,0,0:0:0:0:
320,192,227478,1,0,0:0:0:0:
64,192,227578,1,0,0:0:0:0:
448,192,227578,1,0,0:0:0:0:
192,192,227678,1,0,0:0:0:0:
64,192,227778,1,0,0:0:0:0:
320,192,227778,1,0,0:0:0:0:
192,192,227878,1,0,0:0:0:0:
320,192,227978,1,0,0:0:0:0:
448,192,227978,1,0,0:0:0:0:
64,192,228078,1,0,0:0:0:0:
192,192,228178,1,0,0:0:0:0:
320,192,228178,1,0,0:0:0:0:
64,192,228278,1,0,0:0:0:0:
320,192,228378,1,0,0:0:0:0:
192,192,228478,1,0,0:0:0:0:
64,192,228578,1,0,0:0:0:0:
448,192,228578,1,0,0:0:0:0:
320,192,228678,1,0,0:0:0:0:
64,192,228778,1,0,0:0:0:0:
192,192,228778,1,0,0:0:0:0:
448,192,228878,1,0,0:0:0:0:
192,192,228978,1,0,0:0:0:0:
320,192,228978,1,0,0:0:0:0:
64,192,229078,1,0,0:0:0:0:
448,192,229078,1,0,0:0:0:0:
320,192,229178,1,0,0:0:0:0:
64,192,229278,1,0,0:0:0:0:
320,192,229378,1,0,0:0:0:0:
448,192,229378,1,0,0:0:0:0:
192,192,229478,1,0,0:0:0:0:
64,192,229578,1,0,0:0:0:0:
448,192,229578,1,0,0:0:0:0:
320,192,229678,1,0,0:0:0:0:
64,192,229778,1,0,0:0:0:0:
192,192,229778,1,0,0:0:0:0:
320,192,229878,1,0,0:0:0:0:
64,192,229978,1,0,0:0:0:0:
192,192,230078,1,0,0:0:0:0:
320,192,230178,1,0,0:0:0:0:
448,192,230178,1,0,0:0:0:0:
64,192,230278,1,0,0:0:0:0:
192,192,230378,1,0,0:0:0:0:
448,192,230378,1,0,0:0:0:0:
320,192,230478,1,0,0:0:0:0:
64,192,230578,1,0,0:0:0:0:
192,192,230578,1,0,0:0:0:0:
448,192,230678,1,0,0:0:0:0:
64,192,230778,1,0,0:0:0:0:
320,192,230778,1,0,0:0:0:0:
192,192,230878,1,0,0:0:0:0:
320,192,230978,1,0,0:0:0:0:
448,192,230978,1,0,0:0:0:0:
192,192,231078,1,0,0:0:0:0:
64,192,231178,1,0,0:0:0:0:
320,192,231178,1,0,0:0:0:0:
448,192,231178,1,0,0:0:0:0:
192,192,231278,1,0,0:0:0:0:
64,192,231378,1,0,0:0:0:0:
448,192,231378,1,0,0:0:0:0:
192,192,231478,1,0,0:0:0:0:
320,192,231578,1,0,0:0:0:0:
64,192,231678,1,0,0:0:0:0:
192,192,231778,1,0,0:0:0:0:
320,192,231778,1,0,0:0:0:0:
448,192,231878,1,0,0:0:0:0:
64,192,231978,1,0,0:0:0:0:
192,192,231978,1,0,0:0:0:0:
320,192,232078,1,0,0:0:0:0:
192,192,232178,1,0,0:0:0:0:
448,192,232178,1,0,0:0:0:0:
64,192,232278,1,0,0:0:0:0:
320,192,232378,1,0,0:0:0:0:
448,192,232378,1,0,0:0:0:0:
192,192,232478,1,0,0:0:0:0:
64,192,232578,1,0,0:0:0:0:
320,192,232578,1,0,0:0:0:0:
448,192,232678,1,0,0:0:0:0:
64,192,232778,1,0,0:0:0:0:
192,192,232778,1,0,0:0:0:0:
320,192,232878,1,0,0:0:0:0:
64,192,232978,1,0,0:0:0:0:
192,192,232978,1,0,0:0:0:0:
320,192,233078,1,0,0:0:0:0:
448,192,233078,1,0,0:0:0:0:
192,192,233178,1,0,0:0:0:0:
320,192,233278,1,0,0:0:0:0:
192,192,233378,1,0,0:0:0:0:
448,192,233378,1,0,0:0:0:0:
64,192,233478,1,0,0:0:0:0:
320,192,233578,1,0,0:0:0:0:
448,192,233578,1,0,0:0:0:0:
192,192,233678,1,0,0:0:0:0:
320,192,233778,1,0,0:0:0:0:
448,192,233778,1,0,0:0:0:0:
64,192,233878,1,0,0:0:0:0:
192,192,233878,1,0,0:0:0:0:
320,192,233978,1,0,0:0:0:0:
192,192,234078,1,0,0:0:0:0:
64,192,234178,1,0,0:0:0:0:
320,192,234178,1,0,0:0:0:0:
448,192,234278,1,0,0:0:0:0:
64,192,234378,1,0,0:0:0:0:
192,192,234378,1,0,0:0:0:0:
320,192,234478,1,0,0:0:0:0:
192,192,234578,1,0,0:0:0:0:
448,192,234578,1,0,0:0:0:0:
64,192,234678,1,0,0:0:0:0:
320,192,234678,1,0,0:0:0:0:
448,192,234778,1,0,0:0:0:0:
64,192,234878,1,0,0:0:0:0:
192,192,234978,1,0,0:0:0:0:
320,192,234978,1,0,0:0:0:0:
64,192,235078,1,0,0:0:0:0:
320,192,235178,1,0,0:0:0:0:
448,192,235178,1,0,0:0:0:0:
192,192,235278,1,0,0:0:0:0:
64,192,235378,1,0,0:0:0:0:
320,192,235378,1,0,0:0:0:0:
192,192,235478,1,0,0:0:0:0:
448,192,235478,1,0,0:0:0:0:
320,192,235578,1,0,0:0:0:0:
64,192,235678,1,0,0:0:0:0:
192,192,235778,1,0,0:0:0:0:
448,192,235778,1,0,0:0:0:0:
320,192,235878,1,0,0:0:0:0:
64,192,235978,1,0,0:0:0:0:
192,192,235978,1,0,0:0:0:0:
448,192,235978,1,0,0:0:0:0:
320,192,236078,1,0,0:0:0:0:
64,192,236178,1,0,0:0:0:0:
192,192,236278,1,0,0:0:0:0:
64,192,236378,1,0,0:0:0:0:
320,192,236378,1,0,0:0:0:0:
448,192,236378,1,0,0:0:0:0:
192,192,236478,1,0,0:0:0:0:
448,192,236578,1,0,0:0:0:0:
64,192,236678,1,0,0:0:0:0:
192,192,236778,1,0,0:0:0:0:
320,192,236778,1,0,0:0:0:0:
448,192,236778,1,0,0:0:0:0:
64,192,236878,1,0,0:0:0:0:
320,192,236978,1,0,0:0:0:0:
448,192,236978,1,0,0:0:0:0:
192,192,237078,1,0,0:0:0:0:
64,192,237178,1,0,0:0:0:0:
320,192,237178,1,0,0:0:0:0:
192,192,237278,1,0,0:0:0:0:
320,192,237378,1,0,0:0:0:0:
448,192,237378,1,0,0:0:0:0:
192,192,237478,1,0,0:0:0:0:
64,192,237578,1,0,0:0:0:0:
320,192,237578,1,0,0:0:0:0:
448,192,237578,1,0,0:0:0:0:
64,192,237778,1,0,0:0:0:0:
320,192,237778,1,0,0:0:0:0:
448,192,237778,1,0,0:0:0:0:
192,192,237978,1,0,0:0:0:0:
448,192,238078,1,0,0:0:0:0:
64,192,238178,1,0,0:0:0:0:
192,192,238178,1,0,0:0:0:0:
320,192,238278,1,0,0:0:0:0:
64,192,238378,1,0,0:0:0:0:
448,192,238378,1,0,0:0:0:0:
192,192,238478,1,0,0:0:0:0:
64,192,238578,1,0,0:0:0:0:
192,192,238678,1,0,0:0:0:0:
448,192,238678,1,0,0:0:0:0:
320,192,238778,1,0,0:0:0:0:
64,192,238878,1,0,0:0:0:0:
320,192,238978,1,0,0:0:0:0:
448,192,238978,1,0,0:0:0:0:
192,192,239078,1,0,0:0:0:0:
64,192,239178,1,0,0:0:0:0:
320,192,239178,1,0,0:0:0:0:
448,192,239278,1,0,0:0:0:0:
64,192,239378,1,0,0:0:0:0:
192,192,239478,1,0,0:0:0:0:
448,192,239478,1,0,0:0:0:0:
320,192,239578,1,0,0:0:0:0:
64,192,239678,1,0,0:0:0:0:
320,192,239778,1,0,0:0:0:0:
448,192,239778,1,0,0:0:0:0:
192,192,239878,1,0,0:0:0:0:
64,192,239978,1,0,0:0:0:0:
448,192,239978,1,0,0:0:0:0:
320,192,240078,1,0,0:0:0:0:
192,192,240178,1,0,0:0:0:0:
320,192,240278,1,0,0:0:0:0:
64,192,240378,1,0,0:0:0:0:
448,192,240378,1,0,0:0:0:0:
192,192,240478,1,0,0:0:0:0:
64,192,240578,1,0,0:0:0:0:
448,192,240578,1,0,0:0:0:0:
320,192,240678,1,0,0:0:0:0:
192,192,240778,1,0,0:0:0:0:
448,192,240778,1,0,0:0:0:0:
64,192,240878,1,0,0:0:0:0:
192,192,240978,1,0,0:0:0:0:
64,192,241078,1,0,0:0:0:0:
320,192,241078,1,0,0:0:0:0:
448,192,241178,1,0,0:0:0:0:
192,192,241278,1,0,0:0:0:0:
320,192,241378,1,0,0:0:0:0:
448,192,241378,1,0,0:0:0:0:
64,192,241478,1,0,0:0:0:0:
192,192,241578,1,0,0:0:0:0:
320,192,241578,1,0,0:0:0:0:
448,192,241678,1,0,0:0:0:0:
320,192,241778,1,0,0:0:0:0:
192,192,241878,1,0,0:0:0:0:
448,192,241878,1,0,0:0:0:0:
64,192,241978,1,0,0:0:0:0:
320,192,242078,1,0,0:0:0:0:
64,192,242178,1,0,0:0:0:0:
192,192,242178,1,0,0:0:0:0:
448,192,242278,1,0,0:0:0:0:
64,192,242378,1,0,0:0:0:0:
320,192,242378,1,0,0:0:0:0:
192,192,242478,1,0,0:0:0:0:
320,192,242578,1,0,0:0:0:0:
192,192,242678,1,0,0:0:0:0:
448,192,242678,1,0,0:0:0:0:
64,192,242778,1,0,0:0:0:0:
320,192,242878,1,0,0:0:0:0:
64,192,242978,1,0,0:0:0:0:
192,192,242978,1,0,0:0:0:0:
448,192,243078,1,0,0:0:0:0:
192,192,243178,1,0,0:0:0:0:
320,192,243178,1,0,0:0:0:0:
64,192,243278,1,0,0:0:0:0:
192,192,243378,1,0,0:0:0:0:
448,192,243378,1,0,0:0:0:0:
320,192,243478,1,0,0:0:0:0:
64,192,243578,1,0,0:0:0:0:
192,192,243678,1,0,0:0:0:0:
64,192,243778,1,0,0:0:0:0:
448,192,243778,1,0,0:0:0:0:
320,192,243878,1,0,0:0:0:0:
64,192,243978,1,0,0:0:0:0:
192,192,243978,1,0,0:0:0:0:
448,192,243978,1,0,0:0:0:0:
320,192,244078,1,0,0:0:0:0:
192,192,244178,1,0,0:0:0:0:
64,192,244278,1,0,0:0:0:0:
320,192,244278,1,0,0:0:0:0:
448,192,244378,1,0,0:0:0:0:
192,192,244478,1,0,0:0:0:0:
64,192,244578,1,0,0:0:0:0:
448,192,244578,1,0,0:0:0:0:
320,192,244678,1,0,0:0:0:0:
64,192,244778,1,0,0:0:0:0:
192,192,244778,1,0,0:0:0:0:
448,192,244878,1,0,0:0:0:0:
64,192,244978,1,0,0:0:0:0:
192,192,245078,1,0,0:0:0:0:
448,192,245078,1,0,0:0:0:0:
320,192,245178,1,0,0:0:0:0:
64,192,245278,1,0,0:0:0:0:
192,192,245378,1,0,0:0:0:0:
320,192,245378,1,0,0:0:0:0:
448,192,245478,1,0,0:0:0:0:
64,192,245578,1,0,0:0:0:0:
320,192,245578,1,0,0:0:0:0:
192,192,245678,1,0,0:0:0:0:
64,192,245778,1,0,0:0:0:0:
192,192,245878,1,0,0:0:0:0:
448,192,245878,1,0,0:0:0:0:
320,192,245978,1,0,0:0:0:0:
64,192,246078,1,0,0:0:0:0:
320,192,246178,1,0,0:0:0:0:
448,192,246178,1,0,0:0:0:0:
192,192,246278,1,0,0:0:0:0:
64,192,246378,1,0,0:0:0:0:
448,192,246378,1,0,0:0:0:0:
320,192,246478,1,0,0:0:0:0:
448,192,246578,1,0,0:0:0:0:
64,192,246678,1,0,0:0:0:0:
320,192,246678,1,0,0:0:0:0:
192,192,246778,1,0,0:0:0:0:
448,192,246878,1,0,0:0:0:0:
192,192,246978,1,0,0:0:0:0:
320,192,246978,1,0,0:0:0:0:
64,192,247078,1,0,0:0:0:0:
192,192,247178,1,0,0:0:0:0:
320,192,247178,1,0,0:0:0:0:
448,192,247178,1,0,0:0:0:0:
64,192,247278,1,0,0:0:0:0:
448,192,247378,1,0,0:0:0:0:
192,192,247478,1,0,0:0:0:0:
64,192,247578,1,0,0:0:0:0:
320,192,247578,1,0,0:0:0:0:
448,192,247578,1,0,0:0:0:0:
192,192,247678,1,0,0:0:0:0:
320,192,247778,1,0,0:0:0:0:
448,192,247878,1,0,0:0:0:0:
64,192,247978,1,0,0:0:0:0:
192,192,247978,1,0,0:0:0:0:
320,192,247978,1,0,0:0:0:0:
448,192,248078,1,0,0:0:0:0:
192,192,248178,1,0,0:0:0:0:
320,192,248278,1,0,0:0:0:0:
448,192,248278,1,0,0:0:0:0:
64,192,248378,1,0,0:0:0:0:
192,192,248378,1,0,0:0:0:0:
320,192,248478,1,0,0:0:0:0:
64,192,248578,1,0,0:0:0:0:
448,192,248578,1,0,0:0:0:0:
192,192,248678,1,0,0:0:0:0:
64,192,248778,1,0,0:0:0:0:
320,192,248778,1,0,0:0:0:0:
448,192,248778,1,0,0:0:0:0:
192,192,248978,1,0,0:0:0:0:
320,192,249078,1,0,0:0:0:0:
192,192,249178,1,0,0:0:0:0:
320,192,249278,1,0,0:0:0:0:
64,192,249378,1,0,0:0:0:0:
192,192,249378,1,0,0:0:0:0:
448,192,249378,1,0,0:0:0:0:
320,192,249578,1,0,0:0:0:0:
64,192,249578,1,0,0:0:0:0:
448,192,249678,1,0,0:0:0:0:
64,192,249778,1,0,0:0:0:0:
192,192,249778,1,0,0:0:0:0:
320,192,249878,1,0,0:0:0:0:
192,192,249978,1,0,0:0:0:0:
448,192,249978,1,0,0:0:0:0:
320,192,250078,1,0,0:0:0:0:
192,192,250178,1,0,0:0:0:0:
64,192,250178,1,0,0:0:0:0:
320,192,250278,1,0,0:0:0:0:
64,192,250378,1,0,0:0:0:0:
192,192,250378,1,0,0:0:0:0:
448,192,250378,1,0,0:0:0:0:
64,192,250578,1,0,0:0:0:0:
192,192,250578,1,0,0:0:0:0:
448,192,250578,1,0,0:0:0:0:
320,192,250778,1,0,0:0:0:0:
64,192,250844,1,0,0:0:0:0:
192,192,250911,1,0,0:0:0:0:
320,192,250978,1,0,0:0:0:0:
448,192,250978,1,0,0:0:0:0:
192,192,251078,1,0,0:0:0:0:
64,192,251178,1,0,0:0:0:0:
448,192,251178,1,0,0:0:0:0:
320,192,251278,1,0,0:0:0:0:
448,192,251378,1,0,0:0:0:0:
64,192,251478,1,0,0:0:0:0:
320,192,251478,1,0,0:0:0:0:
192,192,251578,1,0,0:0:0:0:
448,192,251678,1,0,0:0:0:0:
64,192,251778,1,0,0:0:0:0:
192,192,251778,1,0,0:0:0:0:
320,192,251878,1,0,0:0:0:0:
192,192,251978,1,0,0:0:0:0:
448,192,251978,1,0,0:0:0:0:
64,192,252078,1,0,0:0:0:0:
448,192,252178,1,0,0:0:0:0:
64,192,252278,1,0,0:0:0:0:
320,192,252278,1,0,0:0:0:0:
192,192,252378,1,0,0:0:0:0:
448,192,252478,1,0,0:0:0:0:
64,192,252578,1,0,0:0:0:0:
192,192,252578,1,0,0:0:0:0:
320,192,252678,1,0,0:0:0:0:
64,192,252778,1,0,0:0:0:0:
448,192,252778,1,0,0:0:0:0:
192,192,252878,1,0,0:0:0:0:
320,192,252978,1,0,0:0:0:0:
192,192,253078,1,0,0:0:0:0:
64,192,253178,1,0,0:0:0:0:
448,192,253178,1,0,0:0:0:0:
320,192,253278,1,0,0:0:0:0:
64,192,253378,1,0,0:0:0:0:
448,192,253378,1,0,0:0:0:0:
192,192,253478,1,0,0:0:0:0:
64,192,253578,1,0,0:0:0:0:
320,192,253578,1,0,0:0:0:0:
448,192,253678,1,0,0:0:0:0:
320,192,253778,1,0,0:0:0:0:
192,192,253878,1,0,0:0:0:0:
448,192,253878,1,0,0:0:0:0:
64,192,253978,1,0,0:0:0:0:
320,192,254078,1,0,0:0:0:0:
64,192,254178,1,0,0:0:0:0:
192,192,254178,1,0,0:0:0:0:
448,192,254278,1,0,0:0:0:0:
192,192,254378,1,0,0:0:0:0:
320,192,254378,1,0,0:0:0:0:
64,192,254478,1,0,0:0:0:0:
192,192,254578,1,0,0:0:0:0:
64,192,254678,1,0,0:0:0:0:
320,192,254678,1,0,0:0:0:0:
448,192,254778,1,0,0:0:0:0:
192,192,254878,1,0,0:0:0:0:
320,192,254978,1,0,0:0:0:0:
448,192,254978,1,0,0:0:0:0:
64,192,255078,1,0,0:0:0:0:
192,192,255178,1,0,0:0:0:0:
448,192,255178,1,0,0:0:0:0:
320,192,255278,1,0,0:0:0:0:
192,192,255378,1,0,0:0:0:0:
64,192,255478,1,0,0:0:0:0:
320,192,255478,1,0,0:0:0:0:
448,192,255578,1,0,0:0:0:0:
192,192,255678,1,0,0:0:0:0:
320,192,255778,1,0,0:0:0:0:
448,192,255778,1,0,0:0:0:0:
64,192,255878,1,0,0:0:0:0:
192,192,255978,1,0,0:0:0:0:
320,192,255978,1,0,0:0:0:0:
448,192,256078,1,0,0:0:0:0:
64,192,256178,1,0,0:0:0:0:
192,192,256178,1,0,0:0:0:0:
320,192,256178,1,0,0:0:0:0:
448,192,256278,1,0,0:0:0:0:
64,192,256378,1,0,0:0:0:0:
320,192,256444,1,0,0:0:0:0:
192,192,256511,1,0,0:0:0:0:
64,192,256578,1,0,0:0:0:0:
320,192,256578,1,0,0:0:0:0:
448,192,256578,1,0,0:0:0:0:
64,192,256778,1,0,0:0:0:0:
320,192,256778,1,0,0:0:0:0:
448,192,256778,1,0,0:0:0:0:
192,192,256878,1,0,0:0:0:0:
320,192,256978,1,0,0:0:0:0:
192,192,257078,1,0,0:0:0:0:
448,192,257078,1,0,0:0:0:0:
64,192,257178,1,0,0:0:0:0:
320,192,257244,1,0,0:0:0:0:
448,192,257311,1,0,0:0:0:0:
64,192,257378,1,0,0:0:0:0:
192,192,257378,1,0,0:0:0:0:
320,192,257478,1,0,0:0:0:0:
192,192,257578,1,0,0:0:0:0:
448,192,257578,1,0,0:0:0:0:
64,192,257678,1,0,0:0:0:0:
448,192,257778,1,0,0:0:0:0:
64,192,257878,1,0,0:0:0:0:
320,192,257878,1,0,0:0:0:0:
192,192,257978,1,0,0:0:0:0:
448,192,258078,1,0,0:0:0:0:
192,192,258178,1,0,0:0:0:0:
320,192,258178,1,0,0:0:0:0:
64,192,258278,1,0,0:0:0:0:
192,192,258378,1,0,0:0:0:0:
448,192,258378,1,0,0:0:0:0:
320,192,258478,1,0,0:0:0:0:
448,192,258578,1,0,0:0:0:0:
64,192,258678,1,0,0:0:0:0:
320,192,258678,1,0,0:0:0:0:
192,192,258778,1,0,0:0:0:0:
448,192,258878,1,0,0:0:0:0:
64,192,258978,1,0,0:0:0:0:
192,192,258978,1,0,0:0:0:0:
320,192,259078,1,0,0:0:0:0:
192,192,259178,1,0,0:0:0:0:
448,192,259178,1,0,0:0:0:0:
64,192,259278,1,0,0:0:0:0:
448,192,259378,1,0,0:0:0:0:
64,192,259478,1,0,0:0:0:0:
192,192,259578,1,0,0:0:0:0:
320,192,259578,1,0,0:0:0:0:
448,192,259678,1,0,0:0:0:0:
320,192,259778,1,0,0:0:0:0:
192,192,259878,1,0,0:0:0:0:
64,192,259978,1,0,0:0:0:0:
320,192,259978,1,0,0:0:0:0:
448,192,259978,1,0,0:0:0:0:
192,192,260078,1,0,0:0:0:0:
448,192,260178,1,0,0:0:0:0:
320,192,260278,1,0,0:0:0:0:
64,192,260378,1,0,0:0:0:0:
192,192,260444,1,0,0:0:0:0:
448,192,260511,1,0,0:0:0:0:
64,192,260578,1,0,0:0:0:0:
192,192,260578,1,0,0:0:0:0:
320,192,260578,1,0,0:0:0:0:
64,192,260778,1,0,0:0:0:0:
320,192,260778,1,0,0:0:0:0:
448,192,260778,1,0,0:0:0:0:
192,192,260878,1,0,0:0:0:0:
448,192,260978,1,0,0:0:0:0:
320,192,260978,1,0,0:0:0:0:
64,192,261078,1,0,0:0:0:0:
192,192,261178,1,0,0:0:0:0:
448,192,261178,1,0,0:0:0:0:
64,192,261278,1,0,0:0:0:0:
320,192,261378,1,0,0:0:0:0:
448,192,261378,1,0,0:0:0:0:
192,192,261478,1,0,0:0:0:0:
64,192,261578,1,0,0:0:0:0:
448,192,261578,1,0,0:0:0:0:
320,192,261578,1,0,0:0:0:0:
64,192,261778,1,0,0:0:0:0:
192,192,261778,1,0,0:0:0:0:
320,192,261778,1,0,0:0:0:0:
448,192,261878,1,0,0:0:0:0:
320,192,261978,1,0,0:0:0:0:
64,192,262078,1,0,0:0:0:0:
192,192,262178,1,0,0:0:0:0:
448,192,262178,1,0,0:0:0:0:
320,192,262278,1,0,0:0:0:0:
64,192,262378,1,0,0:0:0:0:
192,192,262378,1,0,0:0:0:0:
448,192,262478,1,0,0:0:0:0:
64,192,262578,1,0,0:0:0:0:
320,192,262578,1,0,0:0:0:0:
192,192,262678,1,0,0:0:0:0:
64,192,262778,1,0,0:0:0:0:
448,192,262778,1,0,0:0:0:0:
320,192,262878,1,0,0:0:0:0:
192,192,262978,1,0,0:0:0:0:
448,192,262978,1,0,0:0:0:0:
64,192,263078,1,0,0:0:0:0:
320,192,263178,1,0,0:0:0:0:
448,192,263178,1,0,0:0:0:0:
192,192,263278,1,0,0:0:0:0:
64,192,263378,1,0,0:0:0:0:
320,192,263378,1,0,0:0:0:0:
192,192,263478,1,0,0:0:0:0:
320,192,263578,1,0,0:0:0:0:
192,192,263678,1,0,0:0:0:0:
64,192,263778,1,0,0:0:0:0:
320,192,263778,1,0,0:0:0:0:
192,192,263878,1,0,0:0:0:0:
320,192,263978,1,0,0:0:0:0:
448,192,263978,1,0,0:0:0:0:
64,192,264078,1,0,0:0:0:0:
192,192,264178,1,0,0:0:0:0:
448,192,264178,1,0,0:0:0:0:
64,192,264278,1,0,0:0:0:0:
320,192,264378,1,0,0:0:0:0:
448,192,264378,1,0,0:0:0:0:
192,192,264478,1,0,0:0:0:0:
64,192,264578,1,0,0:0:0:0:
448,192,264578,1,0,0:0:0:0:
192,192,264678,1,0,0:0:0:0:
64,192,264778,1,0,0:0:0:0:
320,192,264778,1,0,0:0:0:0:
448,192,264778,1,0,0:0:0:0:
192,192,264978,1,0,0:0:0:0:
320,192,264978,1,0,0:0:0:0:
448,192,264978,1,0,0:0:0:0:
64,192,265078,1,0,0:0:0:0:
192,192,265178,1,0,0:0:0:0:
448,192,265278,1,0,0:0:0:0:
64,192,265378,1,0,0:0:0:0:
320,192,265378,1,0,0:0:0:0:
192,192,265478,1,0,0:0:0:0:
320,192,265578,1,0,0:0:0:0:
448,192,265578,1,0,0:0:0:0:
64,192,265678,1,0,0:0:0:0:
192,192,265778,1,0,0:0:0:0:
448,192,265778,1,0,0:0:0:0:
320,192,265878,1,0,0:0:0:0:
64,192,265978,1,0,0:0:0:0:
448,192,265978,1,0,0:0:0:0:
192,192,266078,1,0,0:0:0:0:
64,192,266178,1,0,0:0:0:0:
320,192,266178,1,0,0:0:0:0:
448,192,266278,1,0,0:0:0:0:
64,192,266378,1,0,0:0:0:0:
192,192,266378,1,0,0:0:0:0:
320,192,266478,1,0,0:0:0:0:
192,192,266578,1,0,0:0:0:0:
448,192,266578,1,0,0:0:0:0:
320,192,266678,1,0,0:0:0:0:
192,192,266778,1,0,0:0:0:0:
320,192,266878,1,0,0:0:0:0:
192,192,266978,1,0,0:0:0:0:
448,192,266978,1,0,0:0:0:0:
320,192,267078,1,0,0:0:0:0:
64,192,267178,1,0,0:0:0:0:
192,192,267178,1,0,0:0:0:0:
448,192,267278,1,0,0:0:0:0:
64,192,267378,1,0,0:0:0:0:
320,192,267378,1,0,0:0:0:0:
448,192,267478,1,0,0:0:0:0:
64,192,267578,1,0,0:0:0:0:
192,192,267578,1,0,0:0:0:0:
320,192,267678,1,0,0:0:0:0:
64,192,267778,1,0,0:0:0:0:
448,192,267778,1,0,0:0:0:0:
192,192,267878,1,0,0:0:0:0:
64,192,267978,1,0,0:0:0:0:
320,192,267978,1,0,0:0:0:0:
448,192,267978,1,0,0:0:0:0:
192,192,268078,1,0,0:0:0:0:
320,192,268178,1,0,0:0:0:0:
448,192,268178,1,0,0:0:0:0:
64,192,268278,1,0,0:0:0:0:
320,192,268378,1,0,0:0:0:0:
448,192,268478,1,0,0:0:0:0:
64,192,268578,1,0,0:0:0:0:
192,192,268578,1,0,0:0:0:0:
320,192,268678,1,0,0:0:0:0:
64,192,268778,1,0,0:0:0:0:
192,192,268778,1,0,0:0:0:0:
448,192,268778,1,0,0:0:0:0:
320,192,268878,1,0,0:0:0:0:
448,192,268978,1,0,0:0:0:0:
192,192,269078,1,0,0:0:0:0:
64,192,269178,1,0,0:0:0:0:
320,192,269178,1,0,0:0:0:0:
448,192,269278,1,0,0:0:0:0:
192,192,269378,1,0,0:0:0:0:
320,192,269378,1,0,0:0:0:0:
64,192,269478,1,0,0:0:0:0:
192,192,269578,1,0,0:0:0:0:
320,192,269578,1,0,0:0:0:0:
448,192,269578,1,0,0:0:0:0:
64,192,269678,1,0,0:0:0:0:
320,192,269778,1,0,0:0:0:0:
448,192,269778,1,0,0:0:0:0:
192,192,269878,1,0,0:0:0:0:
448,192,269978,1,0,0:0:0:0:
320,192,270078,1,0,0:0:0:0:
64,192,270178,1,0,0:0:0:0:
192,192,270178,1,0,0:0:0:0:
448,192,270278,1,0,0:0:0:0:
64,192,270378,1,0,0:0:0:0:
192,192,270378,1,0,0:0:0:0:
320,192,270378,1,0,0:0:0:0:
448,192,270478,1,0,0:0:0:0:
320,192,270578,1,0,0:0:0:0:
64,192,270678,1,0,0:0:0:0:
192,192,270778,1,0,0:0:0:0:
448,192,270778,1,0,0:0:0:0:
64,192,270878,1,0,0:0:0:0:
320,192,270978,1,0,0:0:0:0:
448,192,270978,1,0,0:0:0:0:
192,192,271078,1,0,0:0:0:0:
64,192,271178,1,0,0:0:0:0:
320,192,271178,1,0,0:0:0:0:
448,192,271178,1,0,0:0:0:0:
192,192,271278,1,0,0:0:0:0:
64,192,271378,1,0,0:0:0:0:
320,192,271378,1,0,0:0:0:0:
448,192,271478,1,0,0:0:0:0:
64,192,271578,1,0,0:0:0:0:
192,192,271578,1,0,0:0:0:0:
320,192,271678,1,0,0:0:0:0:
64,192,271778,1,0,0:0:0:0:
192,192,271778,1,0,0:0:0:0:
448,192,271778,1,0,0:0:0:0:
320,192,271878,1,0,0:0:0:0:
192,192,271978,1,0,0:0:0:0:
448,192,271978,1,0,0:0:0:0:
64,192,272078,1,0,0:0:0:0:
320,192,272178,1,0,0:0:0:0:
448,192,272178,1,0,0:0:0:0:
192,192,272278,1,0,0:0:0:0:
64,192,272378,1,0,0:0:0:0:
320,192,272378,1,0,0:0:0:0:
448,192,272378,1,0,0:0:0:0:
192,192,272478,1,0,0:0:0:0:
320,192,272578,1,0,0:0:0:0:
448,192,272578,1,0,0:0:0:0:
64,192,272678,1,0,0:0:0:0:
320,192,272778,1,0,0:0:0:0:
448,192,272778,1,0,0:0:0:0:
192,192,272778,128,0,272878:0:0:0:0:
64,192,272878,128,0,272978:0:0:0:0:
320,192,272978,128,0,273078:0:0:0:0:
448,192,273078,128,0,273178:0:0:0:0:
320,192,273178,128,0,273278:0:0:0:0:
192,192,273278,128,0,273378:0:0:0:0:
448,192,273378,128,0,273478:0:0:0:0:
64,192,273478,128,0,273578:0:0:0:0:
448,192,273578,128,0,273678:0:0:0:0:
320,192,273678,128,0,273778:0:0:0:0:
64,192,273778,1,0,0:0:0:0:
192,192,273828,1,0,0:0:0:0:
448,192,273878,1,0,0:0:0:0:
64,192,273978,1,0,0:0:0:0:
320,192,273978,1,0,0:0:0:0:
64,192,274378,128,0,276178:0:0:0:0:
192,192,274378,128,0,276178:0:0:0:0:
320,192,274378,128,0,276178:0:0:0:0:
448,192,274378,128,0,276178:0:0:0:0:
