osu file format v14

[General]
AudioFilename: audio.mp3
AudioLeadIn: 0
PreviewTime: 68735
Countdown: 0
SampleSet: Soft
StackLeniency: 0.7
Mode: 2
LetterboxInBreaks: 0
WidescreenStoryboard: 1

[Editor]
Bookmarks: 597,18469,28682,49107,69413,90013,106463
DistanceSpacing: 1
BeatDivisor: 4
GridSize: 4
TimelineZoom: 1

[Metadata]
Title:Inevitable Struggle -demo version-
TitleUnicode:Inevitable Struggle -demo version-
Artist:Falcom Sound Team jdk
ArtistUnicode:Falcom Sound Team jdk
Creator:Nelly
Version:Rain
Source:英雄伝説 零の軌跡
Tags:J.D.K. 碧の軌跡 legend of heroes zero ao no kiseki trails of to azure blue rpg game boss theme Video Game Rock Instrumental Super Arrange Bonus Track
BeatmapID:3347292
BeatmapSetID:1639983

[Difficulty]
HPDrainRate:6
CircleSize:4
OverallDifficulty:9
ApproachRate:9
SliderMultiplier:2
SliderTickRate:2

[Events]
//Background and Video events
0,0,"bg.jpg",0,0
//Break Periods
//Storyboard Layer 0 (Background)
//Storyboard Layer 1 (Fail)
//Storyboard Layer 2 (Pass)
//Storyboard Layer 3 (Foreground)
//Storyboard Layer 4 (Overlay)
//Storyboard Sound Samples

[TimingPoints]
597,319.148936170213,4,2,1,40,1,0
3150,-111.111111111111,4,2,1,40,0,0
4107,-100,4,2,1,40,0,0
4426,-111.111111111111,4,2,1,40,0,0
5703,-100,4,2,1,40,0,0
13362,-111.111111111111,4,2,1,40,0,0
14320,-100,4,2,1,40,0,0
14639,-111.111111111111,4,2,1,40,0,0
15916,-100,4,2,1,40,0,0
18469,-100,4,2,1,55,0,1
18549,-100,4,2,1,55,0,0
28682,-100,4,2,1,55,0,1
28761,-100,4,2,1,55,0,0
33788,-100,4,2,1,65,0,0
38894,-100,4,2,1,55,0,1
38974,-100,4,2,1,55,0,0
44001,-100,4,2,1,65,0,0
49107,-100,4,2,1,65,0,1
49187,-100,4,2,1,65,0,0
54214,-100,4,2,1,65,0,1
54293,-100,4,2,1,65,0,0
59320,-100,4,2,1,65,0,1
59400,-100,4,2,1,65,0,0
64426,-100,4,2,1,65,0,1
64506,-100,4,2,1,65,0,0
66979,-100,4,2,1,70,0,0
68894,-100,4,2,1,75,0,0
69413,319.403779611392,4,2,1,75,1,1
69572,319.403779611392,4,2,1,75,1,1
78834,-100,4,2,1,75,0,0
79633,-100,4,2,1,75,0,1
89534,-100,4,1,2,75,0,1
89694,-100,4,2,1,75,0,1
90013,-100,4,2,1,75,0,0
92569,-100,4,2,1,75,0,1
95124,-100,4,2,1,55,0,0
105345,-100,4,2,1,75,0,1
105984,-100,4,1,2,75,0,1
106303,-100,4,1,2,75,0,0
106463,-100,4,2,1,75,0,1
106542,-100,4,2,1,75,0,0

[Colours]
Combo1 : 69,118,218
Combo2 : 151,183,249

[HitObjects]
147,152,597,6,0,L|133:257,2,100,6|2|2,0:0|0:0|0:0,0:0:0:0:
306,306,1075,2,0,L|310:107,1,200,2|2,0:0|0:0,0:0:0:0:
210,238,1554,2,0,L|207:137,1,100,2|2,0:0|0:0,0:0:0:0:
367,81,1873,5,2,0:0:0:0:
207,94,2192,1,2,0:0:0:0:
367,81,2511,1,2,0:0:0:0:
207,94,2831,1,2,0:0:0:0:
367,351,3150,6,0,P|382:334|232:25,1,449.99998626709,2|0,0:0|0:0,0:0:0:0:
131,26,4107,2,0,L|124:131,1,100,2|0,0:0|0:0,0:0:0:0:
278,380,4426,6,0,P|319:370|278:12,1,539.999983520508,2|0,0:0|0:0,0:0:0:0:
111,14,5703,6,0,L|97:119,2,100,2|2|2,0:0|0:0|0:0,0:0:0:0:
271,16,6182,2,0,L|275:215,1,200,2|2,0:0|0:0,0:0:0:0:
375,99,6660,2,0,L|377:200,1,100,2|2,0:0|0:0,0:0:0:0:
219,276,6979,5,2,0:0:0:0:
58,267,7299,1,2,0:0:0:0:
219,276,7618,1,2,0:0:0:0:
58,267,7937,1,2,0:0:0:0:
219,377,8256,6,0,P|257:367|219:34,1,500,2|2,0:0|0:0,0:0:0:0:
117,31,9214,1,2,0:0:0:0:
276,32,9373,6,0,P|353:39|408:303,1,400,2|0,0:0|0:0,0:0:0:0:
228,329,10331,2,0,L|214:229,2,100
447,271,10809,6,0,L|460:171,2,100,6|2|2,0:0|0:0|0:0,0:0:0:0:
287,314,11288,2,0,L|283:115,1,200,2|2,0:0|0:0,0:0:0:0:
183,231,11767,2,0,L|181:130,1,100,2|2,0:0|0:0,0:0:0:0:
341,89,12086,5,2,0:0:0:0:
502,98,12405,1,2,0:0:0:0:
341,89,12724,1,2,0:0:0:0:
502,98,13043,1,2,0:0:0:0:
341,34,13362,6,0,P|204:187|340:342,1,449.99998626709,2|0,0:0|0:0,0:0:0:0:
441,342,14320,2,0,L|444:242,1,100,2|0,0:0|0:0,0:0:0:0:
300,1,14639,6,0,P|238:8|166:386,1,539.999983520508,2|2,0:0|0:0,0:0:0:0:
255,382,15756,1,2,0:0:0:0:
415,368,15916,6,0,L|420:167,1,200,2|0,0:0|0:0,0:0:0:0:
340,149,16394,1,0,0:0:0:0:
180,139,16554,1,2,0:0:0:0:
100,147,16714,1,2,0:0:0:0:
180,139,16873,1,2,0:0:0:0:
340,122,17033,1,2,0:0:0:0:
132,359,17511,6,0,L|129:259,1,100,2|0,0:0|0:0,0:0:0:0:
230,309,17831,2,0,L|233:209,1,100,2|0,0:0|0:0,0:0:0:0:
333,281,18150,2,0,L|336:181,1,100,2|0,0:0|0:0,0:0:0:0:
115,132,18469,6,0,L|15:127,1,100,6|8,3:2|3:0,0:0:0:0:
256,325,18788,2,0,P|291:315|256:201,1,200,8|0,0:0|0:0,0:0:0:0:
152,116,19267,1,0,0:0:0:0:
252,105,19426,1,8,0:0:0:0:
412,87,19586,5,8,3:0:0:0:
415,237,19905,1,8,3:0:0:0:
174,322,20065,2,0,P|139:312|174:198,1,200,8|0,0:0|0:0,0:0:0:0:
277,187,20543,1,2,0:0:0:0:
271,87,20703,1,10,0:0:0:0:
171,71,20862,1,2,0:0:0:0:
412,213,21022,6,0,L|415:112,1,100,8|8,3:0|3:0,0:0:0:0:
174,89,21341,2,0,P|107:149|171:212,1,200,8|0,0:0|0:0,0:0:0:0:
269,303,21820,1,0,0:0:0:0:
169,292,21979,1,8,0:0:0:0:
410,243,22139,6,0,P|472:179|405:119,1,200,8|0,3:0|0:0,0:0:0:0:
284,119,22618,2,0,L|281:218,1,100,8|0,0:0|0:0,0:0:0:0:
180,182,22937,2,0,L|177:281,1,100
419,343,23256,1,8,0:0:0:0:
422,232,23575,6,0,L|320:227,1,100,8|8,3:0|3:0,0:0:0:0:
79,208,23894,2,0,P|17:144|84:84,1,200,8|0,0:0|0:0,0:0:0:0:
205,84,24373,2,0,L|208:183,1,100,0|8,0:0|0:0,0:0:0:0:
368,213,24692,5,8,3:0:0:0:
372,319,25011,1,8,3:0:0:0:
131,338,25171,2,0,P|69:274|136:214,1,200,8|0,0:0|0:0,0:0:0:0:
236,133,25650,1,0,0:0:0:0:
136,127,25809,1,8,0:0:0:0:
236,133,25969,1,0,0:0:0:0:
475,144,26128,6,0,L|478:243,1,100,8|8,3:0|3:0,0:0:0:0:
236,341,26448,2,0,L|437:337,1,200,8|0,0:0|0:0,0:0:0:0:
336,252,26926,2,0,L|333:153,1,100,0|8,0:0|0:0,0:0:0:0:
92,211,27245,6,0,P|73:174|165:76,1,200,4|0,0:0|0:0,0:0:0:0:
285,77,27724,1,8,0:0:0:0:
43,364,27884,2,0,L|36:163,1,200,4|0,0:0|0:0,0:0:0:0:
156,251,28362,2,0,L|159:152,1,100,8|0,0:0|0:0,0:0:0:0:
401,92,28682,6,0,L|501:89,2,100,6|2|10,0:0|0:0|0:0,0:0:0:0:
242,326,29160,2,0,L|236:125,1,200,2|0,0:0|0:0,0:0:0:0:
396,228,29639,2,0,L|399:129,1,100,10|0,0:0|0:0,0:0:0:0:
299,103,29958,6,0,L|296:202,1,100,2|0,0:0|0:0,0:0:0:0:
136,131,30277,2,0,L|133:230,1,100,10|0,0:0|0:0,0:0:0:0:
235,182,30597,2,0,L|238:281,1,100,2|0,0:0|0:0,0:0:0:0:
398,218,30916,2,0,L|401:317,1,100,10|0,0:0|0:0,0:0:0:0:
301,349,31235,6,0,L|295:148,1,200,2|8,0:0|0:0,0:0:0:0:
195,58,31714,2,0,L|396:52,1,200
235,146,32192,2,0,L|134:142,1,100,10|0,0:0|0:0,0:0:0:0:
295,242,32511,6,0,L|395:238,2,100,2|0|8,0:0|0:0|0:0,0:0:0:0:
455,347,32990,2,0,L|461:146,1,200,2|0,0:0|0:0,0:0:0:0:
301,259,33469,2,0,L|298:160,1,100,8|0,0:0|0:0,0:0:0:0:
57,247,33788,6,0,P|43:208|143:114,1,200,6|8,0:0|0:0,0:0:0:0:
303,128,34267,2,0,L|306:227,1,100,2|0,0:0|0:0,0:0:0:0:
186,191,34586,2,0,L|183:290,1,100,2|8,0:0|0:0,0:0:0:0:
424,351,34905,6,0,P|459:341|424:227,1,200,6|0,0:0|0:0,0:0:0:0:
261,224,35384,2,0,L|258:125,1,100,10|0,0:0|0:0,0:0:0:0:
378,183,35703,2,0,L|381:84,1,100,2|0,0:0|0:0,0:0:0:0:
221,39,36022,2,0,L|122:36,1,100,10|0,0:0|0:0,0:0:0:0:
362,351,36341,6,0,P|397:341|362:227,1,200,6|8,0:0|0:0,0:0:0:0:
199,150,36820,2,0,L|298:147,1,100,2|0,0:0|0:0,0:0:0:0:
419,56,37139,2,0,L|320:53,1,100,2|8,0:0|0:0,0:0:0:0:
78,131,37458,6,0,P|64:170|164:264,1,200,6|0,0:0|0:0,0:0:0:0:
324,251,37937,2,0,L|327:152,1,100,10|0,0:0|0:0,0:0:0:0:
227,80,38256,1,2,0:0:0:0:
327,70,38416,1,0,0:0:0:0:
88,137,38575,2,0,L|85:236,1,100,10|0,0:0|0:0,0:0:0:0:
326,323,38894,6,0,L|427:320,2,100,6|2|10,0:0|0:0|0:0,0:0:0:0:
166,325,39373,2,0,L|160:124,1,200,2|0,0:0|0:0,0:0:0:0:
320,229,39852,2,0,L|323:130,1,100,10|0,0:0|0:0,0:0:0:0:
223,202,40171,6,0,L|220:103,1,100,2|0,0:0|0:0,0:0:0:0:
60,88,40490,2,0,L|57:187,1,100,10|0,0:0|0:0,0:0:0:0:
156,277,40809,1,2,0:0:0:0:
56,267,40969,1,0,0:0:0:0:
215,202,41128,2,0,L|218:103,1,100,10|0,0:0|0:0,0:0:0:0:
319,83,41448,6,0,L|322:182,1,100,2|0,0:0|0:0,0:0:0:0:
162,310,41767,2,0,L|149:210,2,100,8|0|0,0:0|0:0|0:0,0:0:0:0:
321,324,42245,2,0,L|324:225,1,100,0|10,0:0|0:0,0:0:0:0:
223,195,42565,1,0,0:0:0:0:
382,135,42724,6,0,L|485:129,2,100,2|0|8,0:0|0:0|0:0,0:0:0:0:
222,339,43203,2,0,L|216:138,1,200,2|0,0:0|0:0,0:0:0:0:
116,285,43682,2,0,L|113:186,1,100,8|0,0:0|0:0,0:0:0:0:
354,129,44001,6,0,P|420:189|356:252,1,200,6|8,0:0|0:0,0:0:0:0:
116,285,44479,2,0,L|113:186,1,100,2|0,0:0|0:0,0:0:0:0:
234,125,44799,1,2,0:0:0:0:
114,118,44958,1,8,0:0:0:0:
355,51,45118,6,0,P|421:111|357:174,1,200,6|0,0:0|0:0,0:0:0:0:
117,185,45597,2,0,L|114:284,1,100,10|0,0:0|0:0,0:0:0:0:
234,343,45916,2,0,L|333:340,1,100,2|0,0:0|0:0,0:0:0:0:
214,256,46235,2,0,L|115:253,1,100,10|0,0:0|0:0,0:0:0:0:
355,189,46554,6,0,P|418:126|352:65,1,200,6|8,0:0|0:0,0:0:0:0:
112,69,47033,2,0,L|13:72,1,100,2|8,0:0|0:0,0:0:0:0:
253,174,47352,2,0,L|154:171,2,100,2|10|2,0:0|0:0|0:0,0:0:0:0:
12,363,47831,6,0,L|6:159,1,200,6|0,0:0|0:0,0:0:0:0:
166,329,48309,2,0,L|172:125,1,200,4|0,0:0|0:0,0:0:0:0:
413,224,48788,2,0,L|416:125,1,100,4|0,0:0|0:0,0:0:0:0:
175,66,49107,6,0,L|75:62,1,100,4|0,0:0|0:0,0:0:0:0:
236,254,49426,2,0,L|239:152,1,100,10|0,0:0|0:0,0:0:0:0:
139,88,49745,1,2,0:0:0:0:
239,79,49905,1,0,0:0:0:0:
79,181,50065,2,0,L|76:280,1,100,10|0,0:0|0:0,0:0:0:0:
317,358,50384,6,0,P|380:295|314:234,1,200,2|10,0:0|0:0,0:0:0:0:
213,229,50862,2,0,P|150:166|216:105,1,200,2|2,0:0|0:0,0:0:0:0:
377,110,51341,2,0,L|379:209,1,100,8|2,0:0|0:0,0:0:0:0:
138,336,51660,5,2,0:0:0:0:
238,325,51820,1,0,0:0:0:0:
238,208,51979,1,8,0:0:0:0:
138,197,52139,1,0,0:0:0:0:
379,209,52299,2,0,P|393:169|293:75,1,200,2|8,0:0|0:0,0:0:0:0:
174,78,52777,1,0,0:0:0:0:
415,371,52937,6,0,L|421:167,1,200,2|8,0:0|0:0,0:0:0:0:
260,320,53416,2,0,L|254:116,1,200,2|0,0:0|0:0,0:0:0:0:
15,222,53894,2,0,L|13:123,1,100,8|0,0:0|0:0,0:0:0:0:
255,56,54214,6,0,L|354:53,1,100,4|0,0:0|0:0,0:0:0:0:
195,146,54533,2,0,L|193:245,1,100,10|0,0:0|0:0,0:0:0:0:
292,337,54852,1,2,0:0:0:0:
192,326,55011,1,0,0:0:0:0:
351,243,55171,2,0,L|450:240,1,100,10|0,0:0|0:0,0:0:0:0:
210,217,55490,6,0,L|208:118,1,100,2|0,0:0|0:0,0:0:0:0:
368,154,55809,2,0,L|370:55,1,100,10|0,0:0|0:0,0:0:0:0:
270,132,56128,2,0,L|268:33,1,100,2|0,0:0|0:0,0:0:0:0:
107,117,56448,2,0,L|105:18,1,100,10|0,0:0|0:0,0:0:0:0:
346,3,56767,6,0,L|445:6,2,100,2|0|8,0:0|0:0|0:0,0:0:0:0:
187,280,57245,2,0,L|181:76,1,200,2|0,0:0|0:0,0:0:0:0:
342,215,57724,2,0,L|344:116,1,100,10|0,0:0|0:0,0:0:0:0:
103,82,58043,6,0,P|36:142|99:205,1,200,2|8,0:0|0:0,0:0:0:0:
200,206,58522,1,0,0:0:0:0:
360,204,58682,2,0,L|362:105,1,100,2|0,0:0|0:0,0:0:0:0:
121,347,59001,2,0,L|119:248,1,100,8|0,0:0|0:0,0:0:0:0:
361,81,59320,6,0,L|460:79,1,100,4|0,0:0|0:0,0:0:0:0:
301,162,59639,2,0,L|299:261,1,100,10|0,0:0|0:0,0:0:0:0:
399,328,59958,1,2,0:0:0:0:
298,320,60118,1,0,0:0:0:0:
457,260,60277,2,0,L|459:161,1,100,10|0,0:0|0:0,0:0:0:0:
217,86,60597,6,0,P|150:146|213:209,1,200,2|10,0:0|0:0,0:0:0:0:
312,303,61075,2,0,L|109:300,1,200,2|2,0:0|0:0,0:0:0:0:
272,210,61554,2,0,L|371:208,1,100,8|2,0:0|0:0,0:0:0:0:
131,196,61873,6,0,P|69:132|136:72,1,200,2|8,0:0|0:0,0:0:0:0:
256,72,62352,1,0,0:0:0:0:
15,365,62511,2,0,L|13:266,1,100,2|0,0:0|0:0,0:0:0:0:
134,309,62831,2,0,L|136:210,1,100,8|0,0:0|0:0,0:0:0:0:
377,209,63150,6,0,P|439:145|372:85,1,200,2|8,0:0|0:0,0:0:0:0:
212,33,63628,2,0,L|415:30,1,200,2|0,0:0|0:0,0:0:0:0:
171,149,64107,2,0,L|72:147,1,100,8|0,0:0|0:0,0:0:0:0:
312,248,64426,6,0,L|411:246,1,100,4|0,0:0|0:0,0:0:0:0:
252,183,64745,2,0,L|250:84,1,100,10|0,0:0|0:0,0:0:0:0:
351,44,65065,1,2,0:0:0:0:
250,52,65224,1,0,0:0:0:0:
409,112,65384,2,0,L|411:210,1,100,10|0,0:0|0:0,0:0:0:0:
170,287,65703,6,0,L|71:285,1,100,2|0,0:0|0:0,0:0:0:0:
230,209,66022,2,0,L|232:110,1,100,10|0,0:0|0:0,0:0:0:0:
132,172,66341,2,0,L|130:73,1,100,2|0,0:0|0:0,0:0:0:0:
290,32,66660,2,0,L|389:30,1,100,10|0,0:0|0:0,0:0:0:0:
149,153,66979,6,0,L|50:151,2,100,10|0|0,0:0|0:0|0:0,0:0:0:0:
370,303,67458,1,10,0:0:0:0:
250,291,67618,2,0,L|248:192,1,100
469,123,67937,1,10,0:0:0:0:
248,102,68097,6,0,P|194:104|161:228,1,200,14|8,0:0|0:0,0:0:0:0:
398,338,68575,2,0,L|299:336,1,100,8|8,0:0|0:0,0:0:0:0:
57,316,68894,6,0,L|43:216,2,100,10|2|2,0:0|0:0|0:0,0:0:0:0:
332,332,69413,6,0,P|395:269|329:208,1,200,6|0,0:0|0:0,0:0:0:0:
111,206,69891,1,10,0:0:0:0:
211,197,70051,2,0,L|213:98,1,100,2|0,0:0|0:0,0:0:0:0:
53,152,70370,2,0,L|51:53,1,100,2|8,0:0|0:0,0:0:0:0:
151,36,70689,1,0,0:0:0:0:
391,16,70849,6,0,P|457:76|393:139,1,200,2|8,0:0|0:0,0:0:0:0:
172,137,71328,2,0,P|106:198|170:261,1,200,2|2,0:0|0:0,0:0:0:0:
331,261,71807,2,0,L|430:259,1,100,10|0,0:0|0:0,0:0:0:0:
189,334,72127,6,0,P|125:271|191:210,1,200,2|8,0:0|0:0,0:0:0:0:
411,112,72606,2,0,L|210:107,1,200,2|2,0:0|0:0,0:0:0:0:
311,195,73085,1,8,0:0:0:0:
90,336,73245,6,0,P|26:273|92:211,1,200,2|2,0:0|0:0,0:0:0:0:
192,212,73724,1,10,0:0:0:0:
411,212,73883,1,2,0:0:0:0:
416,93,74203,1,2,0:0:0:0:
316,85,74363,1,10,0:0:0:0:
416,93,74522,1,2,0:0:0:0:
176,355,74682,6,0,L|174:256,1,100,6|0,0:0|0:0,0:0:0:0:
274,231,75001,1,10,0:0:0:0:
494,207,75161,2,0,L|496:108,1,100,6|0,0:0|0:0,0:0:0:0:
376,25,75480,1,2,0:0:0:0:
425,23,75560,1,2,0:0:0:0:
475,22,75639,1,8,0:0:0:0:
233,254,75800,6,0,P|219:214|319:120,1,200,6|2,0:0|0:0,0:0:0:0:
418,122,76279,1,10,0:0:0:0:
178,354,76439,2,0,L|173:153,1,200,6|0,0:0|0:0,0:0:0:0:
333,254,76918,2,0,L|335:155,1,100,10|2,0:0|0:0,0:0:0:0:
95,90,77237,6,0,P|30:152|94:215,1,200,6|8,0:0|0:0,0:0:0:0:
315,217,77716,1,10,0:0:0:0:
215,209,77876,2,0,L|213:110,1,100,10|8,0:0|0:0,0:0:0:0:
373,144,78195,2,0,L|375:45,1,100,8|8,0:0|0:0,0:0:0:0:
153,25,78515,5,8,0:0:0:0:
253,19,78675,1,8,0:0:0:0:
472,87,78834,1,8,0:0:0:0:
372,81,78994,1,2,0:0:0:0:
472,167,79154,2,0,L|486:267,2,100,2|2|2,0:0|0:0|0:0,0:0:0:0:
232,241,79633,6,0,L|433:235,1,200,6|0,0:0|0:0,0:0:0:0:
211,152,80112,1,10,0:0:0:0:
311,142,80272,2,0,L|313:43,1,100,2|0,0:0|0:0,0:0:0:0:
153,18,80591,2,0,L|143:69,2,50,2|2|8,0:0|0:0|0:0,0:0:0:0:
273,8,80910,1,0,0:0:0:0:
32,259,81070,6,0,P|32:165|118:125,1,200,2|8,0:0|0:0,0:0:0:0:
339,126,81549,2,0,P|404:188|340:251,1,200,2|2,0:0|0:0,0:0:0:0:
180,246,82028,2,0,L|178:147,1,100,10|0,0:0|0:0,0:0:0:0:
421,92,82348,6,0,P|486:154|422:217,1,200,2|8,0:0|0:0,0:0:0:0:
202,97,82827,2,0,L|401:92,1,200,2|2,0:0|0:0,0:0:0:0:
301,9,83306,1,8,0:0:0:0:
60,36,83466,6,0,L|58:135,1,100,2|0,0:0|0:0,0:0:0:0:
158,206,83785,1,2,0:0:0:0:
58,213,83945,1,10,0:0:0:0:
297,279,84104,1,2,0:0:0:0:
297,279,84424,1,2,0:0:0:0:
197,271,84584,1,10,0:0:0:0:
297,279,84743,1,2,0:0:0:0:
57,259,84903,6,0,P|56:164|142:124,1,200,6|10,0:0|0:0,0:0:0:0:
363,132,85382,2,0,L|365:231,1,100,6|0,0:0|0:0,0:0:0:0:
245,264,85701,2,0,L|235:315,2,50,2|2|8,0:0|0:0|0:0,0:0:0:0:
487,258,86021,6,0,P|487:163|401:123,1,200,6|2,0:0|0:0,0:0:0:0:
301,126,86500,1,10,0:0:0:0:
61,344,86660,2,0,L|56:143,1,200,6|0,0:0|0:0,0:0:0:0:
216,251,87139,2,0,L|218:152,1,100,10|2,0:0|0:0,0:0:0:0:
458,57,87458,6,0,L|259:52,1,200,6|8,0:0|0:0,0:0:0:0:
358,135,87937,1,2,0:0:0:0:
138,312,88097,2,0,L|136:213,1,100,2|0,0:0|0:0,0:0:0:0:
236,147,88416,1,8,0:0:0:0:
136,143,88576,1,2,0:0:0:0:
376,320,88736,6,0,L|378:221,1,100,6|0,0:0|0:0,0:0:0:0:
258,293,89055,2,0,L|256:194,1,100,14|0,0:0|0:0,0:0:0:0:
135,157,89375,1,6,0:0:0:0:
254,114,89534,2,0,L|303:111,1,50,0|0,3:2|3:2,0:0:0:0:
111,66,89694,1,10,0:2:0:0:
89,120,89773,1,8,0:2:0:0:
113,173,89853,1,8,0:2:0:0:
168,192,89933,1,8,0:2:0:0:
359,196,90013,6,0,P|424:258|360:321,1,200,14|8,0:0|0:0,0:0:0:0:
260,319,90492,1,0,0:0:0:0:
100,245,90652,2,0,L|201:241,2,100,0|0|8,0:0|0:0|0:0,0:0:0:0:
340,360,91131,6,0,L|345:161,1,200,4|0,0:0|0:0,0:0:0:0:
245,131,91610,1,8,0:0:0:0:
25,270,91770,2,0,L|20:71,1,200,4|0,0:0|0:0,0:0:0:0:
240,33,92249,2,0,L|339:37,1,100,10|0,0:0|0:0,0:0:0:0:
98,293,92569,6,0,P|98:199|184:159,1,200,6|8,0:0|0:0,0:0:0:0:
345,163,93048,2,0,L|349:262,1,100,2|0,0:0|0:0,0:0:0:0:
228,345,93367,1,2,0:0:0:0:
277,342,93447,1,2,0:0:0:0:
327,340,93526,1,8,0:0:0:0:
87,296,93686,6,0,P|23:232|88:170,1,200,6|0,0:0|0:0,0:0:0:0:
310,163,94166,2,0,L|314:64,1,100,10|0,0:0|0:0,0:0:0:0:
214,67,94485,1,2,0:0:0:0:
314,63,94645,1,0,0:0:0:0:
95,171,94804,2,0,L|194:167,1,100,10|10,0:0|0:0,0:0:0:0:
437,311,95124,6,0,L|441:212,1,100,6|8,3:2|3:0,0:0:0:0:
201,65,95443,2,0,P|165:75|200:189,1,200,8|0,0:0|0:0,0:0:0:0:
305,274,95922,1,0,0:0:0:0:
204,285,96081,1,8,0:0:0:0:
365,338,96242,5,8,3:0:0:0:
368,196,96561,1,8,3:0:0:0:
148,185,96721,2,0,P|82:123|147:61,1,200,8|0,0:0|0:0,0:0:0:0:
248,72,97200,1,0,0:0:0:0:
147,61,97359,1,8,0:0:0:0:
367,240,97519,1,0,0:0:0:0:
267,227,97679,6,0,L|263:126,1,100,8|8,3:0|3:0,0:0:0:0:
483,274,97998,1,8,0:0:0:0:
487,74,98318,1,0,0:0:0:0:
383,68,98478,1,0,0:0:0:0:
487,74,98637,1,8,0:0:0:0:
247,286,98797,6,0,P|181:224|246:162,1,200,8|0,3:0|0:0,0:0:0:0:
364,159,99276,2,0,L|368:60,1,100,8|0,0:0|0:0,0:0:0:0:
248,213,99595,2,0,L|245:114,1,100,8|8,3:0|3:0,0:0:0:0:
467,313,99915,1,8,0:0:0:0:
471,198,100234,6,0,L|372:194,1,100,8|8,3:0|3:0,0:0:0:0:
149,181,100554,2,0,P|83:119|148:57,1,200,8|0,0:0|0:0,0:0:0:0:
266,56,101033,2,0,L|270:155,1,100,0|8,0:0|0:0,0:0:0:0:
110,178,101352,5,8,3:0:0:0:
106,281,101672,1,8,3:0:0:0:
325,293,101831,2,0,P|391:231|326:169,1,200,8|0,0:0|0:0,0:0:0:0:
228,89,102310,1,0,0:0:0:0:
328,83,102470,1,8,0:0:0:0:
108,294,102630,6,0,L|104:195,1,100,8|0,3:0|0:0,0:0:0:0:
204,174,102949,1,0,0:0:0:0:
444,295,103109,2,0,L|449:96,1,200,8|4,0:0|0:0,0:0:0:0:
347,104,103588,1,0,0:0:0:0:
449,95,103748,1,8,0:0:0:0:
210,321,103907,6,0,P|196:281|296:187,1,200,4|0,0:0|0:0,0:0:0:0:
395,189,104386,1,8,0:0:0:0:
155,33,104546,2,0,P|91:96|157:157,1,200,4|0,0:0|0:0,0:0:0:0:
378,157,105025,2,0,L|477:153,1,100,8|0,0:0|0:0,0:0:0:0:
236,314,105345,5,6,0:0:0:0:
232,186,105664,1,10,0:0:0:0:
452,235,105824,2,0,L|456:136,1,100,2|0,0:0|0:0,0:0:0:0:
386,102,106063,2,0,L|371:154,2,50,0|2|0,0:0|0:2|0:0,0:0:0:0:
457,79,106303,1,0,0:0:0:0:
217,58,106463,5,6,0:0:0:0:
256,192,106622,12,0,113010,0:0:0:0:
