osu file format v14

[General]
AudioFilename: audio.mp3
AudioLeadIn: 0
PreviewTime: 68735
Countdown: 0
SampleSet: Soft
StackLeniency: 0.7
Mode: 2
LetterboxInBreaks: 0
WidescreenStoryboard: 1

[Editor]
Bookmarks: 597,18469,28682,49107,69413,90013,106463
DistanceSpacing: 1
BeatDivisor: 2
GridSize: 4
TimelineZoom: 1

[Metadata]
Title:Inevitable Struggle -demo version-
TitleUnicode:Inevitable Struggle -demo version-
Artist:Falcom Sound Team jdk
ArtistUnicode:Falcom Sound Team jdk
Creator:Nelly
Version:Cup
Source:英雄伝説 零の軌跡
Tags:J.D.K. 碧の軌跡 legend of heroes zero ao no kiseki trails of to azure blue rpg game boss theme Video Game Rock Instrumental Super Arrange Bonus Track
BeatmapID:3349366
BeatmapSetID:1639983

[Difficulty]
HPDrainRate:3
CircleSize:2.5
OverallDifficulty:6
ApproachRate:6
SliderMultiplier:1.2
SliderTickRate:1

[Events]
//Background and Video events
0,0,"bg.jpg",0,0
//Break Periods
//Storyboard Layer 0 (Background)
//Storyboard Layer 1 (Fail)
//Storyboard Layer 2 (Pass)
//Storyboard Layer 3 (Foreground)
//Storyboard Layer 4 (Overlay)
//Storyboard Sound Samples

[TimingPoints]
597,319.148936170213,4,2,1,40,1,0
3150,-111.111111111111,4,2,1,40,0,0
4107,-100,4,2,1,40,0,0
4426,-111.111111111111,4,2,1,40,0,0
5703,-100,4,2,1,40,0,0
13362,-111.111111111111,4,2,1,40,0,0
14320,-100,4,2,1,40,0,0
14639,-111.111111111111,4,2,1,40,0,0
15916,-100,4,2,1,40,0,0
18469,-100,4,2,1,55,0,1
18549,-100,4,2,1,55,0,0
28682,-100,4,2,1,55,0,1
28761,-100,4,2,1,55,0,0
33788,-100,4,2,1,65,0,0
38894,-100,4,2,1,55,0,1
38974,-100,4,2,1,55,0,0
44001,-100,4,2,1,65,0,0
49107,-100,4,2,1,65,0,1
49187,-100,4,2,1,65,0,0
54214,-100,4,2,1,65,0,1
54293,-100,4,2,1,65,0,0
59320,-100,4,2,1,65,0,1
59400,-100,4,2,1,65,0,0
64426,-100,4,2,1,65,0,1
64506,-100,4,2,1,65,0,0
66979,-100,4,2,1,70,0,0
68894,-100,4,2,1,75,0,0
69413,319.403779611392,4,2,1,75,1,1
69572,319.403779611392,4,2,1,75,1,1
78834,-100,4,2,1,75,0,0
79633,-100,4,2,1,75,0,1
89534,-100,4,1,2,75,0,1
89694,-100,4,2,1,75,0,1
90013,-100,4,2,1,75,0,0
92569,-100,4,2,1,75,0,1
95124,-100,4,2,1,55,0,0
105345,-100,4,2,1,75,0,1
105984,-100,4,1,2,75,0,1
106303,-100,4,1,2,75,0,0
106463,-100,4,2,1,75,0,1
106542,-100,4,2,1,75,0,0

[Colours]
Combo1 : 69,118,218
Combo2 : 151,183,249

[HitObjects]
135,318,597,6,0,L|130:198,1,120,6|2,0:0|0:0,0:0:0:0:
214,264,1075,2,0,L|220:84,1,180,2|2,0:0|0:0,0:0:0:0:
364,59,1873,6,0,L|369:179,1,120,2|2,0:0|0:0,0:0:0:0:
225,132,2511,2,0,L|220:252,1,120,2|2,0:0|0:0,0:0:0:0:
364,344,3150,6,0,P|404:335|364:139,1,323.999990112305,2|2,0:0|0:0,0:0:0:0:
214,284,4426,6,0,P|190:253|313:53,1,323.999990112305,2|0,0:0|0:0,0:0:0:0:
456,49,5703,6,0,L|461:169,1,120,2|2,0:0|0:0,0:0:0:0:
376,127,6182,2,0,L|370:307,1,180,2|2,0:0|0:0,0:0:0:0:
226,350,6979,6,0,L|221:230,1,120,2|2,0:0|0:0,0:0:0:0:
77,327,7618,2,0,L|72:207,1,120,2|2,0:0|0:0,0:0:0:0:
216,124,8256,6,0,P|311:220|216:316,1,300,2|2,0:0|0:0,0:0:0:0:
144,316,9214,1,2,0:0:0:0:
141,244,9373,1,2,0:0:0:0:
380,134,10011,1,0,0:0:0:0:
236,169,10331,1,0,0:0:0:0:
233,241,10490,1,0,0:0:0:0:
377,351,10809,6,0,L|381:230,1,120,6|2,0:0|0:0,0:0:0:0:
297,272,11288,2,0,L|290:92,1,180,2|2,0:0|0:0,0:0:0:0:
147,181,12086,6,0,L|142:60,1,120,2|2,0:0|0:0,0:0:0:0:
286,274,12724,2,0,L|290:153,1,120,2|2,0:0|0:0,0:0:0:0:
147,139,13362,6,0,P|40:238|140:343,1,323.999990112305,2|2,0:0|0:0,0:0:0:0:
284,339,14639,6,0,P|296:310|141:114,1,323.999990112305,2|2,0:0|0:0,0:0:0:0:
69,113,15756,1,2,0:0:0:0:
141,113,15916,5,2,0:0:0:0:
380,112,16554,2,0,L|387:292,1,180,2|2,0:0|0:0,0:0:0:0:
207,329,17511,2,0,L|83:318,2,120,2|2|2,0:0|0:0|0:0,0:0:0:0:
351,343,18469,6,0,L|413:340,2,60,6|8|8,3:2|3:0|0:0,0:0:0:0:
207,320,19107,2,0,L|203:199,1,120,0|8,0:0|0:0,0:0:0:0:
275,191,19586,1,8,3:0:0:0:
419,95,19905,5,8,3:0:0:0:
347,92,20065,1,8,0:0:0:0:
203,92,20384,1,0,0:0:0:0:
131,94,20543,2,0,L|111:151,2,60,2|10|2,0:0|0:0|0:0,0:0:0:0:
203,92,21022,6,0,L|262:89,2,60,8|8|8,3:0|3:0|0:0,0:0:0:0:
347,202,21660,2,0,L|406:204,2,60,0|0|8,0:0|0:0|0:0,0:0:0:0:
275,214,22139,6,0,L|271:335,1,120,8|0,3:0|0:0,0:0:0:0:
343,343,22618,1,8,0:0:0:0:
199,349,22937,2,0,L|139:346,2,60,0|0|8,0:0|0:0|0:0,0:0:0:0:
343,237,23575,6,0,L|403:234,2,60,8|8|8,3:0|3:0|0:0,0:0:0:0:
199,349,24214,2,0,L|139:346,2,60,0|0|8,0:0|0:0|0:0,0:0:0:0:
271,344,24692,6,0,L|275:223,1,120,8|8,3:0|3:0,0:0:0:0:
203,215,25171,1,8,0:0:0:0:
59,208,25490,2,0,L|39:265,2,60,0|0|8,0:0|0:0|0:0,0:0:0:0:
203,187,26128,6,0,L|263:184,2,60,8|8|8,3:0|3:0|0:0,0:0:0:0:
347,76,26767,2,0,L|407:79,2,60,0|0|8,0:0|0:0|0:0,0:0:0:0:
275,87,27245,6,0,L|270:208,1,120,4|0,0:0|0:0,0:0:0:0:
343,218,27724,1,8,0:0:0:0:
415,229,27884,2,0,L|419:350,1,120,4|0,0:0|0:0,0:0:0:0:
348,358,28362,1,8,0:0:0:0:
204,297,28682,6,0,L|183:354,2,60,6|2|10,0:0|0:0|0:0,0:0:0:0:
275,290,29160,1,2,0:0:0:0:
419,173,29479,1,0,0:0:0:0:
347,170,29639,1,10,0:0:0:0:
203,163,29958,6,0,L|199:43,1,120,2|10,0:0|0:0,0:0:0:0:
343,26,30597,2,0,L|223:22,1,120,2|10,0:0|0:0,0:0:0:0:
79,38,31235,6,0,L|75:159,1,120,2|8,0:0|0:0,0:0:0:0:
146,167,31714,1,0,0:0:0:0:
290,181,32033,1,0,0:0:0:0:
362,178,32192,1,10,0:0:0:0:
218,275,32511,6,0,L|158:272,2,60,2|0|8,0:0|0:0|0:0,0:0:0:0:
290,276,32990,2,0,L|293:156,1,120,2|0,0:0|0:0,0:0:0:0:
222,142,33469,1,8,0:0:0:0:
366,60,33788,6,0,L|485:56,1,120,6|8,0:0|0:0,0:0:0:0:
414,152,34267,2,0,L|294:148,1,120,2|2,0:0|0:0,0:0:0:0:
150,255,34905,6,0,L|269:251,1,120,6|0,0:0|0:0,0:0:0:0:
198,164,35384,2,0,L|78:160,2,120,10|2|10,0:0|0:0|0:0,0:0:0:0:
342,173,36341,6,0,L|345:292,1,120,6|8,0:0|0:0,0:0:0:0:
274,311,36820,2,0,L|154:307,1,120,2|2,0:0|0:0,0:0:0:0:
298,212,37458,6,0,L|418:209,1,120,6|0,0:0|0:0,0:0:0:0:
346,169,37937,1,10,0:0:0:0:
202,161,38256,2,0,L|199:281,1,120,2|10,0:0|0:0,0:0:0:0:
343,297,38894,6,0,L|364:354,2,60,6|2|10,0:0|0:0|0:0,0:0:0:0:
272,290,39373,1,2,0:0:0:0:
128,173,39692,1,0,0:0:0:0:
200,170,39852,1,10,0:0:0:0:
344,163,40171,6,0,L|348:43,1,120,2|10,0:0|0:0,0:0:0:0:
204,26,40809,2,0,L|324:22,1,120,2|10,0:0|0:0,0:0:0:0:
468,38,41448,6,0,L|472:159,1,120,2|8,0:0|0:0,0:0:0:0:
401,167,41926,1,0,0:0:0:0:
257,181,42245,1,0,0:0:0:0:
185,178,42405,1,10,0:0:0:0:
329,275,42724,6,0,L|389:272,2,60,2|0|8,0:0|0:0|0:0,0:0:0:0:
257,276,43203,2,0,L|254:156,1,120,2|0,0:0|0:0,0:0:0:0:
325,142,43682,1,8,0:0:0:0:
181,60,44001,6,0,L|62:56,1,120,6|8,0:0|0:0,0:0:0:0:
133,152,44479,2,0,L|253:148,1,120,2|2,0:0|0:0,0:0:0:0:
397,255,45118,6,0,L|278:251,1,120,6|0,0:0|0:0,0:0:0:0:
349,164,45597,2,0,L|469:160,2,120,10|2|10,0:0|0:0|0:0,0:0:0:0:
205,173,46554,6,0,L|202:292,1,120,6|8,0:0|0:0,0:0:0:0:
273,311,47033,2,0,L|393:307,1,120,2|2,0:0|0:0,0:0:0:0:
321,258,47511,1,10,0:0:0:0:
177,155,47831,6,0,L|356:148,2,180,6|4|4,0:0|0:0|0:0,0:0:0:0:
321,352,49107,6,0,L|324:232,1,120,4|10,0:0|0:0,0:0:0:0:
204,144,49745,1,2,0:0:0:0:
323,141,50065,1,10,0:0:0:0:
179,354,50384,6,0,L|176:234,1,120,2|10,0:0|0:0,0:0:0:0:
248,185,50862,2,0,L|428:180,1,180,2|8,0:0|0:0,0:0:0:0:
284,69,51660,6,0,L|263:12,2,60,2|0|8,0:0|0:0|0:0,0:0:0:0:
428,199,52299,2,0,L|308:195,1,120,2|8,0:0|0:0,0:0:0:0:
164,201,52937,6,0,L|161:321,1,120,2|8,0:0|0:0,0:0:0:0:
245,343,53416,2,0,L|248:223,1,120,2|0,0:0|0:0,0:0:0:0:
176,206,53894,1,8,0:0:0:0:
32,231,54214,6,0,L|29:111,1,120,4|10,0:0|0:0,0:0:0:0:
149,23,54852,1,2,0:0:0:0:
30,20,55171,1,10,0:0:0:0:
174,118,55490,6,0,L|294:114,1,120,2|10,0:0|0:0,0:0:0:0:
150,338,56128,2,0,L|147:218,1,120,2|10,0:0|0:0,0:0:0:0:
291,196,56767,6,0,L|312:253,2,60,2|0|8,0:0|0:0|0:0,0:0:0:0:
219,187,57245,1,2,0:0:0:0:
363,99,57565,1,0,0:0:0:0:
435,96,57724,1,10,0:0:0:0:
291,176,58043,6,0,L|288:296,1,120,2|8,0:0|0:0,0:0:0:0:
360,301,58522,1,0,0:0:0:0:
432,306,58682,2,0,L|435:186,1,120,2|8,0:0|0:0,0:0:0:0:
291,132,59320,6,0,L|171:128,1,120,4|10,0:0|0:0,0:0:0:0:
291,225,59958,1,2,0:0:0:0:
172,222,60277,1,10,0:0:0:0:
316,367,60597,6,0,L|319:247,1,120,2|10,0:0|0:0,0:0:0:0:
235,228,61075,2,0,P|177:170|236:114,1,180,2|8,0:0|0:0,0:0:0:0:
378,112,61873,6,0,L|381:232,1,120,2|8,0:0|0:0,0:0:0:0:
237,203,62511,2,0,L|234:323,1,120,2|8,0:0|0:0,0:0:0:0:
90,340,63150,6,0,L|87:220,1,120,2|8,0:0|0:0,0:0:0:0:
159,181,63628,2,0,L|339:176,1,180,2|8,0:0|0:0,0:0:0:0:
195,105,64426,6,0,L|192:224,1,120,4|10,0:0|0:0,0:0:0:0:
311,313,65065,1,2,0:0:0:0:
192,316,65384,1,10,0:0:0:0:
336,212,65703,6,0,L|456:216,2,120,2|10|2,0:0|0:0|0:0,0:0:0:0:
192,205,66660,1,10,0:0:0:0:
336,72,66979,6,0,L|339:191,1,120,10|0,0:0|0:0,0:0:0:0:
255,125,67458,2,0,L|252:244,1,120,10|0,0:0|0:0,0:0:0:0:
336,284,67937,1,10,0:0:0:0:
408,281,68097,1,14,0:0:0:0:
264,198,68416,5,8,0:0:0:0:
192,190,68575,2,0,L|171:132,2,60,8|8|10,0:0|0:0|0:0,0:0:0:0:
426,212,69413,6,0,L|429:331,1,120,6|0,0:0|0:0,0:0:0:0:
357,353,69891,1,10,0:0:0:0:
285,350,70051,1,2,0:0:0:0:
141,337,70370,2,0,L|138:218,1,120,2|0,0:0|0:0,0:0:0:0:
223,283,70849,6,0,L|226:164,1,120,2|8,0:0|0:0,0:0:0:0:
141,121,71328,2,0,P|84:179|138:237,1,120,2|2,0:0|0:0,0:0:0:0:
141,235,71807,1,10,0:0:0:0:
287,236,72127,6,0,L|290:117,1,120,2|8,0:0|0:0,0:0:0:0:
218,86,72606,2,0,L|97:82,1,120,2|2,0:0|0:0,0:0:0:0:
242,184,73245,6,0,P|279:222|240:259,1,120,2|2,0:0|0:0,0:0:0:0:
169,351,73724,1,10,0:0:0:0:
240,346,73883,1,2,0:0:0:0:
384,329,74203,2,0,L|405:271,2,60,2|10|2,0:0|0:0|0:0,0:0:0:0:
312,336,74682,6,0,L|309:217,1,120,6|10,0:0|0:0,0:0:0:0:
393,276,75161,2,0,L|396:157,1,120,6|2,0:0|0:0,0:0:0:0:
252,108,75800,6,0,L|131:104,1,120,6|2,0:0|0:0,0:0:0:0:
111,160,76279,1,10,0:0:0:0:
132,217,76439,2,0,L|312:211,1,180,6|10,0:0|0:0,0:0:0:0:
168,355,77237,6,0,P|110:297|167:239,1,180,6|10,0:0|0:0,0:0:0:0:
239,239,77876,2,0,L|260:181,3,60,10|8|8|8,0:0|0:0|0:0|0:0,0:0:0:0:
344,132,78515,6,0,L|404:130,2,60,8|8|8,0:0|0:0|0:0,0:0:0:0:
75,344,79633,6,0,L|72:225,1,120,6|0,0:0|0:0,0:0:0:0:
144,216,80112,1,10,0:0:0:0:
216,208,80272,1,2,0:0:0:0:
360,192,80591,2,0,L|363:73,1,120,2|0,0:0|0:0,0:0:0:0:
279,56,81070,6,0,L|276:175,1,120,2|8,0:0|0:0,0:0:0:0:
360,192,81549,2,0,P|416:249|359:305,1,120,2|2,0:0|0:0,0:0:0:0:
359,306,82028,1,10,0:0:0:0:
215,305,82348,6,0,L|212:186,1,120,2|8,0:0|0:0,0:0:0:0:
296,244,82827,2,0,L|299:125,1,120,2|2,0:0|0:0,0:0:0:0:
155,95,83466,6,0,P|117:132|157:170,1,120,2|2,0:0|0:0,0:0:0:0:
229,179,83945,1,10,0:0:0:0:
301,184,84104,1,2,0:0:0:0:
157,289,84424,2,0,L|136:345,2,60,2|10|2,0:0|0:0|0:0,0:0:0:0:
241,307,84903,6,0,L|244:188,1,120,6|10,0:0|0:0,0:0:0:0:
160,247,85382,2,0,L|157:128,1,120,6|2,0:0|0:0,0:0:0:0:
301,70,86021,6,0,L|422:66,1,120,6|2,0:0|0:0,0:0:0:0:
442,122,86500,1,10,0:0:0:0:
421,179,86660,2,0,L|241:173,1,180,6|10,0:0|0:0,0:0:0:0:
97,339,87458,6,0,L|91:159,1,180,6|2,0:0|0:0,0:0:0:0:
175,284,88097,2,0,L|181:104,1,180,2|2,0:0|0:0,0:0:0:0:
265,63,88736,6,0,L|384:66,2,120,6|14|6,0:0|0:0|0:0,0:0:0:0:
121,62,89694,1,10,0:2:0:0:
265,161,90013,6,0,L|268:280,1,120,14|8,0:0|0:0,0:0:0:0:
124,340,90652,2,0,L|103:284,2,60,0|0|8,0:0|0:0|0:0,0:0:0:0:
208,357,91131,6,0,L|329:361,1,120,4|0,0:0|0:0,0:0:0:0:
349,305,91610,1,8,0:0:0:0:
328,248,91770,2,0,L|148:254,1,180,4|10,0:0|0:0,0:0:0:0:
292,137,92569,6,0,L|411:140,1,120,6|8,0:0|0:0,0:0:0:0:
484,44,93048,2,0,L|364:47,1,120,2|2,0:0|0:0,0:0:0:0:
220,61,93686,6,0,L|215:181,1,120,6|0,0:0|0:0,0:0:0:0:
287,190,94165,1,10,0:0:0:0:
431,301,94485,2,0,L|311:297,1,120,2|10,0:0|0:0,0:0:0:0:
167,293,95124,6,0,L|107:295,2,60,6|8|8,3:2|3:0|0:0,0:0:0:0:
311,280,95763,2,0,L|315:159,1,120,0|8,0:0|0:0,0:0:0:0:
243,151,96242,1,8,3:0:0:0:
99,52,96561,5,8,3:0:0:0:
171,49,96720,1,8,0:0:0:0:
315,57,97040,2,0,L|335:114,2,60,0|0|8,0:0|0:0|0:0,0:0:0:0:
231,43,97519,6,0,L|171:40,2,60,0|8|8,0:0|3:0|3:0,0:0:0:0:
303,46,97998,1,8,0:0:0:0:
447,141,98318,2,0,L|467:198,2,60,0|0|8,0:0|0:0|0:0,0:0:0:0:
363,125,98797,6,0,L|243:121,1,120,8|0,3:0|0:0,0:0:0:0:
171,116,99276,1,8,0:0:0:0:
315,230,99595,2,0,L|375:227,2,60,8|8|8,3:0|3:0|0:0,0:0:0:0:
171,302,100234,6,0,L|111:299,2,60,8|8|8,3:0|3:0|0:0,0:0:0:0:
315,289,100873,2,0,L|319:168,1,120,0|8,0:0|0:0,0:0:0:0:
247,160,101352,1,8,3:0:0:0:
103,147,101671,5,8,3:0:0:0:
31,150,101830,1,8,0:0:0:0:
176,44,102151,2,0,L|236:47,2,60,0|0|8,0:0|0:0|0:0,0:0:0:0:
92,53,102630,6,0,L|72:110,2,60,8|0|0,3:0|0:0|0:0,0:0:0:0:
176,44,103109,1,8,0:0:0:0:
320,43,103428,2,0,L|380:46,2,60,4|0|8,0:0|0:0|0:0,0:0:0:0:
236,57,103907,6,0,L|231:178,1,120,4|0,0:0|0:0,0:0:0:0:
304,188,104386,1,8,0:0:0:0:
376,199,104546,2,0,L|380:320,1,120,4|0,0:0|0:0,0:0:0:0:
309,328,105025,1,8,0:0:0:0:
165,337,105345,6,0,L|161:217,1,120,6|10,0:0|0:0,0:0:0:0:
246,283,105824,2,0,L|249:163,1,120,2|2,0:0|0:2,0:0:0:0:
106,122,106463,5,6,0:0:0:0:
256,192,106782,12,0,113010,0:0:0:0:
